osu file format v14

[General]
AudioFilename: audio.mp3
AudioLeadIn: 0
PreviewTime: 147835
Countdown: 1
SampleSet: Soft
StackLeniency: 0.3
Mode: 0
LetterboxInBreaks: 0
WidescreenStoryboard: 1

[Editor]
Bookmarks: 1011,12306,23600,68776,91364,102659,125247,170423,193011,215600
DistanceSpacing: 0.3
BeatDivisor: 8
GridSize: 4
TimelineZoom: 3.200001

[Metadata]
Title:First Town Of This Journey
TitleUnicode:First Town Of This Journey
Artist:Camellia
ArtistUnicode:かめりあ
Creator:ScubDomino
Version:selis' Insane
Source:
Tags:kamelcamellia kamel cametek CTCD-012 comiket 89 c89 2015 crystallized 大箭将也 masaya oya future bass chiptune 8-bit pixels milan- sing delis collab かめるかめりあ anime girl anime_girl
BeatmapID:1867616
BeatmapSetID:888513

[Difficulty]
HPDrainRate:5
CircleSize:4
OverallDifficulty:8
ApproachRate:9
SliderMultiplier:1.39999995231628
SliderTickRate:1

[Events]
//Background and Video events
0,0,"unknown.png",0,0
//Break Periods
2,12555,23050
2,91614,102579
//Storyboard Layer 0 (Background)
//Storyboard Layer 1 (Fail)
//Storyboard Layer 2 (Pass)
//Storyboard Layer 3 (Foreground)
//Storyboard Sound Samples

[TimingPoints]
1062,352.941176470588,4,1,2,60,1,0
3709,-100,4,1,2,30,0,0
3797,-100,4,1,2,45,0,0
3885,-100,4,1,2,60,0,0
6532,-100,4,1,2,30,0,0
6620,-100,4,1,2,45,0,0
6708,-100,4,1,2,60,0,0
9356,-100,4,1,2,30,0,0
9444,-100,4,1,2,45,0,0
9532,-100,4,1,2,60,0,0
12179,-100,4,1,2,30,0,0
12267,-100,4,1,2,45,0,0
12355,-100,4,2,2,60,0,0
23650,-133.333333333333,4,2,2,60,0,0
32517,-133.333333333333,4,2,2,30,0,0
32561,-133.333333333333,4,2,2,40,0,0
32606,-133.333333333333,4,2,2,50,0,0
32650,-133.333333333333,4,2,2,60,0,0
33179,-133.333333333333,4,2,2,70,0,0
34944,-100,4,2,2,70,0,0
35032,-100,4,1,2,70,0,0
40591,-100,4,1,1,70,0,0
40679,-100,4,1,2,70,0,0
40944,-100,4,1,1,70,0,0
41032,-100,4,1,2,70,0,0
41297,-100,4,1,1,70,0,0
41385,-100,4,1,2,70,0,0
41650,-100,4,1,1,70,0,0
41738,-100,4,1,2,70,0,0
42003,-100,4,1,1,70,0,0
42091,-100,4,1,2,70,0,0
42356,-100,4,1,1,70,0,0
42444,-100,4,1,2,70,0,0
42709,-100,4,1,1,70,0,0
42797,-100,4,1,2,70,0,0
43061,-100,4,1,1,70,0,0
43149,-100,4,1,2,70,0,0
43414,-100,4,2,1,70,0,0
46238,-66.6666666666667,4,2,1,80,0,0
48532,-66.6666666666667,4,2,2,60,0,0
49061,-66.6666666666667,4,2,1,60,0,0
49414,-66.6666666666667,4,2,1,80,0,0
54179,-66.6666666666667,4,2,2,80,0,0
54356,-66.6666666666667,4,2,1,80,0,0
54444,-66.6666666666667,4,2,2,80,0,0
54620,-66.6666666666667,4,2,1,80,0,0
56032,-66.6666666666667,4,2,1,70,0,0
56297,-66.6666666666667,4,2,1,56,0,0
56826,-66.6666666666667,4,2,1,60,0,0
57356,-66.6666666666667,4,2,1,70,0,0
57532,-66.6666666666667,4,2,2,60,0,0
57620,-66.6666666666667,4,2,1,80,0,0
57797,-66.6666666666667,4,2,1,56,0,0
58326,-66.6666666666667,4,2,1,60,0,0
58856,-66.6666666666667,4,2,1,70,0,0
59120,-66.6666666666667,4,2,1,80,0,0
59473,-66.6666666666667,4,2,2,60,0,0
60356,-66.6666666666667,4,2,1,80,0,0
65473,-66.6666666666667,4,2,2,80,0,0
65650,-66.6666666666667,4,2,1,80,0,0
65738,-66.6666666666667,4,2,2,80,0,0
65914,-66.6666666666667,4,2,1,80,0,0
67326,-66.6666666666667,4,2,1,70,0,0
67591,-57.1428571428571,4,2,1,56,0,0
68120,-57.1428571428571,4,2,1,60,0,0
68650,-57.1428571428571,4,2,1,70,0,0
68826,-66.6666666666667,4,2,1,80,0,0
69709,-66.6666666666667,4,2,2,60,0,0
69885,-66.6666666666667,4,2,1,80,0,0
71120,-66.6666666666667,4,2,2,60,0,0
71649,-66.6666666666667,4,2,1,60,0,0
72002,-66.6666666666667,4,2,1,80,0,0
75356,-66.6666666666667,4,2,2,60,0,0
75532,-66.6666666666667,4,2,1,80,0,0
76767,-66.6666666666667,4,2,2,60,0,0
77297,-66.6666666666667,4,2,1,60,0,0
77650,-66.6666666666667,4,2,1,80,0,0
80120,-100,4,2,1,80,0,0
80473,-133.333333333333,4,2,1,80,0,0
80826,-66.6666666666667,4,2,1,80,0,0
81003,-66.6666666666667,4,2,2,60,0,0
81179,-66.6666666666667,4,2,1,80,0,0
82414,-66.6666666666667,4,2,2,60,0,0
82943,-66.6666666666667,4,2,1,60,0,0
83296,-66.6666666666667,4,2,1,80,0,0
86650,-66.6666666666667,4,2,2,60,0,0
86826,-66.6666666666667,4,2,1,80,0,0
88061,-66.6666666666667,4,2,2,60,0,0
88591,-66.6666666666667,4,2,1,60,0,0
88944,-66.6666666666667,4,2,1,80,0,0
102709,-66.6666666666667,4,2,1,55,0,0
103179,-100,4,2,1,55,0,0
114003,-133.333333333333,4,2,1,50,0,0
125297,-133.333333333333,4,2,2,60,0,0
126356,-100,4,2,2,60,0,0
134164,-100,4,2,2,30,0,0
134208,-100,4,2,2,40,0,0
134253,-100,4,2,2,50,0,0
134297,-100,4,2,2,60,0,0
135179,-100,4,2,2,70,0,0
136591,-100,4,2,1,70,0,0
136679,-100,4,1,2,70,0,0
136944,-100,4,1,1,70,0,0
137032,-100,4,1,2,70,0,0
137297,-100,4,1,1,70,0,0
137385,-100,4,1,2,70,0,0
137650,-100,4,1,1,70,0,0
137738,-100,4,1,2,70,0,0
138003,-100,4,1,1,70,0,0
138091,-100,4,1,2,70,0,0
138356,-100,4,1,1,70,0,0
138444,-100,4,1,2,70,0,0
138709,-100,4,1,1,70,0,0
138797,-100,4,1,2,70,0,0
139061,-100,4,1,1,70,0,0
139149,-100,4,1,2,70,0,0
139414,-100,4,1,1,70,0,0
139502,-100,4,1,2,70,0,0
139767,-100,4,1,1,70,0,0
139855,-100,4,1,2,70,0,0
140120,-100,4,1,1,70,0,0
140208,-100,4,1,2,70,0,0
140473,-100,4,1,1,70,0,0
140561,-100,4,1,2,70,0,0
140826,-100,4,1,1,70,0,0
140914,-100,4,1,2,70,0,0
141179,-100,4,1,1,70,0,0
141267,-100,4,1,2,70,0,0
141532,-100,4,1,1,70,0,0
141620,-100,4,1,2,70,0,0
141885,-100,4,1,1,70,0,0
141973,-100,4,1,2,70,0,0
142238,-66.6666666666667,4,2,1,70,0,0
147863,-66.6666666666667,4,2,1,80,0,0
150157,-66.6666666666667,4,2,2,60,0,0
150686,-66.6666666666667,4,2,1,60,0,0
150709,-57.1428571428571,4,2,1,60,0,0
151039,-57.1428571428571,4,2,1,80,0,0
151061,-66.6666666666667,4,2,1,80,0,0
155804,-66.6666666666667,4,2,2,80,0,0
155981,-66.6666666666667,4,2,1,80,0,0
156069,-66.6666666666667,4,2,2,80,0,0
156245,-66.6666666666667,4,2,1,80,0,0
156356,-100,4,2,1,80,0,0
156709,-66.6666666666667,4,2,1,80,0,0
157657,-66.6666666666667,4,2,1,70,0,0
157922,-66.6666666666667,4,2,1,56,0,0
158451,-66.6666666666667,4,2,1,60,0,0
158981,-66.6666666666667,4,2,1,70,0,0
159157,-66.6666666666667,4,2,2,60,0,0
159245,-66.6666666666667,4,2,1,80,0,0
159422,-66.6666666666667,4,2,1,56,0,0
159951,-66.6666666666667,4,2,1,60,0,0
160481,-66.6666666666667,4,2,1,70,0,0
160745,-66.6666666666667,4,2,1,80,0,0
161098,-66.6666666666667,4,2,2,60,0,0
161981,-66.6666666666667,4,2,1,80,0,0
167098,-66.6666666666667,4,2,2,80,0,0
167275,-66.6666666666667,4,2,1,80,0,0
167363,-66.6666666666667,4,2,2,80,0,0
167539,-66.6666666666667,4,2,1,80,0,0
168951,-66.6666666666667,4,2,1,70,0,0
169061,-57.1428571428571,4,2,1,70,0,0
169216,-57.1428571428571,4,2,1,56,0,0
169745,-57.1428571428571,4,2,1,60,0,0
170275,-57.1428571428571,4,2,1,70,0,0
170451,-57.1428571428571,4,2,1,80,0,0
170473,-66.6666666666667,4,2,1,80,0,0
171334,-66.6666666666667,4,2,2,60,0,0
171510,-66.6666666666667,4,2,1,80,0,0
172745,-66.6666666666667,4,2,2,60,0,0
173274,-66.6666666666667,4,2,1,60,0,0
173627,-66.6666666666667,4,2,1,80,0,0
176981,-66.6666666666667,4,2,2,60,0,0
177157,-66.6666666666667,4,2,1,80,0,0
178392,-66.6666666666667,4,2,2,60,0,0
178922,-66.6666666666667,4,2,1,60,0,0
179275,-66.6666666666667,4,2,1,80,0,0
181767,-100,4,2,1,80,0,0
182120,-133.333333333333,4,2,1,80,0,0
182473,-66.6666666666667,4,2,1,80,0,0
182628,-66.6666666666667,4,2,2,60,0,0
182804,-66.6666666666667,4,2,1,80,0,0
184039,-66.6666666666667,4,2,2,60,0,0
184568,-66.6666666666667,4,2,1,60,0,0
184921,-66.6666666666667,4,2,1,80,0,0
188275,-66.6666666666667,4,2,2,60,0,0
188451,-66.6666666666667,4,2,1,80,0,0
188473,-57.1428571428571,4,2,1,80,0,0
189686,-57.1428571428571,4,2,2,60,0,0
190216,-57.1428571428571,4,2,1,60,0,0
190569,-57.1428571428571,4,2,1,80,0,0
193061,-100,4,2,1,80,0,0
204356,-100,4,1,2,70,0,0
205061,-100,4,1,2,60,0,0
207003,-100,4,1,2,30,0,0
207091,-100,4,1,2,45,0,0
207179,-100,4,1,2,60,0,0
209826,-100,4,1,2,30,0,0
209914,-100,4,1,2,45,0,0
210002,-100,4,1,2,60,0,0
212650,-100,4,1,2,30,0,0
212738,-100,4,1,2,45,0,0
212826,-100,4,1,2,60,0,0
215120,-100,4,1,2,65,0,0
215297,-100,4,1,2,70,0,0
215473,-100,4,1,2,75,0,0
215650,-100,4,1,2,80,0,0

[Colours]
Combo1 : 239,232,143
Combo2 : 128,165,221
Combo3 : 171,207,118
Combo4 : 216,223,210

[HitObjects]
437,40,1061,6,0,P|452:72|478:96,2,69.999997615814,2|2|2,1:2|1:2|1:2,0:0:0:0:
380,136,1591,1,2,1:2:0:0:
380,136,1767,2,0,P|364:105|361:71,1,69.999997615814,2|0,1:2|0:0,0:0:0:0:
364,267,2120,6,0,P|378:235|404:211,2,69.999997615814,2|0|0,1:2|0:0|0:0,0:0:0:0:
306,171,2650,1,2,1:2:0:0:
306,171,2826,2,0,P|289:201|286:236,1,69.999997615814,2|0,1:2|0:0,0:0:0:0:
202,233,3179,2,0,P|193:199|198:165,1,69.999997615814,2|0,1:2|0:0,0:0:0:0:
123,120,3532,6,0,P|72:120|22:158,1,104.999996423721,0|2,0:0|1:2,0:0:0:0:
28,149,3885,6,0,L|40:226,2,69.999997615814,2|0|0,1:2|0:0|0:0,0:0:0:0:
107,264,4414,1,2,1:2:0:0:
107,264,4591,2,0,L|121:196,1,69.999997615814,2|0,1:2|0:0,0:0:0:0:
294,185,4944,6,0,L|282:261,2,69.999997615814,2|0|0,1:2|0:0|0:0,0:0:0:0:
216,301,5473,1,2,1:2:0:0:
216,301,5650,2,0,L|202:232,1,69.999997615814,2|0,1:2|0:0,0:0:0:0:
79,356,6003,6,0,P|124:338|163:340,1,69.999997615814,2|0,1:2|0:0,0:0:0:0:
357,354,6356,2,0,P|322:350|290:335,1,69.999997615814,0|2,0:0|1:2,0:0:0:0:
202,232,6709,6,0,L|287:218,1,69.999997615814,2|0,1:2|0:0,0:0:0:0:
340,266,7061,1,0,0:0:0:0:
360,137,7238,1,2,1:2:0:0:
497,170,7414,2,0,L|428:182,1,69.999997615814,2|0,1:2|0:0,0:0:0:0:
251,2,7767,6,0,P|239:56|222:85,2,69.999997615814,2|0|0,1:2|0:0|0:0,0:0:0:0:
360,137,8297,2,0,P|318:99|302:70,1,69.999997615814,2|2,1:2|1:2,0:0:0:0:
395,59,8650,1,0,0:0:0:0:
187,164,8826,2,0,P|240:146|273:146,1,69.999997615814,2|0,1:2|0:0,0:0:0:0:
385,273,9179,6,0,P|358:234|294:205,1,104.999996423721,0|2,0:0|1:2,0:0:0:0:
308,207,9532,6,0,L|298:284,1,69.999997615814,2|0,1:2|0:0,0:0:0:0:
396,169,9885,1,0,0:0:0:0:
224,329,10061,2,0,L|213:252,1,69.999997615814,2|2,1:2|1:2,0:0:0:0:
315,361,10414,1,0,0:0:0:0:
147,221,10591,6,0,P|111:258|94:300,2,69.999997615814,2|0|0,1:2|0:0|0:0,0:0:0:0:
211,176,11121,1,2,1:2:0:0:
180,34,11297,2,0,P|196:64|204:98,1,69.999997615814,2|0,1:2|0:0,0:0:0:0:
349,221,11650,2,0,P|314:219|280:209,1,69.999997615814,2|0,1:2|0:0,0:0:0:0:
204,98,12003,6,0,B|294:76|247:132|358:102,1,139.999995231628,0|2,0:0|1:2,0:0:0:0:
432,306,23650,6,0,B|344:278|377:341|273:307,1,157.50000064373,0|0,1:0|1:0,0:0:0:0:
198,346,24356,2,0,P|206:291|202:228,1,105.000000429153,2|0,1:2|0:0,0:0:0:0:
332,161,24885,1,0,1:0:0:0:
332,161,24973,1,0,1:0:0:0:
332,161,25061,2,0,P|323:210|323:257,2,78.7500003218648,0|0|0,1:0|1:0|1:0,0:0:0:0:
409,287,25767,2,0,P|418:238|418:191,1,78.7500003218648,2|2,1:2|1:2,0:0:0:0:
418,209,26120,1,0,0:0:0:0:
250,163,26297,1,2,1:2:0:0:
51,238,26473,6,0,B|138:210|105:273|209:239,1,157.50000064373,0|0,1:0|1:0,0:0:0:0:
285,278,27179,2,0,P|277:223|281:160,1,105.000000429153,2|0,1:2|0:0,0:0:0:0:
151,93,27708,1,0,1:0:0:0:
151,93,27796,1,0,1:0:0:0:
151,93,27885,2,0,P|160:142|160:189,2,78.7500003218648,0|0|0,1:0|1:0|1:0,0:0:0:0:
74,219,28591,2,0,P|65:170|65:123,1,78.7500003218648,2|2,1:2|1:2,0:0:0:0:
64,141,28943,1,0,0:0:0:0:
233,95,29120,1,2,1:2:0:0:
285,278,29297,6,0,P|259:228|156:208,1,157.50000064373,0|0,1:0|1:0,0:0:0:0:
10,295,30003,2,0,P|52:288|95:243,1,105.000000429153,2|0,1:2|0:0,0:0:0:0:
76,87,30532,1,0,1:0:0:0:
76,87,30620,1,0,1:0:0:0:
76,87,30709,2,0,P|80:130|118:173,2,78.7500003218648,0|0|0,1:0|1:0|1:0,0:0:0:0:
166,204,31414,5,2,1:2:0:0:
272,159,31591,1,0,0:0:0:0:
272,159,31679,1,2,1:2:0:0:
272,159,31767,1,0,0:0:0:0:
305,48,31944,1,2,1:2:0:0:
446,2,32120,6,0,P|433:38|439:77,1,78.7500003218648,0|0,1:0|0:0,0:0:0:0:
439,77,32473,2,0,L|453:111,2,26.2500001072883,0|0|0,2:0|2:0|2:0,0:0:0:0:
305,48,32826,2,0,P|317:89|376:125,1,105.000000429153,0|0,0:0|1:0,0:0:0:0:
492,223,33356,5,0,0:0:0:0:
492,223,33444,1,0,0:0:0:0:
492,223,33532,2,0,P|466:193|429:179,1,78.7500003218648,0|0,1:0|0:0,0:0:0:0:
429,179,33885,1,0,1:0:0:0:
435,308,34061,2,0,P|429:271|408:244,1,52.5000002145766,0|0,0:0|1:0,0:0:0:0:
285,278,34414,5,0,1:0:0:0:
285,278,34503,1,0,0:0:0:0:
285,278,34591,1,0,1:0:0:0:
366,123,34767,1,0,1:0:0:0:
281,192,34944,6,0,L|273:143,5,34.999998807907,2|0|0|0|0|0,1:2|0:0|0:0|0:0|0:0|0:0,0:0:0:0:
205,204,35473,2,0,L|197:155,1,34.999998807907,2|0,1:2|0:0,0:0:0:0:
234,58,35650,6,0,L|226:107,3,34.999998807907,2|0|0|0,1:2|0:0|0:0|0:0,0:0:0:0:
158,46,36003,2,0,L|150:95,5,34.999998807907,2|0|0|0|0|0,1:2|0:0|0:0|0:0|0:0|0:0,0:0:0:0:
82,34,36532,2,0,L|74:83,1,34.999998807907,2|0,1:2|0:0,0:0:0:0:
109,181,36709,6,0,L|101:132,3,34.999998807907,2|0|0|0,1:2|0:0|0:0|0:0,0:0:0:0:
33,193,37061,2,0,L|25:144,7,34.999998807907,2|0|0|0|0|0|2|2,1:2|0:0|0:0|0:0|0:0|0:0|1:2|1:2,0:0:0:0:
152,303,37767,6,0,L|160:254,5,34.999998807907,2|0|0|0|0|0,1:2|0:0|0:0|0:0|0:0|0:0,0:0:0:0:
228,315,38296,2,0,L|236:266,1,34.999998807907,2|0,1:2|0:0,0:0:0:0:
199,169,38473,6,0,L|207:218,3,34.999998807907,2|0|0|0,1:2|0:0|0:0|0:0,0:0:0:0:
275,157,38826,2,0,L|283:206,5,34.999998807907,2|0|0|0|0|0,1:2|0:0|0:0|0:0|0:0|0:0,0:0:0:0:
351,145,39355,2,0,L|359:194,1,34.999998807907,2|0,1:2|0:0,0:0:0:0:
324,292,39532,6,0,L|332:243,3,34.999998807907,2|0|0|0,1:2|0:0|0:0|0:0,0:0:0:0:
400,304,39885,2,0,L|408:255,3,34.999998807907,2|0|0|0,1:2|0:0|0:0|0:0,0:0:0:0:
476,316,40238,2,0,L|484:267,3,34.999998807907,0|0|2|2,0:0|0:0|1:2|1:2,0:0:0:0:
491,127,40591,6,0,P|450:135|420:173,1,69.999997615814,2|0,3:2|0:0,0:0:0:0:
481,281,40944,2,0,P|459:246|414:228,1,69.999997615814,2|0,3:2|0:0,0:0:0:0:
248,188,41297,6,0,P|285:202|331:190,1,69.999997615814,2|0,3:2|0:0,0:0:0:0:
346,70,41650,2,0,P|342:109|369:150,1,69.999997615814,2|0,3:2|0:0,0:0:0:0:
332,319,42003,6,0,P|357:287|360:238,1,69.999997615814,2|0,3:2|0:0,0:0:0:0:
273,250,42356,2,0,P|265:210|229:176,1,69.999997615814,2|0,3:2|0:0,0:0:0:0:
234,43,42709,6,0,P|259:75|262:124,1,69.999997615814,2|0,3:2|0:0,0:0:0:0:
175,112,43062,2,0,P|167:152|131:186,1,69.999997615814,2|0,3:2|0:0,0:0:0:0:
7,207,43414,5,8,1:2:0:0:
7,207,43591,2,0,L|64:198,1,34.999998807907,0|0,3:2|3:2,0:0:0:0:
114,168,43767,5,8,1:2:0:0:
114,168,43944,2,0,L|171:177,1,34.999998807907,0|0,3:2|3:2,0:0:0:0:
247,187,44120,5,8,1:2:0:0:
247,187,44297,2,0,L|304:178,1,34.999998807907,0|0,3:2|3:2,0:0:0:0:
395,147,44473,5,8,1:2:0:0:
395,147,44650,2,0,L|452:156,1,34.999998807907,0|0,3:2|3:2,0:0:0:0:
511,157,44826,6,0,L|507:181,16,17.4999994039535,10|0|0|0|10|0|0|0|10|0|0|0|10|0|0|0|8,3:2|0:0|3:2|0:0|3:2|0:0|3:2|0:0|3:2|0:0|3:2|0:0|3:2|0:0|3:2|0:0|0:0,0:0:0:0:
329,244,46238,6,0,B|424:237|373:295|498:290,2,157.50000064373,4|2|2,3:2|3:0|3:0,0:0:0:0:
345,320,46944,1,8,1:2:0:0:
281,366,47120,1,0,0:0:0:0:
200,347,47297,6,0,P|174:294|178:233,1,105.000000429153,2|0,3:3|0:0,0:0:0:0:
0,266,47561,2,0,P|58:269|109:303,1,105.000000429153,2|0,3:0|0:0,0:0:0:0:
170,134,47826,2,0,P|137:183|82:210,1,105.000000429153,2|0,3:0|3:3,0:0:0:0:
316,229,48179,5,2,2:2:0:0:
246,206,48356,1,8,1:2:0:0:
246,132,48532,1,0,2:2:0:0:
316,110,48709,1,0,2:2:0:0:
359,169,48885,1,0,2:2:0:0:
212,61,49061,5,8,2:3:0:0:
212,61,49150,1,8,2:3:0:0:
212,61,49238,1,4,0:3:0:0:
212,61,49326,1,4,0:3:0:0:
212,61,49414,2,0,P|156:54|116:15,1,105.000000429153,4|2,3:2|2:3,0:0:0:0:
36,126,49767,1,8,1:2:0:0:
36,126,49856,2,0,P|69:101|110:93,1,52.5000002145766,0|2,3:2|2:2,0:0:0:0:
98,171,50120,6,0,P|132:218|130:287,1,105.000000429153,0|2,3:2|2:3,0:0:0:0:
251,201,50385,2,0,P|240:252|206:291,1,105.000000429153,0|0,3:2|0:0,0:0:0:0:
329,178,50650,6,0,P|382:201|415:262,1,105.000000429153,0|2,3:2|2:3,0:0:0:0:
476,127,50915,2,0,P|492:176|481:226,1,105.000000429153,0|0,3:2|0:0,0:0:0:0:
398,84,51179,6,0,L|396:122,6,26.2500001072883,8|0|0|0|0|0|0,1:2|0:0|0:0|0:0|0:0|0:0|3:2,0:0:0:0:
413,6,51532,2,0,L|352:16,1,52.5000002145766,2|2,2:3|2:2,0:0:0:0:
335,161,51709,2,0,L|274:151,1,52.5000002145766,0|4,3:2|2:3,0:0:0:0:
76,146,51885,6,0,B|168:154|123:90|245:100,2,157.50000064373,0|2|2,3:2|3:0|3:0,0:0:0:0:
94,68,52591,1,8,1:2:0:0:
18,90,52767,1,0,0:0:0:0:
7,195,52944,6,0,P|56:197|110:249,1,105.000000429153,2|0,3:3|0:0,0:0:0:0:
220,98,53209,2,0,P|192:139|121:160,1,105.000000429153,2|0,3:0|0:0,0:0:0:0:
196,332,53473,2,0,P|173:287|190:215,1,105.000000429153,2|0,3:0|3:3,0:0:0:0:
360,361,53826,5,2,2:2:0:0:
295,237,54003,2,0,P|279:215|259:199,2,52.5000002145766,8|0|2,1:2|0:0|2:2,0:0:0:0:
362,277,54267,2,0,P|388:275|413:266,2,52.5000002145766,0|0|2,0:0|2:2|2:2,0:0:0:0:
293,316,54532,2,0,P|281:340|277:366,1,52.5000002145766,0|0,0:0|2:2,0:0:0:0:
277,365,54709,6,0,L|165:349,1,105.000000429153,8|4,2:3|0:3,0:0:0:0:
180,214,55061,2,0,L|67:230,2,105.000000429153,4|0|8,3:2|0:0|1:2,0:0:0:0:
245,165,55503,6,0,P|308:153|349:97,1,105.000000429153,0|0,3:3|0:0,0:0:0:0:
252,246,55767,2,0,P|229:306|258:370,1,105.000000429153,0|0,3:3|0:0,0:0:0:0:
180,214,56032,2,0,P|138:164|68:157,1,105.000000429153,0|0,3:3|0:0,0:0:0:0:
29,180,56297,6,0,L|17:107,2,52.5000002145766,8|0|0,3:2|0:0|0:0,0:0:0:0:
93,101,56561,2,0,L|101:152,2,52.5000002145766,8|0|0,3:2|0:0|0:0,0:0:0:0:
220,43,56826,6,0,L|162:63,1,52.5000002145766,8|0,3:2|0:0,0:0:0:0:
229,231,57003,1,0,0:0:0:0:
229,231,57091,2,0,L|171:211,1,52.5000002145766,8|0,3:2|0:0,0:0:0:0:
348,72,57267,1,0,0:0:0:0:
348,72,57356,2,0,L|290:92,1,52.5000002145766,8|0,3:2|0:0,0:0:0:0:
384,230,57532,6,0,B|314:214|314:214|356:259,1,105.000000429153,2|0,0:0|0:0,0:0:0:0:
378,327,57797,6,0,P|337:276|344:220,1,105.000000429153,12|0,3:2|0:0,0:0:0:0:
512,244,58061,2,0,P|450:267|399:243,1,105.000000429153,12|0,3:2|0:0,0:0:0:0:
316,79,58326,6,0,P|379:96|406:145,1,105.000000429153,12|0,3:2|0:0,0:0:0:0:
257,225,58591,2,0,P|292:170|348:159,1,105.000000429153,12|0,3:2|0:0,0:0:0:0:
474,90,58856,6,0,P|477:155|438:196,1,105.000000429153,12|0,3:2|0:0,0:0:0:0:
327,158,59120,2,0,P|336:96|402:133,1,157.50000064373,12|0,3:2|0:0,0:0:0:0:
401,126,59473,5,0,2:2:0:0:
276,71,59650,1,0,2:2:0:0:
182,85,59826,1,0,2:2:0:0:
138,114,60003,1,2,2:2:0:0:
123,141,60179,1,0,2:2:0:0:
146,226,60356,6,0,B|162:116|162:116|94:159,1,157.50000064373,4|0,3:2|0:0,0:0:0:0:
146,305,60709,2,0,P|167:303|212:277,1,52.5000002145766,0|0,3:2|0:0,0:0:0:0:
225,222,60885,1,2,2:3:0:0:
22,194,61062,1,8,1:2:0:0:
22,194,61150,2,0,P|43:196|88:222,1,52.5000002145766,0|2,3:2|2:2,0:0:0:0:
54,339,61414,6,0,L|67:269,1,52.5000002145766,0|0,3:2|0:0,0:0:0:0:
158,330,61591,1,2,2:3:0:0:
158,330,61679,2,0,L|143:202,1,105.000000429153,0|0,3:2|0:0,0:0:0:0:
302,132,61944,2,0,P|240:146|204:213,1,105.000000429153,0|2,3:2|2:3,0:0:0:0:
52,102,62209,2,0,P|114:116|150:183,1,105.000000429153,0|0,3:2|0:0,0:0:0:0:
229,253,62473,6,0,L|259:258,6,26.2500001072883,8|0|0|0|0|0|0,1:2|0:0|0:0|0:0|0:0|0:0|3:2,0:0:0:0:
330,289,62826,5,2,2:3:0:0:
336,287,62914,1,2,2:2:0:0:
342,286,63002,1,0,0:0:0:0:
349,285,63090,1,0,0:0:0:0:
355,284,63179,6,0,B|387:243|387:243|373:169,1,105.000000429153,0|0,3:2|0:0,0:0:0:0:
383,19,63444,2,0,B|351:60|351:60|365:134,1,105.000000429153,2|0,3:0|0:0,0:0:0:0:
360,112,63709,2,0,L|421:118,1,52.5000002145766,2|0,3:0|0:0,0:0:0:0:
494,107,63885,5,8,1:2:0:0:
472,179,64061,1,0,0:0:0:0:
377,190,64238,6,0,L|252:170,1,105.000000429153,2|0,3:3|0:0,0:0:0:0:
232,237,64503,2,0,L|107:257,1,105.000000429153,2|0,3:0|0:0,0:0:0:0:
65,204,64767,2,0,L|-2:199,1,52.5000002145766,2|0,3:0|0:0,0:0:0:0:
4,22,64944,6,0,P|68:37|101:102,1,105.000000429153,0|2,3:3|2:2,0:0:0:0:
100,78,65209,1,0,0:0:0:0:
100,78,65297,2,0,L|87:138,2,52.5000002145766,8|0|2,1:2|0:0|2:2,0:0:0:0:
176,51,65561,2,0,L|163:-9,2,52.5000002145766,0|0|2,0:0|2:2|2:2,0:0:0:0:
256,66,65826,2,0,L|243:126,1,52.5000002145766,0|0,0:0|2:2,0:0:0:0:
229,253,66003,6,0,L|293:245,1,52.5000002145766,8|8,2:3|2:3,0:0:0:0:
363,233,66179,1,4,0:3:0:0:
363,233,66267,1,4,0:3:0:0:
363,233,66356,2,0,L|351:321,1,52.5000002145766,4|0,3:2|0:0,0:0:0:0:
429,307,66532,2,0,L|436:254,1,52.5000002145766,0|0,0:0|0:0,0:0:0:0:
512,137,66709,5,8,1:2:0:0:
512,137,66797,2,0,P|442:149|417:195,1,105.000000429153,0|0,3:3|0:0,0:0:0:0:
347,150,67061,2,0,P|344:98|377:59,1,105.000000429153,0|0,3:3|0:0,0:0:0:0:
230,110,67326,2,0,P|239:161|281:192,1,105.000000429153,0|0,3:3|0:0,0:0:0:0:
281,192,67591,6,0,B|324:159|322:104|322:104|294:128,1,122.499996995926,8|0,3:2|0:0,0:0:0:0:
155,171,67856,2,0,B|100:171|69:217|69:217|107:214,1,122.499996995926,8|0,3:2|0:0,0:0:0:0:
244,260,68120,2,0,B|288:291|340:272|340:272|308:253,1,122.499996995926,8|0,3:2|0:0,0:0:0:0:
225,136,68385,2,0,B|207:84|154:69|154:69|169:103,1,122.499996995926,8|0,3:2|0:0,0:0:0:0:
166,248,68649,2,0,B|153:280|164:308,1,61.2499984979628,0|0,0:0|0:0,0:0:0:0:
96,352,68826,5,4,3:2:0:0:
80,220,69091,1,0,3:0:0:0:
64,88,69356,1,0,3:0:0:0:
144,120,69532,1,8,1:2:0:0:
212,48,69709,5,2,2:0:0:0:
220,56,69797,1,2,2:0:0:0:
228,64,69885,1,2,3:3:0:0:
184,204,70150,1,2,3:0:0:0:
132,340,70414,1,2,3:0:0:0:
136,332,70503,1,0,0:0:0:0:
140,324,70591,1,0,3:3:0:0:
144,316,70679,1,0,0:0:0:0:
148,308,70767,2,0,L|24:324,2,105.000000429153,2|8|0,2:2|1:2|2:2,0:0:0:0:
364,76,71297,2,0,L|488:60,2,105.000000429153,0|0|4,2:2|2:2|2:3,0:0:0:0:
280,96,71826,1,0,0:0:0:0:
244,168,72003,6,0,P|176:116|92:132,1,157.50000064373,4|0,3:2|0:0,0:0:0:0:
44,168,72356,2,0,L|24:244,1,52.5000002145766,8|0,1:2|3:2,0:0:0:0:
8,292,72532,1,2,2:3:0:0:
208,248,72709,2,0,L|272:220,2,52.5000002145766,0|0|2,3:2|0:0|2:3,0:0:0:0:
180,228,72973,2,0,L|152:336,1,105.000000429153,0|0,3:2|0:0,0:0:0:0:
84,352,73238,1,0,3:2:0:0:
336,196,73414,1,2,2:3:0:0:
336,196,73503,2,0,L|312:324,1,105.000000429153,0|0,3:2|0:0,0:0:0:0:
284,128,73767,5,8,1:2:0:0:
276,368,74032,1,2,3:3:0:0:
432,196,74297,1,2,3:3:0:0:
396,124,74473,5,4,3:2:0:0:
356,288,74738,1,0,3:0:0:0:
284,148,75003,1,0,3:0:0:0:
360,200,75179,1,8,1:2:0:0:
184,192,75356,5,2,2:0:0:0:
192,196,75444,1,2,2:0:0:0:
200,200,75532,1,2,3:3:0:0:
144,40,75797,1,2,3:0:0:0:
72,196,76061,1,2,3:0:0:0:
68,204,76150,1,0,0:0:0:0:
80,204,76238,1,0,3:3:0:0:
76,212,76326,1,0,0:0:0:0:
84,220,76414,2,0,L|96:336,1,105.000000429153,2|8,2:2|1:2,0:0:0:0:
184,312,76767,1,0,2:2:0:0:
268,300,76944,1,0,2:2:0:0:
344,344,77120,5,0,2:2:0:0:
424,324,77297,1,4,2:3:0:0:
504,304,77473,1,0,0:0:0:0:
448,244,77650,6,0,P|440:180|468:120,1,105.000000429153,4|2,3:2|2:3,0:0:0:0:
400,40,78003,1,8,1:2:0:0:
400,40,78091,2,0,P|368:88|316:108,1,105.000000429153,0|0,3:2|0:0,0:0:0:0:
280,184,78356,2,0,P|248:124|200:96,1,105.000000429153,0|2,3:2|2:3,0:0:0:0:
128,64,78620,2,0,P|144:108|140:176,1,105.000000429153,0|0,3:2|0:0,0:0:0:0:
144,260,78885,2,0,P|92:224|32:220,1,105.000000429153,0|2,3:2|2:3,0:0:0:0:
51,217,79150,2,0,L|72:320,1,105.000000429153,0|0,3:2|0:0,0:0:0:0:
12,368,79414,1,8,1:2:0:0:
156,340,79591,1,0,0:0:0:0:
156,340,79679,2,0,P|212:368|256:364,1,105.000000429153,2|0,3:3|0:0,0:0:0:0:
312,316,79944,1,2,3:3:0:0:
296,160,80120,6,0,L|280:40,1,104.999996423721,2|0,3:3|0:0,0:0:0:0:
296,36,80473,6,0,L|309:128,1,78.7500003218648,0|0,0:0|0:0,0:0:0:0:
192,36,80826,1,12,1:2:0:0:
204,120,81003,5,2,2:0:0:0:
205,130,81091,1,2,2:0:0:0:
207,140,81179,1,2,3:3:0:0:
96,88,81444,1,2,3:0:0:0:
120,248,81709,1,2,3:0:0:0:
128,256,81797,1,0,0:0:0:0:
136,264,81885,1,0,3:3:0:0:
144,272,81973,1,0,0:0:0:0:
152,280,82061,2,0,L|264:296,1,105.000000429153,2|8,2:2|1:2,0:0:0:0:
484,56,82414,2,0,L|372:40,1,105.000000429153,0|0,2:2|2:2,0:0:0:0:
200,204,82767,2,0,L|312:220,1,105.000000429153,0|4,2:2|2:3,0:0:0:0:
384,232,83120,1,0,0:0:0:0:
272,64,83297,6,0,L|96:80,1,157.50000064373,4|0,3:2|0:0,0:0:0:0:
32,60,83650,2,0,P|40:100|32:132,1,52.5000002145766,8|0,1:2|3:2,0:0:0:0:
24,184,83826,1,2,2:3:0:0:
168,292,84003,2,0,L|224:312,2,52.5000002145766,0|0|2,3:2|0:0|2:3,0:0:0:0:
132,312,84267,2,0,P|156:264|144:204,1,105.000000429153,0|0,3:2|0:0,0:0:0:0:
104,152,84532,1,0,3:2:0:0:
320,164,84709,1,2,2:3:0:0:
320,164,84797,2,0,P|284:212|216:220,1,105.000000429153,0|0,3:2|0:0,0:0:0:0:
200,156,85061,5,8,1:2:0:0:
292,312,85326,1,2,3:3:0:0:
352,52,85591,1,2,3:3:0:0:
392,124,85767,5,4,3:2:0:0:
496,120,85944,1,2,2:2:0:0:
500,224,86120,1,2,2:3:0:0:
396,224,86297,1,0,3:0:0:0:
392,124,86473,5,8,1:2:0:0:
396,224,86650,1,2,2:0:0:0:
500,224,86826,1,2,3:3:0:0:
408,172,87003,1,0,2:2:0:0:
360,264,87179,1,2,2:3:0:0:
452,316,87356,1,2,3:0:0:0:
396,224,87532,1,0,3:3:0:0:
312,280,87709,1,2,2:2:0:0:
368,368,87885,1,8,1:2:0:0:
312,280,88061,5,0,2:2:0:0:
396,224,88238,1,0,2:2:0:0:
452,316,88414,1,0,2:2:0:0:
200,344,88591,6,0,L|124:336,1,52.5000002145766,4|0,3:2|0:0,0:0:0:0:
68,352,88767,1,2,0:0:0:0:
68,352,88856,1,2,0:0:0:0:
68,352,88944,2,0,L|56:280,1,52.5000002145766,2|0,0:0|0:0,0:0:0:0:
44,228,89120,1,2,0:0:0:0:
44,228,89209,1,2,0:0:0:0:
44,228,89297,2,0,L|32:156,1,52.5000002145766,2|0,0:0|0:0,0:0:0:0:
192,264,89473,2,0,L|116:256,1,52.5000002145766,2|0,0:0|0:0,0:0:0:0:
192,184,89650,2,0,L|116:176,1,52.5000002145766,2|0,0:0|0:0,0:0:0:0:
84,104,89826,5,2,0:0:0:0:
84,104,89914,1,2,0:0:0:0:
84,104,90003,2,0,L|80:72,14,26.2500001072883,2|0|0|0|0|0|0|0|0|0|0|0|0|0|0,2:3|0:0|0:0|0:0|0:0|0:0|0:0|0:0|0:0|0:0|0:0|0:0|0:0|0:0|0:0,0:0:0:0:
84,104,90709,6,0,B|112:-48|364:-48|400:104,1,420.000001716613,8|2,1:2|3:3,0:0:0:0:
421,343,103179,6,0,P|431:320|448:294,1,46.6666650772093,0|0,0:0|0:0,0:0:0:0:
421,343,103414,2,0,B|336:324|372:374|272:347,1,139.999995231628,2|0,0:0|0:0,0:0:0:0:
318,277,103944,2,0,P|353:193|263:178,1,209.999992847442,2|0,0:0|0:0,0:0:0:0:
217,307,104650,2,0,P|205:243|151:180,1,139.999995231628,2|0,0:0|0:0,0:0:0:0:
48,238,105179,2,0,P|102:255|137:298,1,104.999996423721,2|0,0:0|0:0,0:0:0:0:
133,290,105532,5,4,0:0:0:0:
231,28,106003,2,0,P|252:56|268:99,1,46.6666650772093,0|0,0:0|0:0,0:0:0:0:
231,28,106238,2,0,B|316:47|280:-3|367:20,1,139.999995231628,2|0,0:0|0:0,0:0:0:0:
400,138,106767,1,2,0:0:0:0:
400,138,106944,2,0,P|324:136|338:87,1,139.999995231628,0|0,0:0|0:0,0:0:0:0:
505,47,107473,2,0,P|461:60|426:62,1,69.999997615814,2|0,0:0|0:0,0:0:0:0:
267,138,107826,5,0,0:0:0:0:
400,138,108003,1,2,0:0:0:0:
507,215,108179,1,0,0:0:0:0:
330,201,108356,6,0,B|264:155|152:175|163:281,2,209.999992847442,4|0|0,0:0|0:0|0:0,0:0:0:0:
125,38,109767,2,0,P|125:93|208:37,1,209.999992847442,2|0,0:0|0:0,0:0:0:0:
67,263,110826,2,0,P|87:217|73:151,1,104.999996423721,2|0,0:0|0:0,0:0:0:0:
80,164,111179,6,0,P|33:144|76:84,1,139.999995231628,6|0,0:0|0:0,0:0:0:0:
219,194,111709,2,0,P|269:200|262:126,1,139.999995231628,2|0,0:0|0:0,0:0:0:0:
155,81,112238,2,0,B|182:57|186:52|186:52|166:116,1,104.999996423721,0|0,0:0|0:0,0:0:0:0:
168,112,112591,6,0,P|246:102|286:36,1,139.999995231628,2|0,0:0|0:0,0:0:0:0:
330,0,113061,2,0,P|352:32|356:54,1,46.6666650772093,0|2,0:0|0:0,0:0:0:0:
394,111,113297,2,0,P|349:60|281:57,1,139.999995231628,2|0,0:0|0:0,0:0:0:0:
135,225,113885,6,2,B|146:204|150:187,1,23.3333325386047,0|0,0:0|0:0,0:0:0:0:
135,225,114003,2,0,B|79:265|-15:277|-64:188|-31:128|51:117|85:171,1,315.000001287459,6|2,0:0|0:0,0:0:0:0:
199,370,115414,2,0,P|193:303|236:214,2,157.50000064373,2|2|2,0:0|0:0|0:0,0:0:0:0:
290,109,116826,6,0,B|327:119|365:99|365:99|350:149|369:221|429:244|483:211|492:143|410:142|401:167,1,315.000001287459,2|2,0:0|0:0,0:0:0:0:
228,222,118238,2,0,P|250:254|277:181,2,157.50000064373,2|2|2,0:0|0:0|0:0,0:0:0:0:
91,286,119650,6,0,B|135:261|135:261|188:60|188:60|240:41,1,315.000001287459,2|2,0:0|0:0,0:0:0:0:
430,81,121061,2,0,B|320:102|320:102|339:69|378:81,2,157.50000064373,2|2|2,0:0|0:0|0:0,0:0:0:0:
296,296,122473,6,0,P|270:251|228:222,1,105.000000429153,2|0,0:0|0:0,0:0:0:0:
398,276,123003,2,0,P|371:321|368:373,1,105.000000429153,2|0,0:0|0:0,0:0:0:0:
330,197,123532,2,0,P|382:197|429:175,1,105.000000429153,2|2,0:0|0:0,0:0:0:0:
83,210,124591,1,2,0:0:0:0:
83,210,125297,6,0,L|212:220,1,105.000000429153,0|0,1:0|0:0,0:0:0:0:
268,208,125826,1,0,1:0:0:0:
348,196,126003,1,2,1:2:0:0:
348,196,126356,2,0,P|352:172|344:120,1,69.999997615814,0|0,0:0|1:0,0:0:0:0:
332,104,126620,5,0,1:0:0:0:
316,80,126709,2,0,L|432:88,2,104.999996423721,0|0|0,1:0|1:0|1:0,0:0:0:0:
248,120,127414,2,0,P|192:136|144:120,2,104.999996423721,2|2|2,1:2|1:2|1:2,0:0:0:0:
200,56,128120,6,0,B|176:136|224:112|200:216,1,139.999995231628,0|0,1:0|0:0,0:0:0:0:
152,248,128650,1,0,1:0:0:0:
96,296,128826,1,2,1:2:0:0:
96,296,129179,2,0,P|132:320|176:320,1,69.999997615814,0|0,0:0|1:0,0:0:0:0:
184,312,129444,5,0,1:0:0:0:
208,300,129532,2,0,L|332:284,2,104.999996423721,0|0|0,1:0|1:0|1:0,0:0:0:0:
156,240,130238,2,0,P|140:192|160:136,2,104.999996423721,2|2|2,1:2|1:2|1:2,0:0:0:0:
236,220,130944,6,0,P|284:168|372:168,1,139.999995231628,0|0,1:0|0:0,0:0:0:0:
420,188,131473,1,0,1:0:0:0:
408,112,131650,1,2,1:2:0:0:
408,112,132003,2,0,L|316:132,1,69.999997615814,0|0,0:0|1:0,0:0:0:0:
316,112,132267,5,0,1:0:0:0:
292,100,132356,2,0,L|308:212,2,104.999996423721,0|0|0,1:0|1:0|1:0,0:0:0:0:
336,36,133061,2,0,P|408:68|448:56,2,104.999996423721,2|2|2,1:2|1:2|1:2,0:0:0:0:
220,48,133767,6,0,L|208:128,1,69.999997615814,0|0,1:0|0:0,0:0:0:0:
200,204,134120,2,0,L|176:212,1,17.4999994039535,0|0,0:0|0:0,0:0:0:0:
196,220,134209,2,0,L|172:228,1,17.4999994039535,0|0,0:0|0:0,0:0:0:0:
188,232,134297,2,0,P|128:252|116:260,2,69.999997615814,0|0|0,0:0|0:0|0:0,0:0:0:0:
248,280,134826,2,0,L|328:288,1,69.999997615814,0|0,1:0|0:0,0:0:0:0:
344,276,135091,5,0,0:0:0:0:
368,264,135179,1,0,1:0:0:0:
456,168,135444,1,0,0:0:0:0:
356,88,135709,1,0,0:0:0:0:
280,156,135885,5,0,1:0:0:0:
452,84,136061,1,0,1:0:0:0:
360,192,136238,1,0,1:0:0:0:
280,36,136414,1,0,1:0:0:0:
356,88,136591,5,2,1:2:0:0:
356,88,136944,1,0,3:2:0:0:
272,112,137120,1,2,1:2:0:0:
192,136,137297,1,2,1:2:0:0:
168,124,137385,1,0,0:0:0:0:
140,116,137473,1,0,0:0:0:0:
112,116,137561,1,0,0:0:0:0:
84,120,137650,1,2,1:2:0:0:
24,64,137826,1,0,0:0:0:0:
40,188,138003,5,0,3:2:0:0:
120,224,138179,1,2,1:2:0:0:
44,272,138356,2,0,L|24:320,1,34.999998807907,2|0,1:2|0:0,0:0:0:0:
60,304,138532,2,0,L|68:352,1,34.999998807907,0|0,0:0|0:0,0:0:0:0:
92,324,138709,2,0,L|124:356,1,34.999998807907,2|0,1:2|0:0,0:0:0:0:
124,320,138885,2,0,L|172:336,1,34.999998807907,0|0,0:0|0:0,0:0:0:0:
232,300,139061,2,0,P|280:300|324:304,1,69.999997615814,0|0,3:2|3:2,0:0:0:0:
376,352,139414,6,0,L|412:368,1,34.999998807907,2|0,1:2|0:0,0:0:0:0:
392,324,139591,2,0,L|432:344,1,34.999998807907,0|0,0:0|0:0,0:0:0:0:
388,292,139767,1,0,3:2:0:0:
344,220,139944,1,2,1:2:0:0:
336,192,140032,1,0,0:0:0:0:
336,164,140120,1,2,1:2:0:0:
448,44,140297,1,0,0:0:0:0:
456,72,140385,1,0,0:0:0:0:
456,100,140473,1,2,1:2:0:0:
416,180,140650,1,0,0:0:0:0:
372,84,140826,5,0,3:2:0:0:
336,164,141003,1,2,1:2:0:0:
292,88,141179,1,2,1:2:0:0:
252,160,141356,1,0,0:0:0:0:
204,88,141532,1,2,1:2:0:0:
176,208,141709,1,0,0:0:0:0:
176,208,141797,1,0,0:0:0:0:
176,208,141885,1,0,3:2:0:0:
296,236,142061,1,0,3:2:0:0:
272,316,142238,6,0,L|152:336,1,105.000000429153,8|0,1:2|3:2,0:0:0:0:
380,176,142591,2,0,L|400:296,1,105.000000429153,8|0,1:2|3:2,0:0:0:0:
240,68,142944,2,0,L|360:48,1,105.000000429153,8|0,1:2|3:2,0:0:0:0:
132,208,143297,2,0,L|112:88,1,105.000000429153,8|0,1:2|3:2,0:0:0:0:
354,268,143650,6,0,P|312:300|288:368,1,105.000000429153,8|0,1:2|3:2,0:0:0:0:
332,93,144003,2,0,P|364:136|432:160,1,105.000000429153,8|0,1:2|3:2,0:0:0:0:
157,115,144356,2,0,P|200:84|224:16,1,105.000000429153,8|0,1:2|3:2,0:0:0:0:
179,290,144709,2,0,P|148:248|80:224,1,105.000000429153,8|0,1:2|3:2,0:0:0:0:
236,184,145061,5,8,1:2:0:0:
260,176,145150,1,0,3:2:0:0:
272,200,145238,1,0,3:2:0:0:
248,208,145327,1,0,3:2:0:0:
247,172,145414,5,8,1:2:0:0:
270,183,145503,1,0,3:2:0:0:
261,208,145591,1,0,3:2:0:0:
239,197,145680,1,0,3:2:0:0:
264,172,145767,5,8,1:2:0:0:
272,196,145856,1,0,3:2:0:0:
248,208,145944,1,0,3:2:0:0:
240,184,146033,1,0,3:2:0:0:
275,183,146120,5,8,1:2:0:0:
264,206,146209,1,0,3:2:0:0:
239,197,146297,1,0,3:2:0:0:
250,175,146386,1,0,3:2:0:0:
256,188,146473,6,0,L|285:156,1,26.2500001072883,10|0,3:2|0:0,0:0:0:0:
256,188,146561,6,0,L|299:185,1,26.2500001072883,0|0,3:2|0:0,0:0:0:0:
256,188,146650,6,0,L|288:217,1,26.2500001072883,10|0,3:2|0:0,0:0:0:0:
256,188,146738,6,0,L|258:231,1,26.2500001072883,0|0,3:2|0:0,0:0:0:0:
256,188,146826,6,0,L|227:220,1,26.2500001072883,10|0,3:2|0:0,0:0:0:0:
256,188,146914,6,0,L|212:190,1,26.2500001072883,0|0,3:2|0:0,0:0:0:0:
256,188,147003,6,0,L|224:159,1,26.2500001072883,10|0,3:2|0:0,0:0:0:0:
256,188,147091,6,0,L|253:144,1,26.2500001072883,0|0,3:2|0:0,0:0:0:0:
256,188,147179,6,0,B|292:200|348:196|396:144|384:52|336:4|264:12|192:8|168:116|204:160,1,420.000001716613,10|4,0:0|3:2,0:0:0:0:
256,192,147973,12,0,150179,0:0:0:0:
392,312,150356,5,0,0:0:0:0:
356,296,150444,1,0,0:0:0:0:
316,288,150532,1,0,0:0:0:0:
276,288,150620,1,0,0:0:0:0:
236,296,150709,2,0,B|168:284|116:304|116:304|56:288,1,183.749995493888,8|4,2:3|0:3,0:0:0:0:
32,212,151061,5,4,3:2:0:0:
128,172,151238,2,0,L|120:64,1,105.000000429153,2|8,2:3|1:2,0:0:0:0:
84,36,151503,2,0,P|144:60|208:44,1,105.000000429153,0|0,3:2|0:0,0:0:0:0:
232,116,151767,2,0,P|280:92|352:96,1,105.000000429153,0|2,3:2|2:3,0:0:0:0:
396,44,152032,1,0,3:2:0:0:
460,196,152209,1,0,0:0:0:0:
436,172,152297,2,0,P|420:244|432:284,1,105.000000429153,0|2,3:2|2:3,0:0:0:0:
472,320,152561,2,0,P|412:292|352:292,1,105.000000429153,0|0,3:2|0:0,0:0:0:0:
336,252,152826,2,0,L|360:360,1,105.000000429153,8|0,1:2|0:0,0:0:0:0:
336,332,153091,5,0,3:2:0:0:
308,344,153179,1,2,2:3:0:0:
280,356,153267,1,2,2:2:0:0:
248,328,153356,5,0,3:2:0:0:
216,336,153444,1,4,2:3:0:0:
184,344,153532,2,0,P|132:320|64:324,1,105.000000429153,0|0,3:2|0:0,0:0:0:0:
108,364,153797,2,0,L|92:244,1,105.000000429153,2|0,3:0|0:0,0:0:0:0:
88,184,154061,2,0,L|160:200,1,52.5000002145766,2|0,3:0|0:0,0:0:0:0:
184,132,154238,2,0,L|256:148,1,52.5000002145766,8|0,1:2|0:0,0:0:0:0:
292,200,154414,5,0,0:0:0:0:
292,200,154503,1,0,0:0:0:0:
292,200,154591,2,0,P|368:204|412:176,1,105.000000429153,2|0,3:3|0:0,0:0:0:0:
432,124,154856,2,0,L|416:248,1,105.000000429153,2|0,3:0|0:0,0:0:0:0:
448,300,155120,2,0,L|392:308,1,52.5000002145766,2|0,3:0|0:0,0:0:0:0:
316,280,155297,1,0,3:3:0:0:
112,336,155473,5,2,2:2:0:0:
112,336,155650,2,0,P|160:352|184:348,1,52.5000002145766,8|0,1:2|0:0,0:0:0:0:
172,280,155826,2,0,P|202:239|205:215,1,52.5000002145766,2|0,2:2|0:0,0:0:0:0:
128,216,156003,2,0,P|98:174|76:163,1,52.5000002145766,0|2,2:2|2:2,0:0:0:0:
52,236,156179,2,0,P|3:251|-13:268,1,52.5000002145766,0|0,0:0|2:2,0:0:0:0:
240,336,156356,6,0,L|320:324,1,69.999997615814,8|4,2:3|0:3,0:0:0:0:
328,332,156620,1,4,0:3:0:0:
348,336,156709,2,0,P|336:272|348:224,1,105.000000429153,4|0,3:2|0:0,0:0:0:0:
380,32,157061,1,8,1:2:0:0:
380,32,157150,2,0,P|408:76|408:140,1,105.000000429153,0|0,3:3|0:0,0:0:0:0:
336,152,157414,2,0,P|308:108|308:44,1,105.000000429153,0|0,3:3|0:0,0:0:0:0:
240,152,157679,2,0,P|192:184|132:180,1,105.000000429153,0|0,3:3|0:0,0:0:0:0:
84,136,157944,6,0,L|60:24,1,105.000000429153,8|0,3:2|0:0,0:0:0:0:
52,172,158209,2,0,L|28:60,1,105.000000429153,8|0,3:2|0:0,0:0:0:0:
120,164,158473,2,0,L|96:52,1,105.000000429153,8|0,3:2|0:0,0:0:0:0:
88,200,158738,2,0,L|64:88,1,105.000000429153,8|0,3:2|0:0,0:0:0:0:
160,208,159003,2,0,L|136:100,1,105.000000429153,8|2,3:2|0:0,0:0:0:0:
184,288,159356,5,0,0:0:0:0:
184,288,159444,2,0,P|244:308|308:288,1,105.000000429153,12|0,3:2|0:0,0:0:0:0:
283,300,159709,2,0,L|303:172,1,105.000000429153,12|0,3:2|0:0,0:0:0:0:
299,196,159973,2,0,P|359:216|423:196,1,105.000000429153,12|0,3:2|0:0,0:0:0:0:
398,208,160238,2,0,L|418:80,1,105.000000429153,12|0,3:2|0:0,0:0:0:0:
414,104,160503,2,0,P|354:124|290:104,1,105.000000429153,12|0,3:2|0:0,0:0:0:0:
314,116,160767,2,0,P|220:92|152:116,1,157.50000064373,12|0,3:2|0:0,0:0:0:0:
144,124,161120,5,0,2:2:0:0:
128,144,161209,1,0,2:2:0:0:
116,168,161297,1,0,2:2:0:0:
108,192,161385,1,0,2:2:0:0:
108,220,161473,1,0,2:2:0:0:
112,244,161561,1,0,2:2:0:0:
120,268,161650,1,0,2:2:0:0:
136,288,161738,1,0,2:2:0:0:
156,304,161826,1,0,2:2:0:0:
180,312,161914,1,0,2:2:0:0:
208,316,162003,2,0,P|292:312|332:312,1,105.000000429153,4|0,3:2|0:0,0:0:0:0:
480,192,162356,6,0,P|396:196|356:196,1,105.000000429153,0|2,3:2|2:3,0:0:0:0:
424,104,162709,1,8,1:2:0:0:
424,104,162797,2,0,P|364:109|304:104,1,105.000000429153,0|0,3:2|0:0,0:0:0:0:
248,144,163061,2,0,P|184:140|128:144,1,105.000000429153,0|2,3:2|2:3,0:0:0:0:
88,92,163326,1,0,3:2:0:0:
40,200,163503,1,0,0:0:0:0:
40,200,163591,2,0,P|36:264|40:308,1,105.000000429153,0|2,3:2|2:3,0:0:0:0:
0,368,163856,2,0,P|60:324|116:328,1,105.000000429153,0|0,3:2|0:0,0:0:0:0:
64,360,164120,2,0,L|192:332,1,105.000000429153,8|0,1:2|0:0,0:0:0:0:
168,300,164385,5,0,3:2:0:0:
196,308,164473,1,2,2:3:0:0:
224,316,164561,1,2,2:2:0:0:
248,280,164650,5,0,3:2:0:0:
260,308,164738,1,4,2:3:0:0:
272,336,164826,2,0,P|328:304|412:312,1,105.000000429153,0|0,3:2|0:0,0:0:0:0:
408,320,165091,2,0,P|376:264|384:180,1,105.000000429153,2|0,3:0|0:0,0:0:0:0:
388,184,165356,1,2,3:0:0:0:
432,36,165532,2,0,L|456:148,1,105.000000429153,8|0,1:2|0:0,0:0:0:0:
432,156,165797,5,0,0:0:0:0:
408,168,165885,2,0,P|352:160|308:176,1,105.000000429153,2|0,3:3|0:0,0:0:0:0:
256,120,166150,2,0,P|200:128|156:112,1,105.000000429153,2|0,3:0|0:0,0:0:0:0:
104,52,166414,1,2,3:0:0:0:
208,48,166591,1,0,3:3:0:0:
80,132,166767,6,0,L|68:208,1,52.5000002145766,2|0,2:2|0:0,0:0:0:0:
168,196,166944,2,0,L|180:260,1,52.5000002145766,8|0,1:2|0:0,0:0:0:0:
100,264,167120,2,0,L|92:328,1,52.5000002145766,2|0,2:2|0:0,0:0:0:0:
256,272,167297,2,0,L|272:332,1,52.5000002145766,0|2,2:2|2:2,0:0:0:0:
184,324,167473,2,0,L|176:384,1,52.5000002145766,0|0,0:0|2:2,0:0:0:0:
332,232,167650,5,8,2:3:0:0:
344,236,167738,1,8,2:3:0:0:
356,240,167826,1,4,0:3:0:0:
368,244,167914,1,4,0:3:0:0:
380,248,168003,2,0,L|432:264,1,52.5000002145766,4|0,3:2|0:0,0:0:0:0:
396,168,168179,6,0,L|446:152,1,52.5000002145766,0|0,0:0|0:0,0:0:0:0:
332,232,168356,5,8,1:2:0:0:
333,244,168444,2,0,L|341:304,1,52.5000002145766,0|0,3:3|0:0,0:0:0:0:
332,108,168620,5,0,0:0:0:0:
333,96,168709,2,0,L|341:36,1,52.5000002145766,0|0,3:3|0:0,0:0:0:0:
248,184,168885,5,0,0:0:0:0:
237,190,168973,2,0,L|173:222,1,52.5000002145766,0|0,3:3|0:0,0:0:0:0:
232,104,169150,5,0,0:0:0:0:
232,104,169238,2,0,B|212:80|212:80|216:48,1,61.2499984979628,8|0,3:2|0:0,0:0:0:0:
232,280,169414,5,0,0:0:0:0:
232,280,169502,2,0,B|212:304|212:304|216:336,1,61.2499984979628,8|0,3:2|0:0,0:0:0:0:
116,124,169679,5,0,0:0:0:0:
116,124,169767,2,0,B|84:108|84:108|68:64,1,61.2499984979628,8|0,3:2|0:0,0:0:0:0:
116,260,169944,5,0,0:0:0:0:
116,260,170032,2,0,B|84:276|84:276|68:320,1,61.2499984979628,8|0,3:2|0:0,0:0:0:0:
8,192,170209,5,0,0:0:0:0:
8,192,170297,2,0,L|88:192,1,61.2499984979628,8|0,3:2|0:0,0:0:0:0:
266,173,170473,6,0,P|208:188|141:189,1,105.000000429153,4|2,3:2|2:2,0:0:0:0:
163,190,170738,1,0,3:0:0:0:
163,190,170826,1,2,2:3:0:0:
353,206,171003,1,0,3:0:0:0:
316,96,171179,1,8,1:2:0:0:
308,289,171356,5,2,2:0:0:0:
308,289,171444,1,2,2:0:0:0:
308,289,171532,2,0,L|381:301,1,52.5000002145766,2|0,3:3|0:0,0:0:0:0:
398,132,171709,1,0,2:2:0:0:
398,132,171797,2,0,L|516:115,1,105.000000429153,2|0,3:0|2:2,0:0:0:0:
501,117,172061,2,0,L|489:176,1,52.5000002145766,2|0,3:0|0:0,0:0:0:0:
459,320,172238,5,0,3:3:0:0:
459,320,172326,1,0,0:0:0:0:
459,320,172414,2,0,L|450:280,4,26.2500001072883,2|0|0|0|8,2:2|0:0|0:0|0:0|1:2,0:0:0:0:
256,312,172767,1,0,2:2:0:0:
256,312,172944,2,0,P|310:300|363:297,1,105.000000429153,0|0,2:2|2:2,0:0:0:0:
501,117,173297,6,0,B|405:92|455:159|320:114,1,157.50000064373,4|0,2:3|0:0,0:0:0:0:
348,122,173650,2,0,L|342:188,1,52.5000002145766,4|0,3:2|0:0,0:0:0:0:
182,77,173826,2,0,L|188:142,1,52.5000002145766,2|0,2:3|0:0,0:0:0:0:
277,57,174003,5,8,1:2:0:0:
277,57,174091,2,0,P|269:109|265:180,1,105.000000429153,0|0,3:2|0:0,0:0:0:0:
197,202,174356,1,0,3:2:0:0:
354,279,174532,1,2,2:3:0:0:
354,279,174620,2,0,P|350:226|342:174,1,105.000000429153,0|0,3:2|0:0,0:0:0:0:
342,174,174885,2,0,L|406:181,1,52.5000002145766,0|0,3:2|0:0,0:0:0:0:
250,280,175061,5,2,2:3:0:0:
250,280,175150,2,0,L|186:286,2,52.5000002145766,0|2|0,3:2|2:3|0:0,0:0:0:0:
114,296,175414,1,8,1:2:0:0:
127,69,175591,5,0,0:0:0:0:
127,69,175679,2,0,B|169:30|169:30|189:141,1,157.50000064373,2|2,3:3|3:3,0:0:0:0:
50,223,176120,5,4,3:2:0:0:
225,212,176297,1,2,2:2:0:0:
225,212,176385,1,0,3:0:0:0:
225,212,176473,1,2,2:3:0:0:
115,171,176650,1,0,3:0:0:0:
139,348,176826,2,0,P|145:282|151:231,1,105.000000429153,8|2,1:2|2:0,0:0:0:0:
225,212,177091,1,2,2:0:0:0:
225,212,177179,6,0,L|365:206,1,105.000000429153,2|0,3:3|2:2,0:0:0:0:
411,213,177444,1,2,3:0:0:0:
411,213,177532,2,0,P|404:180|396:147,1,52.5000002145766,2|0,2:3|2:2,0:0:0:0:
211,115,177709,2,0,P|218:82|226:49,1,52.5000002145766,2|0,3:0|0:0,0:0:0:0:
422,86,177885,5,0,3:3:0:0:
422,86,177973,1,0,0:0:0:0:
422,86,178061,2,0,L|417:49,4,26.2500001072883,2|0|0|0|8,2:2|0:0|0:0|0:0|1:2,0:0:0:0:
218,46,178414,2,0,B|270:34|270:34|335:69,1,105.000000429153,0|0,2:2|2:2,0:0:0:0:
315,58,178679,2,0,B|319:92|326:114|326:114|302:152|302:152|314:189|318:249,1,157.50000064373,0|4,0:0|2:3,0:0:0:0:
112,346,179120,5,0,0:0:0:0:
112,346,179209,1,0,0:0:0:0:
112,346,179297,2,0,B|194:376|308:349|326:283,1,210.000000858306,4|8,3:2|1:2,0:0:0:0:
388,334,179738,1,0,3:2:0:0:
388,334,179826,2,0,P|385:303|388:252,1,52.5000002145766,2|0,2:3|0:0,0:0:0:0:
193,281,180003,2,0,P|195:250|192:199,2,52.5000002145766,0|0|2,3:2|0:0|2:3,0:0:0:0:
372,201,180267,1,0,3:2:0:0:
372,201,180356,6,0,P|344:213|311:238,1,52.5000002145766,2|0,2:3|0:0,0:0:0:0:
214,148,180532,2,0,P|242:160|275:185,1,52.5000002145766,0|0,3:2|0:0,0:0:0:0:
378,38,180709,1,2,2:3:0:0:
378,38,180797,2,0,P|343:87|329:140,1,105.000000429153,0|0,3:2|0:0,0:0:0:0:
330,129,181061,5,8,1:2:0:0:
184,68,181238,1,0,0:0:0:0:
184,68,181326,1,2,3:3:0:0:
184,68,181414,1,0,0:0:0:0:
99,201,181591,1,2,3:3:0:0:
36,149,181767,6,0,P|59:105|107:125,1,104.999996423721,2|0,3:3|0:0,0:0:0:0:
104,121,182120,6,0,P|67:124|30:159,1,78.7500003218648,0|0,0:0|0:0,0:0:0:0:
4,226,182473,6,0,P|28:253|35:299,1,52.5000002145766,12|0,1:2|0:0,0:0:0:0:
213,301,182650,1,2,2:0:0:0:
213,301,182738,1,2,2:0:0:0:
213,301,182826,2,0,P|164:293|92:289,1,105.000000429153,2|0,3:3|2:2,0:0:0:0:
97,119,183091,1,2,3:0:0:0:
97,119,183179,2,0,P|146:127|218:131,1,105.000000429153,2|2,2:3|3:0,0:0:0:0:
270,84,183444,5,0,0:0:0:0:
270,84,183532,2,0,L|254:20,1,52.5000002145766,0|0,3:3|0:0,0:0:0:0:
336,132,183709,2,0,L|331:168,4,26.2500001072883,2|0|0|0|8,2:2|0:0|0:0|0:0|1:2,0:0:0:0:
379,300,184061,5,0,2:2:0:0:
304,338,184238,1,0,2:2:0:0:
373,384,184414,1,0,2:2:0:0:
290,322,184591,6,0,B|270:323|270:323|260:316|260:316|245:319|245:319|231:312|231:312|222:318|222:318|211:312|211:312|200:317|200:317|189:308|189:308|174:312|174:312|155:305|155:305|135:310|135:310,1,157.50000064373,4|0,2:3|0:0,0:0:0:0:
76,348,184944,6,0,L|65:286,1,52.5000002145766,4|0,3:2|0:0,0:0:0:0:
199,236,185120,2,0,L|214:101,1,105.000000429153,2|8,2:3|1:2,0:0:0:0:
283,99,185385,1,0,3:2:0:0:
283,99,185473,2,0,P|315:107|349:113,1,52.5000002145766,2|0,2:3|0:0,0:0:0:0:
126,177,185650,2,0,P|94:169|60:163,1,52.5000002145766,0|0,3:2|0:0,0:0:0:0:
291,244,185826,5,2,2:3:0:0:
291,244,185914,1,0,3:2:0:0:
291,244,186003,1,2,2:3:0:0:
477,177,186179,2,0,P|422:197|379:239,1,105.000000429153,0|2,3:2|2:3,0:0:0:0:
379,241,186444,1,0,3:2:0:0:
379,241,186532,2,0,L|362:184,1,52.5000002145766,2|0,2:3|0:0,0:0:0:0:
297,40,186709,6,0,L|294:70,4,26.2500001072883,8|0|0|0|0,1:2|0:0|0:0|0:0|0:0,0:0:0:0:
257,138,186973,2,0,P|267:64|201:29,1,157.50000064373,2|2,3:3|3:3,0:0:0:0:
13,199,187414,5,4,3:2:0:0:
95,181,187591,1,2,2:2:0:0:
95,181,187679,1,0,3:0:0:0:
95,181,187767,1,2,2:3:0:0:
152,88,187944,1,0,3:0:0:0:
107,289,188120,1,8,1:2:0:0:
179,184,188297,6,0,L|186:212,2,26.2500001072883,2|0|2,2:0|0:0|2:0,0:0:0:0:
120,265,188473,2,0,B|169:271|199:244|199:244|192:237|192:237|231:202|312:222,2,183.749995493888,2|2|2,3:3|3:0|3:0,0:0:0:0:
354,245,189179,5,0,3:3:0:0:
354,245,189267,1,0,0:0:0:0:
354,245,189356,2,0,L|361:200,4,30.6249992489814,2|0|0|0|8,2:2|0:0|0:0|0:0|1:2,0:0:0:0:
304,109,189709,2,0,P|266:161|276:218,1,122.499996995926,0|0,2:2|2:2,0:0:0:0:
464,145,189973,2,0,P|471:204|435:251,1,122.499996995926,0|0,0:0|0:0,0:0:0:0:
264,352,190238,6,0,L|265:318,6,30.6249992489814,6|0|0|0|0|0|0,3:2|0:0|0:0|0:0|0:0|0:0|0:0,0:0:0:0:
247,253,190591,2,0,L|246:219,6,30.6249992489814,2|0|0|0|0|0|0,0:0|0:0|0:0|0:0|0:0|0:0|0:0,0:0:0:0:
298,164,190944,2,0,L|299:130,6,30.6249992489814,2|0|0|0|0|0|0,0:0|0:0|0:0|0:0|0:0|0:0|0:0,0:0:0:0:
202,99,191297,2,0,L|201:65,6,30.6249992489814,2|0|0|0|0|0|0,0:0|0:0|0:0|0:0|0:0|0:0|0:0,0:0:0:0:
256,0,191650,6,0,L|258:18,32,15.3124996244907,2|0|0|0|2|0|0|0|2|0|0|0|2|0|0|0|2|0|0|0|2|0|0|0|2|0|0|0|2|0|0|0|8,2:2|0:0|0:0|0:0|2:2|0:0|0:0|0:0|2:2|0:0|0:0|0:0|2:2|0:0|0:0|0:0|2:2|0:0|0:0|0:0|2:2|0:0|0:0|0:0|2:2|0:0|0:0|0:0|2:2|0:0|0:0|0:0|1:2,0:0:0:0:
124,292,193061,6,0,P|72:312|20:312,2,104.999996423721,4|2|2,3:2|3:0|3:0,0:0:0:0:
256,84,193767,1,8,1:2:0:0:
256,84,194120,2,0,P|248:140|260:200,2,104.999996423721,2|2|2,3:3|3:0|3:0,0:0:0:0:
216,24,194826,2,0,P|184:40|128:52,1,69.999997615814,0|2,3:3|2:2,0:0:0:0:
336,144,195179,5,8,1:2:0:0:
336,144,195532,2,0,L|412:132,1,69.999997615814,0|0,2:2|2:2,0:0:0:0:
176,176,195885,2,0,L|100:188,1,69.999997615814,0|0,2:3|0:0,0:0:0:0:
36,148,196238,2,0,P|28:200|32:232,1,69.999997615814,4|0,3:2|0:0,0:0:0:0:
104,320,196591,5,8,1:2:0:0:
104,320,196679,2,0,P|140:304|224:312,4,104.999996423721,0|0|0|0|0,3:2|3:2|3:2|3:2|3:2,0:0:0:0:
40,48,198003,1,8,1:2:0:0:
40,48,198267,2,0,L|28:132,1,69.999997615814,0|0,3:2|0:0,0:0:0:0:
56,144,198532,2,0,L|48:204,1,34.999998807907,0|0,3:2|0:0,0:0:0:0:
96,240,198709,6,0,P|40:272|-12:264,2,104.999996423721,0|0|0,3:2|3:0|3:0,0:0:0:0:
152,32,199414,1,8,1:2:0:0:
152,32,199767,2,0,P|192:56|256:56,2,104.999996423721,0|0|0,3:3|3:0|3:0,0:0:0:0:
76,44,200473,2,0,L|88:132,1,69.999997615814,0|2,3:3|2:2,0:0:0:0:
304,168,200826,5,8,1:2:0:0:
304,168,201179,2,0,L|292:248,1,69.999997615814,0|0,2:2|2:2,0:0:0:0:
120,272,201532,2,0,L|108:356,1,69.999997615814,0|0,2:3|0:0,0:0:0:0:
208,292,201885,2,0,P|212:252|200:204,1,69.999997615814,4|0,3:2|0:0,0:0:0:0:
96,84,202238,5,8,1:2:0:0:
96,84,202326,2,0,P|96:140|88:200,4,104.999996423721,0|0|0|0|0,3:2|3:2|3:2|3:2|3:2,0:0:0:0:
336,48,203650,1,8,1:2:0:0:
336,48,203914,2,0,P|332:104|336:152,1,104.999996423721,0|0,3:2|3:2,0:0:0:0:
380,232,204356,5,4,3:2:0:0:
320,296,204532,1,0,0:0:0:0:
320,296,204620,1,0,0:0:0:0:
320,296,204709,1,0,0:0:0:0:
232,288,204885,2,0,L|208:240,1,34.999998807907,2|0,1:2|0:0,0:0:0:0:
232,232,205061,2,0,L|224:168,1,34.999998807907,2|0,1:2|0:0,0:0:0:0:
244,172,205238,1,0,0:0:0:0:
200,100,205414,6,0,P|124:136|60:112,1,139.999995231628,2|0,1:2|0:0,0:0:0:0:
364,112,205944,1,2,1:2:0:0:
292,64,206120,2,0,P|368:28|432:52,1,139.999995231628,2|2,1:2|1:2,0:0:0:0:
276,156,206650,1,0,0:0:0:0:
316,228,206826,6,0,L|304:276,3,34.999998807907,0|0|2|2,0:0|0:0|1:2|1:2,0:0:0:0:
232,292,207179,2,0,L|244:348,1,34.999998807907,2|0,1:2|0:0,0:0:0:0:
200,352,207356,2,0,L|212:300,1,34.999998807907,0|0,0:0|0:0,0:0:0:0:
168,296,207532,2,0,L|180:352,1,34.999998807907,0|0,0:0|0:0,0:0:0:0:
136,356,207709,2,0,L|148:304,1,34.999998807907,2|0,1:2|0:0,0:0:0:0:
100,280,207885,2,0,L|92:372,1,69.999997615814,2|0,1:2|0:0,0:0:0:0:
16,304,208238,2,0,P|16:260|8:216,1,69.999997615814,2|0,1:2|0:0,0:0:0:0:
40,160,208591,5,0,0:0:0:0:
124,196,208767,1,2,1:2:0:0:
124,196,208856,1,0,0:0:0:0:
124,196,208944,1,2,1:2:0:0:
200,164,209120,2,0,L|224:112,1,34.999998807907,0|0,0:0|0:0,0:0:0:0:
240,120,209297,2,0,L|232:64,1,34.999998807907,2|0,1:2|0:0,0:0:0:0:
256,68,209473,1,0,0:0:0:0:
300,180,209650,2,0,P|296:228|304:260,1,69.999997615814,0|2,0:0|1:2,0:0:0:0:
312,264,209914,5,2,1:2:0:0:
324,276,210003,1,2,1:2:0:0:
384,212,210179,1,0,0:0:0:0:
412,220,210267,1,0,0:0:0:0:
440,228,210356,1,0,0:0:0:0:
364,108,210532,2,0,L|416:124,1,34.999998807907,2|0,1:2|0:0,0:0:0:0:
424,124,210709,6,0,L|328:140,1,69.999997615814,2|0,1:2|0:0,0:0:0:0:
336,140,210973,1,0,0:0:0:0:
320,144,211061,1,2,1:2:0:0:
316,36,211238,1,0,0:0:0:0:
292,52,211326,1,0,0:0:0:0:
268,68,211414,1,0,0:0:0:0:
192,124,211591,1,2,1:2:0:0:
112,28,211767,6,0,L|136:72,1,34.999998807907,2|0,1:2|0:0,0:0:0:0:
104,76,211944,2,0,L|112:120,1,34.999998807907,0|0,0:0|0:0,0:0:0:0:
92,132,212120,2,0,P|88:188|84:216,1,69.999997615814,2|0,1:2|0:0,0:0:0:0:
108,220,212385,1,0,0:0:0:0:
132,236,212473,2,0,P|188:240|216:244,1,69.999997615814,0|2,0:0|1:2,0:0:0:0:
264,188,212826,5,2,1:2:0:0:
364,196,213003,1,0,0:0:0:0:
364,196,213091,1,0,0:0:0:0:
364,196,213179,1,0,0:0:0:0:
440,128,213356,1,2,1:2:0:0:
264,188,213532,6,0,L|208:176,1,34.999998807907,2|0,1:2|0:0,0:0:0:0:
220,208,213709,2,0,L|164:216,1,34.999998807907,0|0,0:0|0:0,0:0:0:0:
172,240,213885,2,0,P|120:232|76:236,1,69.999997615814,2|0,1:2|0:0,0:0:0:0:
48,176,214238,1,0,0:0:0:0:
256,284,214414,5,2,1:2:0:0:
256,284,214503,1,0,0:0:0:0:
256,284,214591,1,2,1:2:0:0:
348,272,214767,1,0,0:0:0:0:
436,256,214944,1,2,1:2:0:0:
440,240,215032,1,0,0:0:0:0:
444,224,215120,1,0,0:0:0:0:
448,208,215209,1,0,0:0:0:0:
452,192,215297,1,0,0:0:0:0:
456,176,215385,1,0,0:0:0:0:
460,160,215473,1,0,0:0:0:0:
464,144,215561,1,0,0:0:0:0:
