osu file format v14

[General]
AudioFilename: audio.mp3
AudioLeadIn: 0
PreviewTime: 147835
Countdown: 1
SampleSet: Normal
StackLeniency: 0.3
Mode: 0
LetterboxInBreaks: 0
WidescreenStoryboard: 1

[Editor]
Bookmarks: 1011,12306,12482,12659,12747,12923,13100,13188,13276,13453,13541,13629,13717,13806,13982,14070,14159,14247,14335,14511,14600,14688,14776,14864,15041,15129,15217,15306,15394,15482,15659,15835,15923,16011,16276,16364,16541,16629,16806,16894,16982,17070,17247,17335,17423,17511,17776,17864,17953,18129,18217,18394,18482,18659,18747,18835,18923,19100,19188,19276,19364,19453,19717,19806,19894,19982,20159,20247,20335,20423,20511,20688,20776,20864,20953,21041,21129,21217,21306,21394,21482,21570,21747,21923,22011,22100,22364,22541,22717,22806,22894,22982,23159,23247,23423,23600,34894,44776,46188,57482,68776,89975,91364,91453,91629,91717,91806,91894,91982,92159,92247,92335,92423,92511,92688,92776,92864,92953,93041,93217,93482,93570,93747,93835,93923,94011,94100,94364,94453,94541,94629,94806,94894,94982,95070,95247,95335,95423,95511,95688,95864,95953,96041,96129,96217,96306,96394,96570,96659,96835,97011,102659,113953,114041,114217,114394,114570,114659,114835,115011,115100,115276,115453,115629,115806,115894,116070,116247,116423,116600,116776,116953,117041,117217,117306,117570,117659,117747,117923,118011,118188,118276,118364,118453,118541,118629,118806,118894,119070,119247,119335,119423,119600,136541,142188,147923,148100,148188,148276,148364,148453,148629,148806,148982,149159,149247,149423,149511,149600,149688,170423,193011,204306
DistanceSpacing: 0.8
BeatDivisor: 4
GridSize: 16
TimelineZoom: 2.200001

[Metadata]
Title:First Town Of This Journey
TitleUnicode:First Town Of This Journey
Artist:Camellia
ArtistUnicode:かめりあ
Creator:ScubDomino
Version:Hard
Source:
Tags:kamelcamellia kamel cametek CTCD-012 comiket 89 c89 2015 crystallized 大箭将也 masaya oya future bass chiptune 8-bit pixels milan- sing delis collab かめるかめりあ anime girl anime_girl
BeatmapID:1859893
BeatmapSetID:888513

[Difficulty]
HPDrainRate:5
CircleSize:3.5
OverallDifficulty:7.5
ApproachRate:8
SliderMultiplier:1.29999995231628
SliderTickRate:1

[Events]
//Background and Video events
0,0,"unknown.png",0,0
//Break Periods
2,12556,22900
2,91614,96311
2,114203,118900
2,148084,149076
//Storyboard Layer 0 (Background)
//Storyboard Layer 1 (Fail)
//Storyboard Layer 2 (Pass)
//Storyboard Layer 3 (Foreground)
//Storyboard Sound Samples

[TimingPoints]
1062,352.941176470588,4,1,2,60,1,0
3709,-100,4,1,2,30,0,0
3797,-100,4,1,2,45,0,0
3885,-100,4,1,2,60,0,0
6532,-100,4,1,2,30,0,0
6620,-100,4,1,2,45,0,0
6708,-100,4,1,2,60,0,0
9356,-100,4,1,2,30,0,0
9444,-100,4,1,2,45,0,0
9532,-100,4,1,2,60,0,0
12179,-100,4,1,2,30,0,0
12267,-100,4,1,2,45,0,0
12355,-100,4,2,2,60,0,0
23650,-133.333333333333,4,2,2,60,0,0
32517,-133.333333333333,4,2,2,30,0,0
32561,-133.333333333333,4,2,2,40,0,0
32606,-133.333333333333,4,2,2,50,0,0
32650,-133.333333333333,4,2,2,60,0,0
33179,-133.333333333333,4,2,2,70,0,0
35032,-133.333333333333,4,1,2,70,0,0
40591,-133.333333333333,4,1,1,70,0,0
40679,-133.333333333333,4,1,2,70,0,0
40944,-133.333333333333,4,1,1,70,0,0
41032,-133.333333333333,4,1,2,70,0,0
41297,-133.333333333333,4,1,1,70,0,0
41385,-133.333333333333,4,1,2,70,0,0
41650,-133.333333333333,4,1,1,70,0,0
41738,-133.333333333333,4,1,2,70,0,0
42003,-133.333333333333,4,1,1,70,0,0
42091,-133.333333333333,4,1,2,70,0,0
42356,-133.333333333333,4,1,1,70,0,0
42444,-133.333333333333,4,1,2,70,0,0
42709,-133.333333333333,4,1,1,70,0,0
42797,-133.333333333333,4,1,2,70,0,0
43061,-133.333333333333,4,1,1,70,0,0
43149,-133.333333333333,4,1,2,70,0,0
43414,-133.333333333333,4,2,1,70,0,0
44826,-100,4,2,1,70,0,0
45532,-83.3333333333333,4,2,1,70,0,0
46238,-83.3333333333333,4,2,1,80,0,0
48532,-83.3333333333333,4,2,2,60,0,0
49061,-83.3333333333333,4,2,1,60,0,0
49414,-83.3333333333333,4,2,1,80,0,0
54179,-83.3333333333333,4,2,2,80,0,0
54356,-83.3333333333333,4,2,1,80,0,0
54444,-83.3333333333333,4,2,2,80,0,0
54620,-83.3333333333333,4,2,1,80,0,0
56032,-83.3333333333333,4,2,1,70,0,0
56297,-83.3333333333333,4,2,1,56,0,0
56826,-83.3333333333333,4,2,1,60,0,0
57356,-83.3333333333333,4,2,1,70,0,0
57532,-83.3333333333333,4,2,2,60,0,0
57620,-83.3333333333333,4,2,1,80,0,0
57797,-83.3333333333333,4,2,1,56,0,0
58326,-83.3333333333333,4,2,1,60,0,0
58856,-83.3333333333333,4,2,1,70,0,0
59120,-83.3333333333333,4,2,1,80,0,0
59473,-111.111111111111,4,2,2,60,0,0
60356,-83.3333333333333,4,2,1,80,0,0
65473,-83.3333333333333,4,2,2,80,0,0
65650,-83.3333333333333,4,2,1,80,0,0
65738,-83.3333333333333,4,2,2,80,0,0
65914,-83.3333333333333,4,2,1,80,0,0
67326,-83.3333333333333,4,2,1,70,0,0
67591,-83.3333333333333,4,2,1,56,0,0
68120,-83.3333333333333,4,2,1,60,0,0
68650,-83.3333333333333,4,2,1,70,0,0
68826,-83.3333333333333,4,2,1,80,0,0
69709,-83.3333333333333,4,2,2,60,0,0
69885,-83.3333333333333,4,2,1,80,0,0
71120,-83.3333333333333,4,2,2,60,0,0
71649,-83.3333333333333,4,2,1,60,0,0
72002,-83.3333333333333,4,2,1,80,0,0
75356,-83.3333333333333,4,2,2,60,0,0
75532,-83.3333333333333,4,2,1,80,0,0
76767,-83.3333333333333,4,2,2,60,0,0
77297,-83.3333333333333,4,2,1,60,0,0
77650,-83.3333333333333,4,2,1,80,0,0
80120,-133.333333333333,4,2,1,80,0,0
80826,-83.3333333333333,4,2,1,80,0,0
81003,-83.3333333333333,4,2,2,60,0,0
81179,-83.3333333333333,4,2,1,80,0,0
82414,-83.3333333333333,4,2,2,60,0,0
82943,-83.3333333333333,4,2,1,60,0,0
83296,-83.3333333333333,4,2,1,80,0,0
86650,-83.3333333333333,4,2,2,60,0,0
86826,-83.3333333333333,4,2,1,80,0,0
88061,-83.3333333333333,4,2,2,60,0,0
88591,-83.3333333333333,4,2,1,60,0,0
88944,-83.3333333333333,4,2,1,80,0,0
102709,-83.3333333333333,4,2,1,55,0,0
103179,-133.333333333333,4,2,1,55,0,0
114003,-133.333333333333,4,2,1,50,0,0
125297,-133.333333333333,4,2,2,60,0,0
134164,-133.333333333333,4,2,2,30,0,0
134208,-133.333333333333,4,2,2,40,0,0
134253,-133.333333333333,4,2,2,50,0,0
134297,-133.333333333333,4,2,2,60,0,0
135179,-133.333333333333,4,2,2,70,0,0
136591,-100,4,2,1,70,0,0
136679,-100,4,1,2,70,0,0
136944,-100,4,1,1,70,0,0
137032,-100,4,1,2,70,0,0
137297,-100,4,1,1,70,0,0
137385,-100,4,1,2,70,0,0
137650,-100,4,1,1,70,0,0
137738,-100,4,1,2,70,0,0
138003,-100,4,1,1,70,0,0
138091,-100,4,1,2,70,0,0
138356,-100,4,1,1,70,0,0
138444,-100,4,1,2,70,0,0
138709,-100,4,1,1,70,0,0
138797,-100,4,1,2,70,0,0
139061,-100,4,1,1,70,0,0
139149,-100,4,1,2,70,0,0
139414,-100,4,1,1,70,0,0
139502,-100,4,1,2,70,0,0
139767,-100,4,1,1,70,0,0
139855,-100,4,1,2,70,0,0
140120,-100,4,1,1,70,0,0
140208,-100,4,1,2,70,0,0
140473,-100,4,1,1,70,0,0
140561,-100,4,1,2,70,0,0
140826,-100,4,1,1,70,0,0
140914,-100,4,1,2,70,0,0
141179,-100,4,1,1,70,0,0
141267,-100,4,1,2,70,0,0
141532,-100,4,1,1,70,0,0
141620,-100,4,1,2,70,0,0
141885,-100,4,1,1,70,0,0
141973,-100,4,1,2,70,0,0
142238,-100,4,2,1,70,0,0
147863,-100,4,2,1,80,0,0
150157,-100,4,2,2,60,0,0
150686,-100,4,2,1,60,0,0
150709,-66.6666666666667,4,2,1,60,0,0
151039,-66.6666666666667,4,2,1,80,0,0
151061,-83.3333333333333,4,2,1,80,0,0
155804,-83.3333333333333,4,2,2,80,0,0
155981,-83.3333333333333,4,2,1,80,0,0
156069,-83.3333333333333,4,2,2,80,0,0
156245,-83.3333333333333,4,2,1,80,0,0
157657,-83.3333333333333,4,2,1,70,0,0
157922,-83.3333333333333,4,2,1,56,0,0
158451,-83.3333333333333,4,2,1,60,0,0
158981,-83.3333333333333,4,2,1,70,0,0
159157,-83.3333333333333,4,2,2,60,0,0
159245,-83.3333333333333,4,2,1,80,0,0
159422,-83.3333333333333,4,2,1,56,0,0
159951,-83.3333333333333,4,2,1,60,0,0
160481,-83.3333333333333,4,2,1,70,0,0
160745,-83.3333333333333,4,2,1,80,0,0
161098,-83.3333333333333,4,2,2,60,0,0
161981,-83.3333333333333,4,2,1,80,0,0
167098,-83.3333333333333,4,2,2,80,0,0
167275,-83.3333333333333,4,2,1,80,0,0
167363,-83.3333333333333,4,2,2,80,0,0
167539,-83.3333333333333,4,2,1,80,0,0
168951,-83.3333333333333,4,2,1,70,0,0
169216,-83.3333333333333,4,2,1,56,0,0
169745,-83.3333333333333,4,2,1,60,0,0
170275,-83.3333333333333,4,2,1,70,0,0
170451,-83.3333333333333,4,2,1,80,0,0
171334,-83.3333333333333,4,2,2,60,0,0
171510,-83.3333333333333,4,2,1,80,0,0
172745,-83.3333333333333,4,2,2,60,0,0
173274,-83.3333333333333,4,2,1,60,0,0
173627,-83.3333333333333,4,2,1,80,0,0
176981,-83.3333333333333,4,2,2,60,0,0
177157,-83.3333333333333,4,2,1,80,0,0
178392,-83.3333333333333,4,2,2,60,0,0
178922,-83.3333333333333,4,2,1,60,0,0
179275,-83.3333333333333,4,2,1,80,0,0
181767,-133.333333333333,4,2,1,80,0,0
182473,-83.3333333333333,4,2,1,80,0,0
182628,-83.3333333333333,4,2,2,60,0,0
182804,-83.3333333333333,4,2,1,80,0,0
184039,-83.3333333333333,4,2,2,60,0,0
184568,-83.3333333333333,4,2,1,60,0,0
184921,-83.3333333333333,4,2,1,80,0,0
188275,-83.3333333333333,4,2,2,60,0,0
188451,-83.3333333333333,4,2,1,80,0,0
189686,-83.3333333333333,4,2,2,60,0,0
190216,-83.3333333333333,4,2,1,60,0,0
190569,-83.3333333333333,4,2,1,80,0,0
192356,-76.9230769230769,4,2,1,80,0,0
193061,-100,4,2,1,80,0,0
204356,-100,4,1,2,70,0,0
205061,-100,4,1,2,60,0,0
207003,-100,4,1,2,30,0,0
207091,-100,4,1,2,45,0,0
207179,-100,4,1,2,60,0,0
209826,-100,4,1,2,30,0,0
209914,-100,4,1,2,45,0,0
210002,-100,4,1,2,60,0,0
212650,-100,4,1,2,30,0,0
212738,-100,4,1,2,45,0,0
212826,-100,4,1,2,60,0,0
214944,-66.6666666666667,4,1,2,60,0,0
215120,-66.6666666666667,4,1,2,65,0,0
215297,-66.6666666666667,4,1,2,70,0,0
215473,-66.6666666666667,4,1,2,75,0,0
215650,-66.6666666666667,4,1,2,80,0,0

[Colours]
Combo1 : 239,232,143
Combo2 : 128,165,221
Combo3 : 171,207,118
Combo4 : 216,223,210

[HitObjects]
56,240,1061,6,0,L|192:240,1,129.999995231628,2|0,1:2|1:2,0:0:0:0:
242,303,1591,1,2,1:2:0:0:
303,360,1767,2,0,L|375:360,1,64.999997615814,2|0,1:2|0:0,0:0:0:0:
451,345,2120,6,0,L|451:377,4,32.499998807907,2|0|0|0|0,1:2|0:0|0:0|0:0|0:0,0:0:0:0:
504,278,2650,1,2,1:2:0:0:
440,224,2826,2,0,B|407:224|407:224|407:188,1,64.999997615814,2|0,1:2|0:0,0:0:0:0:
432,104,3179,2,0,L|272:104,1,129.999995231628,2|0,1:2|0:0,0:0:0:0:
128,16,3709,5,2,1:2:0:0:
128,16,3797,1,2,1:2:0:0:
128,16,3885,2,0,B|32:16|32:16|32:72,1,129.999995231628,2|0,1:2|0:0,0:0:0:0:
32,136,4414,1,2,1:2:0:0:
88,200,4591,2,0,L|88:272,1,64.999997615814,2|0,1:2|0:0,0:0:0:0:
184,376,4944,6,0,L|320:376,1,129.999995231628,2|0,1:2|0:0,0:0:0:0:
376,312,5473,1,2,1:2:0:0:
440,376,5650,2,0,L|520:376,1,64.999997615814,2|0,1:2|0:0,0:0:0:0:
504,296,6003,2,0,L|504:184,1,97.499996423721,2|0,1:2|0:0,0:0:0:0:
504,192,6356,2,0,L|456:192,1,32.499998807907,0|0,0:0|0:0,0:0:0:0:
376,224,6532,5,2,1:2:0:0:
368,216,6620,1,2,1:2:0:0:
360,208,6709,2,0,B|360:112|360:112|424:112,1,129.999995231628,2|0,1:2|0:0,0:0:0:0:
456,48,7238,1,2,1:2:0:0:
376,24,7414,2,0,L|296:24,1,64.999997615814,2|0,1:2|0:0,0:0:0:0:
208,24,7767,6,0,B|208:168,1,129.999995231628,2|0,1:2|0:0,0:0:0:0:
144,208,8297,1,2,1:2:0:0:
80,152,8473,2,0,L|-8:152,1,64.999997615814,2|0,1:2|0:0,0:0:0:0:
16,240,8826,2,0,L|16:376,1,129.999995231628,2|0,1:2|0:0,0:0:0:0:
128,368,9356,5,2,1:2:0:0:
128,368,9444,1,2,1:2:0:0:
128,368,9532,2,0,B|224:368|224:368|224:312,1,129.999995231628,2|0,1:2|0:0,0:0:0:0:
224,248,10061,1,2,1:2:0:0:
312,248,10238,2,0,L|376:248,1,64.999997615814,2|0,1:2|0:0,0:0:0:0:
456,280,10591,6,0,L|456:136,1,129.999995231628,2|0,1:2|0:0,0:0:0:0:
376,168,11120,1,2,1:2:0:0:
328,96,11297,2,0,L|328:8,1,64.999997615814,2|0,1:2|0:0,0:0:0:0:
400,0,11650,2,0,L|528:0,1,97.499996423721,2|0,1:2|0:0,0:0:0:0:
512,0,12003,2,0,L|512:56,3,32.499998807907,0|0|2|2,0:0|0:0|1:2|1:2,0:0:0:0:
512,40,12356,5,2,1:2:0:0:
488,136,23650,6,0,L|328:136,1,146.250000214576,0|0,1:0|1:0,0:0:0:0:
256,136,24356,2,0,L|256:296,1,146.250000214576,2|0,1:2|1:0,0:0:0:0:
208,352,24973,1,0,1:0:0:0:
208,352,25061,2,0,L|112:352,2,73.1250001072881,0|0|0,1:0|1:0|1:0,0:0:0:0:
304,352,25767,2,0,L|400:352,2,73.1250001072881,2|2|2,1:2|1:2|1:2,0:0:0:0:
256,282,26473,6,0,L|256:136,1,146.250000214576,0|0,1:0|1:0,0:0:0:0:
256,48,27179,2,0,L|96:48,1,146.250000214576,2|0,1:2|1:0,0:0:0:0:
24,80,27797,1,0,1:0:0:0:
24,80,27885,2,0,L|24:-16,2,73.1250001072881,0|0|0,1:0|1:0|1:0,0:0:0:0:
112,136,28591,2,0,L|112:232,2,73.1250001072881,2|2|2,1:2|1:2|1:2,0:0:0:0:
109,48,29297,6,0,L|256:48,1,146.250000214576,0|0,1:0|1:0,0:0:0:0:
256,136,30003,2,0,L|416:136,1,146.250000214576,2|0,1:2|1:0,0:0:0:0:
432,216,30621,1,0,1:0:0:0:
432,216,30709,2,0,L|528:216,2,73.1250001072881,0|0|0,1:0|1:0|1:0,0:0:0:0:
368,280,31414,2,0,L|368:392,2,97.5000001430508,2|0|0,1:2|0:0|1:0,0:0:0:0:
256,192,32473,6,0,L|256:224,1,24.3750000357627,0|0,2:0|2:0,0:0:0:0:
256,224,32650,2,0,L|152:224,1,97.5000001430508,0|0,2:0|0:0,0:0:0:0:
72,224,33179,2,0,L|72:160,1,48.7500000715254,0|0,1:0|0:0,0:0:0:0:
112,104,33532,1,0,1:0:0:0:
256,72,33885,1,0,1:0:0:0:
400,104,34238,2,0,L|400:160,1,48.7500000715254,0|0,1:0|1:0,0:0:0:0:
472,192,34591,2,0,L|454:253,1,48.7500000715254,0|0,1:0|1:0,0:0:0:0:
510,317,34944,6,0,L|440:328,1,48.7500000715254,2|0,1:2|0:0,0:0:0:0:
392,368,35297,1,0,0:0:0:0:
288,288,35473,1,2,1:2:0:0:
216,336,35650,2,0,L|136:328,1,73.1250001072881,2|0,1:2|0:0,0:0:0:0:
128,320,36003,6,0,L|24:336,1,97.5000001430508,2|0,1:2|0:0,0:0:0:0:
0,256,36532,1,2,1:2:0:0:
80,152,36709,2,0,L|72:104,1,48.7500000715254,2|0,1:2|0:0,0:0:0:0:
134,271,37061,2,0,L|127:319,1,48.7500000715254,2|0,1:2|0:0,0:0:0:0:
184,384,37414,1,0,0:0:0:0:
288,328,37591,5,2,1:2:0:0:
296,336,37679,1,2,1:2:0:0:
304,344,37768,2,0,B|416:328,1,97.5000001430508,2|0,1:2|0:0,0:0:0:0:
480,360,38297,1,2,1:2:0:0:
504,280,38473,2,0,L|496:224,1,48.7500000715254,2|0,1:2|0:0,0:0:0:0:
440,168,38826,6,0,L|446:111,1,48.7500000715254,2|0,1:2|0:0,0:0:0:0:
383,59,39179,1,0,0:0:0:0:
270,141,39356,1,2,1:2:0:0:
211,78,39533,2,0,L|163:70,1,48.7500000715254,2|0,1:2|0:0,0:0:0:0:
104,129,39885,2,0,L|110:177,1,48.7500000715254,2|0,1:2|0:0,0:0:0:0:
125,260,40238,2,0,L|134:327,1,48.7500000715254,0|2,0:0|1:2,0:0:0:0:
131,308,40503,1,2,1:2:0:0:
131,308,40591,5,2,3:2:0:0:
378,313,40944,1,2,3:2:0:0:
381,74,41297,1,2,3:2:0:0:
138,67,41650,1,2,3:2:0:0:
251,333,42003,5,2,3:2:0:0:
397,196,42356,1,2,3:2:0:0:
260,50,42709,1,2,3:2:0:0:
114,187,43061,1,2,3:2:0:0:
302,155,43414,5,8,1:2:0:0:
292,238,43591,1,0,3:2:0:0:
210,230,43767,1,8,1:2:0:0:
219,145,43944,1,0,3:2:0:0:
321,156,44120,5,8,1:2:0:0:
291,257,44297,1,0,3:2:0:0:
191,229,44473,1,8,1:2:0:0:
220,126,44650,1,0,3:2:0:0:
256,40,44826,6,0,L|256:-16,7,32.499998807907,10|0|10|0|10|0|10|0,3:2|3:2|3:2|3:2|3:2|3:2|3:2|3:2,0:0:0:0:
256,50,45532,2,0,B|260:70|289:73|289:73|289:121|242:125|242:125|226:166|271:182|271:182|286:211|260:236|260:236|247:252|259:279,1,272.999981655121,8|0,0:0|0:0,0:0:0:0:
219,340,46238,6,0,P|257:336|321:349,1,77.9999947586059,4|0,3:2|0:0,0:0:0:0:
309,350,46503,2,0,P|347:346|411:359,1,77.9999947586059,2|0,3:0|0:0,0:0:0:0:
401,361,46767,1,2,3:0:0:0:
493,272,46944,1,8,1:2:0:0:
253,251,47297,6,0,L|244:149,1,77.9999947586059,2|0,3:3|0:0,0:0:0:0:
257,164,47562,2,0,L|248:62,1,77.9999947586059,2|0,3:0|0:0,0:0:0:0:
256,72,47826,1,2,3:0:0:0:
173,22,48003,2,0,P|137:54|140:22,1,77.9999947586059,0|2,3:3|2:2,0:0:0:0:
76,106,48356,2,0,P|37:97|-16:97,3,77.9999947586059,8|0|0|0,1:2|2:2|2:2|2:2,0:0:0:0:
0,189,49061,5,8,2:3:0:0:
0,189,49150,1,8,2:3:0:0:
0,189,49238,2,0,P|37:180|69:180,1,38.9999973793029,4|4,0:3|0:3,0:0:0:0:
137,161,49414,2,0,L|143:245,1,77.9999947586059,4|2,3:2|2:3,0:0:0:0:
95,328,49768,5,8,1:2:0:0:
95,328,49856,2,0,L|179:334,1,77.9999947586059,0|0,3:2|0:0,0:0:0:0:
258,384,50120,2,0,P|253:327|266:288,1,77.9999947586059,0|2,3:2|2:3,0:0:0:0:
263,270,50385,2,0,P|270:309|264:347,1,77.9999947586059,0|0,3:2|0:0,0:0:0:0:
349,321,50649,2,0,L|427:327,1,77.9999947586059,0|2,3:2|2:3,0:0:0:0:
487,261,50914,2,0,L|478:173,1,77.9999947586059,0|0,3:2|0:0,0:0:0:0:
485,177,51179,5,8,1:2:0:0:
356,73,51444,5,0,3:2:0:0:
331,237,51709,5,0,3:2:0:0:
391,161,51885,2,0,P|353:153|288:161,1,77.9999947586059,0|0,3:2|0:0,0:0:0:0:
300,163,52150,2,0,P|262:155|197:163,1,77.9999947586059,2|0,3:0|0:0,0:0:0:0:
207,166,52414,1,2,3:0:0:0:
113,83,52591,1,8,1:2:0:0:
0,243,52944,6,0,P|38:235|103:243,1,77.9999947586059,2|0,3:3|0:0,0:0:0:0:
91,245,53209,2,0,P|129:237|194:245,1,77.9999947586059,2|0,3:0|0:0,0:0:0:0:
184,248,53473,1,2,3:0:0:0:
262,282,53650,2,0,L|248:373,1,77.9999947586059,0|2,3:3|2:2,0:0:0:0:
371,384,54003,1,8,1:2:0:0:
430,326,54179,2,0,L|451:192,1,116.999992137909,2|2,2:2|2:2,0:0:0:0:
356,90,54709,2,0,P|361:60|324:17,1,77.9999947586059,8|4,2:3|0:3,0:0:0:0:
257,8,55061,6,0,P|239:59|246:139,1,116.999992137909,4|0,3:2|0:0,0:0:0:0:
193,191,55414,1,8,1:2:0:0:
193,191,55502,2,0,L|109:197,1,77.9999947586059,0|0,3:3|0:0,0:0:0:0:
95,187,55767,2,0,P|52:210|24:248,1,77.9999947586059,0|0,3:3|0:0,0:0:0:0:
0,323,56032,6,0,L|99:316,1,77.9999947586059,0|0,3:3|0:0,0:0:0:0:
78,299,56297,2,0,L|175:318,1,77.9999947586059,8|0,3:2|0:0,0:0:0:0:
173,280,56562,2,0,L|262:323,1,77.9999947586059,8|0,3:2|0:0,0:0:0:0:
273,270,56827,2,0,L|347:335,1,77.9999947586059,8|0,3:2|0:0,0:0:0:0:
370,276,57091,2,0,L|402:370,1,77.9999947586059,8|0,3:2|0:0,0:0:0:0:
458,306,57356,2,0,L|447:404,1,77.9999947586059,8|2,3:2|0:0,0:0:0:0:
478,172,57797,6,0,L|378:178,1,77.9999947586059,12|0,3:2|0:0,0:0:0:0:
400,196,58062,2,0,L|302:176,1,77.9999947586059,12|0,3:2|0:0,0:0:0:0:
305,215,58327,2,0,L|215:171,1,77.9999947586059,12|0,3:2|0:0,0:0:0:0:
205,225,58592,2,0,L|130:159,1,77.9999947586059,12|0,3:2|0:0,0:0:0:0:
108,219,58856,2,0,L|75:124,1,77.9999947586059,12|0,3:2|0:0,0:0:0:0:
20,189,59121,2,0,L|30:90,1,77.9999947586059,12|0,3:2|0:0,0:0:0:0:
57,19,59473,6,0,P|16:27|-15:25,2,58.4999960689544,0|0|0,2:2|2:2|2:2,0:0:0:0:
130,71,60003,2,0,L|215:77,1,58.4999960689544,2|0,2:2|2:2,0:0:0:0:
312,0,60356,6,0,P|345:46|434:59,1,116.999992137909,4|0,3:2|0:0,0:0:0:0:
414,55,60709,2,0,L|408:147,1,77.9999947586059,0|2,3:2|2:3,0:0:0:0:
422,229,61062,5,8,1:2:0:0:
422,229,61150,2,0,L|338:235,1,77.9999947586059,0|0,3:2|0:0,0:0:0:0:
259,285,61414,2,0,P|264:228|251:189,1,77.9999947586059,0|2,3:2|2:3,0:0:0:0:
254,171,61679,2,0,P|247:210|253:248,1,77.9999947586059,0|0,3:2|0:0,0:0:0:0:
168,222,61943,2,0,L|90:228,1,77.9999947586059,0|2,3:2|2:3,0:0:0:0:
30,162,62208,2,0,L|39:74,1,77.9999947586059,0|0,3:2|0:0,0:0:0:0:
32,78,62473,5,8,1:2:0:0:
196,53,62737,5,0,3:2:0:0:
341,134,63003,5,0,3:2:0:0:
423,95,63179,2,0,L|436:192,1,77.9999947586059,0|0,3:2|0:0,0:0:0:0:
442,179,63444,2,0,L|455:276,1,77.9999947586059,2|0,3:0|0:0,0:0:0:0:
458,260,63709,1,2,3:0:0:0:
372,348,63885,1,8,1:2:0:0:
270,184,64238,6,0,L|259:261,1,77.9999947586059,2|0,3:3|0:0,0:0:0:0:
251,268,64503,2,0,L|240:345,1,77.9999947586059,2|0,3:0|0:0,0:0:0:0:
235,349,64768,1,2,3:0:0:0:
162,301,64944,2,0,L|78:311,1,77.9999947586059,0|2,3:3|2:2,0:0:0:0:
26,243,65297,2,0,P|35:189|28:163,3,77.9999947586059,8|2|0|0,1:2|2:2|2:2|0:0,0:0:0:0:
0,46,66003,2,0,L|57:52,3,38.9999973793029,8|8|4|4,2:3|2:3|0:3|0:3,0:0:0:0:
45,73,66356,6,0,L|178:62,1,116.999992137909,4|0,3:2|0:0,0:0:0:0:
243,103,66709,1,8,1:2:0:0:
243,103,66797,2,0,L|259:14,1,77.9999947586059,0|0,3:3|0:0,0:0:0:0:
338,4,67061,6,0,P|361:41|370:97,1,77.9999947586059,0|0,3:3|0:0,0:0:0:0:
381,71,67326,2,0,P|394:112|388:169,1,77.9999947586059,0|0,3:3|0:0,0:0:0:0:
424,131,67591,2,0,P|425:174|405:228,1,77.9999947586059,8|0,3:2|0:0,0:0:0:0:
465,195,67856,2,0,P|455:237|421:284,1,77.9999947586059,8|0,3:2|0:0,0:0:0:0:
488,257,68120,2,0,P|467:295|422:331,1,77.9999947586059,8|0,3:2|0:0,0:0:0:0:
497,323,68385,2,0,P|467:355|414:378,1,77.9999947586059,8|0,3:2|0:0,0:0:0:0:
426,377,68650,1,8,3:2:0:0:
333,288,68826,6,0,L|253:280,1,77.9999947586059,4|2,3:2|2:2,0:0:0:0:
165,252,69179,2,0,P|167:293|157:332,1,77.9999947586059,2|0,2:3|3:0,0:0:0:0:
79,358,69532,1,8,1:2:0:0:
11,310,69709,2,0,L|7:259,1,38.9999973793029,2|2,2:0|2:0,0:0:0:0:
0,264,69885,2,0,L|15:171,1,77.9999947586059,2|0,3:3|2:2,0:0:0:0:
73,80,70238,6,0,P|31:98|-7:98,1,77.9999947586059,2|2,2:3|3:0,0:0:0:0:
96,168,70591,2,0,L|194:182,1,77.9999947586059,0|2,3:3|2:2,0:0:0:0:
256,144,70944,5,8,1:2:0:0:
304,72,71120,1,0,2:2:0:0:
256,0,71297,1,0,2:2:0:0:
208,72,71473,1,0,2:2:0:0:
256,144,71650,2,0,B|256:152|256:152|263:160|263:160|249:164|249:164|259:174|259:174|253:179|253:179|256:188|256:188|256:201,1,77.9999947586059,4|0,2:3|0:0,0:0:0:0:
345,172,72003,2,0,L|453:158,1,77.9999947586059,4|2,3:2|2:3,0:0:0:0:
504,235,72356,1,8,1:2:0:0:
504,235,72444,2,0,L|492:312,1,77.9999947586059,0|0,3:2|0:0,0:0:0:0:
420,371,72709,1,0,3:2:0:0:
372,295,72885,1,2,2:3:0:0:
293,255,73061,6,0,P|250:281|204:287,1,77.9999947586059,2|0,2:3|3:2,0:0:0:0:
144,247,73414,2,0,L|134:334,1,77.9999947586059,2|2,2:3|2:3,0:0:0:0:
72,376,73767,5,8,1:2:0:0:
15,205,74032,5,2,3:3:0:0:
173,107,74297,5,2,3:3:0:0:
156,27,74473,2,0,P|194:23|258:36,1,77.9999947586059,4|2,3:2|2:2,0:0:0:0:
292,91,74826,2,0,P|330:95|394:82,1,77.9999947586059,2|0,2:3|3:0,0:0:0:0:
430,29,75179,1,8,1:2:0:0:
507,70,75356,2,0,L|511:121,1,38.9999973793029,2|2,2:0|2:0,0:0:0:0:
512,120,75532,2,0,L|505:208,1,77.9999947586059,2|0,3:3|2:2,0:0:0:0:
413,221,75885,6,0,P|422:253|403:315,1,77.9999947586059,2|2,2:3|3:0,0:0:0:0:
378,384,76238,2,0,L|417:379,2,38.9999973793029,0|0|2,3:3|0:0|2:2,0:0:0:0:
304,312,76591,5,8,1:2:0:0:
256,384,76767,1,0,2:2:0:0:
208,312,76944,1,0,2:2:0:0:
256,240,77120,1,0,2:2:0:0:
256,156,77297,6,0,B|256:164|256:164|263:172|263:172|249:176|249:176|259:186|259:186|253:191|253:191|256:200|256:200|256:213,1,77.9999947586059,4|0,2:3|0:0,0:0:0:0:
171,146,77650,2,0,P|139:137|77:156,1,77.9999947586059,4|2,3:2|2:3,0:0:0:0:
25,93,78002,1,8,1:2:0:0:
25,93,78091,2,0,L|36:9,1,77.9999947586059,0|0,3:2|0:0,0:0:0:0:
41,8,78356,1,0,3:2:0:0:
114,54,78532,1,2,2:3:0:0:
192,22,78708,6,0,L|279:14,1,77.9999947586059,2|0,2:3|3:2,0:0:0:0:
339,61,79061,2,0,L|431:72,1,77.9999947586059,2|2,2:3|2:3,0:0:0:0:
463,2,79414,5,8,1:2:0:0:
487,187,79679,5,2,3:3:0:0:
510,372,79944,5,2,3:3:0:0:
445,326,80120,2,0,L|338:318,1,97.5000001430508,2|0,3:3|0:0,0:0:0:0:
44,293,80826,5,12,1:2:0:0:
111,346,81002,1,2,2:0:0:0:
116,340,81090,1,2,2:0:0:0:
122,334,81179,2,0,L|130:237,1,77.9999947586059,2|0,3:3|2:2,0:0:0:0:
158,153,81532,6,0,P|127:172|60:165,1,77.9999947586059,2|2,2:3|3:0,0:0:0:0:
0,181,81885,2,0,P|31:162|98:169,1,77.9999947586059,0|2,3:3|2:2,0:0:0:0:
166,146,82238,6,0,L|158:49,1,77.9999947586059,8|0,1:2|2:2,0:0:0:0:
227,17,82591,1,0,2:2:0:0:
284,79,82767,1,0,2:2:0:0:
256,156,82944,6,0,B|256:164|256:164|263:172|263:172|249:176|249:176|259:186|259:186|253:191|253:191|256:200|256:200|256:213,1,77.9999947586059,4|0,2:3|0:0,0:0:0:0:
339,205,83297,2,0,P|381:235|439:233,1,77.9999947586059,4|2,3:2|2:3,0:0:0:0:
498,286,83650,1,8,1:2:0:0:
498,286,83738,2,0,L|486:209,1,77.9999947586059,0|0,3:2|0:0,0:0:0:0:
479,198,84003,1,0,3:2:0:0:
497,117,84179,1,2,2:3:0:0:
428,70,84356,6,0,L|345:77,1,77.9999947586059,2|0,2:3|3:2,0:0:0:0:
285,27,84709,2,0,L|207:20,1,77.9999947586059,2|2,2:3|2:3,0:0:0:0:
152,82,85061,5,8,1:2:0:0:
147,277,85326,5,2,3:3:0:0:
315,179,85591,5,2,3:3:0:0:
229,158,85767,2,0,L|124:174,1,77.9999947586059,4|2,3:2|2:2,0:0:0:0:
74,204,86120,1,2,2:3:0:0:
8,150,86297,1,0,3:0:0:0:
9,258,86473,2,0,P|12:302|3:347,1,77.9999947586059,8|2,1:2|2:0,0:0:0:0:
92,332,86826,2,0,P|136:329|181:338,1,77.9999947586059,2|0,3:3|2:2,0:0:0:0:
238,382,87179,5,2,2:3:0:0:
323,313,87356,1,2,3:0:0:0:
391,361,87532,2,0,L|484:367,1,77.9999947586059,0|2,3:3|2:2,0:0:0:0:
507,293,87885,6,0,L|513:200,1,77.9999947586059,8|0,1:2|2:2,0:0:0:0:
449,156,88238,2,0,L|455:63,1,77.9999947586059,0|0,2:2|2:2,0:0:0:0:
392,24,88591,5,4,3:2:0:0:
256,192,88679,12,2,90003,2:3:0:0:
261,77,90709,6,0,B|256:97|226:100|226:100|226:150|275:154|275:154|291:196|245:213|245:213|230:243|256:269|256:269|270:285|257:313,1,311.999979034423,8|2,1:2|3:3,0:0:0:0:
256,192,97061,12,0,102709,0:0:0:0:
194,254,103179,6,0,L|240:248,1,32.5000000476836,0|0,0:0|0:0,0:0:0:0:
236,237,103414,2,0,P|280:246|344:246,1,97.5000001430508,2|0,0:0|0:0,0:0:0:0:
433,282,103944,2,0,P|422:195|470:151,1,146.250000214576,2|0,0:0|0:0,0:0:0:0:
436,78,104650,2,0,P|392:87|328:87,1,97.5000001430508,2|0,0:0|0:0,0:0:0:0:
261,110,105179,2,0,P|250:52|199:11,1,97.5000001430508,2|4,0:0|0:0,0:0:0:0:
112,106,106003,6,0,P|105:144|103:150,1,32.5000000476836,0|0,0:0|0:0,0:0:0:0:
95,148,106238,2,0,P|107:193|114:252,1,97.5000001430508,2|0,0:0|0:0,0:0:0:0:
131,328,106767,2,0,P|220:319|244:373,1,146.250000214576,2|0,0:0|0:0,0:0:0:0:
317,328,107473,2,0,L|427:317,1,97.5000001430508,2|0,0:0|0:0,0:0:0:0:
477,270,108003,2,0,P|465:215|472:189,1,48.7500000715254,2|0,0:0|0:0,0:0:0:0:
505,153,108356,6,0,L|487:0,2,146.250000214576,4|0|0,0:0|0:0|0:0,0:0:0:0:
383,237,109767,2,0,L|271:225,1,97.5000001430508,2|0,0:0|0:0,0:0:0:0:
217,182,110297,2,0,P|176:246|96:268,1,146.250000214576,0|2,0:0|0:0,0:0:0:0:
7,153,111179,6,0,L|25:0,2,146.250000214576,6|2|0,0:0|0:0|0:0,0:0:0:0:
112,268,112591,2,0,P|173:269|248:300,1,130.000000190734,2|0,0:0|0:0,0:0:0:0:
243,302,113179,1,2,0:0:0:0:
249,312,113297,2,0,L|358:301,1,97.5000001430508,2|0,0:0|0:0,0:0:0:0:
486,376,114003,5,6,0:0:0:0:
256,192,119650,12,2,124591,0:0:0:0:
104,91,125297,6,0,L|286:76,1,146.250000214576,0|0,1:0|1:0,0:0:0:0:
318,25,126003,1,2,1:2:0:0:
430,118,126532,1,0,1:0:0:0:
430,118,126621,1,0,1:0:0:0:
430,118,126709,2,0,L|419:210,2,73.1250001072881,0|0|0,1:0|1:0|1:0,0:0:0:0:
406,27,127414,2,0,P|446:36|479:36,2,73.1250001072881,2|2|2,1:2|1:2|1:2,0:0:0:0:
330,64,128120,6,0,L|345:223,1,146.250000214576,0|0,1:0|1:0,0:0:0:0:
276,256,128826,1,2,1:2:0:0:
159,148,129356,1,0,1:0:0:0:
159,148,129445,1,0,1:0:0:0:
159,148,129533,2,0,L|67:137,2,73.1250001072881,0|0|0,1:0|1:0|0:0,0:0:0:0:
245,183,130238,2,0,P|243:144|256:91,2,73.1250001072881,2|2|2,1:2|1:2|1:2,0:0:0:0:
199,254,130944,6,0,P|128:248|67:314,1,146.250000214576,0|0,1:0|1:0,0:0:0:0:
123,358,131650,1,2,1:2:0:0:
257,315,132003,2,0,L|323:324,1,48.7500000715254,0|0,0:0|1:0,0:0:0:0:
373,361,132356,2,0,P|427:336|452:336,2,73.1250001072881,0|0|0,1:0|1:0|1:0,0:0:0:0:
305,321,133061,2,0,L|313:245,1,73.1250001072881,2|2,1:2|1:2,0:0:0:0:
317,243,133414,2,0,L|324:181,1,48.7500000715254,0|2,0:0|1:2,0:0:0:0:
393,151,133767,5,0,1:0:0:0:
306,49,134120,2,0,L|302:16,1,24.3750000357627,0|0,0:0|0:0,0:0:0:0:
285,14,134297,2,0,P|218:38|172:38,1,97.5000001430508,0|0,0:0|0:0,0:0:0:0:
117,7,134826,1,0,1:0:0:0:
26,96,135179,2,0,L|15:203,1,97.5000001430508,0|0,1:0|1:0,0:0:0:0:
25,272,135709,1,0,0:0:0:0:
86,321,135885,2,0,L|152:314,3,48.7500000715254,0|0|0|0,1:0|1:0|1:0|1:0,0:0:0:0:
256,264,136591,6,0,P|272:328|352:360,1,129.999995231628,2|0,1:2|3:2,0:0:0:0:
400,384,137120,1,2,1:2:0:0:
480,304,137297,2,0,P|472:264|472:224,1,64.999997615814,2|0,1:2|0:0,0:0:0:0:
408,184,137650,2,0,P|416:142|416:112,1,64.999997615814,2|0,1:2|0:0,0:0:0:0:
450,44,138003,5,0,3:2:0:0:
380,1,138179,1,2,1:2:0:0:
285,74,138356,2,0,P|241:74|203:87,1,64.999997615814,2|0,1:2|0:0,0:0:0:0:
151,43,138709,6,0,P|107:43|69:30,1,64.999997615814,2|0,1:2|0:0,0:0:0:0:
12,61,139061,1,0,3:2:0:0:
97,165,139238,5,0,3:2:0:0:
97,165,139326,1,0,3:2:0:0:
97,165,139414,2,0,P|145:222|144:276,1,129.999995231628,2|0,1:2|3:2,0:0:0:0:
65,291,139944,1,2,1:2:0:0:
152,384,140120,2,0,P|205:379|244:385,1,64.999997615814,2|0,1:2|0:0,0:0:0:0:
265,315,140473,2,0,P|318:320|357:314,1,64.999997615814,2|0,1:2|0:0,0:0:0:0:
399,369,140826,5,0,3:2:0:0:
494,296,141003,1,2,1:2:0:0:
441,232,141179,2,0,P|447:197|443:143,1,64.999997615814,2|0,1:2|0:0,0:0:0:0:
375,130,141532,6,0,P|369:95|373:41,1,64.999997615814,2|0,1:2|0:0,0:0:0:0:
427,8,141885,2,0,L|520:-1,1,64.999997615814,0|0,3:2|3:2,0:0:0:0:
272,90,142238,6,0,L|186:81,1,64.999997615814,8|0,1:2|3:2,0:0:0:0:
358,208,142591,2,0,L|367:122,1,64.999997615814,8|0,1:2|3:2,0:0:0:0:
240,294,142944,2,0,L|326:303,1,64.999997615814,8|0,1:2|3:2,0:0:0:0:
154,176,143297,2,0,L|145:262,1,64.999997615814,8|0,1:2|3:2,0:0:0:0:
270,102,143650,6,0,L|194:94,1,64.999997615814,8|0,1:2|3:2,0:0:0:0:
345,206,144003,2,0,L|353:130,1,64.999997615814,8|0,1:2|3:2,0:0:0:0:
241,281,144356,2,0,L|317:289,1,64.999997615814,8|0,1:2|3:2,0:0:0:0:
166,177,144709,2,0,L|158:253,1,64.999997615814,8|0,1:2|3:2,0:0:0:0:
268,111,145061,6,0,L|233:107,3,32.499998807907,8|0|0|0,1:2|3:2|3:2|3:2,0:0:0:0:
335,204,145414,2,0,L|339:169,3,32.499998807907,8|0|0|0,1:2|3:2|3:2|3:2,0:0:0:0:
242,271,145767,2,0,L|277:275,3,32.499998807907,8|0|0|0,1:2|3:2|3:2|3:2,0:0:0:0:
175,178,146120,2,0,L|171:213,3,32.499998807907,8|0|0|0,1:2|3:2|3:2|3:2,0:0:0:0:
256,192,146473,6,0,L|256:168,14,16.2499994039535,10|0|0|0|10|0|0|0|10|0|0|0|10|0|0,3:2|0:0|3:2|0:0|3:2|0:0|3:2|0:0|3:2|0:0|3:2|0:0|3:2|0:0|3:2,0:0:0:0:
271,94,147179,2,0,P|257:4|242:94,1,259.999990463256,10|4,0:0|3:2,0:0:0:0:
256,144,149826,5,2,2:2:0:0:
256,144,149914,1,2,2:2:0:0:
256,144,150003,2,0,L|264:248,2,97.499996423721,2|0|0,1:2|0:0|0:0,0:0:0:0:
249,59,150709,6,0,L|259:12,3,48.7500000715254,8|8|4|4,2:3|2:3|0:3|0:3,0:0:0:0:
332,114,151061,2,0,P|384:112|441:162,1,116.999992137909,4|0,3:2|0:0,0:0:0:0:
385,229,151414,5,8,1:2:0:0:
385,229,151502,2,0,L|469:235,1,77.9999947586059,0|0,3:2|0:0,0:0:0:0:
314,271,151767,2,0,P|257:276|218:263,1,77.9999947586059,0|2,3:2|2:3,0:0:0:0:
200,266,152032,2,0,P|239:259|277:265,1,77.9999947586059,0|0,3:2|0:0,0:0:0:0:
128,308,152297,2,0,L|44:302,1,77.9999947586059,0|2,3:2|2:3,0:0:0:0:
35,221,152561,2,0,P|22:179|29:137,1,77.9999947586059,0|0,3:2|0:0,0:0:0:0:
32,138,152826,5,8,1:2:0:0:
196,73,153091,5,0,3:2:0:0:
170,253,153356,5,0,3:2:0:0:
132,158,153532,2,0,L|222:166,1,77.9999947586059,0|0,3:2|0:0,0:0:0:0:
222,157,153796,2,0,L|312:165,1,77.9999947586059,2|0,3:0|0:0,0:0:0:0:
314,158,154061,1,2,3:0:0:0:
405,72,154238,1,8,1:2:0:0:
512,265,154591,6,0,L|422:273,1,77.9999947586059,2|0,3:3|0:0,0:0:0:0:
422,264,154855,2,0,L|332:272,1,77.9999947586059,2|0,3:0|0:0,0:0:0:0:
330,265,155120,1,2,3:0:0:0:
242,289,155297,2,0,P|206:257|209:289,1,77.9999947586059,0|2,3:3|2:2,0:0:0:0:
114,366,155650,2,0,P|73:361|22:375,3,77.9999947586059,8|2|0|0,1:2|2:2|2:2|0:0,0:0:0:0:
33,283,156356,2,0,L|47:201,1,77.9999947586059,8|4,2:3|0:3,0:0:0:0:
131,185,156709,6,0,P|122:92|158:68,1,116.999992137909,4|0,3:2|0:0,0:0:0:0:
111,0,157061,1,8,1:2:0:0:
111,0,157149,2,0,L|195:6,1,77.9999947586059,0|0,3:3|0:0,0:0:0:0:
222,81,157414,2,0,L|309:73,1,77.9999947586059,0|0,3:3|0:0,0:0:0:0:
352,5,157679,6,0,P|375:42|384:98,1,77.9999947586059,0|0,3:3|0:0,0:0:0:0:
395,72,157944,2,0,P|408:113|402:170,1,77.9999947586059,8|0,3:2|0:0,0:0:0:0:
438,132,158209,2,0,P|439:175|419:229,1,77.9999947586059,8|0,3:2|0:0,0:0:0:0:
479,196,158474,2,0,P|469:238|435:285,1,77.9999947586059,8|0,3:2|0:0,0:0:0:0:
502,258,158738,2,0,P|481:296|436:332,1,77.9999947586059,8|0,3:2|0:0,0:0:0:0:
511,324,159003,2,0,P|481:356|428:379,1,77.9999947586059,8|2,3:2|0:0,0:0:0:0:
252,372,159444,6,0,P|218:352|193:324,1,77.9999947586059,12|0,3:2|0:0,0:0:0:0:
247,319,159709,2,0,P|220:292|202:258,1,77.9999947586059,12|0,3:2|0:0,0:0:0:0:
252,267,159973,2,0,P|233:233|225:196,1,77.9999947586059,12|0,3:2|0:0,0:0:0:0:
274,208,160238,2,0,P|264:170|266:132,1,77.9999947586059,12|0,3:2|0:0,0:0:0:0:
296,147,160503,2,0,P|296:108|309:72,1,77.9999947586059,12|0,3:2|0:0,0:0:0:0:
320,75,160768,2,0,P|330:37|352:5,1,77.9999947586059,12|0,3:2|0:0,0:0:0:0:
448,55,161120,1,0,0:0:0:0:
448,55,161209,1,0,0:0:0:0:
448,55,161297,6,0,P|494:43|525:46,2,77.9999947586059,0|0|0,2:2|2:2|2:2,0:0:0:0:
433,157,161826,5,0,2:2:0:0:
432,166,161914,1,0,2:2:0:0:
432,175,162003,2,0,P|390:153|310:171,1,116.999992137909,4|0,3:2|0:0,0:0:0:0:
240,140,162356,2,0,L|251:267,1,116.999992137909,0|0,3:2|0:0,0:0:0:0:
228,355,162709,1,8,1:2:0:0:
228,355,162797,2,0,P|270:336|318:350,1,77.9999947586059,0|0,3:2|0:0,0:0:0:0:
378,303,163061,6,0,L|384:387,1,77.9999947586059,0|2,3:2|2:3,0:0:0:0:
448,259,163326,2,0,P|453:202|440:163,1,77.9999947586059,0|0,3:2|0:0,0:0:0:0:
443,145,163591,2,0,P|436:184|442:222,1,77.9999947586059,0|2,3:2|2:3,0:0:0:0:
512,100,163856,2,0,L|506:16,1,77.9999947586059,0|0,3:2|0:0,0:0:0:0:
495,16,164120,5,8,1:2:0:0:
338,92,164385,5,0,3:2:0:0:
201,0,164650,5,0,3:2:0:0:
123,48,164826,2,0,P|126:89|117:129,1,77.9999947586059,0|0,3:2|0:0,0:0:0:0:
108,128,165091,2,0,P|111:169|102:209,1,77.9999947586059,2|0,3:0|0:0,0:0:0:0:
94,211,165356,1,2,3:0:0:0:
186,308,165532,1,8,1:2:0:0:
344,162,165885,6,0,P|347:121|338:81,1,77.9999947586059,2|0,3:3|0:0,0:0:0:0:
330,83,166150,2,0,P|333:42|324:2,1,77.9999947586059,2|0,3:0|0:0,0:0:0:0:
316,0,166415,1,2,3:0:0:0:
216,76,166591,2,0,L|122:67,1,77.9999947586059,0|2,3:3|2:2,0:0:0:0:
48,0,166944,2,0,P|21:25|10:66,3,77.9999947586059,8|2|0|0,1:2|2:2|2:2|0:0,0:0:0:0:
72,121,167650,2,0,L|79:177,3,38.9999973793029,8|8|4|4,2:3|2:3|0:3|0:3,0:0:0:0:
1,180,168003,6,0,L|149:189,1,116.999992137909,4|0,3:2|0:0,0:0:0:0:
184,243,168356,1,8,1:2:0:0:
184,243,168444,2,0,P|217:207|273:204,1,77.9999947586059,0|0,3:3|0:0,0:0:0:0:
281,272,168709,2,0,P|329:265|374:299,1,77.9999947586059,0|0,3:3|0:0,0:0:0:0:
432,320,168973,6,0,L|439:221,1,77.9999947586059,0|0,3:3|0:0,0:0:0:0:
451,262,169238,2,0,L|432:165,1,77.9999947586059,8|0,3:2|0:0,0:0:0:0:
469,206,169503,2,0,L|426:117,1,77.9999947586059,8|0,3:2|0:0,0:0:0:0:
487,146,169768,2,0,L|422:72,1,77.9999947586059,8|0,3:2|0:0,0:0:0:0:
507,84,170032,2,0,L|413:52,1,77.9999947586059,8|0,3:2|0:0,0:0:0:0:
431,41,170297,1,8,3:2:0:0:
334,141,170473,6,0,L|254:149,1,77.9999947586059,4|2,3:2|2:2,0:0:0:0:
166,177,170826,2,0,P|168:136|158:97,1,77.9999947586059,2|0,2:3|3:0,0:0:0:0:
80,71,171179,1,8,1:2:0:0:
12,119,171356,2,0,L|8:170,1,38.9999973793029,2|2,2:0|2:0,0:0:0:0:
1,165,171532,2,0,L|16:258,1,77.9999947586059,2|0,3:3|2:2,0:0:0:0:
78,338,171885,6,0,L|-24:333,1,77.9999947586059,2|2,2:3|3:0,0:0:0:0:
95,252,172238,2,0,P|138:247|203:273,1,77.9999947586059,0|2,3:3|2:2,0:0:0:0:
256,200,172591,5,8,1:2:0:0:
152,152,172767,1,0,2:2:0:0:
256,104,172944,1,0,2:2:0:0:
360,152,173120,1,0,2:2:0:0:
256,200,173297,6,0,B|256:192|256:192|263:184|263:184|249:180|249:180|259:170|259:170|253:165|253:165|256:156|256:156|256:143,1,77.9999947586059,4|0,2:3|0:0,0:0:0:0:
360,40,173650,2,0,P|400:80|464:80,1,116.999992137909,4|0,3:2|0:0,0:0:0:0:
504,152,174003,1,8,1:2:0:0:
504,152,174091,2,0,L|496:256,1,77.9999947586059,0|0,3:2|0:0,0:0:0:0:
506,314,174356,2,0,P|468:309|428:308,1,77.9999947586059,0|2,3:2|2:3,0:0:0:0:
320,243,174709,6,0,P|293:268|254:278,1,77.9999947586059,2|0,2:3|3:2,0:0:0:0:
195,333,175061,1,2,2:3:0:0:
149,262,175238,1,2,2:3:0:0:
67,273,175414,5,8,1:2:0:0:
13,95,175679,5,2,3:3:0:0:
179,0,175944,5,2,3:3:0:0:
233,62,176120,2,0,L|311:57,1,77.9999947586059,4|2,3:2|2:2,0:0:0:0:
365,114,176473,2,0,L|474:126,1,77.9999947586059,2|0,2:3|3:0,0:0:0:0:
493,186,176826,1,8,1:2:0:0:
448,256,177003,2,0,L|440:303,1,38.9999973793029,2|2,2:0|2:0,0:0:0:0:
451,306,177179,2,0,L|458:394,1,77.9999947586059,2|0,3:3|2:2,0:0:0:0:
373,345,177532,6,0,P|328:322|287:318,1,77.9999947586059,2|2,2:3|3:0,0:0:0:0:
210,317,177885,2,0,P|172:325|139:345,1,77.9999947586059,0|2,3:3|2:2,0:0:0:0:
152,232,178238,5,8,1:2:0:0:
256,280,178414,1,0,2:2:0:0:
360,232,178591,1,0,2:2:0:0:
256,184,178767,1,0,2:2:0:0:
256,241,178944,6,0,B|256:228|256:228|259:219|259:219|253:214|253:214|263:204|263:204|249:200|249:200|256:192|256:192|256:184,1,77.9999947586059,4|0,2:3|0:0,0:0:0:0:
143,216,179297,2,0,P|105:258|28:258,1,116.999992137909,4|0,3:2|0:0,0:0:0:0:
22,190,179650,1,8,1:2:0:0:
22,190,179738,2,0,L|32:82,1,77.9999947586059,0|0,3:2|0:0,0:0:0:0:
0,35,180003,1,0,3:2:0:0:
74,2,180179,1,2,2:3:0:0:
128,66,180356,6,0,L|222:72,1,77.9999947586059,2|0,2:3|3:2,0:0:0:0:
322,5,180709,2,0,L|326:82,1,77.9999947586059,2|2,2:3|2:3,0:0:0:0:
341,194,181061,5,8,1:2:0:0:
496,260,181326,5,2,3:3:0:0:
475,93,181591,5,2,3:3:0:0:
437,182,181767,2,0,L|323:195,1,97.5000001430508,2|0,3:3|0:0,0:0:0:0:
0,232,182473,5,12,1:2:0:0:
67,179,182649,1,2,2:0:0:0:
72,185,182737,1,2,2:0:0:0:
78,191,182826,2,0,L|86:288,1,77.9999947586059,2|0,3:3|2:2,0:0:0:0:
50,341,183179,6,0,P|0:328|-34:329,1,77.9999947586059,2|2,2:3|3:0,0:0:0:0:
60,362,183532,2,0,P|110:375|144:374,1,77.9999947586059,0|2,3:3|2:2,0:0:0:0:
235,300,183885,6,0,B|256:266|256:266|276:300,1,77.9999947586059,8|0,1:2|2:2,0:0:0:0:
256,224,184238,2,0,L|256:136,1,77.9999947586059,0|0,2:2|2:2,0:0:0:0:
256,0,184591,6,0,B|256:13|256:13|259:22|259:22|253:27|253:27|263:37|263:37|249:41|249:41|256:49|256:49|256:57,1,77.9999947586059,4|0,2:3|0:0,0:0:0:0:
344,0,184944,2,0,P|376:24|456:16,1,116.999992137909,4|0,3:2|0:0,0:0:0:0:
512,104,185297,1,8,1:2:0:0:
512,104,185385,2,0,L|398:117,1,77.9999947586059,0|0,3:2|0:0,0:0:0:0:
389,178,185650,1,0,3:2:0:0:
442,240,185826,1,2,2:3:0:0:
496,301,186003,2,0,L|485:390,1,77.9999947586059,2|0,2:3|3:2,0:0:0:0:
404,336,186356,1,2,2:3:0:0:
335,382,186532,1,2,2:3:0:0:
263,342,186709,5,8,1:2:0:0:
293,146,186973,5,2,3:3:0:0:
109,219,187238,5,2,3:3:0:0:
217,235,187414,2,0,L|211:146,1,77.9999947586059,4|2,3:2|2:2,0:0:0:0:
146,106,187767,2,0,P|106:132|43:135,1,77.9999947586059,2|0,2:3|3:0,0:0:0:0:
16,70,188120,1,8,1:2:0:0:
60,0,188297,1,2,2:0:0:0:
139,24,188473,2,0,L|246:30,1,77.9999947586059,2|0,3:3|2:2,0:0:0:0:
285,89,188826,5,2,2:3:0:0:
364,75,189003,1,2,3:0:0:0:
422,138,189179,2,0,P|410:184|416:245,1,77.9999947586059,0|2,3:3|2:2,0:0:0:0:
454,292,189532,6,0,L|377:297,3,77.9999947586059,8|0|0|0,1:2|2:2|2:2|2:2,0:0:0:0:
512,384,190238,5,4,3:2:0:0:
256,192,190326,12,2,191650,2:2:0:0:
251,77,192356,6,0,B|256:97|286:100|286:100|286:150|237:154|237:154|221:196|267:213|267:213|282:243|256:269|256:269|242:285|255:313,1,295.749975613594,8|0,1:2|0:0,0:0:0:0:
304,356,193061,6,0,L|384:366,1,64.999997615814,4|0,3:2|0:0,0:0:0:0:
472,289,193414,2,0,L|485:210,1,64.999997615814,0|2,0:0|3:0,0:0:0:0:
425,160,193767,1,8,1:2:0:0:
348,194,193944,1,0,0:0:0:0:
285,140,194120,2,0,L|205:150,1,64.999997615814,2|0,3:3|0:0,0:0:0:0:
117,73,194473,6,0,L|104:-6,1,64.999997615814,0|2,0:0|3:0,0:0:0:0:
189,15,194826,1,0,3:3:0:0:
259,58,195003,1,2,2:2:0:0:
333,19,195179,2,0,L|482:31,2,129.999995231628,8|0|0,1:2|2:2|2:3,0:0:0:0:
432,164,196238,6,0,L|444:250,1,64.999997615814,4|0,3:2|0:0,0:0:0:0:
450,310,196591,2,0,L|364:322,1,64.999997615814,8|0,2:2|0:0,0:0:0:0:
299,345,196944,2,0,L|311:259,1,64.999997615814,0|0,3:2|0:0,0:0:0:0:
260,214,197297,5,0,0:0:0:0:
222,289,197473,2,0,L|136:277,1,64.999997615814,0|0,3:2|0:0,0:0:0:0:
91,328,197826,1,0,0:0:0:0:
32,271,198003,2,0,L|15:158,2,97.499996423721,8|0|0,1:2|3:2|3:2,0:0:0:0:
91,328,198709,6,0,L|155:319,1,64.999997615814,0|0,3:2|0:0,0:0:0:0:
226,210,199061,2,0,L|217:145,1,64.999997615814,0|0,0:0|3:0,0:0:0:0:
285,91,199414,1,8,1:2:0:0:
362,125,199591,1,0,0:0:0:0:
425,71,199767,2,0,L|505:81,1,64.999997615814,0|0,3:3|0:0,0:0:0:0:
512,209,200120,6,0,L|501:273,1,64.999997615814,0|0,0:0|3:0,0:0:0:0:
451,337,200473,1,0,3:3:0:0:
374,303,200650,1,2,2:2:0:0:
311,357,200826,2,0,L|174:342,2,129.999995231628,8|0|0,1:2|2:2|2:3,0:0:0:0:
109,300,201885,6,0,L|97:214,1,64.999997615814,4|0,3:2|0:0,0:0:0:0:
148,171,202238,2,0,L|234:159,1,64.999997615814,8|0,2:2|0:0,0:0:0:0:
293,146,202591,2,0,L|279:68,1,64.999997615814,0|0,3:2|0:0,0:0:0:0:
343,21,202944,5,0,0:0:0:0:
372,100,203120,2,0,L|460:108,1,64.999997615814,0|0,3:2|0:0,0:0:0:0:
472,184,203473,1,0,0:0:0:0:
436,278,203650,2,0,L|372:284,1,64.999997615814,8|0,1:2|0:0,0:0:0:0:
289,256,204003,2,0,L|221:315,1,64.999997615814,0|0,0:0|3:2,0:0:0:0:
160,336,204356,6,0,B|160:384|160:384|256:384,1,129.999995231628,4|0,3:2|0:0,0:0:0:0:
320,352,204885,1,2,1:2:0:0:
400,384,205061,2,0,L|480:384,1,64.999997615814,2|0,1:2|0:0,0:0:0:0:
512,320,205414,6,0,L|512:272,4,32.499998807907,2|0|0|0|0,1:2|0:0|0:0|0:0|0:0,0:0:0:0:
432,256,205944,1,2,1:2:0:0:
448,176,206120,2,0,B|448:143|448:143|412:143,1,64.999997615814,2|0,1:2|0:0,0:0:0:0:
336,144,206473,2,0,L|336:304,1,129.999995231628,2|0,1:2|0:0,0:0:0:0:
160,384,207003,5,2,1:2:0:0:
160,384,207091,1,2,1:2:0:0:
160,384,207179,2,0,B|64:384|64:384|64:328,1,129.999995231628,2|0,1:2|0:0,0:0:0:0:
16,288,207709,1,2,1:2:0:0:
64,224,207886,2,0,L|64:152,1,64.999997615814,2|0,1:2|0:0,0:0:0:0:
0,112,208238,6,0,B|0:32|0:32|80:32,1,129.999995231628,2|0,1:2|0:0,0:0:0:0:
128,0,208767,1,2,1:2:0:0:
192,64,208944,2,0,L|272:64,1,64.999997615814,2|0,1:2|0:0,0:0:0:0:
320,0,209297,2,0,L|432:0,1,97.499996423721,2|0,1:2|0:0,0:0:0:0:
432,0,209650,2,0,L|432:48,1,32.499998807907,0|0,0:0|0:0,0:0:0:0:
400,128,209826,5,2,1:2:0:0:
408,136,209914,1,2,1:2:0:0:
416,144,210003,2,0,B|512:144|512:144|512:192,1,129.999995231628,2|0,1:2|0:0,0:0:0:0:
464,240,210532,1,2,1:2:0:0:
512,304,210709,2,0,L|512:384,1,64.999997615814,2|0,1:2|0:0,0:0:0:0:
368,304,211061,6,0,B|224:304,1,129.999995231628,2|0,1:2|0:0,0:0:0:0:
175,359,211591,1,2,1:2:0:0:
112,304,211767,2,0,L|16:304,1,64.999997615814,2|0,1:2|0:0,0:0:0:0:
0,240,212120,2,0,L|0:96,1,129.999995231628,2|0,1:2|0:0,0:0:0:0:
96,176,212650,5,2,1:2:0:0:
96,176,212738,1,2,1:2:0:0:
96,176,212826,2,0,B|192:176|192:176|192:120,1,129.999995231628,2|0,1:2|0:0,0:0:0:0:
161,70,213356,1,2,1:2:0:0:
224,16,213532,2,0,L|304:16,1,64.999997615814,2|0,1:2|0:0,0:0:0:0:
368,88,213885,6,0,L|368:232,1,129.999995231628,2|0,1:2|0:0,0:0:0:0:
325,287,214414,1,2,1:2:0:0:
256,240,214591,2,0,L|256:176,1,64.999997615814,2|0,1:2|0:0,0:0:0:0:
232,80,214944,6,0,L|280:80,7,48.7500000715254,2|0|0|0|0|0|0|0,1:2|0:0|0:0|0:0|0:0|0:0|0:0|0:0,0:0:0:0:
