osu file format v14

[General]
AudioFilename: audio.mp3
AudioLeadIn: 0
PreviewTime: 150680
Countdown: 1
SampleSet: Soft
StackLeniency: 0.3
Mode: 0
LetterboxInBreaks: 0
WidescreenStoryboard: 1

[Editor]
DistanceSpacing: 1.3
BeatDivisor: 8
GridSize: 4
TimelineZoom: 1.9

[Metadata]
Title:First Town Of This Journey
TitleUnicode:First Town Of This Journey
Artist:Camellia
ArtistUnicode:かめりあ
Creator:Manteith
Version:Journey
Source:
Tags:camellia first town of this journey luckytowk manteith cametek future bass
BeatmapID:1286202
BeatmapSetID:609043

[Difficulty]
HPDrainRate:5.5
CircleSize:4.5
OverallDifficulty:8.8
ApproachRate:9.6
SliderMultiplier:1.7
SliderTickRate:1

[Events]
//Background and Video events
0,0,"805153.jpg",0,0
//Break Periods
2,94409,101465
//Storyboard Layer 0 (Background)
//Storyboard Layer 1 (Fail)
//Storyboard Layer 2 (Pass)
//Storyboard Layer 3 (Foreground)
//Storyboard Sound Samples

[TimingPoints]
1033,352.941176470588,4,2,1,60,1,0
12327,-133.333333333333,4,2,1,70,0,0
13385,-200,4,2,1,70,0,0
14091,-200,4,2,1,5,0,0
14268,-200,4,2,1,70,0,0
14621,-200,4,2,1,5,0,0
14797,-200,4,2,1,70,0,0
16385,-200,4,2,1,5,0,0
16562,-200,4,2,1,70,0,0
22738,-200,4,2,1,5,0,0
22915,-200,4,2,1,70,0,0
23444,-200,4,2,1,5,0,0
23621,-133.333333333333,4,2,1,50,0,0
23797,-133.333333333333,4,2,1,5,0,0
23974,-153.846153846154,4,2,1,50,0,0
24680,-181.818181818182,4,2,1,50,0,0
25032,-200,4,2,1,50,0,0
32444,-133.333333333333,4,2,1,50,0,0
32621,-200,4,2,1,50,0,0
34209,-133.333333333333,4,2,2,70,0,0
43738,-117.647058823529,4,2,2,70,0,0
44091,-105.263157894737,4,2,2,70,0,0
44444,-95.2380952380951,4,2,2,70,0,0
44797,-133.333333333333,4,2,2,70,0,0
46209,-100,4,2,3,80,0,1
46385,-100,4,2,3,5,0,1
46474,-100,4,2,3,80,0,1
46650,-100,4,2,3,5,0,1
46738,-100,4,2,3,80,0,1
54680,-158.730158730159,4,2,3,70,0,1
54944,-158.730158730159,4,2,3,5,0,1
55032,-100,4,2,3,80,0,1
60327,-66.6666666666667,4,2,3,50,0,1
60591,-66.6666666666667,4,2,3,5,0,1
60680,-100,4,2,3,50,0,1
65974,-133.333333333333,4,2,3,50,0,1
66327,-100,4,2,3,50,0,1
67032,-200,4,2,3,50,0,1
67297,-142.857142857143,4,2,3,50,0,1
67562,-111.111111111111,4,2,3,50,0,1
67827,-90.9090909090909,4,2,3,50,0,1
68091,-76.9230769230769,4,2,3,50,0,1
68356,-66.6666666666667,4,2,3,50,0,1
68621,-58.8235294117647,4,2,3,50,0,1
68797,-100,4,2,3,50,0,0
75503,-66.6666666666667,4,2,3,50,0,0
75768,-100,4,2,3,50,0,0
76915,-83.3333333333333,4,2,3,50,0,0
77621,-100,4,2,3,50,0,0
80091,-100,4,2,3,50,0,0
80444,-100,4,2,3,50,0,0
80797,-100,4,2,3,50,0,0
86797,-66.6666666666667,4,2,3,50,0,0
87680,-100,4,2,3,50,0,0
91385,-100,4,2,3,50,0,0
113974,-142.857142857143,4,2,1,50,0,0
119621,-200,4,2,1,50,0,0
121738,-133.333333333333,4,2,1,50,0,0
122444,-100,4,2,1,50,0,0
125621,-133.333333333333,4,2,1,50,0,0
134091,-100,4,2,1,50,0,0
134268,-133.333333333333,4,2,1,50,0,0
136562,-100,4,2,4,50,0,0
147150,-100,4,2,3,50,0,0
147856,-200,4,2,3,50,0,0
149797,-100,4,2,3,50,0,0
150680,-100,4,2,3,50,0,0
151032,-100,4,2,3,50,0,1
156327,-100,4,2,3,50,0,1
156591,-100,4,2,3,5,0,1
156680,-100,4,2,3,50,0,1
161003,-100,4,2,3,5,0,1
161091,-100,4,2,3,50,0,1
162238,-100,4,2,3,5,0,1
162327,-100,4,2,3,50,0,1
167621,-200,4,2,3,50,0,1
167974,-100,4,2,3,50,0,1
168680,-200,4,2,3,50,0,1
168944,-133.333333333333,4,2,3,50,0,1
169209,-100,4,2,3,50,0,1
169474,-80,4,2,3,50,0,1
169738,-66.6666666666667,4,2,3,50,0,1
170003,-57.1428571428571,4,2,3,50,0,1
170268,-50,4,2,3,50,0,1
170444,-100,4,2,3,50,0,0
173268,-142.857142857143,4,2,3,50,0,0
173621,-100,4,2,3,50,0,0
181738,-100,4,2,3,50,0,0
182091,-100,4,2,3,50,0,0
182444,-100,4,2,3,50,0,0
193032,-117.647058823529,4,2,3,50,0,0
193297,-100,4,2,3,50,0,0
204327,-100,4,2,1,50,0,0
219856,-100,4,2,1,5,0,0

[Colours]
Combo1 : 128,255,255
Combo2 : 128,128,255
Combo3 : 0,0,255

[HitObjects]
63,287,1033,5,12,0:0:0:0:
75,244,1121,1,0,0:0:0:0:
107,208,1209,1,0,0:0:0:0:
147,190,1297,1,0,0:0:0:0:
190,188,1385,1,8,0:0:0:0:
229,199,1474,1,0,0:0:0:0:
270,208,1562,2,0,L|328:207,1,42.5,4|0,0:0|0:0,0:0:0:0:
316,176,1738,6,0,L|356:136,3,42.5,12|0|0|0,0:0|0:0|0:0|0:0,0:0:0:0:
264,108,2091,5,12,0:0:0:0:
291,76,2179,1,0,0:0:0:0:
330,60,2267,1,0,0:0:0:0:
372,64,2355,1,0,0:0:0:0:
407,86,2443,1,8,0:0:0:0:
428,123,2532,1,0,0:0:0:0:
427,165,2621,2,0,L|429:218,1,42.5,4|0,0:0|0:0,0:0:0:0:
393,230,2797,6,0,L|361:298,3,42.5,12|0|0|0,0:0|0:0|0:0|0:0,0:0:0:0:
323,169,3150,5,12,0:0:0:0:
291,197,3238,1,0,0:0:0:0:
259,225,3326,1,0,0:0:0:0:
227,253,3414,1,0,0:0:0:0:
194,279,3503,6,0,L|184:232,5,28.3333333333333,8|0|0|0|0|0,0:0|0:0|0:0|0:0|0:0|0:0,0:0:0:0:
121,336,3856,6,0,L|116:304,5,28.3333333333333,12|0|0|0|0|0,0:0|0:0|0:0|0:0|0:0|0:0,0:0:0:0:
35,270,4209,5,8,0:0:0:0:
68,237,4297,1,0,0:0:0:0:
109,219,4385,1,4,0:0:0:0:
152,212,4474,1,0,0:0:0:0:
192,220,4562,1,12,0:0:0:0:
228,240,4650,1,0,0:0:0:0:
264,264,4738,1,0,0:0:0:0:
283,301,4826,1,0,0:0:0:0:
260,340,4915,5,12,0:0:0:0:
248,304,5003,1,0,0:0:0:0:
264,264,5091,1,0,0:0:0:0:
276,228,5179,1,0,0:0:0:0:
264,192,5267,1,8,0:0:0:0:
236,164,5356,1,0,0:0:0:0:
204,156,5444,2,0,L|188:216,1,42.5,4|0,0:0|0:0,0:0:0:0:
192,220,5621,6,0,L|193:271,3,42.5,12|0|0|0,0:0|0:0|0:0|0:0,0:0:0:0:
120,288,5974,1,12,0:0:0:0:
122,304,6062,1,0,0:0:0:0:
124,320,6150,1,0,0:0:0:0:
126,336,6238,1,0,0:0:0:0:
128,356,6327,6,0,L|184:356,3,42.5,12|0|0|0,0:0|0:0|0:0|0:0,0:0:0:0:
287,275,6680,6,0,L|332:274,3,42.5,12|0|0|0,0:0|0:0|0:0|0:0,0:0:0:0:
372,264,7032,1,8,0:0:0:0:
408,244,7120,1,0,0:0:0:0:
432,208,7208,1,4,0:0:0:0:
428,164,7297,1,0,0:0:0:0:
394,135,7385,6,0,L|406:195,3,42.5,12|0|0|0,0:0|0:0|0:0|0:0,0:0:0:0:
304,191,7738,5,12,0:0:0:0:
291,146,7826,1,0,0:0:0:0:
298,106,7914,1,0,0:0:0:0:
323,72,8002,1,0,0:0:0:0:
355,53,8090,1,8,0:0:0:0:
398,48,8179,1,0,0:0:0:0:
424,26,8268,2,0,L|379:11,1,42.5,4|0,0:0|0:0,0:0:0:0:
350,8,8444,6,0,L|303:14,3,42.5,12|0|0|0,0:0|0:0|0:0|0:0,0:0:0:0:
273,94,8797,1,12,0:0:0:0:
256,106,8885,1,0,0:0:0:0:
239,118,8973,1,0,0:0:0:0:
221,130,9061,1,0,0:0:0:0:
203,142,9150,6,0,L|167:118,5,28.3333333333333,12|0|0|0|0|0,0:0|0:0|0:0|0:0|0:0|0:0,0:0:0:0:
124,248,9503,6,0,L|154:272,5,28.3333333333333,12|0|0|0|0|0,0:0|0:0|0:0|0:0|0:0|0:0,0:0:0:0:
184,292,9856,1,8,0:0:0:0:
222,311,9944,1,0,0:0:0:0:
264,316,10032,5,0,0:0:0:0:
308,300,10120,1,0,0:0:0:0:
340,268,10208,1,8,0:0:0:0:
356,224,10296,1,0,0:0:0:0:
356,176,10384,1,0,0:0:0:0:
328,136,10473,1,0,0:0:0:0:
284,160,10562,5,8,0:0:0:0:
232,164,10650,1,0,0:0:0:0:
184,148,10738,1,0,0:0:0:0:
148,112,10826,1,0,0:0:0:0:
152,60,10914,1,8,0:0:0:0:
200,76,11003,1,0,0:0:0:0:
256,84,11091,6,0,L|304:64,1,42.5
364,180,11268,2,0,L|308:196,1,42.5,8|0,0:0|0:0,0:0:0:0:
296,320,11444,2,0,L|344:300,1,42.5
388,284,11621,5,8,0:0:0:0:
432,252,11709,1,0,0:0:0:0:
456,204,11797,1,0,0:0:0:0:
460,148,11885,1,0,0:0:0:0:
440,96,11973,1,8,0:0:0:0:
396,64,12062,1,0,0:0:0:0:
340,60,12150,1,0,0:0:0:0:
292,88,12238,1,0,0:0:0:0:
260,136,12327,6,0,B|192:152|141:108|141:108|82:156|104:228,1,255.000009727478,8|0,0:0|0:0,0:0:0:0:
184,209,13385,1,0,0:0:0:0:
152,276,13738,6,0,P|104:292|64:288,1,85
29,194,14268,6,0,P|13:146|17:106,1,85
81,32,14797,1,0,0:0:0:0:
204,35,15150,1,0,0:0:0:0:
105,201,16209,6,0,P|127:202|147:210,1,42.5
118,301,16562,2,0,P|183:300|230:249,2,127.5
31,119,17974,6,0,B|68:88|110:109|110:109|140:136|188:128|188:128|144:162|148:208,1,255
260,200,19385,6,0,P|269:138|250:78,2,127.5
164,208,20797,2,0,P|155:270|174:330,2,127.5
273,262,22209,2,0,B|340:280|396:240,1,127.5
428,100,22915,2,0,B|360:80|305:122,1,127.5
244,216,23621,6,0,L|198:273,1,63.7500024318696
96,268,23974,2,0,P|97:237|124:199,2,55.2499974708558
203,265,24680,1,0,0:0:0:0:
432,240,25032,6,0,P|408:182|356:144,2,127.500004863739
320,228,26444,2,0,B|280:204|275:159|275:159|232:181|194:157|194:157|188:204|148:228,1,255
64,240,27856,6,0,P|76:180|130:144,2,127.5
149,226,29268,2,0,B|197:241|233:227|233:227|260:186|297:173|297:173|320:144|311:89,1,255
300,4,30680,6,0,B|256:12|240:48|240:48|218:33|190:29,2,127.5
399,92,32091,2,0,P|435:104|459:128,1,63.75
459,148,32444,2,0,L|476:156,1,15.9375006079674
448,180,32532,2,0,L|465:188,1,15.9375006079674
427,203,32621,2,0,B|377:222|341:208|341:208|356:179|338:129|338:129|290:137|260:104|260:104|248:128|226:128,1,297.5
256,204,34209,6,0,L|240:268,1,63.7500024318696
404,215,34562,2,0,L|423:140,1,63.7500024318696
240,265,34915,6,0,P|212:229|196:149,1,127.500004863739,8|0,0:0|0:0,0:0:0:0:
236,52,35444,1,8,0:0:0:0:
296,120,35621,1,8,0:0:0:0:
292,208,35797,1,0,0:0:0:0:
216,264,35974,2,0,P|180:280|152:276,1,63.7500024318696,8|0,0:0|0:0,0:0:0:0:
144,184,36327,6,0,P|180:168|208:172,1,63.7500024318696,0|8,0:0|0:0,0:0:0:0:
256,176,36591,1,0,0:0:0:0:
304,200,36680,2,0,L|320:228,2,31.8750012159348,8|0|0,0:0|0:0|0:0,0:0:0:0:
328,328,37032,5,8,0:0:0:0:
228,288,37209,1,0,0:0:0:0:
327,235,37385,5,0,0:0:0:0:
427,195,37562,1,8,0:0:0:0:
312,136,37738,6,0,B|300:96|309:63|309:63|288:48|248:60,1,127.500004863739,8|0,0:0|0:0,0:0:0:0:
188,104,38268,1,8,0:0:0:0:
104,100,38444,1,8,0:0:0:0:
48,40,38621,1,0,0:0:0:0:
24,120,38797,2,0,P|8:159|8:190,1,63.7500024318696,8|0,0:0|0:0,0:0:0:0:
76,272,39150,6,0,L|88:232,1,31.8750012159348
104,216,39327,1,8,0:0:0:0:
140,196,39415,1,0,0:0:0:0:
180,196,39503,2,0,L|207:219,2,31.8750012159348,8|0|0,0:0|0:0|0:0,0:0:0:0:
248,264,39856,5,8,0:0:0:0:
276,341,40032,1,0,0:0:0:0:
354,313,40209,1,8,0:0:0:0:
325,235,40385,1,0,0:0:0:0:
260,168,40562,6,0,P|264:124|288:88,1,63.7500024318696,10|0,0:0|0:0,0:0:0:0:
153,232,40915,2,0,P|129:212|99:202,1,63.7500024318696,2|0,0:0|0:0,0:0:0:0:
208,72,41268,2,0,P|212:28|236:-8,1,63.7500024318696,2|0,0:0|0:0,0:0:0:0:
101,136,41621,2,0,P|77:116|47:106,1,63.7500024318696,2|0,0:0|0:0,0:0:0:0:
208,72,41974,6,0,P|204:116|180:152,1,63.7500024318696,2|0,0:0|0:0,0:0:0:0:
315,8,42327,2,0,P|339:28|369:38,1,63.7500024318696,2|0,0:0|0:0,0:0:0:0:
260,168,42680,2,0,P|256:212|232:248,1,63.7500024318696,2|0,0:0|0:0,0:0:0:0:
367,104,43033,2,0,P|391:124|421:134,1,63.7500024318696,2|0,0:0|0:0,0:0:0:0:
349,253,43385,6,0,L|359:274,6,15.9375006079674
322,281,43738,6,0,L|325:310,6,18.0625003445149
288,298,44091,6,0,L|280:329,6,20.1874994609356
249,303,44444,6,0,L|229:329,6,22.3124993190766
211,279,44797,5,0,0:0:0:0:
193,252,44885,1,0,0:0:0:0:
187,220,44973,1,0,0:0:0:0:
203,192,45062,1,0,0:0:0:0:
229,174,45150,1,0,0:0:0:0:
257,159,45238,1,0,0:0:0:0:
273,132,45326,1,0,0:0:0:0:
257,104,45414,1,0,0:0:0:0:
235,85,45503,6,0,L|227:71,14,15.9375006079674,4|0|0|0|0|0|0|0|0|0|0|0|0|0|0,0:0|0:0|0:0|0:0|0:0|0:0|0:0|0:0|0:0|0:0|0:0|0:0|0:0|0:0|0:0,0:0:0:0:
107,278,46209,6,0,P|155:306|203:310,1,85,8|0,0:0|0:0,0:0:0:0:
337,199,46474,2,0,P|298:165|232:175,1,85,8|0,0:0|0:0,0:0:0:0:
148,199,46738,1,8,0:0:0:0:
283,363,46915,1,4,0:0:0:0:
267,162,47091,1,0,0:0:0:0:
78,175,47268,6,0,P|78:227|106:259,1,85,8|0,0:0|0:0,0:0:0:0:
372,296,47532,2,0,P|364:244|344:212,1,85,8|0,0:0|0:0,0:0:0:0:
224,72,47797,2,0,P|211:53|195:39,2,42.5,8|0|0,0:0|0:0|0:0,0:0:0:0:
256,346,48150,5,0,0:0:0:0:
427,269,48327,1,4,0:0:0:0:
256,192,48503,1,0,0:0:0:0:
335,114,48680,1,0,0:0:0:0:
256,38,48856,1,0,0:0:0:0:
476,156,49032,5,0,0:0:0:0:
504,124,49121,1,0,0:0:0:0:
483,88,49209,1,0,0:0:0:0:
442,97,49297,1,0,0:0:0:0:
437,139,49385,6,0,L|383:168,1,42.5,8|0,0:0|0:0,0:0:0:0:
352,232,49562,2,0,L|308:228,1,42.5,8|0,0:0|0:0,0:0:0:0:
197,248,49738,1,4,0:0:0:0:
197,248,49827,2,0,P|197:204|221:168,1,85,8|0,0:0|0:0,0:0:0:0:
164,327,50091,6,0,P|129:303|114:265,1,85,8|0,0:0|0:0,0:0:0:0:
246,92,50356,2,0,P|280:115|299:153,1,85,8|0,0:0|0:0,0:0:0:0:
366,241,50621,2,0,P|333:265|291:269,1,85,8|0,0:0|0:0,0:0:0:0:
142,191,50885,2,0,P|179:167|223:172,1,85,8|0,0:0|0:0,0:0:0:0:
428,147,51150,5,4,0:0:0:0:
438,175,51238,2,0,L|469:176,3,21.25
431,204,51415,2,0,P|398:228|356:232,1,85,8|0,0:0|0:0,0:0:0:0:
259,134,51680,6,0,P|234:121|222:105,2,28.3333333333333,8|0|0,0:0|0:0|0:0,0:0:0:0:
194,45,51856,6,0,P|158:73|146:121,1,85,8|0,0:0|0:0,0:0:0:0:
306,211,52121,2,0,P|342:183|354:135,1,85,8|0,0:0|0:0,0:0:0:0:
145,109,52385,1,8,0:0:0:0:
218,309,52562,1,0,0:0:0:0:
354,146,52738,1,0,0:0:0:0:
184,31,52915,6,0,P|217:58|236:96,1,85,8|0,0:0|0:0,0:0:0:0:
166,374,53180,2,0,P|198:346|217:309,1,85,8|0,0:0|0:0,0:0:0:0:
124,192,53444,2,0,L|76:192,2,42.5,8|0|0,0:0|0:0|0:0,0:0:0:0:
444,199,53797,5,0,0:0:0:0:
353,96,53974,1,4,0:0:0:0:
227,151,54150,1,0,0:0:0:0:
241,288,54327,1,0,0:0:0:0:
375,317,54503,1,0,0:0:0:0:
302,177,54680,6,0,L|225:150,1,80.3249975486756
375,316,55032,2,0,P|389:277|384:236,1,85,8|0,0:0|0:0,0:0:0:0:
302,177,55385,5,4,0:0:0:0:
255,239,55474,2,0,P|239:278|245:320,1,85,8|0,0:0|0:0,0:0:0:0:
302,177,55738,2,0,P|262:161|221:167,1,85,8|0,0:0|0:0,0:0:0:0:
369,231,56003,2,0,P|385:192|380:150,1,85,8|0,0:0|0:0,0:0:0:0:
320,303,56268,2,0,P|360:313|400:300,1,85,4|0,0:0|0:0,0:0:0:0:
380,150,56532,2,0,P|421:156|454:182,1,85,4|0,0:0|0:0,0:0:0:0:
221,167,56797,2,0,P|264:183|304:174,1,85,4|0,0:0|0:0,0:0:0:0:
118,138,57062,2,0,P|87:174|81:215,1,85,4|0,0:0|0:0,0:0:0:0:
124,292,57327,2,0,L|161:261,1,42.5,4|0,0:0|0:0,0:0:0:0:
221,167,57503,6,0,L|252:138,2,42.5
281,68,57768,6,0,P|314:93|325:141,1,85,8|0,0:0|0:0,0:0:0:0:
184,241,58032,2,0,P|150:215|140:168,1,85,8|0,0:0|0:0,0:0:0:0:
408,155,58297,2,0,P|384:199|335:213,1,85,8|0,0:0|0:0,0:0:0:0:
47,167,58562,2,0,P|59:127|88:98,1,85,8|0,0:0|0:0,0:0:0:0:
283,323,58827,2,0,P|243:337|203:329,1,85,8|0,0:0|0:0,0:0:0:0:
121,161,59091,2,0,P|160:148|206:158,1,85,8|0,0:0|0:0,0:0:0:0:
150,284,59444,5,0,0:0:0:0:
265,86,59621,1,0,0:0:0:0:
379,284,59797,1,0,0:0:0:0:
207,200,59974,1,0,0:0:0:0:
366,94,60150,1,0,0:0:0:0:
138,212,60327,6,0,P|184:135|270:169,1,191.250007295609,8|0,0:0|0:0,0:0:0:0:
236,320,60680,5,8,0:0:0:0:
344,224,60856,1,0,0:0:0:0:
366,94,61032,2,0,P|364:67|342:34,2,42.5,4|0|8,0:0|0:0|0:0,0:0:0:0:
316,304,61385,6,0,P|350:327|392:336,1,85,8|0,0:0|0:0,0:0:0:0:
266,163,61650,2,0,P|231:139|189:130,1,85,8|0,0:0|0:0,0:0:0:0:
88,188,61915,2,0,P|122:211|164:220,1,85,8|0,0:0|0:0,0:0:0:0:
280,56,62180,2,0,P|245:32|203:23,1,85,8|0,0:0|0:0,0:0:0:0:
140,81,62444,6,0,L|129:56,1,21.25
97,83,62532,2,0,L|82:62,1,21.25
60,101,62621,2,0,L|39:85,1,21.25
36,131,62709,2,0,L|32:184,2,42.5,8|0|0,0:0|0:0|0:0,0:0:0:0:
141,191,62974,2,0,L|157:162,2,28.3333333333333,8|0|0,0:0|0:0|0:0,0:0:0:0:
321,217,63150,6,0,L|334:126,1,85,8|0,0:0|0:0,0:0:0:0:
231,316,63415,2,0,P|214:265|220:231,1,85,8|0,0:0|0:0,0:0:0:0:
321,217,63680,1,8,0:0:0:0:
260,116,63856,1,4,0:0:0:0:
219,236,64032,1,0,0:0:0:0:
260,116,64209,6,0,P|248:68|216:40,1,85,8|0,0:0|0:0,0:0:0:0:
321,217,64474,2,0,P|369:231|409:217,1,85,8|0,0:0|0:0,0:0:0:0:
188,226,64738,2,0,P|161:248|152:264,2,42.5,8|0|0,0:0|0:0|0:0,0:0:0:0:
260,116,65091,5,0,0:0:0:0:
447,71,65268,1,4,0:0:0:0:
321,217,65444,1,0,0:0:0:0:
337,25,65621,1,0,0:0:0:0:
437,190,65797,1,0,0:0:0:0:
260,116,65974,6,0,L|158:137,1,95.6250036478044
24,168,66327,1,8,0:0:0:0:
135,308,66503,2,0,L|183:296,1,42.5
256,176,66680,2,0,P|280:176|312:192,2,42.5,4|8|0,0:0|0:0|0:0,0:0:0:0:
80,233,67032,6,0,P|66:259|59:288,1,42.5,8|0,0:0|0:0,0:0:0:0:
135,308,67297,2,0,P|170:332|204:330,1,59.4999981842042,8|0,0:0|0:0,0:0:0:0:
232,245,67562,2,0,P|256:201|252:161,1,76.4999976654053,4|0,0:0|0:0,0:0:0:0:
139,154,67827,2,0,P|87:134|32:141,1,93.5000028533936,4|0,0:0|0:0,0:0:0:0:
63,272,68091,2,0,P|39:324|53:389,1,110.499994941712,4|0,0:0|0:0,0:0:0:0:
204,347,68356,2,0,P|243:371|327:360,1,127.500004863739,4|0,0:0|0:0,0:0:0:0:
255,175,68621,2,0,P|277:124|264:68,1,72.2500013780594,4|0,0:0|0:0,0:0:0:0:
161,30,68797,6,0,P|125:61|118:113,1,85,8|0,0:0|0:0,0:0:0:0:
177,197,69062,2,0,P|221:197|262:164,1,85,8|0,0:0|0:0,0:0:0:0:
256,71,69327,2,0,L|279:112,1,42.5,8|0,0:0|0:0,0:0:0:0:
363,222,69503,2,0,L|360:172,1,42.5
424,117,69680,2,0,L|420:88,1,21.25
466,120,69768,2,0,L|480:97,1,21.25
483,143,69856,6,0,P|500:192|481:240,1,85,8|0,0:0|0:0,0:0:0:0:
422,292,70121,2,0,L|387:327,1,42.5,8|0,0:0|0:0,0:0:0:0:
338,162,70385,1,8,0:0:0:0:
291,338,70562,1,0,0:0:0:0:
215,129,70739,1,0,0:0:0:0:
147,362,70915,5,4,0:0:0:0:
3,210,71091,1,0,0:0:0:0:
170,211,71268,1,0,0:0:0:0:
10,374,71444,1,0,0:0:0:0:
140,84,71621,2,0,B|116:128,2,42.5
295,208,71974,6,0,L|317:214,3,21.25,8|0|0|0,0:0|0:0|0:0|0:0,0:0:0:0:
304,139,72150,6,0,L|326:145,3,21.25
207,97,72327,6,0,L|167:127,1,28.3333333333333,4|0,0:0|0:0,0:0:0:0:
216,191,72415,6,0,L|214:240,2,42.5
207,97,72680,2,0,P|243:73|285:72,1,85,8|0,0:0|0:0,0:0:0:0:
383,123,72944,6,0,P|399:161|396:204,1,85,8|0,0:0|0:0,0:0:0:0:
200,312,73209,2,0,P|184:274|187:231,1,85,8|0,0:0|0:0,0:0:0:0:
407,297,73474,2,0,L|430:261,2,42.5,8|0|0,0:0|0:0|0:0,0:0:0:0:
395,92,73738,6,0,L|406:138,1,42.5,4|0,0:0|0:0,0:0:0:0:
410,175,73914,1,0,0:0:0:0:
329,149,74003,6,0,P|285:133|241:145,1,85,8|0,0:0|0:0,0:0:0:0:
196,252,74268,2,0,L|152:254,1,42.5,8|0,0:0|0:0,0:0:0:0:
65,237,74444,6,0,L|37:197,1,42.5,8|0,0:0|0:0,0:0:0:0:
71,83,74621,2,0,L|43:123,1,42.5,0|8,0:0|0:0,0:0:0:0:
151,41,74797,6,0,L|191:69,1,42.5
361,41,74974,2,0,L|321:69,1,42.5,8|0,0:0|0:0,0:0:0:0:
255,226,75150,2,0,L|254:175,1,42.5,4|0,0:0|0:0,0:0:0:0:
257,29,75327,6,0,L|257:-7,2,21.25
256,108,75503,6,0,P|199:133|172:196,1,127.500004863739,8|0,0:0|0:0,0:0:0:0:
195,280,75768,2,0,P|232:262|254:226,1,85,8|0,0:0|0:0,0:0:0:0:
362,155,76032,2,0,P|395:182|410:222,1,85,8|0,0:0|0:0,0:0:0:0:
357,344,76297,5,0,0:0:0:0:
357,344,76385,2,0,L|344:304,1,42.5
196,249,76562,2,0,L|144:229,1,42.5,4|0,0:0|0:0,0:0:0:0:
362,155,76738,2,0,L|398:119,1,42.5
344,304,76915,6,0,L|325:243,1,50.9999984436036
196,249,77091,2,0,L|202:199,1,50.9999984436036
232,76,77268,1,0,0:0:0:0:
344,304,77444,1,0,0:0:0:0:
67,56,77621,6,0,L|44:40,3,21.25,8|0|0|0,0:0|0:0|0:0|0:0,0:0:0:0:
63,126,77797,6,0,L|40:110,3,21.25
143,185,77974,6,0,L|142:144,1,21.25,4|0,0:0|0:0,0:0:0:0:
209,111,78062,6,0,L|232:75,2,42.5,8|0|0,0:0|0:0|0:0,0:0:0:0:
147,49,78327,2,0,P|106:40|68:56,1,85,8|0,0:0|0:0,0:0:0:0:
332,190,78591,2,0,P|338:148|322:109,1,85,8|0,0:0|0:0,0:0:0:0:
143,185,78856,2,0,L|160:230,1,42.5,8|0,0:0|0:0,0:0:0:0:
250,283,79032,2,0,L|242:241,1,42.5,8|0,0:0|0:0,0:0:0:0:
256,172,79209,2,0,L|263:130,1,42.5,8|0,0:0|0:0,0:0:0:0:
216,65,79385,6,0,L|182:113,1,42.5,4|0,0:0|0:0,0:0:0:0:
143,185,79562,1,0,0:0:0:0:
219,253,79650,2,0,L|276:309,2,42.5,8|0|0,0:0|0:0|0:0,0:0:0:0:
143,185,79915,1,8,0:0:0:0:
151,36,80091,2,0,P|187:16|228:24,1,85,8|0,0:0|0:0,0:0:0:0:
276,108,80444,6,0,L|276:132,9,14.1666666666667
272,160,80797,2,0,P|264:200|252:216,1,42.5,4|0,0:0|0:0,0:0:0:0:
240,224,80974,2,0,L|249:250,1,21.25
204,232,81062,2,0,L|203:259,1,21.25
168,228,81150,2,0,P|138:179|139:126,1,85,8|0,0:0|0:0,0:0:0:0:
194,65,81415,6,0,P|238:97|250:153,1,85,8|0,0:0|0:0,0:0:0:0:
227,261,81680,1,8,0:0:0:0:
53,87,81856,1,0,0:0:0:0:
372,168,82032,1,0,0:0:0:0:
116,216,82209,1,4,0:0:0:0:
447,294,82385,5,0,0:0:0:0:
82,344,82562,1,0,0:0:0:0:
222,96,82738,1,0,0:0:0:0:
116,216,82915,2,0,P|74:207|37:186,1,85
385,167,83268,6,0,L|414:183,3,21.25,8|0|0|0,0:0|0:0|0:0|0:0,0:0:0:0:
412,98,83444,6,0,L|441:114,3,21.25
333,45,83621,6,0,L|326:89,1,28.3333333333333,4|0,0:0|0:0,0:0:0:0:
288,150,83709,6,0,B|244:174,2,42.5,8|0|0,0:0|0:0|0:0,0:0:0:0:
219,333,83974,6,0,P|179:319|157:285,1,85,8|0,0:0|0:0,0:0:0:0:
92,112,84238,2,0,P|130:131|159:163,1,85,8|0,0:0|0:0,0:0:0:0:
327,326,84503,2,0,B|339:278|307:230,1,85,8|0,0:0|0:0,0:0:0:0:
158,162,84768,6,0,B|230:154,2,42.5,8|0|0,0:0|0:0|0:0,0:0:0:0:
256,52,85032,2,0,L|192:60,1,42.5,4|0,0:0|0:0,0:0:0:0:
60,92,85209,1,0,0:0:0:0:
156,264,85297,2,0,L|103:270,2,42.5,8|0|0,0:0|0:0|0:0,0:0:0:0:
292,256,85562,1,8,0:0:0:0:
432,104,85738,5,8,0:0:0:0:
496,308,85915,1,0,0:0:0:0:
368,88,86091,5,0,2:0:0:0:
304,328,86268,1,0,2:0:0:0:
408,40,86444,5,4,0:0:0:0:
488,336,86621,2,0,L|516:352,2,28.3333333333333
468,356,86797,6,0,P|392:368|344:328,1,127.500004863739,8|0,0:0|0:0,0:0:0:0:
415,270,87062,2,0,P|361:240|301:256,1,127.500004863739,8|0,0:0|0:0,0:0:0:0:
224,200,87327,2,0,P|195:281|231:347,2,127.500004863739,8|0|0,0:0|0:0|0:0,0:0:0:0:
307,236,87856,5,4,0:0:0:0:
140,320,88032,1,0,0:0:0:0:
160,120,88209,1,0,0:0:0:0:
307,236,88385,1,0,0:0:0:0:
148,224,88561,5,8,0:0:0:0:
332,100,88738,1,0,0:0:0:0:
368,312,88915,1,0,0:0:0:0:
127,207,89092,5,0,0:0:0:0:
352,92,89268,1,0,0:0:0:0:
328,320,89445,1,0,0:0:0:0:
66,155,89621,5,0,0:0:0:0:
376,81,89797,1,0,0:0:0:0:
315,347,89974,6,0,L|304:373,5,28.3333333333333
292,252,90327,2,0,L|308:244,12,10.625
198,284,90680,5,0,0:0:0:0:
159,268,90768,1,0,0:0:0:0:
138,231,90856,1,0,0:0:0:0:
144,190,90944,1,0,0:0:0:0:
174,161,91032,1,0,0:0:0:0:
212,141,91121,1,0,0:0:0:0:
233,106,91209,1,0,0:0:0:0:
216,68,91297,1,0,0:0:0:0:
165,53,91385,5,0,0:0:0:0:
256,192,91430,12,0,94209,0:0:0:0:
303,88,101974,5,0,0:0:0:0:
410,83,102327,1,0,0:0:0:0:
484,156,102680,5,0,0:0:0:0:
272,168,103150,6,0,L|204:168,2,56.6666666666667
61,283,103738,1,0,0:0:0:0:
137,320,103915,2,0,B|171:349|213:334|213:334|274:273|274:273|314:259|361:282|361:282|406:265|370:210,1,340
289,185,104974,5,0,0:0:0:0:
209,88,105150,2,0,P|295:76|389:106,1,170
260,260,105974,6,0,L|320:296,2,56.6666666666667
463,167,106562,5,0,0:0:0:0:
395,116,106738,1,0,0:0:0:0:
340,344,107444,5,0,0:0:0:0:
256,192,107797,2,0,L|212:112,2,85
341,193,108327,5,0,0:0:0:0:
103,284,108856,1,0,0:0:0:0:
346,359,109385,1,0,0:0:0:0:
301,194,109738,5,0,0:0:0:0:
54,127,110268,1,0,0:0:0:0:
90,379,110797,5,0,0:0:0:0:
213,262,111150,1,0,0:0:0:0:
66,52,111680,1,0,0:0:0:0:
188,108,112209,5,0,0:0:0:0:
276,252,112562,1,0,0:0:0:0:
240,84,113032,5,0,0:0:0:0:
144,68,113150,5,0,0:0:0:0:
180,159,113267,5,0,0:0:0:0:
228,352,113621,5,0,0:0:0:0:
288,276,113797,2,0,L|308:320,2,28.3333333333333
272,200,113974,6,0,L|356:200,1,59.4999981842042
396,94,114327,2,0,L|312:94,1,59.4999981842042
215,170,114680,6,0,L|299:170,1,59.4999981842042
356,58,115032,2,0,L|272:58,1,59.4999981842042
184,172,115385,6,0,L|184:232,1,59.4999981842042
62,167,115738,2,0,L|62:108,1,59.4999981842042
211,218,116091,6,0,L|211:278,1,59.4999981842042
93,223,116444,2,0,L|93:164,1,59.4999981842042
247,241,116797,6,0,P|277:240|306:248,1,59.4999981842042
221,361,117150,2,0,P|191:362|163:355,1,59.4999981842042
275,201,117503,6,0,P|305:200|334:208,1,59.4999981842042
264,331,117855,2,0,P|234:332|206:325,1,59.4999981842042
275,201,118209,6,0,P|274:171|282:143,1,59.4999981842042
413,203,118562,2,0,P|413:233|406:262,1,59.4999981842042
317,168,118915,6,0,P|316:138|324:110,1,59.4999981842042
455,231,119267,2,0,P|456:261|449:290,1,59.4999981842042
406,142,119621,6,0,P|414:116|431:99,1,42.5
318,267,119974,2,0,P|326:293|343:310,1,42.5
314,140,120327,6,0,P|322:114|339:97,1,42.5
226,265,120680,2,0,P|234:291|251:308,1,42.5
222,138,121032,6,0,P|230:112|247:95,1,42.5
134,263,121385,2,0,P|142:289|159:306,1,42.5
158,38,121738,6,0,P|139:76|139:119,1,63.7500024318696
70,352,122091,2,0,P|51:314|51:271,1,63.7500024318696
212,240,122444,5,0,0:0:0:0:
170,165,122621,1,0,0:0:0:0:
125,236,122797,5,0,0:0:0:0:
86,160,122974,1,0,0:0:0:0:
264,168,123150,5,0,0:0:0:0:
306,93,123327,1,0,0:0:0:0:
351,164,123503,5,0,0:0:0:0:
390,88,123680,1,0,0:0:0:0:
156,208,123856,5,0,0:0:0:0:
167,135,124032,1,0,0:0:0:0:
264,208,124209,5,0,0:0:0:0:
253,135,124385,1,0,0:0:0:0:
88,136,124562,5,0,0:0:0:0:
61,60,124738,1,0,0:0:0:0:
328,136,124915,5,0,0:0:0:0:
355,60,125091,1,0,0:0:0:0:
160,232,125268,6,0,P|236:264|268:260,1,85
352,196,125621,5,0,0:0:0:0:
368,156,125709,1,0,0:0:0:0:
362,114,125797,1,0,0:0:0:0:
256,44,125974,1,0,0:0:0:0:
148,200,126327,1,0,0:0:0:0:
276,324,126680,6,0,B|396:304|400:192|348:220,2,191.250007295609
54,113,128091,6,0,B|96:141|104:191|66:225|66:225|108:199|152:237|195:210,1,255.000009727478
256,0,129150,1,0,0:0:0:0:
336,232,129503,6,0,P|300:312|208:368,2,191.250007295609
140,76,130915,2,0,B|192:83|214:155|214:155|180:228|204:299|204:299|267:270|272:203,1,382.500014591218
136,160,132327,6,0,B|94:119|48:128|48:128|72:68|36:20,2,191.250007295609
167,316,133738,6,0,P|116:343|79:344,1,95.6250036478044
62,319,134091,2,0,L|32:336,1,21.25
39,282,134180,2,0,L|16:292,1,21.25
24,244,134268,2,0,B|0:187|28:120|28:120|102:108|147:150|147:150|165:127|156:74,1,318.750012159348
160,4,135503,5,0,0:0:0:0:
346,270,135856,1,0,0:0:0:0:
363,47,136032,1,0,0:0:0:0:
437,288,136209,1,0,0:0:0:0:
296,110,136385,1,0,0:0:0:0:
346,270,136562,6,0,P|326:314|298:346,1,85,12|0,0:0|0:0,0:0:0:0:
247,175,136915,2,0,P|267:131|303:107,1,85,8|4,0:0|0:0,0:0:0:0:
208,256,137268,6,0,L|188:300,2,42.5,12|0|0,0:0|0:0|0:0,0:0:0:0:
132,212,137621,2,0,P|152:168|184:144,1,85,12|0,0:0|0:0,0:0:0:0:
208,256,137974,6,0,P|260:272|300:264,1,85,8|4,0:0|0:0,0:0:0:0:
328,232,138238,1,0,0:0:0:0:
352,180,138327,2,0,P|300:164|260:172,1,85,12|0,0:0|0:0,0:0:0:0:
226,355,138680,6,0,P|278:371|318:363,1,85,12|0,0:0|0:0,0:0:0:0:
370,279,139033,2,0,P|318:263|278:271,1,85,8|0,0:0|0:0,0:0:0:0:
226,355,139385,6,0,P|192:316|184:272,1,85,4|0,0:0|0:0,0:0:0:0:
180,136,139738,1,8,0:0:0:0:
360,84,139915,1,4,0:0:0:0:
120,72,140091,2,0,P|92:117|100:161,1,85,12|0,0:0|0:0,0:0:0:0:
304,370,140444,6,0,P|251:372|217:343,1,85,4|0,0:0|0:0,0:0:0:0:
412,240,140797,1,8,0:0:0:0:
180,136,140974,1,4,0:0:0:0:
456,132,141150,2,0,P|458:87|426:43,1,85,12|0,0:0|0:0,0:0:0:0:
162,57,141503,6,0,P|160:102|192:146,1,85,4|0,0:0|0:0,0:0:0:0:
248,292,141856,1,4,0:0:0:0:
248,292,142032,1,0,0:0:0:0:
124,236,142209,5,6,0:0:0:0:
55,128,142385,1,8,0:0:0:0:
188,192,142562,5,2,0:0:0:0:
133,48,142738,1,8,0:0:0:0:
256,168,142915,5,2,0:0:0:0:
255,19,143091,1,8,0:0:0:0:
328,184,143268,5,2,0:0:0:0:
398,36,143444,1,8,0:0:0:0:
328,184,143621,5,2,0:0:0:0:
432,335,143797,1,8,0:0:0:0:
418,165,143974,5,2,0:0:0:0:
331,359,144150,1,8,0:0:0:0:
291,129,144327,5,2,0:0:0:0:
403,375,144503,1,8,0:0:0:0:
357,100,144680,5,2,0:0:0:0:
252,376,144856,1,8,0:0:0:0:
47,221,145032,5,0,0:0:0:0:
65,182,145120,1,0,0:0:0:0:
104,166,145208,1,0,0:0:0:0:
145,172,145296,1,0,0:0:0:0:
170,205,145384,1,0,0:0:0:0:
206,226,145473,1,0,0:0:0:0:
248,231,145561,1,0,0:0:0:0:
285,210,145649,1,0,0:0:0:0:
314,194,145738,6,0,L|342:210,5,28.3333333333333
461,195,146091,2,0,L|438:211,5,28.3333333333333
331,282,146444,6,0,L|352:297,6,21.25
458,285,146797,2,0,L|437:300,6,21.25
380,192,147150,5,4,0:0:0:0:
380,192,147209,2,0,L|400:180,19,14.1666666666667
256,192,147856,6,0,L|348:132,1,106.25,8|0,0:0|0:0,0:0:0:0:
408,88,148385,1,0,0:0:0:0:
326,62,148562,1,0,0:0:0:0:
257,111,148738,1,0,0:0:0:0:
76,234,148915,6,0,B|92:278|148:286,1,85,8|0,0:0|0:0,0:0:0:0:
257,111,149444,2,0,B|245:83,2,21.25
160,84,149797,5,0,0:0:0:0:
256,164,149974,1,0,0:0:0:0:
202,57,150150,5,0,0:0:0:0:
280,168,150327,1,0,0:0:0:0:
251,47,150503,5,0,0:0:0:0:
304,172,150680,2,0,L|316:192,10,14.1666666666667,8|0|0|0|0|0|0|0|0|0|0,0:0|0:0|0:0|0:0|0:0|0:0|0:0|0:0|0:0|0:0|0:0,0:0:0:0:
256,252,151032,6,0,L|302:233,1,42.5,8|0,0:0|0:0,0:0:0:0:
432,188,151209,6,0,L|380:200,1,42.5
439,313,151385,1,4,0:0:0:0:
439,313,151474,2,0,P|399:281|351:277,1,85,8|0,0:0|0:0,0:0:0:0:
255,328,151738,6,0,P|195:308|183:272,1,85,8|0,0:0|0:0,0:0:0:0:
235,136,152003,2,0,P|295:156|307:192,1,85,8|0,0:0|0:0,0:0:0:0:
155,139,152268,2,0,P|175:79|211:67,1,85,8|0,0:0|0:0,0:0:0:0:
356,227,152532,2,0,P|299:255|265:238,1,85,8|0,0:0|0:0,0:0:0:0:
216,235,152797,1,4,0:0:0:0:
253,163,152885,2,0,L|268:144,2,21.25
178,75,153062,6,0,L|161:22,2,42.5,8|0|0,0:0|0:0|0:0,0:0:0:0:
188,129,153327,5,8,0:0:0:0:
198,183,153415,1,0,0:0:0:0:
216,235,153503,6,0,P|254:246|307:216,1,85,8|0,0:0|0:0,0:0:0:0:
232,55,153768,2,0,P|191:35|128:49,1,85,8|0,0:0|0:0,0:0:0:0:
224,171,154032,1,8,0:0:0:0:
377,272,154209,1,4,0:0:0:0:
219,357,154385,1,0,0:0:0:0:
224,171,154562,6,0,P|260:131|304:123,1,85,8|0,0:0|0:0,0:0:0:0:
403,178,154827,2,0,P|367:218|323:226,1,85,8|0,0:0|0:0,0:0:0:0:
291,325,155091,2,0,P|320:325|357:305,2,42.5,8|0|0,0:0|0:0|0:0,0:0:0:0:
164,322,155444,5,0,0:0:0:0:
333,205,155621,1,0,0:0:0:0:
128,201,155797,1,0,0:0:0:0:
291,325,155974,1,4,0:0:0:0:
232,128,156150,1,0,0:0:0:0:
333,205,156327,6,0,L|460:168,1,127.5
309,45,156680,1,8,0:0:0:0:
232,294,156856,1,0,0:0:0:0:
239,154,157032,5,4,0:0:0:0:
239,154,157121,2,0,P|209:102|172:86,1,85,8|0,0:0|0:0,0:0:0:0:
208,218,157386,2,0,P|268:218|300:194,1,85,8|0,0:0|0:0,0:0:0:0:
216,22,157651,2,0,P|156:22|124:46,1,85,8|0,0:0|0:0,0:0:0:0:
142,188,157915,2,0,P|136:230|153:269,1,85,4|0,0:0|0:0,0:0:0:0:
354,230,158180,2,0,P|354:170|330:138,1,85,4|0,0:0|0:0,0:0:0:0:
122,340,158445,2,0,P|182:340|214:316,1,85,4|0,0:0|0:0,0:0:0:0:
171,120,158709,2,0,P|111:120|79:144,1,85,4|0,0:0|0:0,0:0:0:0:
237,280,158974,6,0,L|264:313,1,42.5,4|0,0:0|0:0,0:0:0:0:
168,241,159150,2,0,L|126:248,2,42.5
240,200,159416,6,0,B|278:168|323:185,1,85,8|0,0:0|0:0,0:0:0:0:
408,255,159679,2,0,P|373:278|332:274,1,85,8|0,0:0|0:0,0:0:0:0:
168,241,159944,2,0,P|154:201|170:158,1,85,8|0,0:0|0:0,0:0:0:0:
358,69,160209,6,0,B|391:109|379:153,1,85,8|0,0:0|0:0,0:0:0:0:
408,255,160474,2,0,B|375:293|328:273,1,85,8|0,0:0|0:0,0:0:0:0:
247,241,160738,2,0,B|173:192|236:186|168:130,1,127.5,8|0,0:0|0:0,0:0:0:0:
104,116,161092,5,0,0:0:0:0:
60,120,161180,1,0,0:0:0:0:
32,152,161268,1,0,0:0:0:0:
20,192,161356,1,0,0:0:0:0:
32,232,161444,1,0,0:0:0:0:
64,260,161533,1,0,0:0:0:0:
96,288,161621,1,0,0:0:0:0:
96,332,161709,1,0,0:0:0:0:
60,352,161797,1,0,0:0:0:0:
32,320,161885,1,0,0:0:0:0:
28,276,161974,6,0,B|20:228|64:176|64:176|56:124,1,127.5,8|0,0:0|0:0,0:0:0:0:
64,51,162327,6,0,L|92:83,1,42.5,8|0,0:0|0:0,0:0:0:0:
252,54,162503,2,0,L|216:94,1,42.5
174,233,162680,6,0,P|132:242|93:221,1,85,4|0,0:0|0:0,0:0:0:0:
61,158,162944,1,0,0:0:0:0:
92,83,163032,6,0,P|115:48|152:27,1,85,8|0,0:0|0:0,0:0:0:0:
235,177,163297,2,0,P|211:211|174:232,1,85,8|0,0:0|0:0,0:0:0:0:
1,213,163562,2,0,P|24:178|61:157,1,85,8|0,0:0|0:0,0:0:0:0:
301,283,163827,2,0,P|277:317|240:338,1,85,8|0,0:0|0:0,0:0:0:0:
84,256,164091,1,4,0:0:0:0:
84,256,164180,6,0,L|72:284,2,21.25
274,200,164356,2,0,P|253:160|196:135,1,85,8|0,0:0|0:0,0:0:0:0:
94,78,164621,2,0,L|134:94,1,42.5,8|0,0:0|0:0,0:0:0:0:
317,75,164797,6,0,P|278:59|238:46,1,85,8|0,0:0|0:0,0:0:0:0:
274,200,165062,2,0,P|304:229|344:240,1,85,8|0,0:0|0:0,0:0:0:0:
238,46,165327,2,0,L|266:77,1,42.5,8|0,0:0|0:0,0:0:0:0:
312,276,165503,2,0,L|318:234,1,42.5,4|0,0:0|0:0,0:0:0:0:
448,88,165680,2,0,L|406:97,1,42.5
140,212,165856,6,0,P|140:255|156:294,1,85,8|0,0:0|0:0,0:0:0:0:
256,184,166121,2,0,P|256:141|240:102,1,85,8|0,0:0|0:0,0:0:0:0:
24,28,166385,2,0,L|32:84,1,42.5,8|0,0:0|0:0,0:0:0:0:
88,112,166562,2,0,L|76:168,1,42.5
36,213,166738,5,0,0:0:0:0:
326,215,166915,1,4,0:0:0:0:
92,40,167091,1,0,0:0:0:0:
180,318,167268,1,0,0:0:0:0:
273,42,167444,1,0,0:0:0:0:
180,254,167621,6,0,L|180:333,1,63.75
93,171,167974,2,0,P|141:151|177:155,1,85,8|0,0:0|0:0,0:0:0:0:
351,287,168327,2,0,L|388:350,2,42.5,4|8|0,0:0|0:0|0:0,0:0:0:0:
327,135,168680,6,0,P|308:128|287:129,1,42.5,8|0,0:0|0:0,0:0:0:0:
232,208,168944,2,0,P|265:219|309:211,1,63.7500024318696,8|0,0:0|0:0,0:0:0:0:
329,37,169209,2,0,P|277:29|241:37,1,85,4|0,0:0|0:0,0:0:0:0:
218,304,169473,2,0,P|261:312|306:304,1,85,4|0,0:0|0:0,0:0:0:0:
92,124,169738,2,0,P|80:192|100:256,1,127.500004863739,4|0,0:0|0:0,0:0:0:0:
212,181,170003,2,0,P|284:198|356:181,1,148.750001418591,4|0,0:0|0:0,0:0:0:0:
150,25,170268,2,0,P|107:30|68:46,1,85,4|0,0:0|0:0,0:0:0:0:
158,317,170444,6,0,P|191:290|207:252,1,85,8|0,0:0|0:0,0:0:0:0:
22,143,170709,2,0,P|14:185|18:227,1,85,8|0,0:0|0:0,0:0:0:0:
263,132,170974,2,0,L|230:106,1,42.5,8|0,0:0|0:0,0:0:0:0:
174,224,171150,2,0,L|206:250,1,42.5,4|0,0:0|0:0,0:0:0:0:
345,241,171327,2,0,L|373:265,2,28.3333333333333
430,326,171503,6,0,P|458:290|462:242,1,85,8|0,0:0|0:0,0:0:0:0:
351,134,171856,2,0,L|351:177,1,42.5
255,328,172032,2,0,L|255:285,1,42.5,8|0,0:0|0:0,0:0:0:0:
280,192,172209,1,0,0:0:0:0:
342,359,172385,1,0,0:0:0:0:
393,46,172562,5,4,0:0:0:0:
280,192,172738,1,0,0:0:0:0:
203,31,172915,1,0,0:0:0:0:
448,232,173091,1,0,0:0:0:0:
148,347,173268,5,0,0:0:0:0:
393,46,173444,1,0,0:0:0:0:
74,168,173621,6,0,L|45:159,3,21.25,8|0|0|0,0:0|0:0|0:0|0:0,0:0:0:0:
97,99,173797,6,0,L|68:90,3,21.25
188,176,173974,6,0,L|148:172,1,28.3333333333333,4|0,0:0|0:0,0:0:0:0:
192,66,174062,6,0,L|168:32,2,42.5
188,176,174327,6,0,P|236:164|260:132,1,85,8|0,0:0|0:0,0:0:0:0:
261,27,174591,2,0,P|213:39|189:71,1,85,8|0,0:0|0:0,0:0:0:0:
162,265,174856,2,0,P|125:251|97:203,1,85,8|0,0:0|0:0,0:0:0:0:
303,76,175121,2,0,P|329:109|335:151,1,85,8|0,0:0|0:0,0:0:0:0:
100,216,175385,6,0,L|136:192,1,42.5,4|0,0:0|0:0,0:0:0:0:
192,300,175562,2,8,L|204:260,1,42.5,0|8,0:0|0:0,0:0:0:0:
320,300,175738,2,0,L|308:260,1,42.5
412,216,175915,2,0,L|376:192,1,42.5,8|0,0:0|0:0,0:0:0:0:
173,62,176091,6,0,L|186:102,1,42.5,8|0,0:0|0:0,0:0:0:0:
339,62,176268,2,0,L|325:102,1,42.5,0|8,0:0|0:0,0:0:0:0:
90,140,176444,2,0,L|127:159,1,42.5
422,140,176621,2,0,L|385:159,1,42.5,8|0,0:0|0:0,0:0:0:0:
256,311,176797,2,0,L|256:256,1,42.5,4|0,0:0|0:0,0:0:0:0:
255,98,176974,2,0,L|255:59,2,21.25
99,191,177150,6,0,L|127:159,1,42.5,8|0,0:0|0:0,0:0:0:0:
130,24,177327,2,0,L|166:60,1,42.5,0|8,0:0|0:0,0:0:0:0:
281,64,177503,6,0,L|249:104,1,42.5
251,205,177680,2,0,L|211:177,1,42.5,8|0,0:0|0:0,0:0:0:0:
66,102,177856,6,0,L|114:138,1,42.5
369,108,178032,2,0,L|321:144,1,42.5
39,205,178209,6,0,L|97:205,1,42.5,4|0,0:0|0:0,0:0:0:0:
423,205,178385,2,0,L|365:205,1,42.5,4|0,0:0|0:0,0:0:0:0:
49,300,178562,6,0,L|109:288,1,42.5
463,300,178738,2,0,L|403:288,1,42.5
166,294,178915,6,0,B|194:338|194:338|246:333,1,85
396,284,179268,6,0,L|418:284,3,21.25
397,215,179444,6,0,L|422:216,3,21.25
315,140,179621,6,0,L|283:164,1,28.3333333333333,4|0,0:0|0:0,0:0:0:0:
294,278,179709,6,0,L|288:320,2,42.5,8|0|0,0:0|0:0|0:0,0:0:0:0:
132,316,179974,6,0,P|180:328|228:312,1,85,8|0,0:0|0:0,0:0:0:0:
315,140,180238,2,0,P|267:128|219:144,1,85,8|0,0:0|0:0,0:0:0:0:
52,172,180503,6,0,P|108:180|144:172,1,85,8|0,0:0|0:0,0:0:0:0:
316,60,180768,2,0,P|260:52|224:60,1,85,8|0,0:0|0:0,0:0:0:0:
232,288,181032,5,4,0:0:0:0:
472,192,181209,1,0,0:0:0:0:
226,178,181385,5,0,0:0:0:0:
459,324,181562,1,0,0:0:0:0:
279,238,181738,5,8,0:0:0:0:
511,264,181915,1,0,0:0:0:0:
408,60,182091,2,0,L|392:80,9,14.1666666666667
329,258,182444,6,0,L|341:210,1,42.5,4|0,0:0|0:0,0:0:0:0:
252,136,182621,2,0,L|240:100,1,21.25
168,116,182709,2,0,L|160:92,1,21.25
88,104,182797,6,0,L|84:88,3,14.1666666666667,8|0|0|0,0:0|0:0|0:0|0:0,0:0:0:0:
264,301,182974,6,0,L|248:262,1,42.5,0|8,0:0|0:0,0:0:0:0:
97,224,183150,2,0,L|140:224,1,42.5
312,218,183327,6,0,L|332:266,1,42.5,8|0,0:0|0:0,0:0:0:0:
93,244,183503,2,0,L|136:244,1,42.5
395,217,183680,6,0,L|379:178,1,42.5
164,49,183856,1,4,0:0:0:0:
92,276,184032,1,0,0:0:0:0:
312,218,184209,1,0,0:0:0:0:
0,135,184385,1,0,0:0:0:0:
96,72,184562,6,0,L|116:32,1,42.5
124,288,184738,1,0,0:0:0:0:
238,77,184915,6,0,L|252:42,3,21.25,8|0|0|0,0:0|0:0|0:0|0:0,0:0:0:0:
328,62,185091,6,0,L|342:27,3,21.25
260,192,185268,6,0,L|308:172,1,28.3333333333333,4|0,0:0|0:0,0:0:0:0:
370,138,185356,6,0,L|398:133,2,28.3333333333333,8|0|0,0:0|0:0|0:0,0:0:0:0:
200,144,185621,6,0,P|144:128|112:136,1,85,8|0,0:0|0:0,0:0:0:0:
188,216,185885,2,0,P|168:264|180:304,1,85,8|0,0:0|0:0,0:0:0:0:
244,264,186150,2,0,P|292:284|332:272,1,85,8|0,0:0|0:0,0:0:0:0:
260,192,186415,2,0,P|280:144|268:104,1,85,8|0,0:0|0:0,0:0:0:0:
200,144,186680,5,4,0:0:0:0:
264,328,186856,1,0,0:0:0:0:
88,256,187032,1,0,0:0:0:0:
312,172,187209,1,8,0:0:0:0:
170,299,187385,5,8,0:0:0:0:
238,40,187562,1,0,0:0:0:0:
112,200,187738,5,0,0:0:0:0:
388,120,187915,1,8,0:0:0:0:
128,112,188091,5,4,0:0:0:0:
356,304,188268,2,0,L|380:328,2,28.3333333333333
288,195,188444,6,0,P|275:173|220:147,1,85,8|0,0:0|0:0,0:0:0:0:
112,200,188709,2,0,P|125:222|180:248,1,85,8|0,0:0|0:0,0:0:0:0:
334,131,188974,6,0,P|321:109|266:83,1,85,8|0,0:0|0:0,0:0:0:0:
185,138,189327,1,0,0:0:0:0:
334,131,189503,1,4,0:0:0:0:
148,217,189680,1,0,0:0:0:0:
385,200,189856,1,0,0:0:0:0:
252,30,190032,1,0,0:0:0:0:
334,131,190209,5,8,0:0:0:0:
375,266,190385,1,0,0:0:0:0:
391,86,190562,5,0,0:0:0:0:
311,318,190738,1,0,0:0:0:0:
267,82,190915,5,0,0:0:0:0:
359,330,191091,1,0,0:0:0:0:
323,42,191268,5,0,0:0:0:0:
255,334,191444,1,0,0:0:0:0:
104,192,191621,6,0,L|84:208,6,21.25
64,140,191974,6,0,L|48:144,9,14.1666666666667
140,124,192327,5,4,0:0:0:0:
211,120,192415,1,0,0:0:0:0:
264,169,192503,1,0,0:0:0:0:
268,241,192591,1,0,0:0:0:0:
219,294,192680,1,0,0:0:0:0:
146,297,192768,1,0,0:0:0:0:
94,248,192856,1,0,0:0:0:0:
91,176,192944,1,0,0:0:0:0:
140,124,193032,6,0,P|182:116|223:124,1,72.2500013780594,8|0,0:0|0:0,0:0:0:0:
351,84,193297,2,0,P|361:124|339:180,1,85,8|0,0:0|0:0,0:0:0:0:
245,260,193562,2,0,P|199:293|153:297,2,85,8|4|0,0:0|0:0|0:0,0:0:0:0:
239,147,194091,6,0,P|215:112|176:100,1,85,8|0,0:0|0:0,0:0:0:0:
72,140,194356,2,0,P|96:175|136:186,1,85,8|0,0:0|0:0,0:0:0:0:
239,147,194621,1,8,0:0:0:0:
344,120,194797,1,0,0:0:0:0:
175,99,194974,1,0,0:0:0:0:
384,180,195150,2,0,P|404:232|396:268,1,85,4|0,0:0|0:0,0:0:0:0:
320,288,195503,6,0,L|324:333,5,28.3333333333333
244,272,195856,6,0,L|231:308,5,28.3333333333333
295,199,196209,6,0,P|323:163|327:115,1,85,8|0,0:0|0:0,0:0:0:0:
248,136,196562,2,0,P|224:116|220:80,2,42.5,4|8|0,0:0|0:0|0:0,0:0:0:0:
329,125,196915,6,0,P|389:117|417:137,1,85,8|0,0:0|0:0,0:0:0:0:
200,204,197180,2,0,P|152:220|107:211,1,85,8|0,0:0|0:0,0:0:0:0:
292,68,197444,2,0,P|352:60|380:80,1,85,8|0,0:0|0:0,0:0:0:0:
344,256,197709,2,0,P|296:272|256:264,1,85,8|0,0:0|0:0,0:0:0:0:
370,71,197974,2,0,P|378:131|370:163,1,85,4|0,0:0|0:0,0:0:0:0:
262,266,198238,2,0,P|261:237|266:214,2,42.5,8|0|0,0:0|0:0|0:0,0:0:0:0:
373,154,198503,2,0,P|380:129|376:105,1,42.5,8|0,0:0|0:0,0:0:0:0:
284,70,198680,6,0,P|236:90|216:126,1,85,8|0,0:0|0:0,0:0:0:0:
262,262,198944,2,0,P|310:242|330:206,1,85,8|0,0:0|0:0,0:0:0:0:
219,117,199209,2,0,P|167:113|115:121,2,85,8|4|0,0:0|0:0|0:0,0:0:0:0:
228,200,199738,6,0,P|228:140|212:104,1,85,8|0,0:0|0:0,0:0:0:0:
148,176,200003,2,0,P|144:232|168:268,1,85,8|0,0:0|0:0,0:0:0:0:
232,304,200268,2,0,P|280:288|304:244,1,85,8|0,0:0|0:0,0:0:0:0:
148,176,200621,1,0,0:0:0:0:
296,160,200797,2,0,P|320:120|320:76,1,85,4|0,0:0|0:0,0:0:0:0:
248,100,201150,6,0,L|204:88,5,28.3333333333333
184,160,201503,6,0,L|136:144,5,28.3333333333333
92,216,201856,6,0,B|57:181|82:128,1,85,8|0,0:0|0:0,0:0:0:0:
184,160,202209,2,0,P|204:156|224:128,2,42.5,4|8|0,0:0|0:0|0:0,0:0:0:0:
148,264,202562,6,0,P|174:311|210:329,1,85,8|0,0:0|0:0,0:0:0:0:
276,160,202827,2,0,L|339:217,1,85,8|0,0:0|0:0,0:0:0:0:
222,296,203091,2,0,P|180:290|148:264,1,85,8|0,0:0|0:0,0:0:0:0:
276,160,203356,2,0,P|317:168|352:192,1,85,8|0,0:0|0:0,0:0:0:0:
229,237,203621,2,0,L|148:264,1,85,4|0,2:0|2:0,2:0:0:0:
352,192,203885,2,0,L|386:163,2,42.5,8|0|0,2:0|2:0|2:0,2:0:0:0:
192,340,204150,2,0,L|232:312,1,42.5,8|0,0:0|0:0,0:0:0:0:
264,280,204327,5,12,0:0:0:0:
255,242,204415,1,0,0:0:0:0:
234,210,204503,1,0,0:0:0:0:
203,187,204591,1,0,0:0:0:0:
170,167,204679,1,8,0:0:0:0:
133,155,204768,1,0,0:0:0:0:
95,135,204856,2,0,L|127:94,1,42.5,4|0,0:0|0:0,0:0:0:0:
164,105,205032,6,0,L|204:77,3,42.5,12|0|0|0,0:0|0:0|0:0|0:0,0:0:0:0:
278,34,205385,5,12,0:0:0:0:
289,74,205473,1,0,0:0:0:0:
282,115,205561,1,0,0:0:0:0:
260,151,205649,1,0,0:0:0:0:
222,170,205737,1,8,0:0:0:0:
179,171,205826,1,0,0:0:0:0:
139,153,205915,2,0,L|141:204,1,42.5,4|0,0:0|0:0,0:0:0:0:
144,233,206091,6,0,L|145:305,3,42.5,12|0|0|0,0:0|0:0|0:0|0:0,0:0:0:0:
62,299,206444,5,12,0:0:0:0:
80,337,206532,1,0,0:0:0:0:
112,361,206620,1,0,0:0:0:0:
153,368,206708,1,0,0:0:0:0:
195,359,206797,6,0,L|232:332,5,28.3333333333333,12|0|0|0|0|0,0:0|0:0|0:0|0:0|0:0|0:0,0:0:0:0:
168,268,207150,6,0,L|168:226,5,28.3333333333333,12|0|0|0|0|0,0:0|0:0|0:0|0:0|0:0|0:0,0:0:0:0:
196,248,207503,1,8,0:0:0:0:
244,248,207591,1,0,0:0:0:0:
288,268,207680,6,0,L|292:236,8,28.3333333333333,4|0|0|12|0|0|0|0|0,0:0|0:0|0:0|0:0|0:0|0:0|0:0|0:0|0:0,0:0:0:0:
408,195,208209,5,12,0:0:0:0:
376,166,208297,1,0,0:0:0:0:
336,152,208385,1,0,0:0:0:0:
295,159,208473,1,0,0:0:0:0:
262,185,208561,1,8,0:0:0:0:
244,223,208650,1,0,0:0:0:0:
233,264,208738,2,0,L|209:222,1,42.5,4|0,0:0|0:0,0:0:0:0:
195,195,208915,6,0,L|175:153,3,42.5,12|0|0|0,0:0|0:0|0:0|0:0,0:0:0:0:
88,168,209268,5,12,0:0:0:0:
107,205,209356,1,0,0:0:0:0:
126,242,209444,1,0,0:0:0:0:
145,281,209532,1,0,0:0:0:0:
161,309,209620,6,0,L|180:351,3,42.5,12|0|0|0,0:0|0:0|0:0|0:0,0:0:0:0:
275,324,209974,6,0,L|257:285,3,42.5,12|0|0|0,0:0|0:0|0:0|0:0,0:0:0:0:
240,195,210327,5,8,0:0:0:0:
281,196,210415,1,0,0:0:0:0:
318,217,210503,1,4,0:0:0:0:
343,251,210591,1,0,0:0:0:0:
352,292,210680,1,12,0:0:0:0:
340,332,210768,1,0,0:0:0:0:
320,360,210856,1,0,0:0:0:0:
288,372,210944,1,0,0:0:0:0:
256,360,211032,5,12,0:0:0:0:
280,336,211120,1,0,0:0:0:0:
312,328,211208,1,0,0:0:0:0:
340,332,211296,1,0,0:0:0:0:
372,328,211384,1,8,0:0:0:0:
396,304,211473,1,0,0:0:0:0:
408,272,211562,2,0,L|376:244,1,42.5,4|0,0:0|0:0,0:0:0:0:
344,220,211738,6,0,L|276:224,3,42.5,12|0|0|0,0:0|0:0|0:0|0:0,0:0:0:0:
312,328,212091,5,8,0:0:0:0:
269,331,212179,1,0,0:0:0:0:
227,335,212267,1,0,0:0:0:0:
185,339,212355,1,0,0:0:0:0:
146,341,212444,6,0,L|104:344,5,28.3333333333333,12|0|0|0|0|0,0:0|0:0|0:0|0:0|0:0|0:0,0:0:0:0:
92,188,212797,6,0,L|132:186,5,28.3333333333333,12|0|0|0|0|0,0:0|0:0|0:0|0:0|0:0|0:0,0:0:0:0:
79,108,213150,5,8,0:0:0:0:
124,92,213238,1,0,0:0:0:0:
171,102,213326,1,4,0:0:0:0:
209,130,213414,1,0,0:0:0:0:
230,174,213503,1,12,0:0:0:0:
228,222,213591,1,0,0:0:0:0:
225,268,213680,5,0,0:0:0:0:
253,313,213768,1,0,0:0:0:0:
301,339,213856,1,12,0:0:0:0:
355,343,213944,1,0,0:0:0:0:
403,321,214032,1,0,0:0:0:0:
438,277,214121,1,0,0:0:0:0:
462,247,214209,6,0,L|462:205,1,42.5,8|0,0:0|0:0,0:0:0:0:
348,80,214385,2,0,L|348:123,1,42.5,4|0,0:0|0:0,0:0:0:0:
253,313,214562,2,0,L|253:271,1,42.5,12|0,0:0|0:0,0:0:0:0:
119,77,214738,2,0,L|119:120,1,42.5
347,219,214915,5,4,0:0:0:0:
320,152,215003,1,0,0:0:0:0:
253,124,215091,1,0,0:0:0:0:
186,152,215179,1,0,0:0:0:0:
158,219,215267,1,4,0:0:0:0:
186,286,215356,1,0,0:0:0:0:
253,313,215444,1,0,0:0:0:0:
320,286,215532,1,0,0:0:0:0:
256,192,215621,12,0,219856,0:0:0:0:
