osu file format v14

[General]
AudioFilename: audio.mp3
AudioLeadIn: 0
PreviewTime: 61796
Countdown: 0
SampleSet: Normal
StackLeniency: 1
Mode: 1
LetterboxInBreaks: 0
WidescreenStoryboard: 1

[Editor]
Bookmarks: 20354
DistanceSpacing: 1.2
BeatDivisor: 6
GridSize: 32
TimelineZoom: 1.9

[Metadata]
Title:*Feels Seasickness...*
TitleUnicode:*Feels Seasickness...*
Artist:Camellia
ArtistUnicode:かめりあ
Creator:Vulkin
Version:*Muzukashii...*
Source:SOUND VOLTEX IV HEAVENLY HAVEN
Tags:The 8th KAC Original Song Contest KACオリジナル楽曲コンテスト ΩDimension Omega Kanade Yamashina 野増菜 かなで Highest Excellence Award BEMANI nanahira ななひら ラーメン かめるかめりあ KamelCamellia Cametek Genjuro electro swing electronic video game instrumental
BeatmapID:2197917
BeatmapSetID:1051724

[Difficulty]
HPDrainRate:5
CircleSize:7
OverallDifficulty:5
ApproachRate:10
SliderMultiplier:1.2
SliderTickRate:1

[Events]
//Background and Video events
0,0,"BG.png",0,-20
//Break Periods
//Storyboard Layer 0 (Background)
//Storyboard Layer 1 (Fail)
//Storyboard Layer 2 (Pass)
//Storyboard Layer 3 (Foreground)
//Storyboard Layer 4 (Overlay)
//Storyboard Sound Samples

[TimingPoints]
1000,241.935483870968,4,1,0,80,1,0
2935,241.935483870968,4,1,0,80,1,0
18418,241.935483870968,4,1,0,80,1,8
18419,483.870967741935,4,1,0,80,1,0
18419,-50,4,1,0,80,0,0
20354,241.935483870968,4,1,0,80,1,0
22289,241.935483870968,4,1,0,80,1,8
22290,241.935483870968,4,1,0,80,1,0
35596,-105.263157894737,4,1,0,80,0,0
35677,-107.142857142857,4,1,0,80,0,0
35757,-109.090909090909,4,1,0,80,0,0
35838,-111.111111111111,4,1,0,80,0,0
35919,-113.207547169811,4,1,0,80,0,0
35999,-115.384615384615,4,1,0,80,0,0
36080,-117.647058823529,4,1,0,80,0,0
36160,-120,4,1,0,80,0,0
36241,-122.448979591837,4,1,0,80,0,0
36322,-125,4,1,0,80,0,0
36402,-127.659574468085,4,1,0,80,0,0
36483,-130.434782608696,4,1,0,80,0,0
36564,-133.333333333333,4,1,0,80,0,0
36644,-136.364256201165,4,1,0,80,0,0
36725,-139.53488372093,4,1,0,80,0,0
36806,-142.857142857143,4,1,0,80,0,0
36886,-146.341463414634,4,1,0,80,0,0
36967,-150,4,1,0,80,0,0
37048,-153.846153846154,4,1,0,80,0,0
37128,-157.894736842105,4,1,0,80,0,0
37209,-162.162162162162,4,1,0,80,0,0
37290,-166.666666666667,4,1,0,80,0,0
37451,-176.470588235294,4,1,0,80,0,0
37612,-187.5,4,1,0,80,0,0
37773,241.935483870968,4,1,0,80,1,8
37774,483.870967741935,4,1,0,80,1,0
38741,-100,4,1,0,80,0,1
41693,-97.5609756097561,4,1,0,80,0,1
41741,-95.2380952380952,4,1,0,80,0,1
41790,-93.0232558139535,4,1,0,80,0,1
41838,-90.9090909090909,4,1,0,80,0,1
41886,-88.8888888888889,4,1,0,80,0,1
41935,-86.9565217391304,4,1,0,80,0,1
41983,-85.1063829787234,4,1,0,80,0,1
42032,-83.3333333333333,4,1,0,80,0,1
42080,-81.6326530612245,4,1,0,80,0,1
42128,-80,4,1,0,80,0,1
42177,-78.4313725490196,4,1,0,80,0,1
42225,-76.9230769230769,4,1,0,80,0,1
42274,-75.4716981132076,4,1,0,80,0,1
42322,-74.0740740740741,4,1,0,80,0,1
42370,-72.7272727272727,4,1,0,80,0,1
42419,-71.4285714285714,4,1,0,80,0,1
42467,-70.1754385964912,4,1,0,80,0,1
42515,-68.9655172413793,4,1,0,80,0,1
42564,-67.7966101694915,4,1,0,80,0,1
42612,-66.6666666666667,4,1,0,80,0,1
42661,-65.5737704918033,4,1,0,80,0,1
42709,-64.5161290322581,4,1,0,80,0,1
42757,-63.4920634920635,4,1,0,80,0,1
42806,-62.5,4,1,0,80,0,1
42854,-61.5384615384615,4,1,0,80,0,1
42903,-60.6060606060606,4,1,0,80,0,1
42951,-59.7014925373134,4,1,0,80,0,1
42999,-58.8235294117647,4,1,0,80,0,1
43048,-57.9710144927536,4,1,0,80,0,1
43096,-57.1428571428571,4,1,0,80,0,1
43144,-56.3380281690141,4,1,0,80,0,1
43193,-55.5555555555556,4,1,0,80,0,1
43241,-54.7945205479452,4,1,0,80,0,1
43290,-54.054054054054,4,1,0,80,0,1
43338,-53.3333333333333,4,1,0,80,0,1
43386,-52.6315789473684,4,1,0,80,0,1
43435,-51.9480519480519,4,1,0,80,0,1
43483,-51.2820512820513,4,1,0,80,0,1
43532,-50.6329113924051,4,1,0,80,0,1
43580,241.935483870968,4,1,0,80,1,0
45515,241.935483870968,4,1,0,80,1,8
45516,241.935483870968,4,1,0,80,1,0
53257,241.935483870968,4,1,0,80,1,8
53258,250,4,1,0,80,1,0
53508,-101.052631578947,4,1,0,80,0,0
53758,-102.127659574468,4,1,0,80,0,0
54008,-103.225806451613,4,1,0,80,0,0
54258,260.869565217391,4,1,0,80,1,0
54518,-101.098901098901,4,1,0,80,0,0
54779,-102.222222222222,4,1,0,80,0,0
55040,-103.370786516854,4,1,0,80,0,0
55301,272.727272727273,4,1,0,80,1,0
55573,-102.325581395349,4,1,0,80,0,0
55846,-104.761904761905,4,1,0,80,0,0
56119,-107.317073170732,4,1,0,80,0,0
56391,300,4,1,0,80,1,0
56691,-102.564102564103,4,1,0,80,0,0
56991,-105.263157894737,4,1,0,80,0,0
57291,-108.108108108108,4,1,0,80,0,0
57591,333.333333333333,4,1,0,80,1,0
57591,-100,4,1,0,80,0,0
57702,-100.247511104918,4,1,0,80,0,0
57813,-100.496250484894,4,1,0,80,0,0
57924,-100.746227305653,4,1,0,80,0,0
58035,-100.997552829295,4,1,0,80,0,0
58146,-101.250032906261,4,1,0,80,0,0
58257,-101.503778478154,4,1,0,80,0,0
58368,-101.758799083357,4,1,0,80,0,0
58479,-102.015104356351,4,1,0,80,0,0
58591,-102.272704028931,4,1,0,80,0,0
58702,-102.531607931435,4,1,0,80,0,0
58813,-102.791825993997,4,1,0,80,0,0
58924,352.941176470588,4,1,0,80,1,0
58924,-97.3282814230081,4,1,0,80,0,0
59041,-97.576554259624,4,1,0,80,0,0
59159,-97.8260969643065,4,1,0,80,0,0
59276,-98.0769193047338,4,1,0,80,0,0
59394,-98.3290311490174,4,1,0,80,0,0
59512,-98.5824424669965,4,1,0,80,0,0
59629,-98.8371633315518,4,1,0,80,0,0
59747,-99.093307890835,4,1,0,80,0,0
59865,-99.3506790268261,4,1,0,80,0,0
59982,-99.6093905639672,4,1,0,80,0,0
60100,-99.8694530009066,4,1,0,80,0,0
60218,-100.13087694622,4,1,0,80,0,0
60335,365.853658536585,4,1,0,80,1,0
60335,-96.8503670097413,4,1,0,80,0,0
60426,-97.0414086341527,4,1,0,80,0,0
60517,-97.2332054242373,4,1,0,80,0,0
60609,-97.4257618664874,4,1,0,80,0,0
60700,-97.6190824830055,4,1,0,80,0,0
60792,-97.8131718318581,4,1,0,80,0,0
60883,-98.0079290805062,4,1,0,80,0,0
60975,-98.2035692925582,4,1,0,80,0,0
61066,-98.3999921280005,4,1,0,80,0,0
61158,-98.5972022923608,4,1,0,80,0,0
61249,-98.7952045289648,4,1,0,80,0,0
61341,-98.9940036193172,4,1,0,80,0,0
61432,-99.1934963905058,4,1,0,80,0,0
61524,-99.3939032507017,4,1,0,80,0,0
61615,-99.595121539449,4,1,0,80,0,0
61706,-99.7971561948414,4,1,0,80,0,0
61798,-100.000012195123,4,1,0,80,0,0
63261,365.853658536585,4,1,0,80,1,1
68382,-100,4,1,0,80,0,0
69114,-100,4,1,0,80,0,1
74968,365.853658536585,4,1,0,80,1,8
74969,731.707317073171,4,1,0,80,1,0
74969,-66.6666666666667,4,1,0,80,0,0
77895,365.853658536585,4,1,0,80,1,1
80821,365.853658536585,4,1,0,80,1,8
80822,731.707317073171,4,1,0,80,1,0
80822,-66.6666666666667,4,1,0,80,0,0
82285,-62.5,4,1,0,80,0,0
82407,-61.2246147441117,4,1,0,80,0,0
82529,-60.00024000096,4,1,0,80,0,0
82651,-58.8235294117647,4,1,0,80,0,0
82773,-57.6924186392666,4,1,0,80,0,0
82895,-56.6039871848573,4,1,0,80,0,0
83017,-55.5555555555556,4,1,0,80,0,0
83139,-54.5455537191886,4,1,0,80,0,0
83261,-53.5716198986425,4,1,0,80,0,0
83382,-52.6315789473684,4,1,0,80,0,0
83504,-51.7242271107364,4,1,0,80,0,0
83626,-50.8476299919661,4,1,0,80,0,0
83748,731.707317073171,4,1,0,80,1,8
83749,365.853658536585,4,1,0,80,1,0
84480,365.853658536585,4,1,0,80,1,8
84481,340.909090909091,4,1,0,80,1,8
85162,319.148936170213,4,1,0,80,1,0
85800,306.122448979592,4,1,0,80,1,8
86412,283.018867924528,4,1,0,80,1,0
86978,256.410256410256,4,1,0,80,1,8
87490,241.935483870968,4,1,0,80,1,0
88457,241.935483870968,4,1,0,80,1,0
92327,-100,4,1,0,100,0,1
100069,241.935483870968,4,1,0,80,1,9
100070,483.870967741935,4,1,0,80,1,0
100070,-57.1428571428571,4,1,0,80,0,0
102005,483.870967741935,4,1,0,100,1,8
102006,241.935483870968,4,1,0,100,1,1
103941,483.870967741935,4,1,0,100,1,1
103941,-57.1428571428571,4,1,0,100,0,1
104424,-57.1428571428571,4,1,0,100,0,0
105876,483.870967741935,4,1,0,100,1,9
105877,241.935483870968,4,1,0,100,1,1
106844,-100,4,1,0,100,0,0
107812,483.870967741935,4,1,0,80,1,0
107812,-57.1428571428571,4,1,0,80,0,0
111682,483.870967741935,4,1,0,80,1,8
111683,241.935483870968,4,1,0,80,1,0
113618,241.935483870968,4,1,0,80,1,8
113619,241.935483870968,4,1,0,80,1,0
113619,-100,4,1,0,80,0,0
113699,-101.010101010101,4,1,0,80,0,0
113780,-102.040816326531,4,1,0,80,0,0
113860,-103.092783505155,4,1,0,80,0,0
113941,-104.166666666667,4,1,0,80,0,0
114022,-105.263157894737,4,1,0,80,0,0
114102,250,4,1,0,80,1,8
114102,-102.951269732327,4,1,0,80,0,0
114185,-104.155491650375,4,1,0,80,0,0
114268,-105.240337358425,4,1,0,80,0,0
114352,-106.348019640352,4,1,0,80,0,0
114435,-107.479267249348,4,1,0,80,0,0
114518,-108.634840279626,4,1,0,80,0,0
114602,272.727272727273,4,1,0,80,1,8
114602,-100.732600732601,4,1,0,80,0,0
114783,283.018867924528,4,1,0,80,1,0
114783,-96.1538461538461,4,1,0,80,0,0
115160,300,4,1,0,80,1,8
115160,-98.2704402515722,4,1,0,80,0,0
115460,483.870967741935,4,1,0,80,1,8
115460,-64.9895178197063,4,1,0,80,0,0
115943,483.870967741935,4,1,0,80,1,0
115943,-69.6316262353998,4,1,0,80,0,0
117878,-69.6316262353998,4,1,0,80,0,0

[HitObjects]
256,192,999,5,8,0:0:0:0:
256,192,1241,1,0,0:0:0:0:
256,192,1403,1,0,0:0:0:0:
256,192,1483,1,8,0:0:0:0:
256,192,1725,1,8,0:0:0:0:
256,192,1967,1,0,0:0:0:0:
256,192,2129,1,8,0:0:0:0:
256,192,2451,1,8,0:0:0:0:
256,192,2693,1,8,0:0:0:0:
256,192,2935,1,4,0:0:0:0:
256,192,3176,1,8,0:0:0:0:
256,192,3660,1,8,0:0:0:0:
256,192,4144,1,8,0:0:0:0:
256,192,4628,1,8,0:0:0:0:
256,192,4789,1,0,0:0:0:0:
256,192,4870,1,0,0:0:0:0:
256,192,5112,1,8,0:0:0:0:
256,192,5596,1,8,0:0:0:0:
256,192,5838,1,0,0:0:0:0:
256,192,6241,1,8,0:0:0:0:
256,192,6483,1,0,0:0:0:0:
256,192,6564,1,0,0:0:0:0:
256,192,6805,1,0,0:0:0:0:
256,192,7047,1,8,0:0:0:0:
256,192,7531,1,8,0:0:0:0:
256,192,8015,1,8,0:0:0:0:
256,192,8499,1,8,0:0:0:0:
256,192,8660,1,0,0:0:0:0:
256,192,8741,1,0,0:0:0:0:
256,192,8902,1,0,0:0:0:0:
256,192,9144,1,8,0:0:0:0:
256,192,9386,1,0,0:0:0:0:
256,192,9628,1,8,0:0:0:0:
256,192,9870,1,8,0:0:0:0:
256,192,9951,1,8,0:0:0:0:
256,192,10193,1,8,0:0:0:0:
256,192,10354,1,0,0:0:0:0:
256,192,10676,1,4,0:0:0:0:
256,192,11160,1,0,0:0:0:0:
256,192,11402,1,8,0:0:0:0:
256,192,11644,1,0,0:0:0:0:
256,192,11886,1,0,0:0:0:0:
256,192,12128,1,8,0:0:0:0:
256,192,12370,1,8,0:0:0:0:
256,192,12612,1,0,0:0:0:0:
256,192,13096,1,0,0:0:0:0:
256,192,13338,1,0,0:0:0:0:
256,192,13580,1,8,0:0:0:0:
256,192,13822,1,8,0:0:0:0:
256,192,14064,1,0,0:0:0:0:
256,192,14305,1,8,0:0:0:0:
256,192,14547,1,0,0:0:0:0:
256,192,14789,1,0,0:0:0:0:
256,192,14951,1,8,0:0:0:0:
256,192,15031,1,8,0:0:0:0:
256,192,15273,1,0,0:0:0:0:
256,192,15515,1,0,0:0:0:0:
256,192,15757,1,8,0:0:0:0:
256,192,15918,1,8,0:0:0:0:
256,192,15999,1,0,0:0:0:0:
256,192,16241,1,0,0:0:0:0:
256,192,16402,1,0,0:0:0:0:
256,192,16483,1,8,0:0:0:0:
256,192,18419,1,4,0:0:0:0:
256,192,18951,1,8,0:0:0:0:
256,192,19144,1,8,0:0:0:0:
256,192,19338,1,8,0:0:0:0:
256,192,19531,1,8,0:0:0:0:
256,192,19870,1,0,0:0:0:0:
256,192,20112,1,8,0:0:0:0:
256,192,20354,1,4,0:0:0:0:
256,192,20837,1,8,0:0:0:0:
256,192,21079,1,0,0:0:0:0:
256,192,21273,1,0,0:0:0:0:
256,192,21466,1,8,0:0:0:0:
256,192,21563,1,8,0:0:0:0:
256,192,21805,1,8,0:0:0:0:
256,192,22047,1,8,0:0:0:0:
256,192,22290,1,0,0:0:0:0:
256,192,22773,1,8,0:0:0:0:
256,192,23015,1,0,0:0:0:0:
256,192,23209,1,8,0:0:0:0:
256,192,23402,1,0,0:0:0:0:
256,192,23499,1,0,0:0:0:0:
256,192,23741,1,8,0:0:0:0:
256,192,23983,1,8,0:0:0:0:
256,192,24225,1,0,0:0:0:0:
256,192,24467,1,8,0:0:0:0:
256,192,24628,1,8,0:0:0:0:
256,192,24709,1,8,0:0:0:0:
256,192,24951,1,8,0:0:0:0:
256,192,25144,1,8,0:0:0:0:
256,192,25338,1,0,0:0:0:0:
256,192,25435,1,0,0:0:0:0:
256,192,25677,1,0,0:0:0:0:
256,192,26160,1,8,0:0:0:0:
256,192,26402,1,4,0:0:0:0:
256,192,26644,1,8,0:0:0:0:
256,192,26886,1,8,0:0:0:0:
256,192,27080,1,0,0:0:0:0:
256,192,27225,1,8,0:0:0:0:
256,192,27370,1,0,0:0:0:0:
256,192,27612,1,8,0:0:0:0:
256,192,27854,1,8,0:0:0:0:
256,192,28096,1,0,0:0:0:0:
256,192,28338,1,8,0:0:0:0:
256,192,28580,1,8,0:0:0:0:
256,192,28822,1,0,0:0:0:0:
256,192,29064,1,8,0:0:0:0:
257,192,29225,1,8,0:0:0:0:
256,192,29386,1,8,0:0:0:0:
256,192,29548,1,0,0:0:0:0:
256,192,30031,1,4,0:0:0:0:
256,192,30435,1,8,0:0:0:0:
256,192,30781,1,8,0:0:0:0:
256,192,31119,1,8,0:0:0:0:
256,192,31483,1,12,0:0:0:0:
256,192,31886,1,0,0:0:0:0:
256,192,32232,1,0,0:0:0:0:
256,192,32571,1,0,0:0:0:0:
256,192,32854,1,8,0:0:0:0:
256,192,32935,1,8,0:0:0:0:
256,192,33096,1,0,0:0:0:0:
256,192,33257,1,0,0:0:0:0:
256,192,33419,1,8,0:0:0:0:
256,192,33741,1,8,0:0:0:0:
256,192,33902,1,4,0:0:0:0:
256,192,34386,1,0,0:0:0:0:
256,192,34628,1,0,0:0:0:0:
256,192,34870,1,0,0:0:0:0:
256,192,35354,1,8,0:0:0:0:
256,192,35838,1,0,0:0:0:0:
256,192,36080,1,8,0:0:0:0:
256,192,36241,1,0,0:0:0:0:
256,192,36322,1,0,0:0:0:0:
256,192,36564,1,8,0:0:0:0:
256,192,36806,1,0,0:0:0:0:
256,192,37048,1,0,0:0:0:0:
256,192,37209,1,0,0:0:0:0:
256,192,37290,1,8,0:0:0:0:
256,192,37774,1,4,0:0:0:0:
256,192,38741,1,8,0:0:0:0:
256,192,39177,1,0,0:0:0:0:
256,192,39564,1,8,0:0:0:0:
256,192,39903,1,8,0:0:0:0:
256,192,40096,1,8,0:0:0:0:
256,192,40290,1,8,0:0:0:0:
256,192,40677,1,8,0:0:0:0:
256,192,41064,1,8,0:0:0:0:
256,192,41257,1,8,0:0:0:0:
256,192,41451,1,8,0:0:0:0:
256,192,41644,1,4,0:0:0:0:
256,192,42079,1,0,0:0:0:0:
256,192,42467,1,8,0:0:0:0:
256,192,42806,1,8,0:0:0:0:
256,192,42999,1,8,0:0:0:0:
256,192,43193,1,8,0:0:0:0:
256,192,43580,1,0,0:0:0:0:
256,192,43821,1,8,0:0:0:0:
256,192,44063,1,0,0:0:0:0:
256,192,44305,1,8,0:0:0:0:
256,192,44467,1,8,0:0:0:0:
256,192,44547,1,0,0:0:0:0:
256,192,44789,1,0,0:0:0:0:
256,192,45031,1,8,0:0:0:0:
256,192,45516,1,4,0:0:0:0:
256,192,45999,1,8,0:0:0:0:
256,192,46161,1,8,0:0:0:0:
256,192,46241,1,8,0:0:0:0:
256,192,46483,1,8,0:0:0:0:
256,192,46725,1,8,0:0:0:0:
256,192,46886,1,0,0:0:0:0:
256,192,47128,1,8,0:0:0:0:
256,192,47209,1,0,0:0:0:0:
256,192,47451,1,12,0:0:0:0:
256,192,47935,1,8,0:0:0:0:
256,192,48096,1,8,0:0:0:0:
256,192,48177,1,8,0:0:0:0:
256,192,48419,1,0,0:0:0:0:
256,192,48822,1,12,0:0:0:0:
256,192,49064,1,12,0:0:0:0:
256,192,49386,1,4,0:0:0:0:
256,192,49870,1,8,0:0:0:0:
256,192,50112,1,0,0:0:0:0:
256,192,50354,1,8,0:0:0:0:
256,192,50596,1,8,0:0:0:0:
256,192,50757,1,0,0:0:0:0:
256,192,50999,1,8,0:0:0:0:
256,192,51322,1,12,0:0:0:0:
256,192,51564,1,0,0:0:0:0:
256,192,51725,1,0,0:0:0:0:
256,192,51806,1,8,0:0:0:0:
256,192,52048,1,8,0:0:0:0:
256,192,52290,1,0,0:0:0:0:
256,192,52451,1,8,0:0:0:0:
256,192,52774,1,8,0:0:0:0:
256,192,53016,1,8,0:0:0:0:
256,192,53258,1,4,0:0:0:0:
256,192,53758,1,0,0:0:0:0:
256,192,54258,1,0,0:0:0:0:
256,192,54779,1,0,0:0:0:0:
256,192,55301,1,0,0:0:0:0:
256,192,55846,1,0,0:0:0:0:
256,192,56119,1,0,0:0:0:0:
256,192,56391,1,0,0:0:0:0:
256,192,56991,1,0,0:0:0:0:
256,192,57591,1,8,0:0:0:0:
256,192,57813,1,8,0:0:0:0:
256,192,57924,1,0,0:0:0:0:
256,192,58257,1,8,0:0:0:0:
256,192,58479,1,0,0:0:0:0:
256,192,58591,1,0,0:0:0:0:
256,192,58924,1,8,0:0:0:0:
256,192,59159,1,0,0:0:0:0:
256,192,59276,1,8,0:0:0:0:
256,192,59629,1,0,0:0:0:0:
256,192,59865,1,8,0:0:0:0:
256,192,59982,1,0,0:0:0:0:
256,192,60335,1,8,0:0:0:0:
256,192,60517,1,0,0:0:0:0:
256,192,60609,1,0,0:0:0:0:
256,192,60700,1,0,0:0:0:0:
256,192,60883,1,8,0:0:0:0:
256,192,61066,1,8,0:0:0:0:
256,192,61432,1,0,0:0:0:0:
256,192,61615,1,8,0:0:0:0:
256,192,61798,1,0,0:0:0:0:
256,192,62895,1,8,0:0:0:0:
256,192,63139,1,8,0:0:0:0:
256,192,63261,1,4,0:0:0:0:
256,192,63626,1,0,0:0:0:0:
256,192,63870,1,8,0:0:0:0:
256,192,63992,1,0,0:0:0:0:
256,192,64358,1,8,0:0:0:0:
256,192,64724,1,0,0:0:0:0:
256,192,65090,1,0,0:0:0:0:
256,192,65334,1,0,0:0:0:0:
256,192,65456,1,8,0:0:0:0:
256,192,65700,1,8,0:0:0:0:
256,192,65821,1,8,0:0:0:0:
256,192,66187,1,0,0:0:0:0:
256,192,66370,1,8,0:0:0:0:
256,192,66462,1,8,0:0:0:0:
256,192,66553,1,8,0:0:0:0:
256,192,66736,1,8,0:0:0:0:
256,192,66919,1,0,0:0:0:0:
256,192,67285,1,8,0:0:0:0:
256,192,67651,1,0,0:0:0:0:
256,192,67895,1,8,0:0:0:0:
256,192,68017,1,8,0:0:0:0:
256,192,68261,1,8,0:0:0:0:
256,192,68382,1,0,0:0:0:0:
256,192,69114,1,4,0:0:0:0:
256,192,69480,1,0,0:0:0:0:
256,192,69846,1,0,0:0:0:0:
256,192,70090,1,8,0:0:0:0:
256,192,70212,1,8,0:0:0:0:
256,192,70578,1,8,0:0:0:0:
256,192,70821,1,0,0:0:0:0:
256,192,70943,1,8,0:0:0:0:
256,192,71187,1,8,0:0:0:0:
256,192,71309,1,0,0:0:0:0:
256,192,71675,1,8,0:0:0:0:
256,192,72041,1,0,0:0:0:0:
256,192,72224,1,0,0:0:0:0:
256,192,72407,1,0,0:0:0:0:
256,192,72773,1,8,0:0:0:0:
256,192,73139,1,8,0:0:0:0:
256,192,73504,1,0,0:0:0:0:
256,192,73687,1,0,0:0:0:0:
256,192,73779,1,0,0:0:0:0:
256,192,73870,1,0,0:0:0:0:
256,192,74053,1,0,0:0:0:0:
256,192,74236,1,8,0:0:0:0:
256,192,74969,1,4,0:0:0:0:
256,192,75746,1,8,0:0:0:0:
256,192,75944,1,8,0:0:0:0:
256,192,76066,1,0,0:0:0:0:
256,192,76432,1,8,0:0:0:0:
256,192,76798,1,0,0:0:0:0:
256,192,77164,1,8,0:0:0:0:
256,192,77895,1,4,0:0:0:0:
256,192,78138,1,8,0:0:0:0:
256,192,78260,1,0,0:0:0:0:
256,192,78626,1,8,0:0:0:0:
256,192,78870,1,8,0:0:0:0:
256,192,78992,1,0,0:0:0:0:
256,192,79236,1,8,0:0:0:0:
256,192,79480,1,8,0:0:0:0:
256,192,79724,1,8,0:0:0:0:
256,192,79968,1,8,0:0:0:0:
256,192,80090,1,0,0:0:0:0:
256,192,80822,1,4,0:0:0:0:
256,192,81599,1,8,0:0:0:0:
256,192,81797,1,8,0:0:0:0:
256,192,81919,1,0,0:0:0:0:
256,192,82285,1,8,0:0:0:0:
256,192,82651,1,0,0:0:0:0:
256,192,82895,1,0,0:0:0:0:
256,192,83017,1,8,0:0:0:0:
256,192,83749,1,4,0:0:0:0:
256,192,84765,1,0,0:0:0:0:
256,192,85049,1,8,0:0:0:0:
256,192,85374,1,8,0:0:0:0:
256,192,85693,1,0,0:0:0:0:
256,192,86106,1,8,0:0:0:0:
256,192,86412,1,0,0:0:0:0:
256,192,86978,1,0,0:0:0:0:
256,192,87234,1,8,0:0:0:0:
256,192,87490,1,0,0:0:0:0:
256,192,87731,1,8,0:0:0:0:
256,192,87973,1,8,0:0:0:0:
256,192,88457,1,4,0:0:0:0:
256,192,88940,1,0,0:0:0:0:
256,192,89182,1,8,0:0:0:0:
256,192,89424,1,4,0:0:0:0:
256,192,89908,1,8,0:0:0:0:
256,192,90150,1,0,0:0:0:0:
256,192,90392,1,12,0:0:0:0:
256,192,90715,1,12,0:0:0:0:
256,192,90876,1,4,0:0:0:0:
256,192,91198,1,4,0:0:0:0:
256,192,91360,1,8,0:0:0:0:
256,192,92327,1,4,0:0:0:0:
256,192,92569,1,8,0:0:0:0:
256,192,92731,1,8,0:0:0:0:
256,192,92811,1,0,0:0:0:0:
256,192,93053,1,8,0:0:0:0:
256,192,93215,1,0,0:0:0:0:
256,192,93537,1,0,0:0:0:0:
256,192,93779,1,8,0:0:0:0:
256,192,94263,1,8,0:0:0:0:
256,192,94505,1,8,0:0:0:0:
256,192,94666,1,8,0:0:0:0:
256,192,94747,1,0,0:0:0:0:
256,192,94989,1,8,0:0:0:0:
256,192,95150,1,0,0:0:0:0:
256,192,95473,1,8,0:0:0:0:
256,192,95715,1,0,0:0:0:0:
256,192,96198,1,4,0:0:0:0:
256,192,96440,1,8,0:0:0:0:
256,192,96602,1,0,0:0:0:0:
256,192,96682,1,8,0:0:0:0:
256,192,96924,1,8,0:0:0:0:
256,192,97086,1,0,0:0:0:0:
256,192,97408,1,8,0:0:0:0:
256,192,97569,1,8,0:0:0:0:
256,192,97650,1,0,0:0:0:0:
256,192,98134,1,0,0:0:0:0:
256,192,98376,1,8,0:0:0:0:
256,192,98537,1,8,0:0:0:0:
256,192,98618,1,8,0:0:0:0:
256,192,98860,1,8,0:0:0:0:
256,192,99021,1,0,0:0:0:0:
256,192,99344,1,8,0:0:0:0:
256,192,99586,1,0,0:0:0:0:
256,192,100070,1,4,0:0:0:0:
256,192,100553,1,8,0:0:0:0:
256,192,100795,1,0,0:0:0:0:
256,192,100989,1,8,0:0:0:0:
256,192,101182,1,0,0:0:0:0:
256,192,101570,1,8,0:0:0:0:
256,192,102006,1,4,0:0:0:0:
256,192,102247,1,8,0:0:0:0:
256,192,102409,1,8,0:0:0:0:
256,192,102489,1,8,0:0:0:0:
256,192,102731,1,8,0:0:0:0:
256,192,102893,1,0,0:0:0:0:
256,192,103215,1,8,0:0:0:0:
256,192,103457,1,0,0:0:0:0:
256,192,103699,1,8,0:0:0:0:
256,192,103941,1,0,0:0:0:0:
256,192,104182,1,0,0:0:0:0:
256,192,104424,1,12,0:0:0:0:
256,192,104828,1,0,0:0:0:0:
256,192,105070,1,8,0:0:0:0:
256,192,105150,1,0,0:0:0:0:
256,192,105392,1,8,0:0:0:0:
256,192,105634,1,8,0:0:0:0:
256,192,105877,1,4,0:0:0:0:
256,192,106118,1,8,0:0:0:0:
256,192,106280,1,0,0:0:0:0:
256,192,106360,1,8,0:0:0:0:
256,192,106602,1,0,0:0:0:0:
256,192,106844,1,12,0:0:0:0:
256,192,107812,1,4,0:0:0:0:
256,192,108295,1,8,0:0:0:0:
256,192,108682,1,8,0:0:0:0:
256,192,108876,1,8,0:0:0:0:
256,192,109263,1,0,0:0:0:0:
256,192,109424,1,0,0:0:0:0:
256,192,109586,1,0,0:0:0:0:
256,192,109747,1,12,0:0:0:0:
256,192,110231,1,8,0:0:0:0:
256,192,110473,1,8,0:0:0:0:
256,192,110634,1,0,0:0:0:0:
256,192,110876,1,12,0:0:0:0:
256,192,111360,1,4,0:0:0:0:
256,192,111683,1,12,0:0:0:0:
256,192,111924,1,8,0:0:0:0:
256,192,112086,1,8,0:0:0:0:
256,192,112166,1,0,0:0:0:0:
256,192,112408,1,8,0:0:0:0:
256,192,112570,1,0,0:0:0:0:
256,192,112892,1,8,0:0:0:0:
256,192,113134,1,0,0:0:0:0:
256,192,113376,1,0,0:0:0:0:
256,192,113619,1,12,0:0:0:0:
256,192,113860,1,0,0:0:0:0:
256,192,114022,1,0,0:0:0:0:
256,192,114102,1,8,0:0:0:0:
256,192,114352,1,8,0:0:0:0:
256,192,114602,1,0,0:0:0:0:
256,192,114783,1,12,0:0:0:0:
256,192,115160,1,12,0:0:0:0:
256,192,115460,1,12,0:0:0:0:
256,192,115943,1,4,0:0:0:0:
256,192,116184,8,0,117878,0:0:0:0:
