osu file format v14

[General]
AudioFilename: audio.mp3
AudioLeadIn: 0
PreviewTime: 61796
Countdown: 0
SampleSet: Normal
StackLeniency: 1
Mode: 1
LetterboxInBreaks: 0
WidescreenStoryboard: 0

[Editor]
Bookmarks: 18902
DistanceSpacing: 1.2
BeatDivisor: 4
GridSize: 32
TimelineZoom: 1

[Metadata]
Title:*Feels Seasickness...*
TitleUnicode:*Feels Seasickness...*
Artist:Camellia
ArtistUnicode:かめりあ
Creator:Vulkin
Version:*Kantan...*
Source:SOUND VOLTEX IV HEAVENLY HAVEN
Tags:The 8th KAC Original Song Contest KACオリジナル楽曲コンテスト ΩDimension Omega Kanade Yamashina 野増菜 かなで Highest Excellence Award BEMANI nanahira ななひら ラーメン かめるかめりあ KamelCamellia Cametek Genjuro electro swing electronic video game instrumental
BeatmapID:2197916
BeatmapSetID:1051724

[Difficulty]
HPDrainRate:7
CircleSize:7
OverallDifficulty:3
ApproachRate:10
SliderMultiplier:1
SliderTickRate:1

[Events]
//Background and Video events
0,0,"BG.png",0,-20
//Break Periods
//Storyboard Layer 0 (Background)
//Storyboard Layer 1 (Fail)
//Storyboard Layer 2 (Pass)
//Storyboard Layer 3 (Foreground)
//Storyboard Layer 4 (Overlay)
//Storyboard Sound Samples

[TimingPoints]
1000,241.935483870968,4,1,0,80,1,0
2935,241.935483870968,4,1,0,80,1,0
18418,241.935483870968,4,1,0,80,1,8
18419,483.870967741935,4,1,0,80,1,0
18419,-50,4,1,0,80,0,0
20354,241.935483870968,4,1,0,80,1,0
22289,241.935483870968,4,1,0,80,1,8
22290,241.935483870968,4,1,0,80,1,0
37773,241.935483870968,4,1,0,80,1,8
37774,483.870967741935,4,1,0,80,1,0
37774,-50,4,1,0,80,0,0
38741,-50,4,1,0,80,0,1
43580,241.935483870968,4,1,0,80,1,0
45515,241.935483870968,4,1,0,80,1,8
45516,241.935483870968,4,1,0,80,1,0
53257,241.935483870968,4,1,0,80,1,8
53258,250,4,1,0,80,1,0
53258,-97.0873786407767,4,1,0,80,0,0
54258,260.869565217391,4,1,0,80,1,0
54258,-92.5925925925926,4,1,0,80,0,0
55301,272.727272727273,4,1,0,80,1,0
55301,-88.495575221239,4,1,0,80,0,0
56391,300,4,1,0,80,1,0
56391,-80.6451612903226,4,1,0,80,0,0
57591,333.333333333333,4,1,0,80,1,0
57591,-72.463768115942,4,1,0,80,0,0
58924,352.941176470588,4,1,0,80,1,0
58924,-68.4931506849315,4,1,0,80,0,0
60335,365.853658536585,4,1,0,80,1,0
60335,-66.2251655629139,4,1,0,80,0,0
63261,365.853658536585,4,1,0,80,1,1
63261,-66.2251655629139,4,1,0,80,0,1
68382,-66.2251655629139,4,1,0,80,0,0
69114,-66.2251655629139,4,1,0,80,0,1
74968,365.853658536585,4,1,0,80,1,8
74968,-66.2251655629139,4,1,0,80,0,8
74969,731.707317073171,4,1,0,80,1,0
74969,-33.112582781457,4,1,0,80,0,0
77895,365.853658536585,4,1,0,80,1,1
77895,-66.2251655629139,4,1,0,80,0,1
80821,365.853658536585,4,1,0,80,1,8
80821,-66.2251655629139,4,1,0,80,0,8
80822,731.707317073171,4,1,0,80,1,0
80822,-33.112582781457,4,1,0,80,0,0
83748,731.707317073171,4,1,0,80,1,8
83748,-33.112582781457,4,1,0,80,0,8
83749,365.853658536585,4,1,0,80,1,0
83749,-66.2251655629139,4,1,0,80,0,0
84480,365.853658536585,4,1,0,80,1,8
84480,-66.2251655629139,4,1,0,80,0,8
84481,340.909090909091,4,1,0,80,1,8
84481,-70.9219858156028,4,1,0,80,0,8
85162,319.148936170213,4,1,0,80,1,0
85162,-75.7575757575758,4,1,0,80,0,0
85800,306.122448979592,4,1,0,80,1,8
85800,-78.740157480315,4,1,0,80,0,8
86412,283.018867924528,4,1,0,80,1,0
86412,-85.4700854700855,4,1,0,80,0,0
86978,256.410256410256,4,1,0,80,1,8
86978,-94.3396226415094,4,1,0,80,0,8
87490,241.935483870968,4,1,0,80,1,0
88457,241.935483870968,4,1,0,80,1,0
92327,-100,4,1,0,100,0,1
100069,241.935483870968,4,1,0,80,1,8
100070,483.870967741935,4,1,0,80,1,0
100070,-50,4,1,0,80,0,0
102005,483.870967741935,4,1,0,100,1,9
102005,-50,4,1,0,100,0,1
102006,241.935483870968,4,1,0,100,1,1
103941,483.870967741935,4,1,0,100,1,1
103941,-50,4,1,0,100,0,1
104424,-50,4,1,0,100,0,0
105876,483.870967741935,4,1,0,100,1,9
105876,-50,4,1,0,100,0,9
105877,241.935483870968,4,1,0,100,1,1
106844,-100,4,1,0,100,0,0
107812,483.870967741935,4,1,0,80,1,0
107812,-50,4,1,0,80,0,0
111682,483.870967741935,4,1,0,80,1,8
111682,-50,4,1,0,80,0,8
111683,241.935483870968,4,1,0,80,1,0
113618,241.935483870968,4,1,0,80,1,8
113619,241.935483870968,4,1,0,80,1,0
114102,250,4,1,0,80,1,8
114102,-97.0873786407767,4,1,0,80,0,8
114602,272.727272727273,4,1,0,80,1,8
114602,-88.495575221239,4,1,0,80,0,8
114783,283.018867924528,4,1,0,80,1,0
114783,-85.4700854700855,4,1,0,80,0,0
115160,300,4,1,0,80,1,8
115160,-80.6451612903226,4,1,0,80,0,8
115460,483.870967741935,4,1,0,80,1,8
115460,-50,4,1,0,80,0,8
115943,483.870967741935,4,1,0,80,1,0
115943,-50,4,1,0,80,0,0

[HitObjects]
256,192,999,5,8,0:0:0:0:
256,192,1483,5,8,0:0:0:0:
256,192,1967,5,0,0:0:0:0:
256,192,2935,5,4,0:0:0:0:
256,192,3660,5,8,0:0:0:0:
256,192,4628,5,8,0:0:0:0:
256,192,5596,5,8,0:0:0:0:
256,192,5838,5,0,0:0:0:0:
256,192,6322,5,8,0:0:0:0:
256,192,6805,5,0,0:0:0:0:
256,192,7531,5,8,0:0:0:0:
256,192,8499,5,8,0:0:0:0:
256,192,9467,5,8,0:0:0:0:
256,192,9709,5,0,0:0:0:0:
256,192,10193,5,0,0:0:0:0:
256,192,10676,5,12,0:0:0:0:
256,192,11160,5,8,0:0:0:0:
256,192,11644,5,8,0:0:0:0:
256,192,12612,5,8,0:0:0:0:
256,192,13096,5,8,0:0:0:0:
256,192,13580,5,8,0:0:0:0:
256,192,14547,5,8,0:0:0:0:
256,192,15031,5,0,0:0:0:0:
256,192,15515,5,8,0:0:0:0:
256,192,15757,5,8,0:0:0:0:
256,192,15999,5,8,0:0:0:0:
256,192,16483,5,0,0:0:0:0:
256,192,18419,5,4,0:0:0:0:
256,192,18951,5,8,0:0:0:0:
256,192,19870,5,8,0:0:0:0:
256,192,20354,5,4,0:0:0:0:
256,192,20837,5,8,0:0:0:0:
256,192,21805,5,8,0:0:0:0:
256,192,22289,5,0,0:0:0:0:
256,192,22773,5,8,0:0:0:0:
256,192,23499,5,8,0:0:0:0:
256,192,23983,5,8,0:0:0:0:
256,192,24225,5,0,0:0:0:0:
256,192,24709,5,8,0:0:0:0:
256,192,25677,5,8,0:0:0:0:
256,192,26402,5,4,0:0:0:0:
256,192,26886,5,8,0:0:0:0:
256,192,27612,5,8,0:0:0:0:
256,192,28096,5,0,0:0:0:0:
256,192,28580,5,8,0:0:0:0:
256,192,29064,5,8,0:0:0:0:
256,192,30031,5,4,0:0:0:0:
256,192,30435,5,0,0:0:0:0:
256,192,31483,5,12,0:0:0:0:
256,192,31886,5,8,0:0:0:0:
256,192,32935,5,8,0:0:0:0:
256,192,33419,5,8,0:0:0:0:
256,192,33902,5,4,0:0:0:0:
256,192,34386,12,0,36806,0:0:0:0:
256,192,37290,5,8,0:0:0:0:
256,192,37774,5,4,0:0:0:0:
256,192,38741,5,8,0:0:0:0:
256,192,39225,1,0,0:0:0:0:
256,192,40193,5,0,0:0:0:0:
256,192,40677,5,8,0:0:0:0:
256,192,41161,1,0,0:0:0:0:
256,192,41644,5,4,0:0:0:0:
256,192,42612,5,0,0:0:0:0:
256,192,43096,1,0,0:0:0:0:
256,192,43580,5,8,0:0:0:0:
256,192,45515,5,4,0:0:0:0:
256,192,46483,5,0,0:0:0:0:
256,192,46967,5,0,0:0:0:0:
256,192,47451,5,12,0:0:0:0:
256,192,48419,5,0,0:0:0:0:
256,192,48782,5,8,0:0:0:0:
256,192,49024,5,8,0:0:0:0:
256,192,49386,5,4,0:0:0:0:
256,192,50354,5,8,0:0:0:0:
256,192,50838,5,0,0:0:0:0:
256,192,51322,5,12,0:0:0:0:
256,192,52411,5,0,0:0:0:0:
256,192,52774,5,0,0:0:0:0:
256,192,53258,5,12,0:0:0:0:
256,192,54258,5,8,0:0:0:0:
256,192,55301,5,8,0:0:0:0:
256,192,56391,5,8,0:0:0:0:
256,192,57591,5,8,0:0:0:0:
256,192,58257,5,8,0:0:0:0:
256,192,58924,5,8,0:0:0:0:
256,192,59629,5,8,0:0:0:0:
256,192,60335,1,0,0:0:0:0:
256,192,60700,1,0,0:0:0:0:
256,192,61066,1,0,0:0:0:0:
256,192,61798,1,8,0:0:0:0:
256,192,63261,5,4,0:0:0:0:
256,192,63992,1,0,0:0:0:0:
256,192,64358,1,0,0:0:0:0:
256,192,64724,5,8,0:0:0:0:
256,192,65090,1,0,0:0:0:0:
256,192,65456,5,8,0:0:0:0:
256,192,66187,5,0,0:0:0:0:
256,192,67285,5,0,0:0:0:0:
256,192,67651,5,8,0:0:0:0:
256,192,68017,1,0,0:0:0:0:
256,192,68382,5,8,0:0:0:0:
256,192,69114,5,4,0:0:0:0:
256,192,70212,1,8,0:0:0:0:
256,192,70578,1,0,0:0:0:0:
256,192,70943,1,0,0:0:0:0:
256,192,71309,5,8,0:0:0:0:
256,192,72041,5,0,0:0:0:0:
256,192,72773,5,0,0:0:0:0:
256,192,73139,5,0,0:0:0:0:
256,192,73504,5,8,0:0:0:0:
256,192,73870,5,8,0:0:0:0:
256,192,74236,5,8,0:0:0:0:
256,192,74969,5,4,0:0:0:0:
256,192,75746,5,8,0:0:0:0:
256,192,77164,5,8,0:0:0:0:
256,192,77895,5,4,0:0:0:0:
256,192,78626,5,8,0:0:0:0:
256,192,79358,5,8,0:0:0:0:
256,192,79724,5,8,0:0:0:0:
256,192,80090,5,8,0:0:0:0:
256,192,80822,5,4,0:0:0:0:
256,192,82285,5,0,0:0:0:0:
256,192,83017,5,8,0:0:0:0:
256,192,83749,5,4,0:0:0:0:
256,192,85162,5,0,0:0:0:0:
256,192,85800,5,0,0:0:0:0:
256,192,86412,5,8,0:0:0:0:
256,192,87490,5,8,0:0:0:0:
256,192,87973,5,8,0:0:0:0:
256,192,88457,5,4,0:0:0:0:
256,192,89424,5,4,0:0:0:0:
256,192,90392,12,0,91360,0:0:0:0:
256,192,92327,5,12,0:0:0:0:
256,192,93295,5,8,0:0:0:0:
256,192,93779,5,0,0:0:0:0:
256,192,94263,5,8,0:0:0:0:
256,192,94989,5,8,0:0:0:0:
256,192,95231,5,0,0:0:0:0:
256,192,95715,5,0,0:0:0:0:
256,192,96198,5,12,0:0:0:0:
256,192,97166,5,8,0:0:0:0:
256,192,97650,5,0,0:0:0:0:
256,192,98134,5,8,0:0:0:0:
256,192,98618,5,8,0:0:0:0:
256,192,99102,5,0,0:0:0:0:
256,192,100070,5,4,0:0:0:0:
256,192,100553,5,8,0:0:0:0:
256,192,101521,5,8,0:0:0:0:
256,192,102006,5,4,0:0:0:0:
256,192,102489,5,0,0:0:0:0:
256,192,102973,5,8,0:0:0:0:
256,192,103699,5,8,0:0:0:0:
256,192,103941,5,0,0:0:0:0:
256,192,104424,5,12,0:0:0:0:
256,192,105150,5,0,0:0:0:0:
256,192,105392,5,8,0:0:0:0:
256,192,105877,5,4,0:0:0:0:
256,192,106360,5,0,0:0:0:0:
256,192,106844,5,12,0:0:0:0:
256,192,107812,5,4,0:0:0:0:
256,192,108295,5,8,0:0:0:0:
256,192,109263,5,8,0:0:0:0:
256,192,109747,1,4,0:0:0:0:
256,192,110231,1,8,0:0:0:0:
256,192,110876,1,4,0:0:0:0:
256,192,111683,1,4,0:0:0:0:
256,192,112570,1,8,0:0:0:0:
256,192,113134,1,8,0:0:0:0:
256,192,113618,1,4,0:0:0:0:
256,192,114783,1,12,0:0:0:0:
256,192,115160,1,12,0:0:0:0:
256,192,115460,1,12,0:0:0:0:
256,192,115943,1,4,0:0:0:0:
256,192,116184,8,0,117878,0:0:0:0:
