osu file format v14

[General]
AudioFilename: audio.mp3
AudioLeadIn: 0
PreviewTime: 248297
Countdown: 0
SampleSet: Normal
StackLeniency: 0.7
Mode: 1
LetterboxInBreaks: 0
WidescreenStoryboard: 0

[Editor]
Bookmarks: 1218,30847,113812
DistanceSpacing: 1
BeatDivisor: 4
GridSize: 32
TimelineZoom: 2.9

[Metadata]
Title:Feelin Sky (Camellia's "200step" Self-remix)
TitleUnicode:Feelin Sky (かめりあ's "200step" Self-remix)
Artist:Camellia
ArtistUnicode:かめりあ
Creator:_DUSK_
Version:Presentiment
Source:
Tags:"Guest Tracks" Summary & VIPs 01 summary01 CTCD-015 Starry Orange GECD-011 Feeling かめるかめりあ Kamelcamellia Cametek osu! FA Featured Artist Dubstep Drumstep Melodic Artcore DJ Genki Masaya Oya electronic instrumental
BeatmapID:2429262
BeatmapSetID:1164599

[Difficulty]
HPDrainRate:4
CircleSize:5
OverallDifficulty:7
ApproachRate:9
SliderMultiplier:1.4
SliderTickRate:1

[Events]
//Background and Video events
0,0,"feelin.jpg",0,-120
//Break Periods
2,182122,186122
//Storyboard Layer 0 (Background)
//Storyboard Layer 1 (Fail)
//Storyboard Layer 2 (Pass)
//Storyboard Layer 3 (Foreground)
//Storyboard Layer 4 (Overlay)
//Storyboard Sound Samples

[TimingPoints]
722,300,4,1,0,100,1,0
722,-142.857142857143,4,1,0,100,0,0
4322,300,4,1,0,100,1,0
4322,-142.857142857143,4,1,0,100,0,0
41520,-111.111111111111,4,1,0,100,0,0
42720,-100,4,1,0,100,0,0
51120,-111.111111111111,4,1,0,100,0,0
51570,-108.695652173913,4,1,0,100,0,0
51645,-107.52688172043,4,1,0,100,0,0
51720,-106.382978723404,4,1,0,100,0,0
51870,-105.263157894737,4,1,0,100,0,0
51945,-104.166666666667,4,1,0,100,0,0
52095,-103.092783505155,4,1,0,100,0,0
52170,-102.040816326531,4,1,0,100,0,0
52245,-101.010101010101,4,1,0,100,0,0
52320,-99.9999999999999,4,1,0,100,0,0
60420,-111.111111111111,4,1,0,100,0,0
60570,-109.89010989011,4,1,0,100,0,0
60720,-108.695652173913,4,1,0,100,0,0
61170,-107.52688172043,4,1,0,100,0,0
61245,-106.382978723404,4,1,0,100,0,0
61320,-105.263157894737,4,1,0,100,0,0
61470,-104.166666666667,4,1,0,100,0,0
61545,-103.092783505155,4,1,0,100,0,0
61695,-102.040816326531,4,1,0,100,0,0
61770,-101.010101010101,4,1,0,100,0,0
61845,-100,4,1,0,100,0,0
61920,-99.009900990099,4,1,0,100,0,0
63120,-125,4,1,0,100,0,0
82320,-142.857142857143,4,1,0,100,0,0
90720,-133.333333333333,4,1,0,100,0,0
100320,-125,4,1,0,100,0,0
105120,-117.647058823529,4,1,0,100,0,0
105720,-116.279069767442,4,1,0,100,0,0
106320,-114.942528735632,4,1,0,100,0,0
106920,-113.636363636364,4,1,0,100,0,0
107520,-112.359550561798,4,1,0,100,0,0
107595,-111.111111111111,4,1,0,100,0,0
107670,-109.89010989011,4,1,0,100,0,0
107745,-108.695652173913,4,1,0,100,0,0
107820,-107.52688172043,4,1,0,100,0,0
107895,-106.382978723404,4,1,0,100,0,0
107970,-105.263157894737,4,1,0,100,0,0
108045,-104.166666666667,4,1,0,100,0,0
108120,-103.092783505155,4,1,0,100,0,0
108195,-102.040816326531,4,1,0,100,0,0
108270,-101.010101010101,4,1,0,100,0,0
108345,-100,4,1,0,100,0,0
108420,-99.009900990099,4,1,0,100,0,0
109920,-102.040816326531,4,1,0,100,0,0
130320,-119.047619047619,4,1,0,100,0,0
130395,-117.647058823529,4,1,0,100,0,0
130470,-116.279069767442,4,1,0,100,0,0
130545,-114.942528735632,4,1,0,100,0,0
130620,-113.636363636364,4,1,0,100,0,0
130695,-112.359550561798,4,1,0,100,0,0
130770,-111.111111111111,4,1,0,100,0,0
130845,-109.89010989011,4,1,0,100,0,0
130920,-108.695652173913,4,1,0,100,0,0
130995,-107.52688172043,4,1,0,100,0,0
131070,-106.382978723404,4,1,0,100,0,0
131145,-105.263157894737,4,1,0,100,0,0
131220,-104.166666666667,4,1,0,100,0,0
131295,-103.092783505155,4,1,0,100,0,0
131370,-102.040816326531,4,1,0,100,0,0
131445,-101.010101010101,4,1,0,100,0,0
131520,-100,4,1,0,100,0,0
131820,-99.009900990099,4,1,0,100,0,0
132120,-98.0392156862745,4,1,0,100,0,0
132420,-97.0873786407767,4,1,0,100,0,0
132720,-96.1538461538461,4,1,0,100,0,0
133020,-95.2380952380952,4,1,0,100,0,0
133320,-94.3396226415094,4,1,0,100,0,0
133920,-102.040816326531,4,1,0,100,0,0
150720,-66.6666666666667,4,1,0,100,0,0
151920,-33.3333333333333,4,1,0,100,0,0
153120,-100,4,1,0,100,0,0
169920,-99.009900990099,4,1,0,100,0,0
169995,-98.0392156862745,4,1,0,100,0,0
170070,-97.0873786407767,4,1,0,100,0,0
170145,-96.1538461538461,4,1,0,100,0,0
170220,-95.2380952380952,4,1,0,100,0,0
170295,-94.3396226415094,4,1,0,100,0,0
170370,-93.4579439252336,4,1,0,100,0,0
170445,-92.5925925925926,4,1,0,100,0,0
170520,-91.743119266055,4,1,0,100,0,0
170595,-90.9090909090909,4,1,0,100,0,0
170670,-90.0900900900901,4,1,0,100,0,0
170745,-89.2857142857143,4,1,0,100,0,0
170820,-88.4955752212389,4,1,0,100,0,0
171420,-111.111111111111,4,1,0,100,0,0
172470,-66.6666666666667,4,1,0,100,0,0
173445,-71.4285714285714,4,1,0,90,0,0
174645,-76.9230769230769,4,1,0,80,0,0
175845,-83.3333333333333,4,1,0,70,0,0
177045,-90.9090909090909,4,1,0,60,0,0
178245,-100,4,1,0,50,0,0
179445,-111.111111111111,4,1,0,40,0,0
180645,-125,4,1,0,30,0,0
181845,-142.857142857143,4,1,0,20,0,0
183047,-166.666666666667,4,1,0,20,0,0
186647,-163.934426229508,4,1,0,60,0,0
187847,-158.730158730159,4,1,0,60,0,0
189047,-149.253731343284,4,1,0,60,0,0
190320,-140.845070422535,4,1,0,60,0,0
191445,-133.333333333333,4,1,0,100,0,0
201120,-131.578947368421,4,1,0,100,0,0
205920,-128.205128205128,4,1,0,100,0,0
206220,-125,4,1,0,100,0,0
206520,-121.951219512195,4,1,0,100,0,0
206820,-119.047619047619,4,1,0,100,0,0
207120,-116.279069767442,4,1,0,100,0,0
207420,-113.636363636364,4,1,0,100,0,0
207720,-111.111111111111,4,1,0,100,0,0
208020,-108.695652173913,4,1,0,100,0,0
208320,-106.382978723404,4,1,0,100,0,0
208620,-104.166666666667,4,1,0,100,0,0
208920,-102.040816326531,4,1,0,100,0,0
209220,-100,4,1,0,100,0,0
209520,-98.0392156862745,4,1,0,100,0,0
210720,-100,4,1,0,100,0,0
221220,-106.382978723404,4,1,0,100,0,0
221520,-105.263157894737,4,1,0,100,0,0
221820,-104.166666666667,4,1,0,100,0,0
221970,-103.092783505155,4,1,0,100,0,0
222270,-102.040816326531,4,1,0,100,0,0
222420,-101.010101010101,4,1,0,100,0,0
222720,-100,4,1,0,100,0,0
225120,-99.009900990099,4,1,0,100,0,0
226320,-98.0392156862745,4,1,0,100,0,0
227520,-97.0873786407767,4,1,0,100,0,0
227709,-96.1538461538461,4,1,0,100,0,0
227934,-95.2380952380952,4,1,0,100,0,0
228084,-94.3396226415094,4,1,0,100,0,0
228309,-93.4579439252336,4,1,0,100,0,0
228534,-92.5925925925926,4,1,0,100,0,0
228684,-91.743119266055,4,1,0,100,0,0
228909,-90.9090909090909,4,1,0,100,0,0
229134,-90.0900900900901,4,1,0,100,0,0
229284,-89.2857142857143,4,1,0,100,0,0
229920,-111.111111111111,4,1,0,100,0,0
236970,-109.89010989011,4,1,0,100,0,0
237120,-108.695652173913,4,1,0,100,0,0
237270,-107.52688172043,4,1,0,100,0,0
237420,-106.382978723404,4,1,0,100,0,0
237570,-105.263157894737,4,1,0,100,0,0
237720,-104.166666666667,4,1,0,100,0,0
238020,-103.092783505155,4,1,0,100,0,0
238170,-102.040816326531,4,1,0,100,0,0
238320,-101.010101010101,4,1,0,100,0,0
239220,-100,4,1,0,100,0,0
241920,-95.2380952380952,4,1,0,100,0,0
244320,-90.9090909090909,4,1,0,100,0,0
248670,-108.695652173913,4,1,0,100,0,0
249122,-98.0392156862745,4,1,0,100,0,1
263522,-98.0392156862745,4,1,0,100,0,0
263970,-111.111111111111,4,1,0,100,0,0
267120,-109.89010989011,4,1,0,100,0,0
267270,-108.695652173913,4,1,0,100,0,0
267345,-107.52688172043,4,1,0,100,0,0
267420,-106.382978723404,4,1,0,100,0,0
267570,-105.263157894737,4,1,0,100,0,0
267645,-104.166666666667,4,1,0,100,0,0
267720,-103.092783505155,4,1,0,100,0,0
267870,-102.040816326531,4,1,0,100,0,0
268020,-101.010101010101,4,1,0,100,0,0
268170,-100,4,1,0,100,0,0
268320,-99.009900990099,4,1,0,100,0,0
268622,-98.0392156862745,4,1,0,100,0,1
286322,-98.0392156862745,4,1,0,100,0,0
286397,-66.6666666666667,4,1,0,100,0,0
287520,-125,4,1,0,100,0,0
296520,-123.456790123457,4,1,0,100,0,0
296670,-121.951219512195,4,1,0,100,0,0
296820,-120.481927710843,4,1,0,100,0,0
296970,-119.047619047619,4,1,0,100,0,0
297120,-117.647058823529,4,1,0,100,0,0
307920,-121.951219512195,4,1,0,100,0,0
308220,-120.481927710843,4,1,0,100,0,0
308520,-119.047619047619,4,1,0,100,0,0
308820,-117.647058823529,4,1,0,100,0,0
309120,-116.279069767442,4,1,0,100,0,0
309420,-114.942528735632,4,1,0,100,0,0
309720,-113.636363636364,4,1,0,100,0,0
309870,-112.359550561798,4,1,0,100,0,0
310020,-111.111111111111,4,1,0,100,0,0
310320,-109.89010989011,4,1,0,100,0,0
310470,-108.695652173913,4,1,0,100,0,0
310620,-107.52688172043,4,1,0,100,0,0
310770,-106.382978723404,4,1,0,100,0,0
310920,-105.263157894737,4,1,0,100,0,0
311070,-104.166666666667,4,1,0,100,0,0
311220,-103.092783505155,4,1,0,100,0,0
311295,-102.040816326531,4,1,0,100,0,0
311370,-101.010101010101,4,1,0,100,0,0
311520,-100,4,1,0,100,0,0
311820,-99.009900990099,4,1,0,100,0,0
312120,-98.0392156862745,4,1,0,100,0,0
312420,-97.0873786407767,4,1,0,100,0,0
312720,-96.1538461538461,4,1,0,100,0,0
313020,-95.238095238095,4,1,0,100,0,0
313320,-94.3396226415094,4,1,0,100,0,0
313620,-93.4579439252336,4,1,0,100,0,0
316320,-100,4,1,0,100,0,0
335670,-66.6666666666667,4,1,0,100,0,0
336645,-71.4285714285714,4,1,0,90,0,0
337845,-76.9230769230769,4,1,0,80,0,0
339045,-83.3333333333333,4,1,0,70,0,0
340245,-90.9090909090909,4,1,0,60,0,0
341445,-100,4,1,0,50,0,0
342645,-111.111111111111,4,1,0,40,0,0
343845,-125,4,1,0,30,0,0
345045,-142.857142857143,4,1,0,20,0,0
347445,-142.857142857143,4,1,0,60,0,0
354645,-142.857142857143,4,1,0,20,0,0
363122,315.789473684211,4,1,0,20,1,0
363122,-133.333333333333,4,1,0,20,0,0
363753,352.941176470588,4,1,0,60,1,8
364194,-111.111111111111,4,1,0,40,0,8
364458,394.736842105263,4,1,0,40,1,0
364458,-100,4,1,0,40,0,0
364653,-101.010101010101,4,1,0,40,0,0
364862,441.176470588235,4,1,0,40,1,8
364862,-90.9090909090909,4,1,0,40,0,8
365080,-92.5925925925926,4,1,0,40,0,8
365293,468.75,4,1,0,40,1,8
365293,-90.9090909090909,4,1,0,40,0,8
365525,-93.4579439252336,4,1,0,40,0,8
365761,560.747663551402,4,1,0,40,1,8
365761,-80,4,1,0,40,0,8
366039,-82.6446280991736,4,1,0,40,0,8
366321,627.615062761506,4,1,0,40,1,0
366321,-76.9230769230769,4,1,0,40,0,0
367262,444.444444444444,4,1,0,40,1,8
367484,571.428571428571,4,1,0,40,1,8
367769,526.315789473684,4,1,0,40,1,8
368964,-100,4,1,0,20,0,8
369084,478.08764940239,4,1,0,20,1,0
369084,-111.111111111111,4,1,0,20,0,0
370876,-117.647058823529,4,1,0,15,0,0
372789,-125,4,1,0,10,0,0

[HitObjects]
256,192,42722,5,4,0:0:0:0:
256,192,43172,1,4,0:0:0:0:
256,192,45122,1,4,0:0:0:0:
256,192,45572,1,4,0:0:0:0:
256,192,47522,1,4,0:0:0:0:
256,192,47972,1,4,0:0:0:0:
256,192,48722,1,4,0:0:0:0:
256,192,49172,1,4,0:0:0:0:
256,192,49922,1,4,0:0:0:0:
256,192,50372,1,4,0:0:0:0:
256,192,51122,1,0,0:0:0:0:
256,192,51572,1,0,0:0:0:0:
256,192,51647,1,0,0:0:0:0:
256,192,51722,1,8,0:0:0:0:
256,192,51872,1,0,0:0:0:0:
256,192,51947,1,8,0:0:0:0:
256,192,52097,1,0,0:0:0:0:
256,192,52172,1,8,0:0:0:0:
256,192,52247,1,8,0:0:0:0:
256,192,52322,1,4,0:0:0:0:
256,192,52772,1,4,0:0:0:0:
256,192,54722,1,4,0:0:0:0:
256,192,55172,1,4,0:0:0:0:
256,192,57122,1,4,0:0:0:0:
256,192,57572,1,4,0:0:0:0:
256,192,58322,1,4,0:0:0:0:
256,192,58772,1,4,0:0:0:0:
256,192,59522,1,4,0:0:0:0:
256,192,59972,1,4,0:0:0:0:
256,192,60422,1,0,0:0:0:0:
256,192,60572,1,0,0:0:0:0:
256,192,60872,1,0,0:0:0:0:
256,192,61172,1,0,0:0:0:0:
256,192,61247,1,0,0:0:0:0:
256,192,61322,1,8,0:0:0:0:
256,192,61472,1,0,0:0:0:0:
256,192,61547,1,8,0:0:0:0:
256,192,61697,1,0,0:0:0:0:
256,192,61772,1,8,0:0:0:0:
256,192,61847,1,8,0:0:0:0:
256,192,61922,1,4,0:0:0:0:
256,192,64322,1,0,0:0:0:0:
256,192,66722,1,8,0:0:0:0:
256,192,69122,1,8,0:0:0:0:
256,192,71522,1,0,0:0:0:0:
256,192,73922,1,0,0:0:0:0:
256,192,76322,1,8,0:0:0:0:
256,192,77522,1,8,0:0:0:0:
256,192,78722,1,8,0:0:0:0:
256,192,81122,1,0,0:0:0:0:
256,192,83522,1,0,0:0:0:0:
256,192,84722,1,8,0:0:0:0:
256,192,85922,1,0,0:0:0:0:
256,192,86372,1,0,0:0:0:0:
256,192,87122,1,8,0:0:0:0:
256,192,87572,1,8,0:0:0:0:
256,192,88322,1,0,0:0:0:0:
256,192,88772,1,0,0:0:0:0:
256,192,89222,1,0,0:0:0:0:
256,192,89522,1,8,0:0:0:0:
256,192,89972,1,8,0:0:0:0:
256,192,90422,1,8,0:0:0:0:
256,192,90722,1,0,0:0:0:0:
256,192,91172,1,0,0:0:0:0:
256,192,91247,1,0,0:0:0:0:
256,192,91322,1,8,0:0:0:0:
256,192,92072,1,0,0:0:0:0:
256,192,92372,1,0,0:0:0:0:
256,192,92522,1,8,0:0:0:0:
256,192,92672,1,0,0:0:0:0:
256,192,93122,1,0,0:0:0:0:
256,192,93572,1,0,0:0:0:0:
256,192,93647,1,0,0:0:0:0:
256,192,93722,1,8,0:0:0:0:
256,192,94022,1,0,0:0:0:0:
256,192,94172,1,0,0:0:0:0:
256,192,94472,1,0,0:0:0:0:
256,192,94772,1,0,0:0:0:0:
256,192,94922,1,8,0:0:0:0:
256,192,95522,1,0,0:0:0:0:
256,192,95972,1,0,0:0:0:0:
256,192,96047,1,0,0:0:0:0:
256,192,96122,1,8,0:0:0:0:
256,192,96872,1,0,0:0:0:0:
256,192,97172,1,0,0:0:0:0:
256,192,97322,1,8,0:0:0:0:
256,192,97472,1,0,0:0:0:0:
256,192,97922,1,0,0:0:0:0:
256,192,98372,1,0,0:0:0:0:
256,192,98447,1,0,0:0:0:0:
256,192,98522,1,8,0:0:0:0:
256,192,98822,1,0,0:0:0:0:
256,192,98972,1,0,0:0:0:0:
256,192,99272,1,0,0:0:0:0:
256,192,99572,1,0,0:0:0:0:
256,192,99722,1,8,0:0:0:0:
256,192,100322,1,8,0:0:0:0:
256,192,100622,1,0,0:0:0:0:
256,192,100922,1,8,0:0:0:0:
256,192,101222,1,0,0:0:0:0:
256,192,101522,1,0,0:0:0:0:
256,192,101822,1,0,0:0:0:0:
256,192,102122,1,8,0:0:0:0:
256,192,102422,1,0,0:0:0:0:
256,192,102722,1,0,0:0:0:0:
256,192,103022,1,0,0:0:0:0:
256,192,103322,1,8,0:0:0:0:
256,192,103622,1,0,0:0:0:0:
256,192,103922,1,0,0:0:0:0:
256,192,104222,1,0,0:0:0:0:
256,192,104522,1,8,0:0:0:0:
256,192,104822,1,0,0:0:0:0:
256,192,105122,1,8,0:0:0:0:
256,192,105272,1,0,0:0:0:0:
256,192,105422,1,8,0:0:0:0:
256,192,105572,1,0,0:0:0:0:
256,192,105722,1,8,0:0:0:0:
256,192,105872,1,0,0:0:0:0:
256,192,106022,1,8,0:0:0:0:
256,192,106172,1,0,0:0:0:0:
256,192,106322,1,8,0:0:0:0:
256,192,106472,1,0,0:0:0:0:
256,192,106622,1,8,0:0:0:0:
256,192,106772,1,0,0:0:0:0:
256,192,106922,1,8,0:0:0:0:
256,192,107072,1,0,0:0:0:0:
256,192,107222,1,8,0:0:0:0:
256,192,107372,1,0,0:0:0:0:
256,192,107522,1,8,0:0:0:0:
256,192,107597,1,0,0:0:0:0:
256,192,107672,1,0,0:0:0:0:
256,192,107747,1,0,0:0:0:0:
256,192,107822,1,8,0:0:0:0:
256,192,107897,1,0,0:0:0:0:
256,192,107972,1,0,0:0:0:0:
256,192,108047,1,0,0:0:0:0:
256,192,108122,1,8,0:0:0:0:
256,192,108197,1,0,0:0:0:0:
256,192,108272,1,8,0:0:0:0:
256,192,108347,1,8,0:0:0:0:
256,192,108422,1,0,0:0:0:0:
256,192,108472,1,0,0:0:0:0:
256,192,108522,1,0,0:0:0:0:
256,192,108572,1,8,0:0:0:0:
256,192,108622,1,8,0:0:0:0:
256,192,108672,1,8,0:0:0:0:
256,192,108722,1,0,0:0:0:0:
256,192,109922,1,4,0:0:0:0:
256,192,110372,1,0,0:0:0:0:
256,192,110447,1,0,0:0:0:0:
256,192,110522,1,8,0:0:0:0:
256,192,110822,1,8,0:0:0:0:
256,192,111047,1,8,0:0:0:0:
256,192,111122,1,8,0:0:0:0:
256,192,111272,1,0,0:0:0:0:
256,192,111422,1,8,0:0:0:0:
256,192,111572,1,0,0:0:0:0:
256,192,111647,1,0,0:0:0:0:
256,192,111722,1,8,0:0:0:0:
256,192,111872,1,0,0:0:0:0:
256,192,111947,1,0,0:0:0:0:
256,192,112097,1,8,0:0:0:0:
256,192,112247,1,8,0:0:0:0:
256,192,112322,1,0,0:0:0:0:
256,192,112372,1,0,0:0:0:0:
256,192,112422,1,0,0:0:0:0:
256,192,112472,1,8,0:0:0:0:
256,192,112622,1,0,0:0:0:0:
256,192,112672,1,8,0:0:0:0:
256,192,112722,1,8,0:0:0:0:
256,192,112772,1,0,0:0:0:0:
256,192,112847,1,0,0:0:0:0:
256,192,112922,1,8,0:0:0:0:
256,192,113222,1,0,0:0:0:0:
256,192,113372,1,0,0:0:0:0:
256,192,113447,1,8,0:0:0:0:
256,192,113522,1,8,0:0:0:0:
256,192,113672,1,0,0:0:0:0:
256,192,113822,1,8,0:0:0:0:
256,192,113972,1,0,0:0:0:0:
256,192,114122,1,8,0:0:0:0:
256,192,114197,1,0,0:0:0:0:
256,192,114272,1,8,0:0:0:0:
256,192,114347,1,8,0:0:0:0:
256,192,114422,1,0,0:0:0:0:
256,192,114572,1,8,0:0:0:0:
256,192,114647,1,8,0:0:0:0:
256,192,114722,1,0,0:0:0:0:
256,192,114772,1,0,0:0:0:0:
256,192,114822,1,0,0:0:0:0:
256,192,114872,1,8,0:0:0:0:
256,192,115172,1,0,0:0:0:0:
256,192,115247,1,0,0:0:0:0:
256,192,115322,1,8,0:0:0:0:
256,192,115547,1,8,0:0:0:0:
256,192,115622,1,0,0:0:0:0:
256,192,115772,1,8,0:0:0:0:
256,192,116072,1,0,0:0:0:0:
256,192,116372,1,0,0:0:0:0:
256,192,116522,1,8,0:0:0:0:
256,192,116672,1,0,0:0:0:0:
256,192,116747,1,8,0:0:0:0:
256,192,116897,1,8,0:0:0:0:
256,192,116972,1,8,0:0:0:0:
256,192,117122,1,4,0:0:0:0:
256,192,117572,1,0,0:0:0:0:
256,192,117647,1,0,0:0:0:0:
256,192,117722,1,8,0:0:0:0:
256,192,117947,1,8,0:0:0:0:
256,192,118022,1,0,0:0:0:0:
256,192,118172,1,0,0:0:0:0:
256,192,118472,1,0,0:0:0:0:
256,192,118772,1,0,0:0:0:0:
256,192,118922,1,8,0:0:0:0:
256,192,119072,1,0,0:0:0:0:
256,192,119147,1,0,0:0:0:0:
256,192,119222,1,8,0:0:0:0:
256,192,119297,1,8,0:0:0:0:
256,192,119372,1,0,0:0:0:0:
256,192,119522,1,4,0:0:0:0:
256,192,119972,1,0,0:0:0:0:
256,192,120047,1,0,0:0:0:0:
256,192,120122,1,8,0:0:0:0:
256,192,120422,1,8,0:0:0:0:
256,192,120647,1,8,0:0:0:0:
256,192,120722,1,0,0:0:0:0:
256,192,120872,1,0,0:0:0:0:
256,192,121022,1,8,0:0:0:0:
256,192,121172,1,0,0:0:0:0:
256,192,121247,1,0,0:0:0:0:
256,192,121322,1,8,0:0:0:0:
256,192,121472,1,0,0:0:0:0:
256,192,121547,1,8,0:0:0:0:
256,192,121697,1,8,0:0:0:0:
256,192,121847,1,8,0:0:0:0:
256,192,121922,1,0,0:0:0:0:
256,192,121972,1,0,0:0:0:0:
256,192,122022,1,0,0:0:0:0:
256,192,122072,1,8,0:0:0:0:
256,192,122222,1,0,0:0:0:0:
256,192,122272,1,8,0:0:0:0:
256,192,122322,1,8,0:0:0:0:
256,192,122372,1,0,0:0:0:0:
256,192,122447,1,0,0:0:0:0:
256,192,122522,1,8,0:0:0:0:
256,192,122822,1,0,0:0:0:0:
256,192,122972,1,0,0:0:0:0:
256,192,123047,1,8,0:0:0:0:
256,192,123122,1,8,0:0:0:0:
256,192,123272,1,0,0:0:0:0:
256,192,123422,1,8,0:0:0:0:
256,192,123572,1,0,0:0:0:0:
256,192,123647,1,0,0:0:0:0:
256,192,123722,1,8,0:0:0:0:
256,192,123797,1,0,0:0:0:0:
256,192,123872,1,8,0:0:0:0:
256,192,124022,1,8,0:0:0:0:
256,192,124097,1,0,0:0:0:0:
256,192,124172,1,8,0:0:0:0:
256,192,124247,1,8,0:0:0:0:
256,192,124322,1,0,0:0:0:0:
256,192,124372,1,0,0:0:0:0:
256,192,124422,1,0,0:0:0:0:
256,192,124472,1,8,0:0:0:0:
256,192,124772,1,0,0:0:0:0:
256,192,124847,1,0,0:0:0:0:
256,192,124922,1,8,0:0:0:0:
256,192,125147,1,8,0:0:0:0:
256,192,125222,1,0,0:0:0:0:
256,192,125372,1,8,0:0:0:0:
256,192,125522,1,8,0:0:0:0:
256,192,125597,1,8,0:0:0:0:
256,192,125672,1,0,0:0:0:0:
256,192,125972,1,0,0:0:0:0:
256,192,126122,1,8,0:0:0:0:
256,192,126272,1,0,0:0:0:0:
256,192,126347,1,8,0:0:0:0:
256,192,126497,1,8,0:0:0:0:
256,192,126572,1,8,0:0:0:0:
256,192,126722,1,4,0:0:0:0:
256,192,127022,1,8,0:0:0:0:
256,192,127322,1,0,0:0:0:0:
256,192,127472,1,0,0:0:0:0:
256,192,127622,1,8,0:0:0:0:
256,192,127922,1,0,0:0:0:0:
256,192,128222,1,8,0:0:0:0:
256,192,128372,1,0,0:0:0:0:
256,192,128522,1,8,0:0:0:0:
256,192,128672,1,0,0:0:0:0:
256,192,128747,1,8,0:0:0:0:
256,192,128897,1,0,0:0:0:0:
256,192,128972,1,8,0:0:0:0:
256,192,129047,1,8,0:0:0:0:
256,192,129122,5,4,0:0:0:0:
256,192,130322,1,8,0:0:0:0:
256,192,130397,1,0,0:0:0:0:
256,192,130472,1,0,0:0:0:0:
256,192,130547,1,0,0:0:0:0:
256,192,130622,1,8,0:0:0:0:
256,192,130697,1,8,0:0:0:0:
256,192,130772,1,0,0:0:0:0:
256,192,130847,1,0,0:0:0:0:
256,192,130922,1,8,0:0:0:0:
256,192,130997,1,0,0:0:0:0:
256,192,131072,1,8,0:0:0:0:
256,192,131147,1,8,0:0:0:0:
256,192,131222,1,0,0:0:0:0:
256,192,131297,1,8,0:0:0:0:
256,192,131372,1,0,0:0:0:0:
256,192,131447,1,0,0:0:0:0:
256,192,131522,1,8,0:0:0:0:
256,192,131572,1,8,0:0:0:0:
256,192,131622,1,8,0:0:0:0:
256,192,131672,1,0,0:0:0:0:
256,192,131747,1,0,0:0:0:0:
256,192,131822,1,8,0:0:0:0:
256,192,131872,1,0,0:0:0:0:
256,192,131922,1,0,0:0:0:0:
256,192,131972,1,8,0:0:0:0:
256,192,132047,1,0,0:0:0:0:
256,192,132122,1,8,0:0:0:0:
256,192,132172,1,8,0:0:0:0:
256,192,132222,1,8,0:0:0:0:
256,192,132272,1,0,0:0:0:0:
256,192,132347,1,0,0:0:0:0:
256,192,132422,1,8,0:0:0:0:
256,192,132472,1,0,0:0:0:0:
256,192,132522,1,0,0:0:0:0:
256,192,132572,1,8,0:0:0:0:
256,192,132647,1,0,0:0:0:0:
256,192,132722,1,8,0:0:0:0:
256,192,132772,1,8,0:0:0:0:
256,192,132822,1,8,0:0:0:0:
256,192,132872,1,0,0:0:0:0:
256,192,132947,1,0,0:0:0:0:
256,192,133022,1,8,0:0:0:0:
256,192,133072,1,0,0:0:0:0:
256,192,133122,1,0,0:0:0:0:
256,192,133172,1,8,0:0:0:0:
256,192,133247,1,0,0:0:0:0:
256,192,133322,1,8,0:0:0:0:
256,192,133372,1,8,0:0:0:0:
256,192,133422,1,8,0:0:0:0:
256,192,133472,1,0,0:0:0:0:
256,192,133522,1,0,0:0:0:0:
256,192,133572,1,0,0:0:0:0:
256,192,133622,1,8,0:0:0:0:
256,192,133922,1,4,0:0:0:0:
256,192,134447,1,0,0:0:0:0:
256,192,134522,1,8,0:0:0:0:
256,192,134747,1,8,0:0:0:0:
256,192,134822,1,8,0:0:0:0:
256,192,134972,1,0,0:0:0:0:
256,192,135272,1,8,0:0:0:0:
256,192,135422,1,0,0:0:0:0:
256,192,135647,1,0,0:0:0:0:
256,192,135722,1,8,0:0:0:0:
256,192,135872,1,0,0:0:0:0:
256,192,135947,1,0,0:0:0:0:
256,192,136022,1,8,0:0:0:0:
256,192,136072,1,8,0:0:0:0:
256,192,136122,1,8,0:0:0:0:
256,192,136172,1,0,0:0:0:0:
256,192,136322,1,0,0:0:0:0:
256,192,136847,1,0,0:0:0:0:
256,192,136922,1,8,0:0:0:0:
256,192,137147,1,8,0:0:0:0:
256,192,137222,1,8,0:0:0:0:
256,192,137372,1,0,0:0:0:0:
256,192,137672,1,0,0:0:0:0:
256,192,137822,1,0,0:0:0:0:
256,192,137972,1,0,0:0:0:0:
256,192,138122,1,8,0:0:0:0:
256,192,138272,1,0,0:0:0:0:
256,192,138722,1,0,0:0:0:0:
256,192,138772,1,8,0:0:0:0:
256,192,138822,1,8,0:0:0:0:
256,192,138872,1,0,0:0:0:0:
256,192,139247,1,0,0:0:0:0:
256,192,139322,1,8,0:0:0:0:
256,192,139547,1,8,0:0:0:0:
256,192,139622,1,0,0:0:0:0:
256,192,139772,1,0,0:0:0:0:
256,192,140222,1,0,0:0:0:0:
256,192,140447,1,0,0:0:0:0:
256,192,140522,1,8,0:0:0:0:
256,192,140572,1,8,0:0:0:0:
256,192,140622,1,8,0:0:0:0:
256,192,140672,1,0,0:0:0:0:
256,192,140822,1,0,0:0:0:0:
256,192,140872,1,8,0:0:0:0:
256,192,140922,1,8,0:0:0:0:
256,192,140972,1,0,0:0:0:0:
256,192,141422,1,0,0:0:0:0:
256,192,141647,1,0,0:0:0:0:
256,192,141722,1,8,0:0:0:0:
256,192,141947,1,8,0:0:0:0:
256,192,142022,1,8,0:0:0:0:
256,192,142172,1,0,0:0:0:0:
256,192,142472,1,0,0:0:0:0:
256,192,142622,1,0,0:0:0:0:
256,192,142772,1,0,0:0:0:0:
256,192,142922,1,8,0:0:0:0:
256,192,143072,1,0,0:0:0:0:
256,192,143522,1,4,0:0:0:0:
256,192,144047,1,0,0:0:0:0:
256,192,144122,1,8,0:0:0:0:
256,192,144347,1,8,0:0:0:0:
256,192,144422,1,0,0:0:0:0:
256,192,144572,1,0,0:0:0:0:
256,192,145022,1,0,0:0:0:0:
256,192,145247,1,0,0:0:0:0:
256,192,145322,1,8,0:0:0:0:
256,192,145372,1,0,0:0:0:0:
256,192,145422,1,0,0:0:0:0:
256,192,145472,1,8,0:0:0:0:
256,192,145622,1,8,0:0:0:0:
256,192,145672,1,8,0:0:0:0:
256,192,145722,1,8,0:0:0:0:
256,192,145772,1,0,0:0:0:0:
256,192,145922,1,0,0:0:0:0:
256,192,146447,1,0,0:0:0:0:
256,192,146522,1,8,0:0:0:0:
256,192,146747,1,8,0:0:0:0:
256,192,146822,1,8,0:0:0:0:
256,192,146972,1,0,0:0:0:0:
256,192,147272,1,0,0:0:0:0:
256,192,147422,1,0,0:0:0:0:
256,192,147572,1,0,0:0:0:0:
256,192,147722,1,8,0:0:0:0:
256,192,147872,1,0,0:0:0:0:
256,192,148022,1,8,0:0:0:0:
256,192,148072,1,8,0:0:0:0:
256,192,148122,1,8,0:0:0:0:
256,192,148172,1,0,0:0:0:0:
256,192,148472,1,0,0:0:0:0:
256,192,148772,1,0,0:0:0:0:
256,192,148922,1,12,0:0:0:0:
256,192,149372,1,0,0:0:0:0:
256,192,149822,1,0,0:0:0:0:
256,192,150047,1,0,0:0:0:0:
256,192,150122,1,8,0:0:0:0:
256,192,150172,1,8,0:0:0:0:
256,192,150222,1,8,0:0:0:0:
256,192,150272,1,0,0:0:0:0:
256,192,150422,1,0,0:0:0:0:
256,192,150722,12,0,152522,0:0:0:0:
256,192,153122,5,4,0:0:0:0:
256,192,153347,1,0,0:0:0:0:
256,192,153422,1,8,0:0:0:0:
256,192,153572,1,0,0:0:0:0:
256,192,153647,1,0,0:0:0:0:
256,192,153722,1,8,0:0:0:0:
256,192,153872,1,0,0:0:0:0:
256,192,154022,1,8,0:0:0:0:
256,192,154097,1,8,0:0:0:0:
256,192,154172,1,0,0:0:0:0:
256,192,154322,1,0,0:0:0:0:
256,192,154622,1,8,0:0:0:0:
256,192,154847,1,0,0:0:0:0:
256,192,154922,1,8,0:0:0:0:
256,192,155072,1,0,0:0:0:0:
256,192,155222,1,8,0:0:0:0:
256,192,155272,1,8,0:0:0:0:
256,192,155322,1,8,0:0:0:0:
256,192,155372,1,0,0:0:0:0:
256,192,155522,1,0,0:0:0:0:
256,192,155822,1,8,0:0:0:0:
256,192,155972,1,0,0:0:0:0:
256,192,156047,1,0,0:0:0:0:
256,192,156122,1,8,0:0:0:0:
256,192,156272,1,0,0:0:0:0:
256,192,156422,1,8,0:0:0:0:
256,192,156497,1,8,0:0:0:0:
256,192,156572,1,0,0:0:0:0:
256,192,156722,1,0,0:0:0:0:
256,192,156872,1,8,0:0:0:0:
256,192,156947,1,0,0:0:0:0:
256,192,157022,1,8,0:0:0:0:
256,192,157097,1,8,0:0:0:0:
256,192,157172,1,0,0:0:0:0:
256,192,157247,1,8,0:0:0:0:
256,192,157322,1,8,0:0:0:0:
256,192,157472,1,0,0:0:0:0:
256,192,157622,1,8,0:0:0:0:
256,192,157772,1,0,0:0:0:0:
256,192,157922,1,0,0:0:0:0:
256,192,157972,1,0,0:0:0:0:
256,192,158022,1,0,0:0:0:0:
256,192,158072,1,8,0:0:0:0:
256,192,158222,1,8,0:0:0:0:
256,192,158272,1,8,0:0:0:0:
256,192,158322,1,8,0:0:0:0:
256,192,158372,1,0,0:0:0:0:
256,192,158672,1,0,0:0:0:0:
256,192,158822,1,8,0:0:0:0:
256,192,158897,1,8,0:0:0:0:
256,192,158972,1,0,0:0:0:0:
256,192,159122,1,0,0:0:0:0:
256,192,159272,1,0,0:0:0:0:
256,192,159422,1,8,0:0:0:0:
256,192,159572,1,0,0:0:0:0:
256,192,159647,1,0,0:0:0:0:
256,192,159722,1,8,0:0:0:0:
256,192,159872,1,0,0:0:0:0:
256,192,160022,1,8,0:0:0:0:
256,192,160072,1,8,0:0:0:0:
256,192,160122,1,0,0:0:0:0:
256,192,160172,1,0,0:0:0:0:
256,192,160322,1,0,0:0:0:0:
256,192,160622,1,8,0:0:0:0:
256,192,160772,1,0,0:0:0:0:
256,192,161072,1,0,0:0:0:0:
256,192,161222,1,8,0:0:0:0:
256,192,161297,1,8,0:0:0:0:
256,192,161372,1,8,0:0:0:0:
256,192,161522,1,0,0:0:0:0:
256,192,161672,1,0,0:0:0:0:
256,192,161747,1,0,0:0:0:0:
256,192,161822,1,8,0:0:0:0:
256,192,161897,1,0,0:0:0:0:
256,192,161972,1,8,0:0:0:0:
256,192,162047,1,8,0:0:0:0:
256,192,162122,1,0,0:0:0:0:
256,192,162272,1,0,0:0:0:0:
256,192,162422,1,8,0:0:0:0:
256,192,162572,1,0,0:0:0:0:
256,192,162722,1,4,0:0:0:0:
256,192,163022,1,8,0:0:0:0:
256,192,163322,1,0,0:0:0:0:
256,192,163472,1,0,0:0:0:0:
256,192,163622,1,8,0:0:0:0:
256,192,163922,1,0,0:0:0:0:
256,192,164222,1,8,0:0:0:0:
256,192,164522,1,0,0:0:0:0:
256,192,164672,1,0,0:0:0:0:
256,192,164822,1,8,0:0:0:0:
256,192,164972,1,8,0:0:0:0:
256,192,165122,1,0,0:0:0:0:
256,192,165422,1,8,0:0:0:0:
256,192,165722,1,0,0:0:0:0:
256,192,165872,1,0,0:0:0:0:
256,192,166022,1,8,0:0:0:0:
256,192,166322,1,0,0:0:0:0:
256,192,166622,1,8,0:0:0:0:
256,192,166922,1,0,0:0:0:0:
256,192,167072,1,0,0:0:0:0:
256,192,167222,1,8,0:0:0:0:
256,192,167522,1,12,0:0:0:0:
256,192,167672,1,0,0:0:0:0:
256,192,167822,1,0,0:0:0:0:
256,192,167972,1,8,0:0:0:0:
256,192,168122,1,0,0:0:0:0:
256,192,168272,1,0,0:0:0:0:
256,192,168422,1,8,0:0:0:0:
256,192,168572,1,0,0:0:0:0:
256,192,168722,1,8,0:0:0:0:
256,192,168872,1,0,0:0:0:0:
256,192,169022,1,0,0:0:0:0:
256,192,169172,1,8,0:0:0:0:
256,192,169322,1,0,0:0:0:0:
256,192,169472,1,0,0:0:0:0:
256,192,169622,1,8,0:0:0:0:
256,192,169772,1,0,0:0:0:0:
256,192,169922,1,8,0:0:0:0:
256,192,169997,1,8,0:0:0:0:
256,192,170072,1,0,0:0:0:0:
256,192,170147,1,0,0:0:0:0:
256,192,170222,1,8,0:0:0:0:
256,192,170297,1,8,0:0:0:0:
256,192,170372,1,0,0:0:0:0:
256,192,170447,1,0,0:0:0:0:
256,192,170522,1,8,0:0:0:0:
256,192,170597,1,8,0:0:0:0:
256,192,170672,1,0,0:0:0:0:
256,192,170747,1,0,0:0:0:0:
256,192,170822,1,8,0:0:0:0:
256,192,170872,1,8,0:0:0:0:
256,192,170922,1,8,0:0:0:0:
256,192,170972,1,8,0:0:0:0:
256,192,171022,1,8,0:0:0:0:
256,192,171072,1,8,0:0:0:0:
256,192,171122,1,0,0:0:0:0:
256,192,171422,1,8,0:0:0:0:
256,192,171572,1,0,0:0:0:0:
256,192,171872,1,8,0:0:0:0:
256,192,172022,1,0,0:0:0:0:
256,192,172322,1,4,0:0:0:0:
256,192,172472,12,0,181922,0:0:0:0:
256,192,186722,5,0,0:0:0:0:
256,192,187922,1,8,0:0:0:0:
256,192,189122,1,8,0:0:0:0:
256,192,190322,1,0,0:0:0:0:
256,192,191522,5,12,0:0:0:0:
256,192,191822,1,0,0:0:0:0:
256,192,192122,1,0,0:0:0:0:
256,192,192722,1,0,0:0:0:0:
256,192,193022,1,0,0:0:0:0:
256,192,193322,1,0,0:0:0:0:
256,192,193922,1,0,0:0:0:0:
256,192,194222,1,0,0:0:0:0:
256,192,194522,1,8,0:0:0:0:
256,192,195122,1,0,0:0:0:0:
256,192,195422,1,8,0:0:0:0:
256,192,195722,1,0,0:0:0:0:
256,192,196022,1,8,0:0:0:0:
256,192,196322,1,8,0:0:0:0:
256,192,196622,1,0,0:0:0:0:
256,192,196922,1,0,0:0:0:0:
256,192,197522,1,0,0:0:0:0:
256,192,197822,1,0,0:0:0:0:
256,192,198122,1,0,0:0:0:0:
256,192,198722,1,0,0:0:0:0:
256,192,199022,1,8,0:0:0:0:
256,192,199322,1,0,0:0:0:0:
256,192,199922,1,0,0:0:0:0:
256,192,200222,1,8,0:0:0:0:
256,192,200522,1,0,0:0:0:0:
256,192,200822,1,8,0:0:0:0:
256,192,201122,5,0,0:0:0:0:
256,192,201422,1,0,0:0:0:0:
256,192,201722,1,0,0:0:0:0:
256,192,202022,1,8,0:0:0:0:
256,192,202322,1,0,0:0:0:0:
256,192,202622,1,0,0:0:0:0:
256,192,202922,1,8,0:0:0:0:
256,192,203222,1,0,0:0:0:0:
256,192,203522,1,0,0:0:0:0:
256,192,203822,1,0,0:0:0:0:
256,192,204122,1,0,0:0:0:0:
256,192,204422,1,8,0:0:0:0:
256,192,204722,1,0,0:0:0:0:
256,192,205022,1,0,0:0:0:0:
256,192,205322,1,8,0:0:0:0:
256,192,205622,1,0,0:0:0:0:
256,192,205922,1,0,0:0:0:0:
256,192,206222,1,0,0:0:0:0:
256,192,206522,1,0,0:0:0:0:
256,192,206822,1,8,0:0:0:0:
256,192,207122,1,0,0:0:0:0:
256,192,207422,1,0,0:0:0:0:
256,192,207722,1,8,0:0:0:0:
256,192,208022,1,0,0:0:0:0:
256,192,208322,1,0,0:0:0:0:
256,192,208622,1,0,0:0:0:0:
256,192,208922,1,8,0:0:0:0:
256,192,209222,1,0,0:0:0:0:
256,192,209522,1,0,0:0:0:0:
256,192,210722,1,4,0:0:0:0:
256,192,211172,1,4,0:0:0:0:
256,192,215522,1,4,0:0:0:0:
256,192,215972,1,4,0:0:0:0:
256,192,220322,1,4,0:0:0:0:
256,192,220772,1,4,0:0:0:0:
256,192,221222,1,8,0:0:0:0:
256,192,221522,1,0,0:0:0:0:
256,192,221822,1,8,0:0:0:0:
256,192,221972,1,0,0:0:0:0:
256,192,222272,1,0,0:0:0:0:
256,192,222422,1,8,0:0:0:0:
256,192,222722,1,4,0:0:0:0:
256,192,223022,1,8,0:0:0:0:
256,192,223172,1,4,0:0:0:0:
256,192,223472,1,0,0:0:0:0:
256,192,223622,1,8,0:0:0:0:
256,192,223922,1,0,0:0:0:0:
256,192,224222,1,8,0:0:0:0:
256,192,224372,1,0,0:0:0:0:
256,192,224672,1,0,0:0:0:0:
256,192,224822,1,8,0:0:0:0:
256,192,225122,1,4,0:0:0:0:
256,192,225422,1,8,0:0:0:0:
256,192,225572,1,4,0:0:0:0:
256,192,225872,1,0,0:0:0:0:
256,192,226022,1,8,0:0:0:0:
256,192,226322,1,4,0:0:0:0:
256,192,226622,1,8,0:0:0:0:
256,192,226772,1,4,0:0:0:0:
256,192,227072,1,0,0:0:0:0:
256,192,227222,1,8,0:0:0:0:
256,192,227522,1,4,0:0:0:0:
256,192,227747,1,4,0:0:0:0:
256,192,227972,1,4,0:0:0:0:
256,192,228122,1,4,0:0:0:0:
256,192,228347,1,4,0:0:0:0:
256,192,228572,1,4,0:0:0:0:
256,192,228722,1,4,0:0:0:0:
256,192,228947,1,4,0:0:0:0:
256,192,229172,1,4,0:0:0:0:
256,192,229322,1,12,0:0:0:0:
256,192,229922,1,0,0:0:0:0:
256,192,230222,1,8,0:0:0:0:
256,192,230522,1,0,0:0:0:0:
256,192,230672,1,0,0:0:0:0:
256,192,230822,1,8,0:0:0:0:
256,192,230972,1,8,0:0:0:0:
256,192,231122,1,0,0:0:0:0:
256,192,231422,1,8,0:0:0:0:
256,192,231722,1,0,0:0:0:0:
256,192,231872,1,8,0:0:0:0:
256,192,232022,1,8,0:0:0:0:
256,192,232172,1,0,0:0:0:0:
256,192,232322,1,0,0:0:0:0:
256,192,232622,1,8,0:0:0:0:
256,192,232922,1,0,0:0:0:0:
256,192,233072,1,8,0:0:0:0:
256,192,233222,1,0,0:0:0:0:
256,192,233372,1,8,0:0:0:0:
256,192,233522,1,0,0:0:0:0:
256,192,233822,1,8,0:0:0:0:
256,192,234122,1,0,0:0:0:0:
256,192,234272,1,0,0:0:0:0:
256,192,234422,1,8,0:0:0:0:
256,192,234722,1,0,0:0:0:0:
256,192,234872,1,0,0:0:0:0:
256,192,235022,1,8,0:0:0:0:
256,192,235172,1,0,0:0:0:0:
256,192,235322,1,8,0:0:0:0:
256,192,235622,1,8,0:0:0:0:
256,192,235772,1,8,0:0:0:0:
256,192,235922,1,0,0:0:0:0:
256,192,236072,1,8,0:0:0:0:
256,192,236222,1,0,0:0:0:0:
256,192,236372,1,0,0:0:0:0:
256,192,236522,1,8,0:0:0:0:
256,192,236822,1,0,0:0:0:0:
256,192,236972,1,8,0:0:0:0:
256,192,237122,1,0,0:0:0:0:
256,192,237272,1,0,0:0:0:0:
256,192,237422,1,8,0:0:0:0:
256,192,237572,1,0,0:0:0:0:
256,192,237722,1,8,0:0:0:0:
256,192,238022,1,8,0:0:0:0:
256,192,238172,1,8,0:0:0:0:
256,192,238322,1,0,0:0:0:0:
256,192,238622,1,8,0:0:0:0:
256,192,238697,1,8,0:0:0:0:
256,192,238772,1,8,0:0:0:0:
256,192,238922,1,0,0:0:0:0:
256,192,239222,1,8,0:0:0:0:
256,192,239322,1,8,0:0:0:0:
256,192,239422,1,8,0:0:0:0:
256,192,239522,1,0,0:0:0:0:
256,192,239597,1,0,0:0:0:0:
256,192,239672,1,0,0:0:0:0:
256,192,239747,1,8,0:0:0:0:
256,192,239822,1,0,0:0:0:0:
256,192,239897,1,0,0:0:0:0:
256,192,239972,1,8,0:0:0:0:
256,192,240047,1,0,0:0:0:0:
256,192,240122,1,8,0:0:0:0:
256,192,240197,1,0,0:0:0:0:
256,192,240272,1,0,0:0:0:0:
256,192,240347,1,8,0:0:0:0:
256,192,240422,1,0,0:0:0:0:
256,192,240497,1,0,0:0:0:0:
256,192,240572,1,8,0:0:0:0:
256,192,240647,1,0,0:0:0:0:
256,192,240722,1,8,0:0:0:0:
256,192,240797,1,0,0:0:0:0:
256,192,240872,1,0,0:0:0:0:
256,192,240947,1,8,0:0:0:0:
256,192,241022,1,0,0:0:0:0:
256,192,241097,1,0,0:0:0:0:
256,192,241172,1,8,0:0:0:0:
256,192,241247,1,0,0:0:0:0:
256,192,241322,1,8,0:0:0:0:
256,192,241397,1,8,0:0:0:0:
256,192,241472,1,0,0:0:0:0:
256,192,241547,1,8,0:0:0:0:
256,192,241622,1,0,0:0:0:0:
256,192,241922,1,8,0:0:0:0:
256,192,241972,1,8,0:0:0:0:
256,192,242022,1,8,0:0:0:0:
256,192,242072,1,0,0:0:0:0:
256,192,242147,1,0,0:0:0:0:
256,192,242222,1,8,0:0:0:0:
256,192,242297,1,0,0:0:0:0:
256,192,242372,1,8,0:0:0:0:
256,192,242447,1,8,0:0:0:0:
256,192,242522,1,0,0:0:0:0:
256,192,242572,1,0,0:0:0:0:
256,192,242622,1,0,0:0:0:0:
256,192,242672,1,8,0:0:0:0:
256,192,242747,1,8,0:0:0:0:
256,192,242822,1,0,0:0:0:0:
256,192,242897,1,8,0:0:0:0:
256,192,242972,1,8,0:0:0:0:
256,192,243047,1,0,0:0:0:0:
256,192,243122,1,8,0:0:0:0:
256,192,243172,1,8,0:0:0:0:
256,192,243222,1,8,0:0:0:0:
256,192,243272,1,0,0:0:0:0:
256,192,243347,1,8,0:0:0:0:
256,192,243422,1,0,0:0:0:0:
256,192,243497,1,0,0:0:0:0:
256,192,243572,1,8,0:0:0:0:
256,192,243647,1,8,0:0:0:0:
256,192,243722,1,0,0:0:0:0:
256,192,243772,1,8,0:0:0:0:
256,192,243822,1,8,0:0:0:0:
256,192,243872,1,0,0:0:0:0:
256,192,243947,1,8,0:0:0:0:
256,192,244022,1,0,0:0:0:0:
256,192,244322,1,8,0:0:0:0:
256,192,244372,1,8,0:0:0:0:
256,192,244422,1,8,0:0:0:0:
256,192,244472,1,0,0:0:0:0:
256,192,244547,1,0,0:0:0:0:
256,192,244622,1,8,0:0:0:0:
256,192,244672,1,8,0:0:0:0:
256,192,244722,1,8,0:0:0:0:
256,192,244772,1,0,0:0:0:0:
256,192,244847,1,0,0:0:0:0:
256,192,244922,1,8,0:0:0:0:
256,192,244972,1,0,0:0:0:0:
256,192,245022,1,0,0:0:0:0:
256,192,245072,1,8,0:0:0:0:
256,192,245147,1,0,0:0:0:0:
256,192,245222,1,8,0:0:0:0:
256,192,245272,1,8,0:0:0:0:
256,192,245322,1,8,0:0:0:0:
256,192,245372,1,0,0:0:0:0:
256,192,245447,1,0,0:0:0:0:
256,192,245522,1,8,0:0:0:0:
256,192,245572,1,0,0:0:0:0:
256,192,245622,1,0,0:0:0:0:
256,192,245672,1,8,0:0:0:0:
256,192,245747,1,0,0:0:0:0:
256,192,245822,1,8,0:0:0:0:
256,192,245872,1,8,0:0:0:0:
256,192,245922,1,8,0:0:0:0:
256,192,245972,1,0,0:0:0:0:
256,192,246047,1,0,0:0:0:0:
256,192,246122,1,8,0:0:0:0:
256,192,246172,1,0,0:0:0:0:
256,192,246222,1,0,0:0:0:0:
256,192,246272,1,8,0:0:0:0:
256,192,246347,1,0,0:0:0:0:
256,192,246422,1,8,0:0:0:0:
256,192,246472,1,8,0:0:0:0:
256,192,246522,1,8,0:0:0:0:
256,192,246572,1,0,0:0:0:0:
256,192,246647,1,0,0:0:0:0:
256,192,246722,1,8,0:0:0:0:
256,192,246797,1,0,0:0:0:0:
256,192,246872,1,0,0:0:0:0:
256,192,246947,1,8,0:0:0:0:
256,192,247022,1,0,0:0:0:0:
256,192,247097,1,0,0:0:0:0:
256,192,247172,1,8,0:0:0:0:
256,192,247247,1,8,0:0:0:0:
256,192,247322,1,8,0:0:0:0:
256,192,247397,1,0,0:0:0:0:
256,192,247472,1,0,0:0:0:0:
256,192,247547,1,8,0:0:0:0:
256,192,247622,1,0,0:0:0:0:
256,192,247697,1,0,0:0:0:0:
256,192,247772,1,8,0:0:0:0:
256,192,247847,1,8,0:0:0:0:
256,192,247922,1,0,0:0:0:0:
256,192,248672,1,0,0:0:0:0:
256,192,248822,1,8,0:0:0:0:
256,192,249122,1,4,0:0:0:0:
256,192,249347,1,8,0:0:0:0:
256,192,249422,1,0,0:0:0:0:
256,192,249572,1,8,0:0:0:0:
256,192,249722,1,0,0:0:0:0:
256,192,249797,1,8,0:0:0:0:
256,192,249947,1,8,0:0:0:0:
256,192,250022,1,0,0:0:0:0:
256,192,250097,1,0,0:0:0:0:
256,192,250172,1,8,0:0:0:0:
256,192,250322,1,0,0:0:0:0:
256,192,250397,1,0,0:0:0:0:
256,192,250547,1,0,0:0:0:0:
256,192,250622,1,8,0:0:0:0:
256,192,250697,1,8,0:0:0:0:
256,192,250772,1,0,0:0:0:0:
256,192,250922,1,0,0:0:0:0:
256,192,250997,1,8,0:0:0:0:
256,192,251147,1,0,0:0:0:0:
256,192,251222,1,8,0:0:0:0:
256,192,251297,1,0,0:0:0:0:
256,192,251372,1,8,0:0:0:0:
256,192,251447,1,8,0:0:0:0:
256,192,251522,1,0,0:0:0:0:
256,192,251597,1,0,0:0:0:0:
256,192,251747,1,8,0:0:0:0:
256,192,251822,1,0,0:0:0:0:
256,192,251972,1,8,0:0:0:0:
256,192,252122,1,0,0:0:0:0:
256,192,252197,1,0,0:0:0:0:
256,192,252272,1,0,0:0:0:0:
256,192,252347,1,8,0:0:0:0:
256,192,252497,1,0,0:0:0:0:
256,192,252572,1,8,0:0:0:0:
256,192,252647,1,0,0:0:0:0:
256,192,252722,1,0,0:0:0:0:
256,192,252797,1,8,0:0:0:0:
256,192,252947,1,0,0:0:0:0:
256,192,253022,1,8,0:0:0:0:
256,192,253172,1,0,0:0:0:0:
256,192,253322,1,8,0:0:0:0:
256,192,253397,1,0,0:0:0:0:
256,192,253547,1,8,0:0:0:0:
256,192,253697,1,0,0:0:0:0:
256,192,253772,1,8,0:0:0:0:
256,192,253847,1,8,0:0:0:0:
256,192,253922,1,0,0:0:0:0:
256,192,253997,1,8,0:0:0:0:
256,192,254147,1,0,0:0:0:0:
256,192,254297,1,8,0:0:0:0:
256,192,254372,1,0,0:0:0:0:
256,192,254447,1,0,0:0:0:0:
256,192,254522,1,8,0:0:0:0:
256,192,254597,1,8,0:0:0:0:
256,192,254747,1,0,0:0:0:0:
256,192,254822,1,8,0:0:0:0:
256,192,254897,1,0,0:0:0:0:
256,192,254972,1,8,0:0:0:0:
256,192,255122,1,8,0:0:0:0:
256,192,255197,1,0,0:0:0:0:
256,192,255347,1,8,0:0:0:0:
256,192,255497,1,0,0:0:0:0:
256,192,255572,1,0,0:0:0:0:
256,192,255647,1,8,0:0:0:0:
256,192,255722,1,0,0:0:0:0:
256,192,255797,1,0,0:0:0:0:
256,192,255947,1,0,0:0:0:0:
256,192,256022,1,8,0:0:0:0:
256,192,256097,1,0,0:0:0:0:
256,192,256172,1,8,0:0:0:0:
256,192,256247,1,8,0:0:0:0:
256,192,256322,1,0,0:0:0:0:
256,192,256397,1,8,0:0:0:0:
256,192,256547,1,8,0:0:0:0:
256,192,256622,1,0,0:0:0:0:
256,192,256772,1,8,0:0:0:0:
256,192,256922,1,0,0:0:0:0:
256,192,256997,1,8,0:0:0:0:
256,192,257147,1,8,0:0:0:0:
256,192,257222,1,0,0:0:0:0:
256,192,257297,1,0,0:0:0:0:
256,192,257372,1,8,0:0:0:0:
256,192,257447,1,8,0:0:0:0:
256,192,257522,1,0,0:0:0:0:
256,192,257597,1,0,0:0:0:0:
256,192,257747,1,0,0:0:0:0:
256,192,257822,1,8,0:0:0:0:
256,192,257972,1,0,0:0:0:0:
256,192,258047,1,0,0:0:0:0:
256,192,258122,1,8,0:0:0:0:
256,192,258272,1,0,0:0:0:0:
256,192,258347,1,8,0:0:0:0:
256,192,258572,1,8,0:0:0:0:
256,192,258722,1,4,0:0:0:0:
256,192,258947,1,0,0:0:0:0:
256,192,259022,1,8,0:0:0:0:
256,192,259172,1,0,0:0:0:0:
256,192,259322,1,8,0:0:0:0:
256,192,259397,1,0,0:0:0:0:
256,192,259547,1,0,0:0:0:0:
256,192,259622,1,8,0:0:0:0:
256,192,259697,1,0,0:0:0:0:
256,192,259772,1,0,0:0:0:0:
256,192,259922,1,0,0:0:0:0:
256,192,259997,1,8,0:0:0:0:
256,192,260147,1,0,0:0:0:0:
256,192,260222,1,8,0:0:0:0:
256,192,260297,1,8,0:0:0:0:
256,192,260372,1,0,0:0:0:0:
256,192,260522,1,0,0:0:0:0:
256,192,260597,1,8,0:0:0:0:
256,192,260672,1,0,0:0:0:0:
256,192,260747,1,0,0:0:0:0:
256,192,260822,1,8,0:0:0:0:
256,192,260897,1,0,0:0:0:0:
256,192,260972,1,8,0:0:0:0:
256,192,261047,1,8,0:0:0:0:
256,192,261122,1,0,0:0:0:0:
256,192,261197,1,0,0:0:0:0:
256,192,261347,1,0,0:0:0:0:
256,192,261422,1,8,0:0:0:0:
256,192,261572,1,8,0:0:0:0:
256,192,261722,1,0,0:0:0:0:
256,192,261797,1,0,0:0:0:0:
256,192,261947,1,8,0:0:0:0:
256,192,262097,1,0,0:0:0:0:
256,192,262172,1,8,0:0:0:0:
256,192,262247,1,0,0:0:0:0:
256,192,262322,1,8,0:0:0:0:
256,192,262472,1,0,0:0:0:0:
256,192,262622,1,8,0:0:0:0:
256,192,262697,1,0,0:0:0:0:
256,192,262772,1,0,0:0:0:0:
256,192,262922,1,8,0:0:0:0:
256,192,263147,1,0,0:0:0:0:
256,192,263372,1,0,0:0:0:0:
256,192,263522,1,12,0:0:0:0:
256,192,263972,1,0,0:0:0:0:
256,192,264047,1,0,0:0:0:0:
256,192,264122,1,8,0:0:0:0:
256,192,264872,1,0,0:0:0:0:
256,192,265172,1,0,0:0:0:0:
256,192,265322,1,8,0:0:0:0:
256,192,265472,1,0,0:0:0:0:
256,192,265922,1,0,0:0:0:0:
256,192,266372,1,0,0:0:0:0:
256,192,266447,1,0,0:0:0:0:
256,192,266522,1,8,0:0:0:0:
256,192,266822,1,0,0:0:0:0:
256,192,266972,1,0,0:0:0:0:
256,192,267122,1,8,0:0:0:0:
256,192,267272,1,0,0:0:0:0:
256,192,267347,1,0,0:0:0:0:
256,192,267422,1,8,0:0:0:0:
256,192,267572,1,0,0:0:0:0:
256,192,267647,1,0,0:0:0:0:
256,192,267722,1,8,0:0:0:0:
256,192,267872,1,8,0:0:0:0:
256,192,268022,1,8,0:0:0:0:
256,192,268172,1,8,0:0:0:0:
256,192,268322,1,0,0:0:0:0:
256,192,268622,1,12,0:0:0:0:
256,192,268772,1,0,0:0:0:0:
256,192,268847,1,0,0:0:0:0:
256,192,268922,1,8,0:0:0:0:
256,192,269072,1,0,0:0:0:0:
256,192,269222,1,8,0:0:0:0:
256,192,269297,1,8,0:0:0:0:
256,192,269372,1,0,0:0:0:0:
256,192,269522,1,8,0:0:0:0:
256,192,269672,1,0,0:0:0:0:
256,192,269747,1,8,0:0:0:0:
256,192,269822,1,8,0:0:0:0:
256,192,269972,1,0,0:0:0:0:
256,192,270122,1,8,0:0:0:0:
256,192,270197,1,0,0:0:0:0:
256,192,270272,1,0,0:0:0:0:
256,192,270347,1,0,0:0:0:0:
256,192,270422,1,8,0:0:0:0:
256,192,270572,1,0,0:0:0:0:
256,192,270722,1,8,0:0:0:0:
256,192,270872,1,0,0:0:0:0:
256,192,270947,1,0,0:0:0:0:
256,192,271022,1,8,0:0:0:0:
256,192,271172,1,0,0:0:0:0:
256,192,271322,1,8,0:0:0:0:
256,192,271397,1,8,0:0:0:0:
256,192,271472,1,0,0:0:0:0:
256,192,271622,1,8,0:0:0:0:
256,192,271772,1,0,0:0:0:0:
256,192,271922,1,8,0:0:0:0:
256,192,272072,1,0,0:0:0:0:
256,192,272147,1,8,0:0:0:0:
256,192,272222,1,8,0:0:0:0:
256,192,272372,1,0,0:0:0:0:
256,192,272522,1,8,0:0:0:0:
256,192,272597,1,0,0:0:0:0:
256,192,272672,1,0,0:0:0:0:
256,192,272822,1,8,0:0:0:0:
256,192,272897,1,8,0:0:0:0:
256,192,272972,1,0,0:0:0:0:
256,192,273047,1,0,0:0:0:0:
256,192,273122,1,8,0:0:0:0:
256,192,273272,1,0,0:0:0:0:
256,192,273347,1,0,0:0:0:0:
256,192,273422,1,8,0:0:0:0:
256,192,273572,1,0,0:0:0:0:
256,192,273722,1,8,0:0:0:0:
256,192,273797,1,0,0:0:0:0:
256,192,273872,1,0,0:0:0:0:
256,192,274022,1,8,0:0:0:0:
256,192,274172,1,0,0:0:0:0:
256,192,274322,1,8,0:0:0:0:
256,192,274472,1,0,0:0:0:0:
256,192,274547,1,0,0:0:0:0:
256,192,274622,1,8,0:0:0:0:
256,192,274772,1,0,0:0:0:0:
256,192,274922,1,8,0:0:0:0:
256,192,274997,1,8,0:0:0:0:
256,192,275072,1,0,0:0:0:0:
256,192,275147,1,0,0:0:0:0:
256,192,275222,1,8,0:0:0:0:
256,192,275297,1,0,0:0:0:0:
256,192,275372,1,8,0:0:0:0:
256,192,275447,1,8,0:0:0:0:
256,192,275522,1,0,0:0:0:0:
256,192,275672,1,0,0:0:0:0:
256,192,275747,1,0,0:0:0:0:
256,192,275822,1,8,0:0:0:0:
256,192,275972,1,0,0:0:0:0:
256,192,276122,1,8,0:0:0:0:
256,192,276197,1,0,0:0:0:0:
256,192,276272,1,0,0:0:0:0:
256,192,276422,1,8,0:0:0:0:
256,192,276572,1,8,0:0:0:0:
256,192,276722,1,0,0:0:0:0:
256,192,277022,1,8,0:0:0:0:
256,192,277172,5,0,0:0:0:0:
256,192,277247,1,0,0:0:0:0:
256,192,277322,1,8,0:0:0:0:
256,192,277472,1,0,0:0:0:0:
256,192,277547,1,8,0:0:0:0:
256,192,277772,1,8,0:0:0:0:
256,192,277922,1,8,0:0:0:0:
256,192,278222,1,8,0:0:0:0:
256,192,278522,1,8,0:0:0:0:
256,192,278897,1,0,0:0:0:0:
256,192,278972,1,0,0:0:0:0:
256,192,279047,1,0,0:0:0:0:
256,192,279122,1,8,0:0:0:0:
256,192,279422,1,8,0:0:0:0:
256,192,279722,1,8,0:0:0:0:
256,192,280097,1,8,0:0:0:0:
256,192,280172,1,8,0:0:0:0:
256,192,280247,1,0,0:0:0:0:
256,192,280322,1,8,0:0:0:0:
256,192,280622,1,8,0:0:0:0:
256,192,280922,1,8,0:0:0:0:
256,192,281297,1,8,0:0:0:0:
256,192,281372,1,0,0:0:0:0:
256,192,281447,1,0,0:0:0:0:
256,192,281522,1,8,0:0:0:0:
256,192,281672,1,0,0:0:0:0:
256,192,281747,1,8,0:0:0:0:
256,192,281822,1,0,0:0:0:0:
256,192,281972,1,8,0:0:0:0:
256,192,282122,1,0,0:0:0:0:
256,192,282197,1,0,0:0:0:0:
256,192,282347,1,8,0:0:0:0:
256,192,282497,1,0,0:0:0:0:
256,192,282572,1,8,0:0:0:0:
256,192,282647,1,8,0:0:0:0:
256,192,282722,1,0,0:0:0:0:
256,192,283022,1,8,0:0:0:0:
256,192,283097,1,8,0:0:0:0:
256,192,283172,1,8,0:0:0:0:
256,192,283247,1,8,0:0:0:0:
256,192,283322,1,8,0:0:0:0:
256,192,283397,1,8,0:0:0:0:
256,192,283472,1,8,0:0:0:0:
256,192,283547,1,8,0:0:0:0:
256,192,283622,1,8,0:0:0:0:
256,192,283697,1,8,0:0:0:0:
256,192,283772,1,8,0:0:0:0:
256,192,283847,1,8,0:0:0:0:
256,192,283922,1,0,0:0:0:0:
256,192,284222,1,8,0:0:0:0:
256,192,284297,1,8,0:0:0:0:
256,192,284372,1,8,0:0:0:0:
256,192,284447,1,8,0:0:0:0:
256,192,284522,1,8,0:0:0:0:
256,192,284597,1,8,0:0:0:0:
256,192,284672,1,8,0:0:0:0:
256,192,284747,1,8,0:0:0:0:
256,192,284822,1,8,0:0:0:0:
256,192,284897,1,8,0:0:0:0:
256,192,284972,1,8,0:0:0:0:
256,192,285047,1,8,0:0:0:0:
256,192,285122,1,0,0:0:0:0:
256,192,285422,1,8,0:0:0:0:
256,192,285497,1,8,0:0:0:0:
256,192,285572,1,8,0:0:0:0:
256,192,285647,1,8,0:0:0:0:
256,192,285722,1,0,0:0:0:0:
256,192,286022,1,8,0:0:0:0:
256,192,286097,1,8,0:0:0:0:
256,192,286172,1,8,0:0:0:0:
256,192,286247,1,8,0:0:0:0:
256,192,286322,1,0,0:0:0:0:
256,192,286472,12,0,287222,0:0:0:0:
256,192,287522,5,0,0:0:0:0:
256,192,287972,1,0,0:0:0:0:
256,192,288047,1,0,0:0:0:0:
256,192,288122,1,8,0:0:0:0:
256,192,288872,1,0,0:0:0:0:
256,192,289172,1,0,0:0:0:0:
256,192,289322,1,8,0:0:0:0:
256,192,289472,1,0,0:0:0:0:
256,192,289922,1,0,0:0:0:0:
256,192,290372,1,0,0:0:0:0:
256,192,290447,1,0,0:0:0:0:
256,192,290522,1,8,0:0:0:0:
256,192,290822,1,0,0:0:0:0:
256,192,290972,1,0,0:0:0:0:
256,192,291272,1,0,0:0:0:0:
256,192,291572,1,0,0:0:0:0:
256,192,291722,1,8,0:0:0:0:
256,192,292322,1,0,0:0:0:0:
256,192,292772,1,0,0:0:0:0:
256,192,292847,1,0,0:0:0:0:
256,192,292922,1,8,0:0:0:0:
256,192,293672,1,0,0:0:0:0:
256,192,293972,1,0,0:0:0:0:
256,192,294122,1,8,0:0:0:0:
256,192,294272,1,0,0:0:0:0:
256,192,294722,1,0,0:0:0:0:
256,192,295172,1,0,0:0:0:0:
256,192,295247,1,0,0:0:0:0:
256,192,295322,1,8,0:0:0:0:
256,192,295622,1,0,0:0:0:0:
256,192,295772,1,0,0:0:0:0:
256,192,296072,1,0,0:0:0:0:
256,192,296372,1,0,0:0:0:0:
256,192,296522,1,8,0:0:0:0:
256,192,296672,1,8,0:0:0:0:
256,192,296822,1,8,0:0:0:0:
256,192,296972,1,8,0:0:0:0:
256,192,297122,1,4,0:0:0:0:
256,192,297422,1,8,0:0:0:0:
256,192,297722,1,0,0:0:0:0:
256,192,297872,1,0,0:0:0:0:
256,192,298022,1,8,0:0:0:0:
256,192,298322,1,0,0:0:0:0:
256,192,298622,1,8,0:0:0:0:
256,192,298922,1,0,0:0:0:0:
256,192,299072,1,0,0:0:0:0:
256,192,299222,1,8,0:0:0:0:
256,192,299372,1,8,0:0:0:0:
256,192,299522,1,0,0:0:0:0:
256,192,299822,1,8,0:0:0:0:
256,192,300122,1,0,0:0:0:0:
256,192,300272,1,0,0:0:0:0:
256,192,300422,1,8,0:0:0:0:
256,192,300722,1,0,0:0:0:0:
256,192,301022,1,8,0:0:0:0:
256,192,301172,1,0,0:0:0:0:
256,192,301322,1,8,0:0:0:0:
256,192,301472,1,0,0:0:0:0:
256,192,301622,1,8,0:0:0:0:
256,192,301922,1,0,0:0:0:0:
256,192,302222,1,8,0:0:0:0:
256,192,302522,1,0,0:0:0:0:
256,192,302672,1,0,0:0:0:0:
256,192,302822,1,8,0:0:0:0:
256,192,303122,1,0,0:0:0:0:
256,192,303422,1,8,0:0:0:0:
256,192,303722,1,0,0:0:0:0:
256,192,303872,1,0,0:0:0:0:
256,192,304022,1,8,0:0:0:0:
256,192,304172,1,8,0:0:0:0:
256,192,304322,1,0,0:0:0:0:
256,192,304622,1,8,0:0:0:0:
256,192,304922,1,0,0:0:0:0:
256,192,305222,1,8,0:0:0:0:
256,192,305522,1,0,0:0:0:0:
256,192,305672,1,0,0:0:0:0:
256,192,305747,1,8,0:0:0:0:
256,192,305897,1,0,0:0:0:0:
256,192,305972,1,8,0:0:0:0:
256,192,306122,1,0,0:0:0:0:
256,192,306197,1,8,0:0:0:0:
256,192,306272,1,0,0:0:0:0:
256,192,306347,1,0,0:0:0:0:
256,192,306422,1,8,0:0:0:0:
256,192,306572,1,0,0:0:0:0:
256,192,306722,1,12,0:0:0:0:
256,192,307922,1,0,0:0:0:0:
256,192,308222,1,8,0:0:0:0:
256,192,308522,1,0,0:0:0:0:
256,192,308822,1,8,0:0:0:0:
256,192,309122,1,0,0:0:0:0:
256,192,309422,1,8,0:0:0:0:
256,192,309722,1,0,0:0:0:0:
256,192,309872,1,0,0:0:0:0:
256,192,310022,1,8,0:0:0:0:
256,192,310322,1,0,0:0:0:0:
256,192,310472,1,0,0:0:0:0:
256,192,310622,1,8,0:0:0:0:
256,192,310772,1,8,0:0:0:0:
256,192,310922,1,0,0:0:0:0:
256,192,311072,1,0,0:0:0:0:
256,192,311222,1,8,0:0:0:0:
256,192,311297,1,8,0:0:0:0:
256,192,311372,1,0,0:0:0:0:
256,192,311522,1,8,0:0:0:0:
256,192,311572,1,8,0:0:0:0:
256,192,311622,1,8,0:0:0:0:
256,192,311672,1,0,0:0:0:0:
256,192,311747,1,0,0:0:0:0:
256,192,311822,1,8,0:0:0:0:
256,192,311872,1,8,0:0:0:0:
256,192,311922,1,8,0:0:0:0:
256,192,311972,1,0,0:0:0:0:
256,192,312047,1,0,0:0:0:0:
256,192,312122,1,8,0:0:0:0:
256,192,312172,1,0,0:0:0:0:
256,192,312222,1,0,0:0:0:0:
256,192,312272,1,8,0:0:0:0:
256,192,312347,1,0,0:0:0:0:
256,192,312422,1,8,0:0:0:0:
256,192,312472,1,8,0:0:0:0:
256,192,312522,1,8,0:0:0:0:
256,192,312572,1,0,0:0:0:0:
256,192,312647,1,0,0:0:0:0:
256,192,312722,1,8,0:0:0:0:
256,192,312772,1,0,0:0:0:0:
256,192,312822,1,0,0:0:0:0:
256,192,312872,1,8,0:0:0:0:
256,192,312947,1,0,0:0:0:0:
256,192,313022,1,8,0:0:0:0:
256,192,313072,1,8,0:0:0:0:
256,192,313122,1,8,0:0:0:0:
256,192,313172,1,0,0:0:0:0:
256,192,313247,1,0,0:0:0:0:
256,192,313322,1,8,0:0:0:0:
256,192,313372,1,0,0:0:0:0:
256,192,313422,1,0,0:0:0:0:
256,192,313472,1,8,0:0:0:0:
256,192,313547,1,0,0:0:0:0:
256,192,313622,1,8,0:0:0:0:
256,192,313672,1,8,0:0:0:0:
256,192,313722,1,8,0:0:0:0:
256,192,313772,1,0,0:0:0:0:
256,192,313847,1,0,0:0:0:0:
256,192,313922,1,8,0:0:0:0:
256,192,313997,1,8,0:0:0:0:
256,192,314072,1,0,0:0:0:0:
256,192,314147,1,0,0:0:0:0:
256,192,314222,1,8,0:0:0:0:
256,192,314297,1,0,0:0:0:0:
256,192,314372,1,0,0:0:0:0:
256,192,314447,1,0,0:0:0:0:
256,192,314522,1,8,0:0:0:0:
256,192,314597,1,8,0:0:0:0:
256,192,314672,1,0,0:0:0:0:
256,192,314747,1,0,0:0:0:0:
256,192,314822,1,8,0:0:0:0:
256,192,314897,1,8,0:0:0:0:
256,192,314972,1,8,0:0:0:0:
256,192,315047,1,8,0:0:0:0:
256,192,315122,1,0,0:0:0:0:
256,192,316322,1,4,0:0:0:0:
256,192,316622,1,8,0:0:0:0:
256,192,316922,1,0,0:0:0:0:
256,192,316997,1,8,0:0:0:0:
256,192,317072,1,8,0:0:0:0:
256,192,317147,1,8,0:0:0:0:
256,192,317222,1,0,0:0:0:0:
256,192,317372,1,8,0:0:0:0:
256,192,317447,1,8,0:0:0:0:
256,192,317522,1,0,0:0:0:0:
256,192,317597,1,8,0:0:0:0:
256,192,317672,1,8,0:0:0:0:
256,192,317747,1,8,0:0:0:0:
256,192,317822,1,0,0:0:0:0:
256,192,317972,1,8,0:0:0:0:
256,192,318047,1,8,0:0:0:0:
256,192,318122,1,0,0:0:0:0:
256,192,318197,1,8,0:0:0:0:
256,192,318272,1,8,0:0:0:0:
256,192,318347,1,8,0:0:0:0:
256,192,318422,1,0,0:0:0:0:
256,192,318472,1,0,0:0:0:0:
256,192,318522,1,0,0:0:0:0:
256,192,318572,1,8,0:0:0:0:
256,192,318722,1,0,0:0:0:0:
256,192,318772,1,8,0:0:0:0:
256,192,318822,1,8,0:0:0:0:
256,192,318872,1,0,0:0:0:0:
256,192,319022,1,8,0:0:0:0:
256,192,319072,1,8,0:0:0:0:
256,192,319122,1,8,0:0:0:0:
256,192,319172,1,0,0:0:0:0:
256,192,319322,1,0,0:0:0:0:
256,192,319422,1,8,0:0:0:0:
256,192,319522,1,8,0:0:0:0:
256,192,319622,1,0,0:0:0:0:
256,192,319722,1,8,0:0:0:0:
256,192,319822,1,8,0:0:0:0:
256,192,319922,1,0,0:0:0:0:
256,192,320022,1,8,0:0:0:0:
256,192,320122,1,8,0:0:0:0:
256,192,320222,1,0,0:0:0:0:
256,192,320322,1,8,0:0:0:0:
256,192,320422,1,8,0:0:0:0:
256,192,320522,1,0,0:0:0:0:
256,192,320597,1,0,0:0:0:0:
256,192,320672,1,8,0:0:0:0:
256,192,320747,1,8,0:0:0:0:
256,192,320822,1,0,0:0:0:0:
256,192,320897,1,0,0:0:0:0:
256,192,320972,1,8,0:0:0:0:
256,192,321047,1,8,0:0:0:0:
256,192,321122,1,0,0:0:0:0:
256,192,321172,1,0,0:0:0:0:
256,192,321222,1,0,0:0:0:0:
256,192,321272,1,0,0:0:0:0:
256,192,321422,1,8,0:0:0:0:
256,192,321472,1,8,0:0:0:0:
256,192,321522,1,8,0:0:0:0:
256,192,321572,1,0,0:0:0:0:
256,192,321722,1,0,0:0:0:0:
256,192,321947,1,8,0:0:0:0:
256,192,322022,1,0,0:0:0:0:
256,192,322172,1,8,0:0:0:0:
256,192,322247,1,8,0:0:0:0:
256,192,322322,1,0,0:0:0:0:
256,192,322472,1,8,0:0:0:0:
256,192,322547,1,8,0:0:0:0:
256,192,322622,1,0,0:0:0:0:
256,192,322672,1,0,0:0:0:0:
256,192,322722,1,0,0:0:0:0:
256,192,322772,1,8,0:0:0:0:
256,192,322922,1,0,0:0:0:0:
256,192,323072,1,8,0:0:0:0:
256,192,323147,1,8,0:0:0:0:
256,192,323222,1,0,0:0:0:0:
256,192,323297,1,8,0:0:0:0:
256,192,323372,1,8,0:0:0:0:
256,192,323522,1,4,0:0:0:0:
256,192,323822,1,8,0:0:0:0:
256,192,323972,1,0,0:0:0:0:
256,192,324122,1,8,0:0:0:0:
256,192,324272,1,0,0:0:0:0:
256,192,324422,1,8,0:0:0:0:
256,192,324572,1,0,0:0:0:0:
256,192,324722,1,12,0:0:0:0:
256,192,324872,1,0,0:0:0:0:
256,192,324947,1,0,0:0:0:0:
256,192,325022,1,0,0:0:0:0:
256,192,325172,1,12,0:0:0:0:
256,192,325322,1,0,0:0:0:0:
256,192,325397,1,0,0:0:0:0:
256,192,325472,1,0,0:0:0:0:
256,192,325622,1,12,0:0:0:0:
256,192,325772,1,0,0:0:0:0:
256,192,325922,1,0,0:0:0:0:
256,192,326222,1,12,0:0:0:0:
256,192,326522,1,0,0:0:0:0:
256,192,326597,1,8,0:0:0:0:
256,192,326672,1,8,0:0:0:0:
256,192,326747,1,8,0:0:0:0:
256,192,326822,1,0,0:0:0:0:
256,192,326972,1,8,0:0:0:0:
256,192,327047,1,8,0:0:0:0:
256,192,327122,1,0,0:0:0:0:
256,192,327272,1,8,0:0:0:0:
256,192,327347,1,8,0:0:0:0:
256,192,327422,1,0,0:0:0:0:
256,192,327497,1,8,0:0:0:0:
256,192,327572,1,8,0:0:0:0:
256,192,327647,1,8,0:0:0:0:
256,192,327722,1,0,0:0:0:0:
256,192,327797,1,8,0:0:0:0:
256,192,327872,1,8,0:0:0:0:
256,192,327947,1,8,0:0:0:0:
256,192,328022,1,0,0:0:0:0:
256,192,328072,1,0,0:0:0:0:
256,192,328122,1,0,0:0:0:0:
256,192,328172,1,8,0:0:0:0:
256,192,328322,1,0,0:0:0:0:
256,192,328372,1,8,0:0:0:0:
256,192,328422,1,8,0:0:0:0:
256,192,328472,1,0,0:0:0:0:
256,192,328622,1,8,0:0:0:0:
256,192,328672,1,8,0:0:0:0:
256,192,328722,1,8,0:0:0:0:
256,192,328772,1,0,0:0:0:0:
256,192,328922,1,0,0:0:0:0:
256,192,329022,1,8,0:0:0:0:
256,192,329122,1,8,0:0:0:0:
256,192,329222,1,0,0:0:0:0:
256,192,329322,1,8,0:0:0:0:
256,192,329422,1,8,0:0:0:0:
256,192,329522,1,0,0:0:0:0:
256,192,329622,1,8,0:0:0:0:
256,192,329722,1,8,0:0:0:0:
256,192,329822,1,0,0:0:0:0:
256,192,329922,1,8,0:0:0:0:
256,192,330022,1,8,0:0:0:0:
256,192,330122,1,0,0:0:0:0:
256,192,330272,1,8,0:0:0:0:
256,192,330422,1,0,0:0:0:0:
256,192,330572,1,0,0:0:0:0:
256,192,330722,1,8,0:0:0:0:
256,192,331022,1,8,0:0:0:0:
256,192,331097,1,8,0:0:0:0:
256,192,331172,1,8,0:0:0:0:
256,192,331247,1,8,0:0:0:0:
256,192,331322,1,8,0:0:0:0:
256,192,331397,1,8,0:0:0:0:
256,192,331472,1,8,0:0:0:0:
256,192,331547,1,8,0:0:0:0:
256,192,331622,1,8,0:0:0:0:
256,192,331697,1,8,0:0:0:0:
256,192,331772,1,8,0:0:0:0:
256,192,331847,1,8,0:0:0:0:
256,192,331922,1,0,0:0:0:0:
256,192,332222,1,8,0:0:0:0:
256,192,332297,1,8,0:0:0:0:
256,192,332372,1,8,0:0:0:0:
256,192,332447,1,8,0:0:0:0:
256,192,332522,1,8,0:0:0:0:
256,192,332597,1,8,0:0:0:0:
256,192,332672,1,8,0:0:0:0:
256,192,332747,1,8,0:0:0:0:
256,192,332822,1,8,0:0:0:0:
256,192,332897,1,8,0:0:0:0:
256,192,332972,1,8,0:0:0:0:
256,192,333047,1,8,0:0:0:0:
256,192,333122,1,0,0:0:0:0:
256,192,333422,1,8,0:0:0:0:
256,192,333497,1,8,0:0:0:0:
256,192,333572,1,8,0:0:0:0:
256,192,333647,1,8,0:0:0:0:
256,192,333722,1,0,0:0:0:0:
256,192,334022,1,8,0:0:0:0:
256,192,334097,1,8,0:0:0:0:
256,192,334172,1,8,0:0:0:0:
256,192,334247,1,8,0:0:0:0:
256,192,334322,1,0,0:0:0:0:
256,192,334622,1,8,0:0:0:0:
256,192,334772,1,0,0:0:0:0:
256,192,335072,1,8,0:0:0:0:
256,192,335222,1,0,0:0:0:0:
256,192,335522,5,4,0:0:0:0:
256,192,335672,12,0,345122,0:0:0:0:
256,192,347522,5,8,0:0:0:0:
256,192,349922,1,0,0:0:0:0:
256,192,351122,1,0,0:0:0:0:
256,192,352247,1,8,0:0:0:0:
256,192,353372,1,8,0:0:0:0:
256,192,354122,1,8,0:0:0:0:
256,192,354572,1,8,0:0:0:0:
256,192,354722,12,0,363753,0:0:0:0:
256,192,364282,5,0,0:0:0:0:
256,192,364458,5,8,0:0:0:0:
256,192,364655,1,0,0:0:0:0:
256,192,364862,1,8,0:0:0:0:
256,192,365082,1,0,0:0:0:0:
256,192,365293,1,8,0:0:0:0:
256,192,365527,1,0,0:0:0:0:
256,192,365761,1,8,0:0:0:0:
256,192,366041,1,0,0:0:0:0:
256,192,366321,1,8,0:0:0:0:
256,192,367769,1,8,0:0:0:0:
256,192,369084,12,0,376733,0:0:0:0:
