osu file format v14

[General]
AudioFilename: audio.mp3
AudioLeadIn: 0
PreviewTime: 247912
Countdown: 0
SampleSet: Normal
StackLeniency: 0.7
Mode: 1
LetterboxInBreaks: 0
WidescreenStoryboard: 0

[Editor]
DistanceSpacing: 1
BeatDivisor: 16
GridSize: 32
TimelineZoom: 1.700004

[Metadata]
Title:Feelin Sky (Camellia's "200step" Self-remix)
TitleUnicode:Feelin Sky (かめりあ's "200step" Self-remix)
Artist:Camellia
ArtistUnicode:かめりあ
Creator:Rhytoly
Version:Fractured Dimensional Sky
Source:
Tags:"Guest Tracks" Summary & VIPs 01 summary01 CTCD-015 Starry Orange GECD-011 Feeling かめるかめりあ Kamelcamellia Cametek osu! FA Featured Artist Dubstep Drumstep Melodic Artcore DJ Genki
BeatmapID:2207814
BeatmapSetID:1056262

[Difficulty]
HPDrainRate:4
CircleSize:5
OverallDifficulty:8
ApproachRate:10
SliderMultiplier:1.4
SliderTickRate:1

[Events]
//Background and Video events
0,0,"503d269759ee3d6dcb02230f46166d224e4ade2a.jpg",0,-40
//Break Periods
//Storyboard Layer 0 (Background)
//Storyboard Layer 1 (Fail)
//Storyboard Layer 2 (Pass)
//Storyboard Layer 3 (Foreground)
//Storyboard Layer 4 (Overlay)
//Storyboard Sound Samples

[TimingPoints]
712,300,4,1,0,10,1,0
712,-200,4,1,0,10,0,0
4312,300,4,1,0,20,1,0
4312,-166.666666666667,4,1,0,20,0,0
13312,-163.934426229508,4,1,0,20,0,0
13462,-161.290322580645,4,1,0,20,0,0
13612,-158.730158730159,4,1,0,20,0,0
13762,-156.25,4,1,0,20,0,0
13912,-153.846153846154,4,1,0,30,0,0
23512,-153.846153846154,4,1,0,40,0,0
23712,-153.006033027882,4,1,0,40,0,0
23912,-152.175037815497,4,1,0,40,0,0
24112,-151.353249402911,4,1,0,40,0,0
24562,-149.535840750311,4,1,0,40,0,0
24637,-149.237248423308,4,1,0,40,0,0
24712,-148.939624344479,4,1,0,40,0,0
24912,-148.152318361554,4,1,0,40,0,0
25112,-147.373074939209,4,1,0,40,0,0
25312,-146.601985870501,4,1,0,40,0,0
25912,-144.336592934724,4,1,0,40,0,0
26112,-143.596871885743,4,1,0,40,0,0
26312,-142.864694276697,4,1,0,40,0,0
26512,-142.139945304549,4,1,0,40,0,0
26962,-140.536088964966,4,1,0,40,0,0
27037,-140.272127928181,4,1,0,40,0,0
27112,-140.009352624755,4,1,0,40,0,0
27312,-139.313213719008,4,1,0,40,0,0
27512,-138.624155259054,4,1,0,40,0,0
27712,-137.941689289104,4,1,0,40,0,0
28312,-135.934023062566,4,1,0,40,0,0
28512,-135.27790817065,4,1,0,40,0,0
28712,-134.627915367507,4,1,0,40,0,0
28912,-133.98413895763,4,1,0,40,0,0
29362,-132.557957653035,4,1,0,40,0,0
29437,-132.323265738198,4,1,0,40,0,0
29512,-132.089403391792,4,1,0,40,0,0
29712,-131.46962000021,4,1,0,40,0,0
29912,-130.855625679631,4,1,0,40,0,0
30112,-130.247339698087,4,1,0,40,0,0
30712,-128.456111684882,4,1,0,40,0,0
30912,-127.869879610508,4,1,0,40,0,0
31112,-127.289135999532,4,1,0,40,0,0
31312,-126.71348307488,4,1,0,40,0,0
31762,-125.437148462391,4,1,0,40,0,0
31837,-125.226973890176,4,1,0,40,0,0
31912,-125.017502450343,4,1,0,40,0,0
32212,-123.456790123457,4,1,0,40,0,0
32287,-124.860000724188,4,1,0,40,0,0
32362,-126.295635349138,4,1,0,40,0,0
32437,-127.764504465369,4,1,0,40,0,0
32512,-129.268109815845,4,1,0,40,0,0
32587,-130.807356082477,4,1,0,40,0,0
32662,-132.383876173418,4,1,0,40,0,0
32737,-133.998681452974,4,1,0,40,0,0
32812,-135.65355168129,4,1,0,40,0,0
32887,-137.34961933553,4,1,0,40,0,0
32962,-139.088635623938,4,1,0,40,0,0
33037,-140.872451265175,4,1,0,40,0,0
33112,-142.857142857143,4,1,0,40,0,0
33312,-142.242047602724,4,1,0,40,0,0
33512,-141.632025833682,4,1,0,40,0,0
33712,-141.027412908521,4,1,0,40,0,0
34162,-139.685484163857,4,1,0,40,0,0
34237,-139.464373128562,4,1,0,40,0,0
34312,-139.243767100875,4,1,0,40,0,0
34512,-138.659330663679,4,1,0,40,0,0
34712,-138.079779735135,4,1,0,40,0,0
34912,-137.504864234572,4,1,0,40,0,0
35512,-135.808857182048,4,1,0,40,0,0
35712,-135.252658729139,4,1,0,40,0,0
35912,-134.701178904718,4,1,0,40,0,0
36112,-134.15399805745,4,1,0,40,0,0
36562,-132.939301244445,4,1,0,40,0,0
36637,-132.738840313848,4,1,0,40,0,0
36712,-132.539158694436,4,1,0,40,0,0
36912,-132.00954164967,4,1,0,40,0,0
37112,-131.483967502423,4,1,0,40,0,0
37312,-130.962733244628,4,1,0,40,0,0
37912,-129.423367130089,4,1,0,40,0,0
38112,-128.918144713196,4,1,0,40,0,0
38312,-128.417016281993,4,1,0,40,0,0
38512,-127.919605086595,4,1,0,40,0,0
38962,-126.814557803978,4,1,0,40,0,0
39037,-126.632290220948,4,1,0,40,0,0
39112,-126.450545823781,4,1,0,40,0,0
39312,-125.968223256001,4,1,0,40,0,0
39512,-125.489723646531,4,1,0,40,0,0
39712,-125.014845512905,4,1,0,40,0,0
39862,-123.456790123457,4,1,0,40,0,0
39937,-122.462725407954,4,1,0,40,0,0
40012,-121.484393507388,4,1,0,40,0,0
40087,-120.521714397283,4,1,0,40,0,0
40162,-119.574172457046,4,1,0,40,0,0
40237,-118.64127268866,4,1,0,40,0,0
40312,-117.647058823529,4,1,0,47,0,0
40387,-116.279069767442,4,1,0,47,0,0
40462,-114.942528735632,4,1,0,47,0,0
40537,-113.636363636364,4,1,0,47,0,0
40612,-112.359550561798,4,1,0,55,0,0
40687,-111.111111111111,4,1,0,55,0,0
40762,-109.89010989011,4,1,0,55,0,0
40837,-108.695652173913,4,1,0,55,0,0
40912,-107.52688172043,4,1,0,62,0,0
40987,-106.382978723404,4,1,0,62,0,0
41062,-105.263157894737,4,1,0,62,0,0
41137,-104.166666666667,4,1,0,62,0,0
41212,-103.092783505155,4,1,0,70,0,0
41287,-102.040816326531,4,1,0,70,0,0
41362,-101.010101010101,4,1,0,70,0,0
41437,-100,4,1,0,70,0,0
41512,-99.009900990099,4,1,0,77,0,0
41587,-98.0392156862745,4,1,0,77,0,0
41662,-97.0873786407767,4,1,0,77,0,0
41737,-96.1538461538461,4,1,0,77,0,0
41812,-95.2380952380952,4,1,0,85,0,0
41887,-94.3396226415094,4,1,0,85,0,0
41962,-93.4579439252336,4,1,0,85,0,0
42037,-92.5925925925926,4,1,0,85,0,0
42112,-83.3333333333333,4,1,0,100,0,0
42712,-66.6666666666667,4,1,0,100,0,0
43912,-125,4,1,0,100,0,0
45112,-66.6666666666667,4,1,0,100,0,0
46312,-125,4,1,0,100,0,0
47512,-66.6666666666667,4,1,0,100,0,0
51112,-125,4,1,0,100,0,0
51562,-111.111111111111,4,1,0,100,0,0
51637,-107.52688172043,4,1,0,100,0,0
51712,-104.166666666667,4,1,0,100,0,0
51862,-96.1538461538461,4,1,0,100,0,0
51937,-92.5925925925926,4,1,0,100,0,0
52087,-83.3333333333333,4,1,0,100,0,0
52162,-80,4,1,0,100,0,0
52237,-76.9230769230769,4,1,0,100,0,0
52312,-66.6666666666667,4,1,0,100,0,0
53512,-125,4,1,0,100,0,0
54712,-66.6666666666667,4,1,0,100,0,0
55912,-125,4,1,0,100,0,0
57112,-66.6666666666667,4,1,0,100,0,0
60412,-142.857142857143,4,1,0,100,0,0
60562,-133.333333333333,4,1,0,100,0,0
60712,-125,4,1,0,100,0,0
60862,-117.647058823529,4,1,0,100,0,0
61162,-111.111111111111,4,1,0,100,0,0
61237,-107.52688172043,4,1,0,100,0,0
61312,-104.166666666667,4,1,0,100,0,0
61462,-96.1538461538461,4,1,0,100,0,0
61537,-92.5925925925926,4,1,0,100,0,0
61687,-83.3333333333333,4,1,0,100,0,0
61762,-80,4,1,0,100,0,0
61837,-76.9230769230769,4,1,0,100,0,0
61912,-66.6666666666667,4,1,0,100,0,0
62512,-125,4,1,0,80,0,0
66112,-133.333333333333,4,1,0,80,0,0
66187,-131.169732321927,4,1,0,80,0,0
66262,-129.075227624164,4,1,0,80,0,0
66337,-127.046561294249,4,1,0,80,0,0
66412,-125.080520585127,4,1,0,80,0,0
66487,-123.174553122721,4,1,0,80,0,0
66562,-121.325799810004,4,1,0,80,0,0
66637,-119.531722523841,4,1,0,80,0,0
66712,-117.789931081111,4,1,0,80,0,0
67312,-125,4,1,0,80,0,0
70912,-117.647058823529,4,1,0,80,0,0
70987,-115.444646600848,4,1,0,80,0,0
71062,-113.323179576443,4,1,0,80,0,0
71137,-111.278151981474,4,1,0,80,0,0
71512,-125,4,1,0,80,0,0
75712,-133.333333333333,4,1,0,80,0,0
75787,-131.169732321927,4,1,0,80,0,0
75862,-129.075227624164,4,1,0,80,0,0
75937,-127.046561294249,4,1,0,80,0,0
76012,-125.080520585127,4,1,0,80,0,0
76087,-123.174553122721,4,1,0,80,0,0
76162,-121.325799810004,4,1,0,80,0,0
76237,-119.531722523841,4,1,0,80,0,0
76312,-117.789931081111,4,1,0,80,0,0
76912,-125,4,1,0,80,0,0
77062,-124.353517152702,4,1,0,80,0,0
77362,-123.080255711539,4,1,0,80,0,0
77437,-122.765966327751,4,1,0,80,0,0
77512,-122.453277951797,4,1,0,80,0,0
78112,-120.008256568052,4,1,0,80,0,0
78712,-117.659101578632,4,1,0,80,0,0
79012,-116.518610352445,4,1,0,80,0,0
79162,-115.956548762048,4,1,0,80,0,0
79312,-115.400016848402,4,1,0,80,0,0
79462,-114.848669650435,4,1,0,80,0,0
79762,-113.761889539481,4,1,0,80,0,0
79837,-113.493336238763,4,1,0,80,0,0
79912,-113.226047878767,4,1,0,80,0,0
80512,-111.132473242079,4,1,0,80,0,0
81112,-166.666666666667,4,1,0,80,0,0
85912,-166.666666666667,4,1,0,80,0,0
86062,-164.105795724388,4,1,0,80,0,0
86212,-161.622430607409,4,1,0,80,0,0
86362,-159.213358637643,4,1,0,80,0,0
86512,-156.874802926029,4,1,0,80,0,0
86812,-152.397904833604,4,1,0,80,0,0
86962,-150.253929140247,4,1,0,80,0,0
87112,-148.169660187701,4,1,0,80,0,0
87412,-144.169497194462,4,1,0,80,0,0
87562,-142.249331783764,4,1,0,80,0,0
87712,-140.379642705733,4,1,0,80,0,0
88012,-136.784123193253,4,1,0,80,0,0
88312,-133.368009015677,4,1,0,80,0,0
88462,-131.723149553195,4,1,0,80,0,0
88612,-130.118368679988,4,1,0,80,0,0
88762,-128.552384453903,4,1,0,80,0,0
89062,-125.530523374411,4,1,0,80,0,0
89212,-124.072249752476,4,1,0,80,0,0
89512,-121.255185174856,4,1,0,80,0,0
89662,-119.894013691896,4,1,0,80,0,0
89812,-118.563063100448,4,1,0,80,0,0
89962,-117.261337998771,4,1,0,80,0,0
90112,-115.987886225163,4,1,0,80,0,0
90262,-114.741928192207,4,1,0,80,0,0
90412,-113.522325300494,4,1,0,80,0,0
90712,-111.159280132502,4,1,0,80,0,0
99712,-66.6666666666667,4,1,0,80,0,0
100312,-83.3333333333333,4,1,0,80,0,0
100612,-86.0178796764695,4,1,0,80,0,0
100912,-88.8811463534732,4,1,0,80,0,0
101212,-91.9416795538254,4,1,0,80,0,0
101512,-95.2204114473979,4,1,0,80,0,0
101812,-98.7416365833814,4,1,0,80,0,0
102112,-102.533289995929,4,1,0,80,0,0
102412,-106.62788255152,4,1,0,80,0,0
102712,-111.062983818123,4,1,0,80,0,0
103012,-115.883046194459,4,1,0,80,0,0
103312,-121.140464791735,4,1,0,80,0,0
103612,-126.897755940084,4,1,0,80,0,0
103912,-133.229414390109,4,1,0,80,0,0
104212,-140.22610056455,4,1,0,80,0,0
104512,-147.998395697391,4,1,0,80,0,0
104812,-156.683081830873,4,1,0,80,0,0
105112,-166.450281300975,4,1,0,80,0,0
105262,-163.273836347368,4,1,0,80,0,0
105412,-160.01664173074,4,1,0,80,0,0
105562,-156.886616473408,4,1,0,80,0,0
105712,-153.876929232,4,1,0,80,0,0
105862,-150.980315186506,4,1,0,80,0,0
106012,-148.190958869599,4,1,0,80,0,0
106162,-145.502587763523,4,1,0,80,0,0
106312,-142.91022379741,4,1,0,80,0,0
106462,-140.408420012131,4,1,0,80,0,0
106612,-137.992893365992,4,1,0,80,0,0
106762,-135.6588884382,4,1,0,80,0,0
106912,-133.402702738757,4,1,0,80,0,0
107062,-131.220163815253,4,1,0,80,0,0
107212,-129.108056988296,4,1,0,80,0,0
107362,-127.062704173883,4,1,0,80,0,0
107512,-125.081146393723,4,1,0,80,0,0
107587,-123.086770018525,4,1,0,80,0,0
107662,-121.231224314134,4,1,0,80,0,0
107737,-119.430650204346,4,1,0,80,0,0
107812,-117.682917500744,4,1,0,80,0,0
107887,-115.985599228,4,1,0,80,0,0
107962,-114.336545046884,4,1,0,80,0,0
108037,-112.733598106977,4,1,0,80,0,0
108112,-111.175098556725,4,1,0,80,0,0
108187,-109.65910274729,4,1,0,80,0,0
108262,-108.183895312608,4,1,0,80,0,0
108337,-106.747738015431,4,1,0,80,0,0
108412,-105.349322551181,4,1,0,80,0,0
108487,-103.987072327168,4,1,0,80,0,0
108562,-102.659602317233,4,1,0,80,0,0
108612,-101.793292432788,4,1,0,80,0,0
108662,-100.941379303383,4,1,0,80,0,0
108712,-100.103707440909,4,1,0,80,0,0
109012,-125,4,1,0,80,0,0
109162,-121.250039406263,4,1,0,80,0,0
109237,-119.458185454055,4,1,0,80,0,0
109462,-114.38676682372,4,1,0,80,0,0
109537,-112.790689805301,4,1,0,80,0,0
109612,-111.238541039791,4,1,0,80,0,0
109912,-80,4,1,0,100,0,1
110212,-90.9090909090909,4,1,0,100,0,1
114712,-80,4,1,0,100,0,1
115012,-90.9090909090909,4,1,0,100,0,1
117112,-80,4,1,0,100,0,1
117412,-83.3333333333333,4,1,0,100,0,1
118912,-83.3333333333333,4,1,0,100,0,1
118962,-84.490715315294,4,1,0,100,0,1
119012,-85.6807722922091,4,1,0,100,0,1
119062,-86.9047567318597,4,1,0,100,0,1
119112,-88.1642181993869,4,1,0,100,0,1
119162,-89.4608018550592,4,1,0,100,0,1
119212,-90.7960086074616,4,1,0,100,0,1
119262,-92.1716752755011,4,1,0,100,0,1
119312,-93.589756788299,4,1,0,100,0,1
119362,-95.0520647684769,4,1,0,100,0,1
119512,-80,4,1,0,100,0,1
119812,-90.9090909090909,4,1,0,100,0,1
124312,-80,4,1,0,100,0,1
124612,-90.9090909090909,4,1,0,100,0,1
126712,-83.3333333333333,4,1,0,100,0,0
127012,-111.111111111111,4,1,0,100,0,0
127162,-110.098692467928,4,1,0,100,0,0
127237,-109.599370461216,4,1,0,100,0,0
127312,-109.10455707914,4,1,0,100,0,0
127462,-108.128214111164,4,1,0,100,0,0
127612,-107.16930499634,4,1,0,100,0,0
127687,-106.69614325451,4,1,0,100,0,0
127762,-106.227141247043,4,1,0,100,0,0
127837,-105.762244359435,4,1,0,100,0,0
127912,-105.263157894737,4,1,0,100,0,0
128062,-103.236143386744,4,1,0,100,0,0
128137,-102.25168434087,4,1,0,100,0,0
128212,-101.285720941633,4,1,0,100,0,0
128362,-99.4076299332279,4,1,0,100,0,0
128512,-97.5980152467619,4,1,0,100,0,0
128587,-96.7175981538545,4,1,0,100,0,0
128662,-95.8530151524446,4,1,0,100,0,0
128737,-95.0036623911852,4,1,0,100,0,0
128812,-94.1693183177216,4,1,0,100,0,0
128887,-93.3494143257745,4,1,0,100,0,0
128962,-92.5437500578398,4,1,0,100,0,0
129037,-91.7518735732584,4,1,0,100,0,0
129112,-90.9733511762399,4,1,0,100,0,0
129412,-125,4,1,0,100,0,0
129462,-124.570387874817,4,1,0,100,0,0
129512,-124.143872817085,4,1,0,100,0,0
129562,-123.720115406124,4,1,0,100,0,0
129712,-122.466174842509,4,1,0,100,0,0
129862,-121.237397372543,4,1,0,100,0,0
130012,-120.03317717017,4,1,0,100,0,0
130162,-118.852502855431,4,1,0,100,0,0
130312,-117.694829077684,4,1,0,100,0,0
130387,-116.792685974834,4,1,0,100,0,0
130462,-115.950767304203,4,1,0,100,0,0
130537,-115.120767441084,4,1,0,100,0,0
130612,-114.302696400608,4,1,0,100,0,0
130687,-113.496041258081,4,1,0,100,0,0
130762,-112.700691756846,4,1,0,100,0,0
130837,-111.916537123275,4,1,0,100,0,0
130912,-111.143095624185,4,1,0,100,0,0
130987,-110.38027107187,4,1,0,100,0,0
131062,-109.627966532774,4,1,0,100,0,0
131137,-108.885728783071,4,1,0,100,0,0
131212,-108.153591077761,4,1,0,100,0,0
131287,-107.431117853011,4,1,0,100,0,0
131362,-106.718232916812,4,1,0,100,0,0
131437,-106.014859042643,4,1,0,100,0,0
131512,-105.320585329685,4,1,0,100,0,0
131562,-104.350475681643,4,1,0,100,0,0
131612,-103.453591236239,4,1,0,100,0,0
131662,-102.57188750736,4,1,0,100,0,0
131737,-101.277206855657,4,1,0,100,0,0
131812,-100.014802190724,4,1,0,100,0,0
131862,-99.190604665926,4,1,0,100,0,0
131912,-98.3797833480411,4,1,0,100,0,0
131962,-97.5822056896281,4,1,0,100,0,0
132037,-96.409702672477,4,1,0,100,0,0
132112,-95.2650416355864,4,1,0,100,0,0
132162,-94.5168863869219,4,1,0,100,0,0
132212,-93.7804786555631,4,1,0,100,0,0
132262,-93.0553707372498,4,1,0,100,0,0
132337,-91.9885345490538,4,1,0,100,0,0
132412,-90.9458826525276,4,1,0,100,0,0
132462,-90.2637868908097,4,1,0,100,0,0
132512,-89.5919266923019,4,1,0,100,0,0
132562,-88.9299152231118,4,1,0,100,0,0
132637,-87.955079581756,4,1,0,100,0,0
132712,-87.0013841920225,4,1,0,100,0,0
132762,-86.3770444366705,4,1,0,100,0,0
132812,-85.7615280646024,4,1,0,100,0,0
132862,-85.1547943852335,4,1,0,100,0,0
132937,-84.2605504741762,4,1,0,100,0,0
133012,-83.3848929921668,4,1,0,100,0,0
133062,-82.8111400858089,4,1,0,100,0,0
133112,-82.2452965971008,4,1,0,100,0,0
133162,-81.6870666501114,4,1,0,100,0,0
133237,-80.863819667213,4,1,0,100,0,0
133312,-80.0570005844161,4,1,0,100,0,0
133362,-79.5280487475128,4,1,0,100,0,0
133412,-79.0059783823842,4,1,0,100,0,0
133462,-78.4907176877262,4,1,0,100,0,0
133537,-77.7303363624845,4,1,0,100,0,0
133612,-76.9846053884605,4,1,0,100,0,0
133687,-75.7575757575758,4,1,0,100,0,0
133762,-74.6268656716418,4,1,0,100,0,0
133837,-73.5294117647059,4,1,0,100,0,0
133912,-71.4285714285714,4,1,0,100,0,1
134212,-100,4,1,0,100,0,1
136312,-90.9090909090909,4,1,0,100,0,1
136387,-91.9455682236116,4,1,0,100,0,1
136462,-92.9973030782107,4,1,0,100,0,1
136537,-94.0822278671559,4,1,0,100,0,1
136612,-95.1927653498334,4,1,0,100,0,1
136687,-96.3298333493883,4,1,0,100,0,1
136837,-98.6777185711467,4,1,0,100,0,1
136912,-99.9000999000999,4,1,0,100,0,1
138412,-100,4,1,0,100,0,1
138462,-101.657009250788,4,1,0,100,0,1
138512,-103.38054378166,4,1,0,100,0,1
138562,-105.15247108307,4,1,0,100,0,1
138612,-106.986198780357,4,1,0,100,0,1
138662,-108.885017421603,4,1,0,100,0,1
138712,-110.864745011086,4,1,0,100,0,1
138862,-117.647058823529,4,1,0,100,0,1
138912,-115.420129270545,4,1,0,100,0,1
138962,-113.263110205006,4,1,0,100,0,1
139012,-111.19759813188,4,1,0,100,0,1
139062,-109.19414719371,4,1,0,100,0,1
139112,-107.27311735679,4,1,0,100,0,1
139162,-105.418511490618,4,1,0,100,0,1
139237,-102.743244631665,4,1,0,100,0,1
139312,-100.210441928049,4,1,0,100,0,1
141112,-90.9090909090909,4,1,0,100,0,1
141187,-91.9455682236116,4,1,0,100,0,1
141262,-92.9973030782107,4,1,0,100,0,1
141337,-94.0822278671559,4,1,0,100,0,1
141412,-95.1927653498334,4,1,0,100,0,1
141487,-96.3298333493883,4,1,0,100,0,1
141637,-98.6777185711467,4,1,0,100,0,1
141712,-99.9000999000999,4,1,0,100,0,1
143212,-100,4,1,0,100,0,1
143262,-101.659799547207,4,1,0,100,0,1
143312,-103.375520883406,4,1,0,100,0,1
143362,-105.150259721142,4,1,0,100,0,1
143412,-106.98688554757,4,1,0,100,0,1
143462,-108.888930024707,4,1,0,100,0,1
143512,-105.263157894737,4,1,0,100,0,1
143812,-99.9000999000999,4,1,0,100,0,1
145912,-90.9090909090909,4,1,0,100,0,1
145987,-91.9455682236116,4,1,0,100,0,1
146062,-92.9973030782107,4,1,0,100,0,1
146137,-94.0822278671559,4,1,0,100,0,1
146212,-95.1927653498334,4,1,0,100,0,1
146287,-96.3298333493883,4,1,0,100,0,1
146437,-98.6777185711467,4,1,0,100,0,1
146512,-99.9000999000999,4,1,0,100,0,1
148012,-100,4,1,0,100,0,1
148062,-101.659799547207,4,1,0,100,0,1
148112,-103.375520883406,4,1,0,100,0,1
148162,-105.150259721142,4,1,0,100,0,1
148212,-106.98688554757,4,1,0,100,0,1
148262,-108.888930024707,4,1,0,100,0,1
148312,-110.859705933544,4,1,0,100,0,1
148462,-117.647058823529,4,1,0,100,0,1
148512,-115.415067206194,4,1,0,100,0,1
148562,-113.266060844263,4,1,0,100,0,1
148612,-111.195743426942,4,1,0,100,0,1
148662,-109.199751461366,4,1,0,100,0,1
148712,-107.274037966428,4,1,0,100,0,1
148762,-105.415177677282,4,1,0,100,0,1
148912,-100,4,1,0,100,0,1
149062,-98.3662351995703,4,1,0,100,0,1
149137,-97.5692570979195,4,1,0,100,0,1
149287,-96.013334331872,4,1,0,100,0,1
149362,-95.2537894338782,4,1,0,100,0,1
149662,-92.3322668956507,4,1,0,100,0,1
149812,-90.9376949476836,4,1,0,100,0,1
150037,-88.9231144075898,4,1,0,100,0,1
150112,-88.2712256989316,4,1,0,100,0,1
150162,-87.841968784478,4,1,0,100,0,1
150212,-87.4167901428827,4,1,0,100,0,1
150262,-86.9957833143827,4,1,0,100,0,1
150412,-85.7566740131551,4,1,0,100,0,1
150462,-85.3514688134268,4,1,0,100,0,1
150512,-84.9500026759251,4,1,0,100,0,1
150562,-84.5523670857928,4,1,0,100,0,1
150712,-71.4285714285714,4,1,0,100,0,1
150762,-71.2177161190618,4,1,0,100,0,1
150812,-71.008102024441,4,1,0,100,0,1
150862,-70.7997182171215,4,1,0,100,0,1
150912,-70.5925538974149,4,1,0,100,0,1
150962,-70.3865983916662,4,1,0,100,0,1
151012,-70.1818411504207,4,1,0,100,0,1
151062,-69.9782227770718,4,1,0,100,0,1
151112,-69.7758311871451,4,1,0,100,0,1
151162,-69.5746069382581,4,1,0,100,0,1
151212,-69.3745399600819,4,1,0,100,0,1
151262,-69.1756202977872,4,1,0,100,0,1
151312,-68.9778381103935,4,1,0,100,0,1
151362,-68.781183669146,4,1,0,100,0,1
151412,-68.5856473559204,4,1,0,100,0,1
151462,-68.391219661655,4,1,0,100,0,1
151512,-68.1978911848088,4,1,0,100,0,1
151562,-68.0056526298466,4,1,0,100,0,1
151612,-67.8144948057488,4,1,0,100,0,1
151662,-67.6244086245466,4,1,0,100,0,1
151712,-67.435339624601,4,1,0,100,0,1
151762,-67.2473701234729,4,1,0,100,0,1
151812,-67.0604456032489,4,1,0,100,0,1
151862,-66.8745573740234,4,1,0,100,0,1
151912,-66.6896968419761,4,1,0,100,0,1
152512,-66.6896968419761,4,1,0,100,0,0
152812,-90.0900900900901,4,1,0,100,0,0
152887,-87.719298245614,4,1,0,100,0,0
152962,-85.4700854700855,4,1,0,100,0,0
153037,-83.3333333333333,4,1,0,100,0,0
153112,-76.9230769230769,4,1,0,100,0,1
153412,-90.9090909090909,4,1,0,100,0,1
167512,-90.9090909090909,4,1,0,100,0,1
167662,-89.8233713226312,4,1,0,100,0,1
167737,-89.2900990673649,4,1,0,100,0,1
167812,-88.7632001974094,4,1,0,100,0,1
167962,-87.7278401668934,4,1,0,100,0,1
168112,-86.7162799409636,4,1,0,100,0,1
168187,-86.2192348215348,4,1,0,100,0,1
168262,-85.7278552090817,4,1,0,100,0,1
168412,-84.7617094063459,4,1,0,100,0,1
168562,-83.8170274291222,4,1,0,100,0,1
168637,-83.3525738858053,4,1,0,100,0,1
168712,-82.8932393102951,4,1,0,100,0,1
168862,-81.9895250182837,4,1,0,100,0,1
168937,-81.5450503785321,4,1,0,100,0,1
169012,-81.1053688509965,4,1,0,100,0,1
169087,-80.6704033197484,4,1,0,100,0,1
169162,-80.2400783143164,4,1,0,100,0,1
169312,-79.3929929332297,4,1,0,100,0,1
169462,-78.5636676034075,4,1,0,100,0,1
169512,-78.2910626837393,4,1,0,100,0,1
169612,-77.7514286825021,4,1,0,100,0,1
169662,-77.4844217570058,4,1,0,100,0,1
169712,-77.2192424174565,4,1,0,100,0,1
169762,-76.9558719638985,4,1,0,100,0,1
169912,-83.3333333333333,4,1,0,100,0,1
169987,-82.478648339911,4,1,0,100,0,1
170062,-81.6413170377265,4,1,0,100,0,1
170137,-80.8207508894324,4,1,0,100,0,1
170212,-80.016579435259,4,1,0,100,0,1
170287,-79.2282534289988,4,1,0,100,0,1
170362,-78.4553091099951,4,1,0,100,0,1
170437,-77.6972402717228,4,1,0,100,0,1
170512,-76.9537400287191,4,1,0,100,0,1
170587,-76.2243343138324,4,1,0,100,0,1
170662,-75.5086261054463,4,1,0,100,0,1
170737,-74.806177194888,4,1,0,100,0,1
170812,-74.1167323711499,4,1,0,100,0,1
170887,-73.4398799111084,4,1,0,100,0,1
170962,-72.7752779469803,4,1,0,100,0,1
171037,-72.1225968750721,4,1,0,100,0,1
171112,-71.4814677146803,4,1,0,100,0,0
171412,-76.9230769230769,4,1,0,100,0,0
171562,-79.9779260923985,4,1,0,100,0,0
171637,-81.5982152838353,4,1,0,100,0,0
171712,-83.2854442029167,4,1,0,100,0,0
171787,-85.0439932577122,4,1,0,100,0,0
171862,-86.8784067195235,4,1,0,100,0,0
172012,-90.7952666611584,4,1,0,100,0,0
172087,-92.8891498041897,4,1,0,100,0,0
172162,-95.0819796828826,4,1,0,100,0,0
172312,-80,4,1,0,100,0,0
172462,-80,4,1,0,80,0,0
173512,-90.9090909090909,4,1,0,70,0,0
174712,-105.263157894737,4,1,0,60,0,0
175912,-117.647058823529,4,1,0,60,0,0
177112,-133.333333333333,4,1,0,60,0,0
177712,-136.747648624182,4,1,0,60,0,0
178012,-138.521038575339,4,1,0,60,0,0
178162,-139.425288958911,4,1,0,60,0,0
178912,-144.128978139958,4,1,0,60,0,0
179512,-148.126642354147,4,1,0,60,0,0
179812,-150.209918360909,4,1,0,60,0,0
179962,-151.273801041671,4,1,0,60,0,0
180262,-153.585059245437,4,1,0,60,0,0
180562,-155.968039029442,4,1,0,60,0,0
180712,-156.826828679236,4,1,0,60,0,0
181912,-166.612517598447,4,1,0,60,0,0
186712,-166.666666666667,4,1,0,60,0,0
186862,-163.273836347368,4,1,0,60,0,0
187012,-160.01664173074,4,1,0,60,0,0
187162,-156.886616473408,4,1,0,60,0,0
187312,-153.876929232,4,1,0,60,0,0
187462,-150.980315186506,4,1,0,60,0,0
187612,-148.190958869599,4,1,0,60,0,0
187762,-145.502587763523,4,1,0,60,0,0
187912,-142.91022379741,4,1,0,60,0,0
188062,-140.408420012131,4,1,0,60,0,0
188212,-137.992893365992,4,1,0,60,0,0
188362,-135.6588884382,4,1,0,60,0,0
188512,-133.402702738757,4,1,0,60,0,0
188662,-131.220163815253,4,1,0,60,0,0
188812,-129.108056988296,4,1,0,60,0,0
188962,-127.062704173883,4,1,0,60,0,0
189112,-125.081146393723,4,1,0,60,0,0
190312,-83.3333333333333,4,1,0,60,0,0
191512,-100,4,1,0,100,0,0
191812,-125,4,1,0,100,0,0
205912,-125,4,1,0,100,0,0
206212,-123.081770605119,4,1,0,100,0,0
206362,-122.144714614982,4,1,0,100,0,0
206437,-121.681442849877,4,1,0,100,0,0
206512,-121.221672010522,4,1,0,100,0,0
206662,-120.312475561528,4,1,0,100,0,0
206812,-119.416816037201,4,1,0,100,0,0
206962,-118.534533851092,4,1,0,100,0,0
207037,-118.09819392432,4,1,0,100,0,0
207112,-117.665054655418,4,1,0,100,0,0
207187,-117.235080956685,4,1,0,100,0,0
207262,-116.808238251427,4,1,0,100,0,0
207412,-115.963810014171,4,1,0,100,0,0
207487,-115.546157801388,4,1,0,100,0,0
207637,-114.719945668634,4,1,0,100,0,0
207712,-114.31118935077,4,1,0,100,0,0
207862,-113.502353471299,4,1,0,100,0,0
208012,-112.704883389892,4,1,0,100,0,0
208087,-112.310335920215,4,1,0,100,0,0
208162,-111.918666466705,4,1,0,100,0,0
208237,-111.529594935664,4,1,0,100,0,0
208312,-111.1432191522,4,1,0,100,0,0
208387,-110.348724037704,4,1,0,100,0,0
208462,-109.596847994652,4,1,0,100,0,0
208537,-108.855030136515,4,1,0,100,0,0
208612,-108.123303815671,4,1,0,100,0,0
208687,-107.401233825374,4,1,0,100,0,0
208762,-106.688744124117,4,1,0,100,0,0
208837,-105.985757633889,4,1,0,100,0,0
208912,-105.29186378181,4,1,0,100,0,0
208987,-104.606996743584,4,1,0,100,0,0
209062,-103.931089530398,4,1,0,100,0,0
209137,-103.263754215743,4,1,0,100,0,0
209212,-102.605039343902,4,1,0,100,0,0
209287,-101.954571082217,4,1,0,100,0,0
209362,-101.312298198566,4,1,0,100,0,0
209437,-100.678168140595,4,1,0,100,0,0
209512,-100.051826846306,4,1,0,100,0,0
210712,-66.6666666666667,4,1,0,100,0,0
211912,-125,4,1,0,100,0,0
214312,-125,4,1,0,100,0,0
214462,-129.601165373679,4,1,0,100,0,0
214612,-134.554188335497,4,1,0,100,0,0
214762,-139.900642563651,4,1,0,100,0,0
214912,-145.689555952802,4,1,0,100,0,0
215062,-151.978455534143,4,1,0,100,0,0
215212,-158.834535710769,4,1,0,100,0,0
215362,-166.338702192178,4,1,0,100,0,0
215512,-66.6666666666667,4,1,0,100,0,0
216712,-125,4,1,0,100,0,0
219112,-125,4,1,0,100,0,0
219187,-121.250039406263,4,1,0,100,0,0
219262,-117.71838231399,4,1,0,100,0,0
219337,-114.38676682372,4,1,0,100,0,0
219412,-111.238541039791,4,1,0,100,0,0
219562,-105.434739059564,4,1,0,100,0,0
219637,-102.754224226158,4,1,0,100,0,0
219712,-100.206626062942,4,1,0,100,0,0
220312,-66.6666666666667,4,1,0,100,0,0
221212,-125,4,1,0,100,0,0
222712,-66.6666666666667,4,1,0,100,0,0
223012,-125,4,1,0,100,0,0
223162,-66.6666666666667,4,1,0,100,0,0
223462,-125,4,1,0,100,0,0
223912,-111.111111111111,4,1,0,100,0,0
225112,-66.6666666666667,4,1,0,100,0,0
225412,-111.111111111111,4,1,0,100,0,0
225562,-66.6666666666667,4,1,0,100,0,0
225862,-111.111111111111,4,1,0,100,0,0
226312,-66.6666666666667,4,1,0,100,0,0
226612,-100,4,1,0,100,0,0
226762,-66.6666666666667,4,1,0,100,0,0
227062,-100,4,1,0,100,0,0
227512,-66.6666666666667,4,1,0,100,0,0
229312,-71.4285714285714,4,1,0,100,0,0
229362,-73.146307976678,4,1,0,100,0,0
229412,-74.9486414434509,4,1,0,100,0,0
229462,-76.8420971745161,4,1,0,100,0,0
229512,-78.8337026692303,4,1,0,100,0,0
229562,-80.9312925698599,4,1,0,100,0,0
229612,-83.1434890333738,4,1,0,100,0,0
229662,-85.4800946777529,4,1,0,100,0,0
229712,-87.9518305414491,4,1,0,100,0,0
229762,-90.5706858918043,4,1,0,100,0,0
229912,-100,4,1,0,100,0,0
234712,-95.2380952380952,4,1,0,100,0,0
238312,-83.3333333333333,4,1,0,100,0,0
238612,-117.647058823529,4,1,0,100,0,0
239062,-111.111111111111,4,1,0,100,0,0
239212,-105.263157894737,4,1,0,100,0,0
239312,-101.010101010101,4,1,0,100,0,0
239412,-97.0873786407767,4,1,0,100,0,0
239512,-90.9090909090909,4,1,0,100,0,0
241912,-86.9565217391304,4,1,0,100,0,0
244312,-90.9090909090909,4,1,0,100,0,0
244362,-90.2273006157111,4,1,0,100,0,0
244412,-89.5557408364327,4,1,0,100,0,0
244462,-88.8940249881104,4,1,0,100,0,0
244537,-87.9195852305647,4,1,0,100,0,0
244612,-86.9663527181334,4,1,0,100,0,0
244662,-86.3422156448641,4,1,0,100,0,0
244712,-85.7269733063351,4,1,0,100,0,0
244762,-85.120509361128,4,1,0,100,0,0
244837,-84.2266269004685,4,1,0,100,0,0
244912,-83.3513928017737,4,1,0,100,0,0
244962,-82.7778936668289,4,1,0,100,0,0
245012,-82.2122325225015,4,1,0,100,0,0
245062,-81.6543164513034,4,1,0,100,0,0
245137,-80.8313994421017,4,1,0,100,0,0
245212,-80.0249677899505,4,1,0,100,0,0
245262,-79.4961849780829,4,1,0,100,0,0
245312,-78.97434439448,4,1,0,100,0,0
245362,-78.4593717758102,4,1,0,100,0,0
245437,-77.6992928587357,4,1,0,100,0,0
245512,-76.9537992475457,4,1,0,100,0,0
245562,-76.4647589219081,4,1,0,100,0,0
245612,-75.9818373016114,4,1,0,100,0,0
245662,-75.5049772881028,4,1,0,100,0,0
245737,-74.80086140672,4,1,0,100,0,0
245812,-74.1097016269303,4,1,0,100,0,0
245862,-73.6560351545525,4,1,0,100,0,0
245912,-73.2078355810579,4,1,0,100,0,0
245962,-72.7650576372022,4,1,0,100,0,0
246037,-72.1108950187957,4,1,0,100,0,0
246112,-71.4683384540398,4,1,0,100,0,0
246162,-71.0463421080302,4,1,0,100,0,0
246212,-70.6292501151257,4,1,0,100,0,0
246262,-70.2170267863914,4,1,0,100,0,0
246337,-69.6076841314666,4,1,0,100,0,0
246412,-69.0087786067266,4,1,0,100,0,0
246462,-68.6152011488929,4,1,0,100,0,0
246512,-68.2261341571412,4,1,0,100,0,0
246562,-67.8414084961866,4,1,0,100,0,0
246637,-67.2723872413881,4,1,0,100,0,0
246712,-66.6666666666667,4,1,0,100,0,0
246787,-68.0775975688128,4,1,0,100,0,0
246862,-69.5495415294222,4,1,0,100,0,0
246937,-71.0865436016424,4,1,0,100,0,0
247012,-72.6930144920794,4,1,0,100,0,0
247087,-74.3737728327483,4,1,0,100,0,0
247162,-76.1340934561224,4,1,0,100,0,0
247237,-77.9798235004675,4,1,0,100,0,0
247312,-79.9172057748173,4,1,0,100,0,0
247387,-81.9533079223443,4,1,0,100,0,0
247462,-84.0958726586658,4,1,0,100,0,0
247537,-86.3534741297944,4,1,0,100,0,0
247612,-88.735632591888,4,1,0,100,0,0
247687,-91.252948610902,4,1,0,100,0,0
247762,-93.9172607716054,4,1,0,100,0,0
247837,-96.7418318452827,4,1,0,100,0,0
247912,-100,4,1,0,100,0,0
248362,-100,4,1,0,100,0,0
248437,-97.0873786407767,4,1,0,100,0,0
248512,-94.3396226415094,4,1,0,100,0,0
248587,-91.743119266055,4,1,0,100,0,0
248662,-89.2857142857143,4,1,0,100,0,0
248737,-86.9565217391304,4,1,0,100,0,0
248812,-84.7457627118644,4,1,0,100,0,0
248887,-82.6446280991736,4,1,0,100,0,0
248962,-80.6451612903226,4,1,0,100,0,0
249037,-78.7401574803149,4,1,0,100,0,0
249112,-76.9230769230769,4,1,0,100,0,1
263062,-80.6451612903226,4,1,0,100,0,1
263137,-82.6446280991736,4,1,0,100,0,1
263287,-86.9565217391304,4,1,0,100,0,1
263362,-89.2857142857143,4,1,0,100,0,1
263512,-66.6666666666667,4,1,0,100,0,0
263812,-125,4,1,0,100,0,0
263887,-124.171003338958,4,1,0,100,0,0
263962,-123.352930002146,4,1,0,100,0,0
264037,-122.545415330922,4,1,0,100,0,0
264112,-121.74855271408,4,1,0,100,0,0
264262,-120.18551836615,4,1,0,100,0,0
264337,-119.418812523212,4,1,0,100,0,0
264487,-117.914655730475,4,1,0,100,0,0
264562,-117.176697773174,4,1,0,100,0,0
264637,-116.447783649334,4,1,0,100,0,0
264712,-115.728016016757,4,1,0,100,0,0
264862,-114.314848241323,4,1,0,100,0,0
264937,-113.620998978547,4,1,0,100,0,0
265012,-112.935649267048,4,1,0,100,0,0
265162,-111.589457920731,4,1,0,100,0,0
265237,-110.92820283,4,1,0,100,0,0
265312,-110.274860088771,4,1,0,100,0,0
265387,-109.629168375055,4,1,0,100,0,0
265462,-108.99099407416,4,1,0,100,0,0
265537,-108.360089245369,4,1,0,100,0,0
265612,-107.736562557235,4,1,0,100,0,0
265687,-107.120170621008,4,1,0,100,0,0
265762,-106.510791673412,4,1,0,100,0,0
265837,-105.908194540644,4,1,0,100,0,0
265912,-105.263157894737,4,1,0,100,0,0
265987,-104.406802311984,4,1,0,100,0,0
266137,-102.735117020435,4,1,0,100,0,0
266212,-101.919241231633,4,1,0,100,0,0
266362,-100.325757735367,4,1,0,100,0,0
266437,-99.5475563563603,4,1,0,100,0,0
266512,-98.7812370967009,4,1,0,100,0,0
266587,-98.0267220844402,4,1,0,100,0,0
266737,-96.5517507728968,4,1,0,100,0,0
266812,-95.83078583161,4,1,0,100,0,0
266962,-94.4205927535972,4,1,0,100,0,0
267037,-93.7309901835534,4,1,0,100,0,0
267112,-93.051387628818,4,1,0,100,0,0
267262,-91.7212408049456,4,1,0,100,0,0
267337,-91.0703682521411,4,1,0,100,0,0
267487,-89.7959476884727,4,1,0,100,0,0
267562,-89.1719404438444,4,1,0,100,0,0
267637,-88.5566244340125,4,1,0,100,0,0
267712,-87.9497419994318,4,1,0,100,0,0
267787,-87.3511209332594,4,1,0,100,0,0
267862,-86.7605936853905,4,1,0,100,0,0
267937,-86.1779229397013,4,1,0,100,0,0
268012,-85.6030995170273,4,1,0,100,0,0
268087,-85.03589365071,4,1,0,100,0,0
268162,-84.4761549157519,4,1,0,100,0,0
268237,-83.9237368218752,4,1,0,100,0,0
268312,-83.3784271660256,4,1,0,100,0,0
268612,-86.9565217391304,4,1,0,100,0,1
277912,-95.2380952380952,4,1,0,100,0,1
277987,-94.1290754359823,4,1,0,100,0,1
278062,-93.0455867547746,4,1,0,100,0,1
278137,-91.9867575863779,4,1,0,100,0,1
278212,-90.9516728286425,4,1,0,100,0,1
278287,-89.9397044221554,4,1,0,100,0,1
278362,-88.9500074273256,4,1,0,100,0,1
278437,-87.9818546223027,4,1,0,100,0,1
278512,-87.0345501053553,4,1,0,100,0,1
278887,-107.52688172043,4,1,0,100,0,1
278937,-105.263157894737,4,1,0,100,0,1
278987,-102.040816326531,4,1,0,100,0,1
279037,-99.009900990099,4,1,0,100,0,1
279112,-95.6022944550669,4,1,0,100,0,1
279187,-94.1290754359823,4,1,0,100,0,1
279262,-93.0455867547746,4,1,0,100,0,1
279337,-91.9867575863779,4,1,0,100,0,1
279412,-90.9516728286425,4,1,0,100,0,1
279487,-89.9397044221554,4,1,0,100,0,1
279562,-88.9500074273256,4,1,0,100,0,1
279637,-87.9818546223027,4,1,0,100,0,1
279712,-87.0345501053553,4,1,0,100,0,1
280087,-78.125,4,1,0,100,0,1
280137,-80,4,1,0,100,0,1
280187,-81.9672131147541,4,1,0,100,0,1
280237,-84.0336134453781,4,1,0,100,0,1
280312,-86.9565217391304,4,1,0,100,0,1
280387,-87.9021192321926,4,1,0,100,0,1
280462,-88.8685083776343,4,1,0,100,0,1
280537,-89.8563825437803,4,1,0,100,0,1
280612,-90.8665488430417,4,1,0,100,0,1
280687,-91.8996015233278,4,1,0,100,0,1
280762,-92.9564136671956,4,1,0,100,0,1
280837,-94.0378144859611,4,1,0,100,0,1
280912,-95.1446722313614,4,1,0,100,0,1
281287,-80,4,1,0,100,0,1
281362,-82.1309364240847,4,1,0,100,0,1
281437,-84.3785729051964,4,1,0,100,0,1
281512,-86.752615374472,4,1,0,100,0,1
281587,-87.9021192321926,4,1,0,100,0,1
281662,-88.8685083776343,4,1,0,100,0,1
281737,-89.8563825437803,4,1,0,100,0,1
281812,-90.8665488430417,4,1,0,100,0,1
281887,-91.8996015233278,4,1,0,100,0,1
281962,-92.9564136671956,4,1,0,100,0,1
282037,-94.0378144859611,4,1,0,100,0,1
282112,-95.1446722313614,4,1,0,100,0,0
282262,-100,4,1,0,100,0,0
283012,-90.9090909090909,4,1,0,100,0,1
284212,-86.9565217391304,4,1,0,100,0,1
285412,-83.3333333333333,4,1,0,100,0,1
286012,-80,4,1,0,100,0,1
286312,-80,4,1,0,100,0,0
287512,-142.857142857143,4,1,0,100,0,0
287962,-131.578947368421,4,1,0,100,0,0
288037,-128.205128205128,4,1,0,100,0,0
288112,-125,4,1,0,100,0,1
296512,-119.047619047619,4,1,0,100,0,1
296662,-113.636363636364,4,1,0,100,0,1
296812,-108.695652173913,4,1,0,100,0,1
296962,-104.166666666667,4,1,0,100,0,1
297112,-95.2380952380952,4,1,0,100,0,1
305512,-80,4,1,0,100,0,1
305662,-86.9565217391304,4,1,0,100,0,1
305737,-88.8725363422019,4,1,0,100,0,1
305887,-92.9696361168442,4,1,0,100,0,1
305962,-95.163233494413,4,1,0,100,0,1
306112,-99.8761535695737,4,1,0,100,0,1
306187,-102.412217367883,4,1,0,100,0,1
306337,-107.891159398399,4,1,0,100,0,1
306412,-110.856633550095,4,1,0,100,0,1
306712,-90.9090909090909,4,1,0,100,0,0
307012,-133.333333333333,4,1,0,100,0,0
307062,-132.841995074219,4,1,0,100,0,0
307112,-132.354264719118,4,1,0,100,0,0
307162,-131.870102674062,4,1,0,100,0,0
307312,-130.438639055416,4,1,0,100,0,0
307462,-129.038085590962,4,1,0,100,0,0
307612,-127.667125842763,4,1,0,100,0,0
307687,-126.992512521462,4,1,0,100,0,0
307762,-126.324991251994,4,1,0,100,0,0
307912,-125.010782179963,4,1,0,100,0,0
308062,-123.723789115276,4,1,0,100,0,0
308212,-122.462875379329,4,1,0,100,0,0
308362,-121.227403212041,4,1,0,100,0,0
308512,-120.016610298865,4,1,0,100,0,0
308662,-118.829764479407,4,1,0,100,0,0
308812,-117.666300724471,4,1,0,100,0,0
308887,-117.093002287997,4,1,0,100,0,0
308962,-116.525263259701,4,1,0,100,0,0
309112,-115.406143068996,4,1,0,100,0,0
309262,-114.308314672501,4,1,0,100,0,0
309412,-113.231304379334,4,1,0,100,0,0
309562,-112.174273952012,4,1,0,100,0,0
309712,-111.136796059534,4,1,0,100,0,0
309862,-110.118333160815,4,1,0,100,0,0
310012,-109.118367240047,4,1,0,100,0,0
310087,-108.625281882606,4,1,0,100,0,0
310162,-108.136515863086,4,1,0,100,0,0
310312,-107.172061529624,4,1,0,100,0,0
310462,-106.22465877984,4,1,0,100,0,0
310612,-105.293859367416,4,1,0,100,0,0
310762,-104.379339571043,4,1,0,100,0,0
310912,-103.480461853997,4,1,0,100,0,0
311062,-102.596933582849,4,1,0,100,0,0
311212,-101.010101010101,4,1,0,100,0,0
311287,-102.040816326531,4,1,0,100,0,0
311362,-103.092783505155,4,1,0,100,0,0
311437,-104.166666666667,4,1,0,100,0,0
311512,-105.263157894737,4,1,0,100,0,0
311562,-104.350149012013,4,1,0,100,0,0
311612,-103.452949081493,4,1,0,100,0,0
311662,-102.570940626811,4,1,0,100,0,0
311737,-101.275770885849,4,1,0,100,0,0
311812,-100.01300169022,4,1,0,100,0,0
311862,-99.1884401824274,4,1,0,100,0,0
311912,-98.3773637621078,4,1,0,100,0,0
311962,-97.579539522153,4,1,0,100,0,0
312037,-96.4066354759065,4,1,0,100,0,0
312112,-95.2616838455237,4,1,0,100,0,0
312162,-94.5133131452896,4,1,0,100,0,0
312212,-93.7766091128358,4,1,0,100,0,0
312262,-93.051387628818,4,1,0,100,0,0
312337,-91.9842191873562,4,1,0,100,0,0
312412,-90.9413337456007,4,1,0,100,0,0
312462,-90.2590615584852,4,1,0,100,0,0
312512,-89.586950406456,4,1,0,100,0,0
312562,-88.9248540520833,4,1,0,100,0,0
312637,-87.9497419994318,4,1,0,100,0,0
312712,-86.9957833143827,4,1,0,100,0,0
312762,-86.3712998535143,4,1,0,100,0,0
312812,-85.7556444365168,4,1,0,100,0,0
312862,-85.1487036961349,4,1,0,100,0,0
312937,-84.254303077894,4,1,0,100,0,0
313012,-83.3784271660256,4,1,0,100,0,0
313062,-82.8046257976156,4,1,0,100,0,0
313112,-82.2386004963922,4,1,0,100,0,0
313162,-81.6802609847699,4,1,0,100,0,0
313237,-80.8568889665115,4,1,0,100,0,0
313312,-80.0498870896343,4,1,0,100,0,0
313362,-79.5208392311289,4,1,0,100,0,0
313412,-78.9986759821905,4,1,0,100,0,0
313462,-78.4833254326786,4,1,0,100,0,0
313537,-77.7228449981074,4,1,0,100,0,0
313612,-76.9769015411545,4,1,0,100,0,0
313662,-76.4875099720591,4,1,0,100,0,0
313712,-76.0043596100672,4,1,0,100,0,0
313762,-75.5272177434582,4,1,0,100,0,0
313837,-74.8226329485954,4,1,0,100,0,0
313912,-74.0740740740741,4,1,0,100,0,0
313987,-73.7344586194845,4,1,0,100,0,0
314062,-73.3979969686627,4,1,0,100,0,0
314137,-73.064538637624,4,1,0,100,0,0
314212,-72.7341494104897,4,1,0,100,0,0
314287,-72.4066822678931,4,1,0,100,0,0
314362,-72.0821505853792,4,1,0,100,0,0
314437,-71.7605665640251,4,1,0,100,0,0
314512,-71.4417881593809,4,1,0,100,0,0
314587,-71.1258294160783,4,1,0,100,0,0
314662,-70.8127032324583,4,1,0,100,0,0
314737,-70.5022722882359,4,1,0,100,0,0
314812,-70.194600490941,4,1,0,100,0,0
314887,-69.889553538543,4,1,0,100,0,0
314962,-69.5871464190107,4,1,0,100,0,0
315037,-69.2873930202652,4,1,0,100,0,0
315112,-68.9901633825049,4,1,0,100,0,0
315412,-100,4,1,0,100,0,0
315712,-98.0392156862745,4,1,0,100,0,0
315787,-96.1538461538461,4,1,0,100,0,0
315862,-94.3396226415094,4,1,0,100,0,0
315937,-92.5925925925926,4,1,0,100,0,0
316012,-90.9090909090909,4,1,0,100,0,0
316087,-89.2857142857143,4,1,0,100,0,0
316162,-87.719298245614,4,1,0,100,0,0
316237,-86.2068965517241,4,1,0,100,0,0
316312,-83.4028356964137,4,1,0,100,0,1
316612,-95.2380952380952,4,1,0,100,0,1
321112,-83.3333333333333,4,1,0,100,0,1
321412,-90.9090909090909,4,1,0,100,0,1
323512,-83.3333333333333,4,1,0,100,0,1
323812,-95.2380952380952,4,1,0,100,0,1
324712,-95.2380952380952,4,1,0,100,0,1
324862,-97.5486035917396,4,1,0,100,0,1
324937,-98.7465117794714,4,1,0,100,0,1
325012,-99.974106706363,4,1,0,100,0,1
325162,-102.523198436726,4,1,0,100,0,1
325212,-103.40213711537,4,1,0,100,0,1
325262,-104.296167741613,4,1,0,100,0,1
325312,-105.205793051789,4,1,0,100,0,1
325387,-106.600375446522,4,1,0,100,0,1
325462,-108.032427013292,4,1,0,100,0,1
325537,-109.50359828824,4,1,0,100,0,1
325612,-111.015267929798,4,1,0,100,0,1
325762,-114.167371650187,4,1,0,100,0,1
325912,-117.503842375646,4,1,0,100,0,0
326212,-83.3333333333333,4,1,0,100,0,1
326512,-95.2380952380952,4,1,0,100,0,1
331012,-90.9090909090909,4,1,0,100,0,1
332212,-86.9565217391304,4,1,0,100,0,1
333412,-83.3333333333333,4,1,0,100,0,1
333862,-80,4,1,0,100,0,1
334612,-86.9565217391304,4,1,0,100,0,1
334762,-90.8805874521173,4,1,0,100,0,1
334837,-92.9785396232696,4,1,0,100,0,1
334912,-95.1755513043809,4,1,0,100,0,1
334987,-97.4789981498486,4,1,0,100,0,1
335062,-99.8967068051635,4,1,0,100,0,1
335137,-102.437290451718,4,1,0,100,0,1
335212,-105.110581587359,4,1,0,100,0,1
335287,-107.927024063409,4,1,0,100,0,1
335362,-110.898678531347,4,1,0,100,0,1
335512,-80,4,1,0,100,0,0
336712,-100,4,1,0,80,0,0
337912,-125,4,1,0,60,0,0
344362,-125,4,1,0,60,0,0
344437,-126.568980727341,4,1,0,60,0,0
344512,-128.178013625323,4,1,0,60,0,0
344587,-129.828315036196,4,1,0,60,0,0
344662,-131.521666221685,4,1,0,60,0,0
344737,-133.25995152003,4,1,0,60,0,0
344812,-135.044618742032,4,1,0,60,0,0
344887,-136.877736699248,4,1,0,60,0,0
344962,-138.761498124638,4,1,0,60,0,0
345037,-140.697635154148,4,1,0,60,0,0
345112,-142.688770108415,4,1,0,60,0,0
354712,-142.688770108415,4,1,0,40,0,0
357112,-166.666666666667,4,1,0,40,0,0
363112,315.789473684211,4,1,0,40,1,0
363112,-158.730158730159,4,1,0,40,0,0
363743,352.941176470588,4,1,0,40,1,8
363743,-142.857142857143,4,1,0,40,0,8
364448,394.736842105263,4,1,0,40,1,0
364448,-128.205128205128,4,1,0,40,0,0
364842,441.176470588235,4,1,0,40,1,8
364842,-113.636363636364,4,1,0,40,0,8
365283,468.75,4,1,0,40,1,8
365283,-106.382978723404,4,1,0,40,0,8
365751,560.747663551402,4,1,0,40,1,8
365751,-88.4955752212389,4,1,0,40,0,8
366311,627.615062761506,4,1,0,40,1,0
366311,-83.3333333333333,4,1,0,40,0,0
367252,444.444444444444,4,1,0,40,1,8
367252,-125,4,1,0,40,0,8
367307,-121.212121212121,4,1,0,40,0,8
367474,571.428571428571,4,1,0,40,1,8
367474,-90.9090909090909,4,1,0,40,0,8
367759,526.315789473684,4,1,0,40,1,8
367759,-90.9090909090909,4,1,0,40,0,8
369074,478.08764940239,4,1,0,40,1,0
369074,-133.333333333333,4,1,0,40,0,0
370986,-153.846153846154,4,1,0,30,0,0
372898,-181.818181818182,4,1,0,20,0,0
374811,-222.222222222222,4,1,0,10,0,0
376723,-285.714285714286,4,1,0,5,0,0

[HitObjects]
256,192,2512,12,0,4012,0:0:0:0:
256,192,4312,5,0,0:0:0:0:
256,192,4462,1,0,0:0:0:0:
256,192,4612,1,8,0:0:0:0:
256,192,4762,1,0,0:0:0:0:
256,192,4912,1,0,0:0:0:0:
256,192,5062,1,8,0:0:0:0:
256,192,5212,1,0,0:0:0:0:
256,192,5362,1,0,0:0:0:0:
256,192,5512,1,0,0:0:0:0:
256,192,5662,1,8,0:0:0:0:
256,192,5812,1,0,0:0:0:0:
256,192,5962,1,0,0:0:0:0:
256,192,6112,1,0,0:0:0:0:
256,192,6262,1,8,0:0:0:0:
256,192,6412,1,0,0:0:0:0:
256,192,6562,1,8,0:0:0:0:
256,192,6712,1,0,0:0:0:0:
256,192,6862,1,0,0:0:0:0:
256,192,7012,1,8,0:0:0:0:
256,192,7162,1,0,0:0:0:0:
256,192,7312,1,0,0:0:0:0:
256,192,7462,1,8,0:0:0:0:
256,192,7612,1,0,0:0:0:0:
256,192,7762,1,0,0:0:0:0:
256,192,7912,1,0,0:0:0:0:
256,192,8062,1,8,0:0:0:0:
256,192,8212,1,0,0:0:0:0:
256,192,8362,1,0,0:0:0:0:
256,192,8512,1,0,0:0:0:0:
256,192,8662,1,8,0:0:0:0:
256,192,8812,1,8,0:0:0:0:
256,192,8962,1,0,0:0:0:0:
256,192,9112,1,0,0:0:0:0:
256,192,9262,1,0,0:0:0:0:
256,192,9412,1,8,0:0:0:0:
256,192,9562,1,0,0:0:0:0:
256,192,9712,1,0,0:0:0:0:
256,192,9862,1,8,0:0:0:0:
256,192,10012,1,0,0:0:0:0:
256,192,10162,1,0,0:0:0:0:
256,192,10312,1,0,0:0:0:0:
256,192,10462,1,8,0:0:0:0:
256,192,10612,1,0,0:0:0:0:
256,192,10762,1,0,0:0:0:0:
256,192,10912,1,0,0:0:0:0:
256,192,11062,1,8,0:0:0:0:
256,192,11212,1,0,0:0:0:0:
256,192,11362,1,8,0:0:0:0:
256,192,11512,1,0,0:0:0:0:
256,192,11662,1,0,0:0:0:0:
256,192,11812,1,8,0:0:0:0:
256,192,11962,1,0,0:0:0:0:
256,192,12112,1,0,0:0:0:0:
256,192,12262,1,8,0:0:0:0:
256,192,12412,1,0,0:0:0:0:
256,192,12562,1,0,0:0:0:0:
256,192,12712,1,0,0:0:0:0:
256,192,12862,1,8,0:0:0:0:
256,192,13012,1,0,0:0:0:0:
256,192,13162,1,0,0:0:0:0:
256,192,13312,1,0,0:0:0:0:
256,192,13462,1,8,0:0:0:0:
256,192,13612,1,8,0:0:0:0:
256,192,13762,1,0,0:0:0:0:
256,192,13912,1,8,0:0:0:0:
256,192,14062,1,8,0:0:0:0:
256,192,14212,1,0,0:0:0:0:
256,192,14362,1,8,0:0:0:0:
256,192,14512,1,8,0:0:0:0:
256,192,14662,1,0,0:0:0:0:
256,192,14812,1,8,0:0:0:0:
256,192,14962,1,8,0:0:0:0:
256,192,15112,1,0,0:0:0:0:
256,192,15262,1,0,0:0:0:0:
256,192,15412,1,8,0:0:0:0:
256,192,15562,1,0,0:0:0:0:
256,192,15712,1,8,0:0:0:0:
256,192,15862,1,8,0:0:0:0:
256,192,16012,1,0,0:0:0:0:
256,192,16162,1,8,0:0:0:0:
256,192,16312,1,0,0:0:0:0:
256,192,16462,1,0,0:0:0:0:
256,192,16612,1,8,0:0:0:0:
256,192,16762,1,8,0:0:0:0:
256,192,16912,1,0,0:0:0:0:
256,192,17062,1,8,0:0:0:0:
256,192,17212,1,8,0:0:0:0:
256,192,17362,1,0,0:0:0:0:
256,192,17512,1,8,0:0:0:0:
256,192,17662,1,0,0:0:0:0:
256,192,17812,1,8,0:0:0:0:
256,192,17962,1,8,0:0:0:0:
256,192,18112,1,0,0:0:0:0:
256,192,18262,1,8,0:0:0:0:
256,192,18412,1,0,0:0:0:0:
256,192,18562,1,0,0:0:0:0:
256,192,18712,1,8,0:0:0:0:
256,192,18862,1,0,0:0:0:0:
256,192,19012,1,8,0:0:0:0:
256,192,19162,1,8,0:0:0:0:
256,192,19312,1,0,0:0:0:0:
256,192,19462,1,0,0:0:0:0:
256,192,19612,1,8,0:0:0:0:
256,192,19762,1,8,0:0:0:0:
256,192,19912,1,8,0:0:0:0:
256,192,20062,1,0,0:0:0:0:
256,192,20212,1,8,0:0:0:0:
256,192,20362,1,0,0:0:0:0:
256,192,20512,1,8,0:0:0:0:
256,192,20662,1,8,0:0:0:0:
256,192,20812,1,0,0:0:0:0:
256,192,20962,1,8,0:0:0:0:
256,192,21112,1,0,0:0:0:0:
256,192,21262,1,0,0:0:0:0:
256,192,21412,1,8,0:0:0:0:
256,192,21562,1,8,0:0:0:0:
256,192,21712,1,0,0:0:0:0:
256,192,21862,1,8,0:0:0:0:
256,192,22012,1,0,0:0:0:0:
256,192,22162,1,8,0:0:0:0:
256,192,22312,1,8,0:0:0:0:
256,192,22462,1,0,0:0:0:0:
256,192,22612,1,8,0:0:0:0:
256,192,22762,1,0,0:0:0:0:
256,192,22912,1,8,0:0:0:0:
256,192,23062,1,8,0:0:0:0:
256,192,23212,1,8,0:0:0:0:
256,192,23362,1,8,0:0:0:0:
256,192,23512,1,4,0:0:0:0:
224,192,23712,1,0,0:0:0:0:
256,160,23912,1,0,0:0:0:0:
256,160,24112,1,8,0:0:0:0:
256,192,24562,1,0,0:0:0:0:
256,192,24637,1,0,0:0:0:0:
256,192,24712,1,8,0:0:0:0:
256,160,24912,1,0,0:0:0:0:
256,160,25112,1,0,0:0:0:0:
256,160,25312,1,8,0:0:0:0:
288,160,25912,1,8,0:0:0:0:
288,160,26112,1,0,0:0:0:0:
288,160,26312,1,0,0:0:0:0:
288,160,26512,1,8,0:0:0:0:
256,192,26962,1,0,0:0:0:0:
256,192,27037,1,0,0:0:0:0:
256,192,27112,1,8,0:0:0:0:
288,160,27312,1,0,0:0:0:0:
288,160,27512,1,0,0:0:0:0:
288,160,27712,1,8,0:0:0:0:
224,192,28312,1,0,0:0:0:0:
224,192,28512,1,0,0:0:0:0:
224,192,28712,1,0,0:0:0:0:
224,192,28912,1,8,0:0:0:0:
256,160,29362,1,0,0:0:0:0:
256,160,29437,1,0,0:0:0:0:
256,160,29512,1,8,0:0:0:0:
224,160,29712,1,0,0:0:0:0:
224,160,29912,1,0,0:0:0:0:
192,64,30112,1,8,0:0:0:0:
256,192,30712,1,8,0:0:0:0:
256,192,30912,1,0,0:0:0:0:
256,192,31112,1,0,0:0:0:0:
256,192,31312,1,8,0:0:0:0:
288,192,31762,1,0,0:0:0:0:
288,192,31837,1,0,0:0:0:0:
288,192,31912,1,8,0:0:0:0:
288,192,32212,1,8,0:0:0:0:
256,192,32287,1,8,0:0:0:0:
256,192,32362,1,0,0:0:0:0:
256,192,32437,1,0,0:0:0:0:
256,192,32512,1,8,0:0:0:0:
256,192,32587,1,0,0:0:0:0:
256,192,32662,1,8,0:0:0:0:
256,192,32737,1,8,0:0:0:0:
256,192,32812,1,0,0:0:0:0:
256,192,32887,1,8,0:0:0:0:
256,192,32962,1,8,0:0:0:0:
256,192,33037,1,8,0:0:0:0:
256,192,33112,1,0,0:0:0:0:
224,192,33312,1,0,0:0:0:0:
256,160,33512,1,0,0:0:0:0:
256,160,33712,1,8,0:0:0:0:
256,192,34162,1,0,0:0:0:0:
256,192,34237,1,0,0:0:0:0:
256,192,34312,1,8,0:0:0:0:
256,160,34512,1,0,0:0:0:0:
256,160,34712,1,0,0:0:0:0:
256,160,34912,1,8,0:0:0:0:
288,160,35512,1,8,0:0:0:0:
288,160,35712,1,0,0:0:0:0:
288,160,35912,1,0,0:0:0:0:
288,160,36112,1,8,0:0:0:0:
256,192,36562,1,0,0:0:0:0:
256,192,36637,1,0,0:0:0:0:
256,192,36712,1,8,0:0:0:0:
288,160,36912,1,0,0:0:0:0:
288,160,37112,1,0,0:0:0:0:
288,160,37312,1,8,0:0:0:0:
224,192,37912,1,0,0:0:0:0:
224,192,38112,1,0,0:0:0:0:
224,192,38312,1,0,0:0:0:0:
224,192,38512,1,8,0:0:0:0:
256,160,38962,1,0,0:0:0:0:
256,160,39037,1,0,0:0:0:0:
256,160,39112,1,8,0:0:0:0:
224,160,39312,1,0,0:0:0:0:
224,160,39512,1,0,0:0:0:0:
192,64,39712,1,8,0:0:0:0:
256,192,39862,1,0,0:0:0:0:
256,192,39937,1,0,0:0:0:0:
256,192,40012,1,0,0:0:0:0:
256,192,40087,1,0,0:0:0:0:
256,192,40162,1,8,0:0:0:0:
256,192,40237,1,0,0:0:0:0:
256,192,40312,1,8,0:0:0:0:
256,192,40387,1,8,0:0:0:0:
256,192,40462,1,0,0:0:0:0:
256,192,40537,1,0,0:0:0:0:
256,192,40612,1,8,0:0:0:0:
256,192,40687,1,8,0:0:0:0:
256,192,40762,1,0,0:0:0:0:
256,192,40837,1,0,0:0:0:0:
256,192,40912,1,8,0:0:0:0:
256,192,40987,1,8,0:0:0:0:
256,192,41062,1,0,0:0:0:0:
256,192,41137,1,0,0:0:0:0:
256,192,41212,1,8,0:0:0:0:
256,192,41287,1,8,0:0:0:0:
256,192,41362,1,0,0:0:0:0:
256,192,41437,1,0,0:0:0:0:
256,192,41512,1,8,0:0:0:0:
256,192,41587,1,8,0:0:0:0:
256,192,41662,1,0,0:0:0:0:
256,192,41737,1,0,0:0:0:0:
256,192,41812,1,8,0:0:0:0:
256,192,41887,1,8,0:0:0:0:
256,192,41962,1,0,0:0:0:0:
256,192,42037,1,0,0:0:0:0:
256,192,42112,1,12,0:0:0:0:
256,192,42712,1,4,0:0:0:0:
288,224,43162,1,4,0:0:0:0:
256,192,45112,1,4,0:0:0:0:
256,192,45562,1,4,0:0:0:0:
256,192,47512,1,4,0:0:0:0:
224,192,47962,1,4,0:0:0:0:
256,192,48712,1,4,0:0:0:0:
256,192,49162,1,4,0:0:0:0:
256,192,49912,1,12,0:0:0:0:
256,192,50362,1,12,0:0:0:0:
256,192,51112,1,0,0:0:0:0:
256,192,51562,1,0,0:0:0:0:
256,192,51637,1,0,0:0:0:0:
256,192,51712,1,8,0:0:0:0:
256,192,51862,1,0,0:0:0:0:
256,192,51937,1,8,0:0:0:0:
256,192,52087,1,0,0:0:0:0:
256,192,52162,1,8,0:0:0:0:
256,192,52237,1,8,0:0:0:0:
256,192,52312,1,4,0:0:0:0:
256,192,52762,1,4,0:0:0:0:
256,192,54712,1,4,0:0:0:0:
256,192,55162,1,4,0:0:0:0:
256,192,57112,1,4,0:0:0:0:
256,192,57562,1,4,0:0:0:0:
256,192,58312,1,4,0:0:0:0:
256,192,58762,1,4,0:0:0:0:
256,192,59512,1,12,0:0:0:0:
256,192,59962,1,12,0:0:0:0:
256,192,60412,1,0,0:0:0:0:
256,192,60562,1,0,0:0:0:0:
192,192,60862,1,0,0:0:0:0:
192,192,61162,1,0,0:0:0:0:
192,192,61237,1,0,0:0:0:0:
192,192,61312,1,8,0:0:0:0:
192,192,61462,1,0,0:0:0:0:
192,192,61537,1,8,0:0:0:0:
192,192,61687,1,0,0:0:0:0:
192,192,61762,1,8,0:0:0:0:
192,192,61837,1,8,0:0:0:0:
192,192,61912,1,4,0:0:0:0:
256,192,62512,1,8,0:0:0:0:
256,192,62662,1,0,0:0:0:0:
256,192,62962,1,8,0:0:0:0:
256,192,63037,1,8,0:0:0:0:
256,192,63112,1,0,0:0:0:0:
256,224,63862,1,0,0:0:0:0:
256,192,64162,1,0,0:0:0:0:
256,192,64312,1,8,0:0:0:0:
256,192,64612,1,8,0:0:0:0:
256,192,64762,1,0,0:0:0:0:
256,192,65062,1,8,0:0:0:0:
256,192,65362,1,0,0:0:0:0:
256,192,65437,1,8,0:0:0:0:
256,192,65512,1,0,0:0:0:0:
256,192,66112,1,8,0:0:0:0:
256,192,66187,1,8,0:0:0:0:
256,192,66262,1,8,0:0:0:0:
256,192,66337,1,8,0:0:0:0:
256,192,66412,1,8,0:0:0:0:
256,192,66487,1,8,0:0:0:0:
256,192,66562,1,8,0:0:0:0:
256,192,66637,1,8,0:0:0:0:
256,192,66712,1,0,0:0:0:0:
256,192,67312,1,8,0:0:0:0:
256,192,67462,1,8,0:0:0:0:
256,192,67762,1,0,0:0:0:0:
256,160,67837,1,0,0:0:0:0:
256,192,67912,1,8,0:0:0:0:
256,192,68512,1,0,0:0:0:0:
256,192,68812,1,0,0:0:0:0:
256,192,68962,1,0,0:0:0:0:
256,192,69112,1,8,0:0:0:0:
256,160,69337,1,8,0:0:0:0:
256,160,69562,1,0,0:0:0:0:
256,192,69899,1,8,0:0:0:0:
256,192,70237,1,0,0:0:0:0:
256,192,70912,1,0,0:0:0:0:
256,192,70987,1,0,0:0:0:0:
256,192,71062,1,0,0:0:0:0:
256,192,71137,1,8,0:0:0:0:
256,192,71512,1,0,0:0:0:0:
224,192,71962,1,0,0:0:0:0:
224,160,72112,1,8,0:0:0:0:
224,192,72262,1,0,0:0:0:0:
224,192,72562,1,8,0:0:0:0:
224,192,72637,1,8,0:0:0:0:
224,192,72712,1,0,0:0:0:0:
256,192,73312,1,0,0:0:0:0:
256,192,73762,1,0,0:0:0:0:
256,192,73912,1,8,0:0:0:0:
224,160,74212,1,8,0:0:0:0:
224,160,74362,1,0,0:0:0:0:
224,160,74662,1,8,0:0:0:0:
224,160,74962,1,0,0:0:0:0:
192,160,75112,1,8,0:0:0:0:
256,192,75712,1,0,0:0:0:0:
256,192,75787,1,0,0:0:0:0:
256,192,75862,1,0,0:0:0:0:
256,192,75937,1,0,0:0:0:0:
256,192,76012,1,8,0:0:0:0:
256,192,76087,1,8,0:0:0:0:
256,192,76162,1,8,0:0:0:0:
256,192,76237,1,8,0:0:0:0:
256,192,76312,1,0,0:0:0:0:
192,160,76912,1,8,0:0:0:0:
192,160,77062,1,0,0:0:0:0:
224,160,77362,1,0,0:0:0:0:
224,160,77437,1,8,0:0:0:0:
224,160,77512,1,0,0:0:0:0:
256,192,78112,1,8,0:0:0:0:
256,192,78712,1,0,0:0:0:0:
256,192,79012,1,8,0:0:0:0:
256,192,79162,1,0,0:0:0:0:
256,192,79312,1,0,0:0:0:0:
256,192,79462,1,8,0:0:0:0:
256,192,79762,1,0,0:0:0:0:
256,192,79837,1,8,0:0:0:0:
256,192,79912,1,0,0:0:0:0:
256,192,80512,1,8,0:0:0:0:
256,192,81112,1,4,0:0:0:0:
256,192,81412,1,8,0:0:0:0:
256,192,81862,1,8,0:0:0:0:
256,192,82162,1,0,0:0:0:0:
256,192,82312,1,8,0:0:0:0:
256,192,82612,1,8,0:0:0:0:
256,192,83062,1,8,0:0:0:0:
256,192,83512,1,0,0:0:0:0:
256,192,83812,1,8,0:0:0:0:
256,192,84262,1,8,0:0:0:0:
256,192,84562,1,0,0:0:0:0:
256,192,84712,1,8,0:0:0:0:
256,192,85012,1,8,0:0:0:0:
256,192,85462,1,8,0:0:0:0:
256,192,85912,1,0,0:0:0:0:
224,160,86062,1,0,0:0:0:0:
256,192,86212,1,8,0:0:0:0:
192,224,86362,1,8,0:0:0:0:
224,160,86512,1,0,0:0:0:0:
256,192,86812,1,8,0:0:0:0:
256,192,86962,1,0,0:0:0:0:
256,192,87112,1,8,0:0:0:0:
256,192,87412,1,0,0:0:0:0:
224,128,87562,1,8,0:0:0:0:
256,192,87712,1,0,0:0:0:0:
256,160,88012,1,8,0:0:0:0:
256,192,88312,1,8,0:0:0:0:
256,160,88462,1,0,0:0:0:0:
256,160,88612,1,0,0:0:0:0:
256,192,88762,1,8,0:0:0:0:
256,192,89062,1,0,0:0:0:0:
256,160,89212,1,8,0:0:0:0:
256,192,89512,1,8,0:0:0:0:
256,192,89662,1,0,0:0:0:0:
256,192,89812,1,0,0:0:0:0:
256,192,89962,1,8,0:0:0:0:
256,192,90112,1,0,0:0:0:0:
256,192,90262,1,0,0:0:0:0:
256,192,90412,1,8,0:0:0:0:
256,192,90712,1,4,0:0:0:0:
256,192,91162,1,8,0:0:0:0:
256,192,91237,1,8,0:0:0:0:
256,192,91312,1,0,0:0:0:0:
224,192,91612,1,8,0:0:0:0:
320,160,91912,1,8,0:0:0:0:
224,192,92062,1,0,0:0:0:0:
224,192,92362,1,8,0:0:0:0:
224,192,92512,1,0,0:0:0:0:
224,160,92662,1,0,0:0:0:0:
224,160,92812,1,8,0:0:0:0:
288,160,93112,1,0,0:0:0:0:
256,192,93562,1,8,0:0:0:0:
256,192,93637,1,8,0:0:0:0:
256,192,93712,1,0,0:0:0:0:
224,192,94012,1,8,0:0:0:0:
224,160,94162,1,0,0:0:0:0:
320,160,94312,1,8,0:0:0:0:
224,192,94462,1,0,0:0:0:0:
224,192,94762,1,8,0:0:0:0:
224,192,94912,1,0,0:0:0:0:
224,160,95212,1,8,0:0:0:0:
256,192,95512,1,0,0:0:0:0:
256,192,95962,1,8,0:0:0:0:
256,192,96037,1,8,0:0:0:0:
256,192,96112,1,0,0:0:0:0:
224,192,96412,1,8,0:0:0:0:
320,160,96712,1,8,0:0:0:0:
224,192,96862,1,0,0:0:0:0:
224,192,97162,1,8,0:0:0:0:
224,192,97312,1,0,0:0:0:0:
224,160,97462,1,0,0:0:0:0:
224,160,97612,1,8,0:0:0:0:
288,160,97912,1,0,0:0:0:0:
256,192,98362,1,8,0:0:0:0:
256,192,98437,1,8,0:0:0:0:
256,192,98512,1,0,0:0:0:0:
224,192,98812,1,8,0:0:0:0:
224,160,98962,1,0,0:0:0:0:
320,160,99112,1,8,0:0:0:0:
224,192,99262,1,0,0:0:0:0:
224,192,99562,1,0,0:0:0:0:
224,192,99712,1,12,0:0:0:0:
256,160,100312,1,4,0:0:0:0:
256,160,100612,1,8,0:0:0:0:
256,160,100912,1,8,0:0:0:0:
256,160,101212,1,0,0:0:0:0:
256,160,101512,1,8,0:0:0:0:
256,192,101812,1,8,0:0:0:0:
256,192,102112,1,0,0:0:0:0:
256,192,102412,1,8,0:0:0:0:
256,192,102712,1,0,0:0:0:0:
256,192,103012,1,0,0:0:0:0:
256,192,103312,1,8,0:0:0:0:
256,192,103612,1,0,0:0:0:0:
256,192,103912,1,0,0:0:0:0:
256,192,104212,1,8,0:0:0:0:
256,192,104512,1,0,0:0:0:0:
256,192,104812,1,8,0:0:0:0:
256,192,105112,1,0,0:0:0:0:
256,192,105262,1,0,0:0:0:0:
256,192,105412,1,8,0:0:0:0:
256,192,105562,1,0,0:0:0:0:
256,192,105712,1,8,0:0:0:0:
256,192,105862,1,8,0:0:0:0:
256,192,106012,1,0,0:0:0:0:
256,192,106162,1,8,0:0:0:0:
256,192,106312,1,0,0:0:0:0:
256,192,106462,1,0,0:0:0:0:
256,192,106612,1,8,0:0:0:0:
256,192,106762,1,0,0:0:0:0:
256,192,106912,1,8,0:0:0:0:
256,192,107062,1,0,0:0:0:0:
256,192,107212,1,8,0:0:0:0:
256,192,107362,1,0,0:0:0:0:
256,192,107512,1,8,0:0:0:0:
288,192,107587,1,8,0:0:0:0:
288,192,107662,1,0,0:0:0:0:
288,192,107737,1,8,0:0:0:0:
288,192,107812,1,0,0:0:0:0:
288,192,107887,1,0,0:0:0:0:
288,192,107962,1,8,0:0:0:0:
288,192,108037,1,8,0:0:0:0:
288,192,108112,1,8,0:0:0:0:
288,192,108187,1,0,0:0:0:0:
288,192,108262,1,0,0:0:0:0:
288,192,108337,1,8,0:0:0:0:
288,192,108412,1,0,0:0:0:0:
288,192,108487,1,8,0:0:0:0:
288,192,108562,1,8,0:0:0:0:
288,192,108612,1,8,0:0:0:0:
288,192,108662,1,8,0:0:0:0:
288,192,108712,1,0,0:0:0:0:
288,192,109012,1,0,0:0:0:0:
256,192,109162,1,0,0:0:0:0:
256,192,109237,1,8,0:0:0:0:
224,192,109462,1,0,0:0:0:0:
224,192,109537,1,0,0:0:0:0:
224,192,109612,1,8,0:0:0:0:
256,192,109912,5,4,0:0:0:0:
256,192,110212,5,0,0:0:0:0:
256,192,110262,5,8,0:0:0:0:
256,192,110312,5,8,0:0:0:0:
256,192,110362,5,0,0:0:0:0:
224,160,110437,1,0,0:0:0:0:
288,160,110512,1,8,0:0:0:0:
288,160,110662,1,8,0:0:0:0:
224,160,110737,1,8,0:0:0:0:
256,160,110812,1,0,0:0:0:0:
256,192,110887,1,8,0:0:0:0:
256,192,111037,1,0,0:0:0:0:
256,192,111112,1,8,0:0:0:0:
256,192,111262,1,8,0:0:0:0:
256,192,111337,1,0,0:0:0:0:
256,192,111412,1,8,0:0:0:0:
256,192,111487,1,8,0:0:0:0:
256,192,111562,1,0,0:0:0:0:
256,192,111637,1,8,0:0:0:0:
224,192,111712,1,8,0:0:0:0:
256,192,111862,1,8,0:0:0:0:
256,192,111937,1,0,0:0:0:0:
256,192,112012,1,8,0:0:0:0:
256,192,112087,1,8,0:0:0:0:
256,192,112162,1,0,0:0:0:0:
256,192,112237,1,8,0:0:0:0:
256,192,112312,1,0,0:0:0:0:
256,192,112362,1,0,0:0:0:0:
256,192,112412,1,0,0:0:0:0:
256,192,112462,1,8,0:0:0:0:
256,192,112612,1,8,0:0:0:0:
256,192,112662,1,8,0:0:0:0:
256,192,112712,1,8,0:0:0:0:
256,192,112762,1,0,0:0:0:0:
256,192,112837,1,0,0:0:0:0:
256,192,112912,1,8,0:0:0:0:
224,160,112987,1,0,0:0:0:0:
256,192,113137,1,8,0:0:0:0:
256,192,113212,1,0,0:0:0:0:
224,160,113287,1,8,0:0:0:0:
288,160,113362,1,8,0:0:0:0:
160,128,113437,1,0,0:0:0:0:
160,160,113512,1,8,0:0:0:0:
224,160,113662,1,8,0:0:0:0:
224,160,113737,1,0,0:0:0:0:
256,192,113812,1,8,0:0:0:0:
256,192,113887,1,8,0:0:0:0:
256,160,113962,1,0,0:0:0:0:
256,192,114037,1,0,0:0:0:0:
256,192,114112,1,8,0:0:0:0:
256,192,114262,1,0,0:0:0:0:
256,192,114312,1,0,0:0:0:0:
256,192,114412,1,8,0:0:0:0:
256,192,114462,1,8,0:0:0:0:
256,192,114562,1,8,0:0:0:0:
256,192,114612,1,8,0:0:0:0:
256,192,114712,1,4,0:0:0:0:
256,192,115012,1,0,0:0:0:0:
256,192,115062,1,0,0:0:0:0:
256,192,115112,1,0,0:0:0:0:
256,192,115162,1,0,0:0:0:0:
256,192,115237,1,0,0:0:0:0:
224,192,115312,1,0,0:0:0:0:
256,160,115387,1,8,0:0:0:0:
256,192,115537,1,0,0:0:0:0:
256,192,115574,1,0,0:0:0:0:
256,192,115612,1,8,0:0:0:0:
256,192,115687,1,0,0:0:0:0:
256,192,115762,1,8,0:0:0:0:
256,192,115812,1,8,0:0:0:0:
256,192,115862,1,8,0:0:0:0:
256,192,115912,1,0,0:0:0:0:
256,192,116062,1,0,0:0:0:0:
256,192,116112,1,8,0:0:0:0:
256,192,116162,1,8,0:0:0:0:
256,192,116212,1,0,0:0:0:0:
320,128,116287,1,0,0:0:0:0:
256,192,116362,1,8,0:0:0:0:
256,192,116412,1,8,0:0:0:0:
256,192,116462,1,0,0:0:0:0:
256,192,116512,1,8,0:0:0:0:
256,192,116662,1,0,0:0:0:0:
256,192,116737,1,8,0:0:0:0:
256,192,116887,1,8,0:0:0:0:
256,192,116962,1,0,0:0:0:0:
256,192,117037,1,8,0:0:0:0:
256,192,117112,1,4,0:0:0:0:
256,192,117412,1,8,0:0:0:0:
256,192,117562,1,0,0:0:0:0:
256,192,117637,1,0,0:0:0:0:
256,192,117712,1,8,0:0:0:0:
256,192,117762,1,8,0:0:0:0:
256,192,117812,1,8,0:0:0:0:
256,192,117862,1,0,0:0:0:0:
256,192,117937,1,8,0:0:0:0:
256,192,118012,1,0,0:0:0:0:
256,192,118087,1,8,0:0:0:0:
256,192,118162,1,0,0:0:0:0:
187,156,118212,1,8,0:0:0:0:
265,184,118262,1,8,0:0:0:0:
245,177,118312,1,0,0:0:0:0:
263,190,118462,1,8,0:0:0:0:
251,206,118512,1,8,0:0:0:0:
263,190,118562,1,8,0:0:0:0:
263,190,118612,1,0,0:0:0:0:
259,186,118762,1,0,0:0:0:0:
259,186,118912,1,8,0:0:0:0:
224,128,118962,1,8,0:0:0:0:
236,162,119012,1,8,0:0:0:0:
231,186,119062,1,8,0:0:0:0:
231,186,119112,1,8,0:0:0:0:
231,185,119162,1,8,0:0:0:0:
268,207,119212,1,0,0:0:0:0:
166,183,119262,1,0,0:0:0:0:
161,183,119312,1,0,0:0:0:0:
161,183,119362,1,8,0:0:0:0:
250,192,119512,1,4,0:0:0:0:
256,192,119812,1,0,0:0:0:0:
256,192,119862,1,8,0:0:0:0:
256,192,119912,1,8,0:0:0:0:
256,192,119962,1,0,0:0:0:0:
253,195,120037,1,0,0:0:0:0:
253,195,120112,1,8,0:0:0:0:
256,192,120262,1,8,0:0:0:0:
256,192,120337,1,0,0:0:0:0:
256,192,120412,1,8,0:0:0:0:
256,192,120487,1,8,0:0:0:0:
256,192,120637,1,0,0:0:0:0:
256,192,120712,1,8,0:0:0:0:
256,192,120862,1,8,0:0:0:0:
256,192,120937,1,8,0:0:0:0:
256,192,121012,1,0,0:0:0:0:
256,192,121087,1,8,0:0:0:0:
256,192,121162,1,0,0:0:0:0:
256,192,121237,1,0,0:0:0:0:
256,192,121312,1,8,0:0:0:0:
256,192,121462,1,8,0:0:0:0:
256,192,121537,1,8,0:0:0:0:
256,192,121612,1,0,0:0:0:0:
256,192,121687,1,8,0:0:0:0:
256,192,121762,1,8,0:0:0:0:
256,192,121837,1,8,0:0:0:0:
256,192,121912,1,0,0:0:0:0:
256,192,121962,1,0,0:0:0:0:
256,192,122012,1,0,0:0:0:0:
256,192,122062,1,8,0:0:0:0:
256,192,122212,1,8,0:0:0:0:
256,192,122262,1,8,0:0:0:0:
256,192,122312,1,8,0:0:0:0:
256,192,122362,1,0,0:0:0:0:
256,192,122437,1,0,0:0:0:0:
256,192,122512,1,8,0:0:0:0:
256,192,122587,1,0,0:0:0:0:
256,192,122737,1,8,0:0:0:0:
256,192,122812,1,0,0:0:0:0:
256,192,122887,1,8,0:0:0:0:
256,192,122962,1,8,0:0:0:0:
96,128,123037,1,0,0:0:0:0:
256,192,123112,1,8,0:0:0:0:
256,192,123262,1,0,0:0:0:0:
256,192,123337,1,8,0:0:0:0:
256,192,123412,1,0,0:0:0:0:
256,192,123487,1,8,0:0:0:0:
256,192,123562,1,8,0:0:0:0:
256,192,123637,1,0,0:0:0:0:
256,192,123712,1,8,0:0:0:0:
256,192,123862,1,0,0:0:0:0:
256,192,123912,1,0,0:0:0:0:
256,192,124012,1,8,0:0:0:0:
256,192,124062,1,8,0:0:0:0:
256,192,124162,1,8,0:0:0:0:
256,192,124212,1,8,0:0:0:0:
256,192,124312,1,4,0:0:0:0:
256,192,124612,1,0,0:0:0:0:
256,192,124662,1,0,0:0:0:0:
256,192,124712,1,0,0:0:0:0:
256,192,124762,1,0,0:0:0:0:
256,192,124837,1,0,0:0:0:0:
256,192,124912,1,0,0:0:0:0:
256,160,124987,1,8,0:0:0:0:
256,192,125137,1,0,0:0:0:0:
256,192,125174,1,0,0:0:0:0:
256,192,125212,1,8,0:0:0:0:
256,160,125287,1,0,0:0:0:0:
256,192,125362,1,8,0:0:0:0:
256,192,125412,1,8,0:0:0:0:
256,192,125462,1,8,0:0:0:0:
256,192,125512,1,0,0:0:0:0:
224,192,125662,1,0,0:0:0:0:
224,192,125712,1,8,0:0:0:0:
224,192,125762,1,8,0:0:0:0:
224,192,125812,1,0,0:0:0:0:
192,160,125887,1,0,0:0:0:0:
256,192,125962,1,8,0:0:0:0:
256,192,126012,1,8,0:0:0:0:
256,192,126062,1,0,0:0:0:0:
256,192,126112,1,8,0:0:0:0:
256,192,126187,1,8,0:0:0:0:
256,192,126262,1,0,0:0:0:0:
256,192,126337,1,0,0:0:0:0:
256,192,126412,1,8,0:0:0:0:
256,192,126487,1,0,0:0:0:0:
256,192,126562,1,8,0:0:0:0:
256,192,126712,1,4,0:0:0:0:
256,192,127012,1,8,0:0:0:0:
256,192,127162,1,0,0:0:0:0:
256,192,127237,1,0,0:0:0:0:
256,192,127312,1,8,0:0:0:0:
256,192,127462,1,0,0:0:0:0:
256,192,127612,1,8,0:0:0:0:
256,192,127687,1,8,0:0:0:0:
256,192,127762,1,8,0:0:0:0:
256,192,127837,1,8,0:0:0:0:
256,192,127912,1,0,0:0:0:0:
256,192,128062,1,8,0:0:0:0:
256,192,128137,1,0,0:0:0:0:
256,192,128212,1,8,0:0:0:0:
256,192,128362,1,0,0:0:0:0:
256,192,128512,1,8,0:0:0:0:
256,192,128587,1,8,0:0:0:0:
256,192,128662,1,0,0:0:0:0:
256,192,128737,1,8,0:0:0:0:
256,192,128812,1,0,0:0:0:0:
256,192,128887,1,0,0:0:0:0:
256,192,128962,1,8,0:0:0:0:
256,192,129037,1,8,0:0:0:0:
256,192,129112,1,4,0:0:0:0:
256,192,129412,1,0,0:0:0:0:
256,192,129462,1,8,0:0:0:0:
256,192,129512,1,8,0:0:0:0:
256,192,129562,1,0,0:0:0:0:
256,192,129712,1,8,0:0:0:0:
256,192,129862,1,0,0:0:0:0:
256,192,130012,1,8,0:0:0:0:
256,192,130162,1,8,0:0:0:0:
256,192,130312,1,0,0:0:0:0:
256,192,130387,1,8,0:0:0:0:
256,192,130462,1,8,0:0:0:0:
256,192,130537,1,0,0:0:0:0:
256,192,130612,1,8,0:0:0:0:
256,192,130687,1,8,0:0:0:0:
256,192,130762,1,0,0:0:0:0:
256,192,130837,1,0,0:0:0:0:
256,192,130912,1,8,0:0:0:0:
256,192,130987,1,0,0:0:0:0:
256,192,131062,1,8,0:0:0:0:
256,192,131137,1,8,0:0:0:0:
256,192,131212,1,0,0:0:0:0:
256,192,131287,1,8,0:0:0:0:
256,192,131362,1,8,0:0:0:0:
256,192,131437,1,0,0:0:0:0:
256,192,131512,1,8,0:0:0:0:
256,192,131562,1,8,0:0:0:0:
256,192,131612,1,8,0:0:0:0:
256,192,131662,1,0,0:0:0:0:
256,192,131737,1,0,0:0:0:0:
256,192,131812,1,8,0:0:0:0:
256,192,131862,1,8,0:0:0:0:
256,192,131912,1,0,0:0:0:0:
256,192,131962,1,0,0:0:0:0:
256,192,132037,1,8,0:0:0:0:
256,192,132112,1,0,0:0:0:0:
256,192,132162,1,0,0:0:0:0:
256,192,132212,1,8,0:0:0:0:
256,192,132262,1,8,0:0:0:0:
256,192,132337,1,0,0:0:0:0:
256,192,132412,1,8,0:0:0:0:
256,192,132462,1,8,0:0:0:0:
256,192,132512,1,8,0:0:0:0:
256,192,132562,1,0,0:0:0:0:
256,192,132637,1,0,0:0:0:0:
256,192,132712,1,8,0:0:0:0:
256,192,132762,1,0,0:0:0:0:
256,192,132812,1,0,0:0:0:0:
256,192,132862,1,8,0:0:0:0:
256,192,132937,1,0,0:0:0:0:
256,192,133012,1,8,0:0:0:0:
256,192,133062,1,8,0:0:0:0:
256,192,133112,1,0,0:0:0:0:
256,192,133162,1,0,0:0:0:0:
256,192,133237,1,8,0:0:0:0:
256,192,133312,1,0,0:0:0:0:
256,192,133362,1,0,0:0:0:0:
256,192,133412,1,0,0:0:0:0:
256,192,133462,1,8,0:0:0:0:
256,192,133537,1,0,0:0:0:0:
256,192,133612,1,8,0:0:0:0:
256,192,133687,1,8,0:0:0:0:
256,192,133762,1,8,0:0:0:0:
256,192,133837,1,8,0:0:0:0:
256,192,133912,1,4,0:0:0:0:
256,192,134212,1,0,0:0:0:0:
256,192,134262,1,0,0:0:0:0:
256,192,134312,1,0,0:0:0:0:
256,192,134362,1,8,0:0:0:0:
256,192,134437,1,0,0:0:0:0:
256,192,134512,1,8,0:0:0:0:
256,192,134662,1,8,0:0:0:0:
224,160,134737,1,0,0:0:0:0:
256,192,134887,1,0,0:0:0:0:
256,192,134962,1,8,0:0:0:0:
256,192,135262,1,0,0:0:0:0:
256,192,135412,1,8,0:0:0:0:
256,192,135637,1,0,0:0:0:0:
256,192,135712,1,8,0:0:0:0:
256,192,135762,1,8,0:0:0:0:
256,192,135812,1,8,0:0:0:0:
256,192,135862,1,0,0:0:0:0:
256,192,136012,1,0,0:0:0:0:
256,192,136062,1,0,0:0:0:0:
256,192,136112,1,0,0:0:0:0:
256,192,136162,1,8,0:0:0:0:
256,192,136312,1,0,0:0:0:0:
224,192,136387,1,8,0:0:0:0:
256,192,136462,1,8,0:0:0:0:
224,192,136537,1,8,0:0:0:0:
256,192,136612,1,0,0:0:0:0:
256,192,136687,1,8,0:0:0:0:
256,192,136837,1,0,0:0:0:0:
256,192,136912,1,8,0:0:0:0:
256,192,137062,1,0,0:0:0:0:
256,192,137137,1,0,0:0:0:0:
256,192,137287,1,8,0:0:0:0:
256,192,137362,1,0,0:0:0:0:
256,192,137662,1,8,0:0:0:0:
256,192,137812,1,0,0:0:0:0:
256,192,137962,1,8,0:0:0:0:
256,192,138112,1,0,0:0:0:0:
256,192,138262,1,0,0:0:0:0:
256,192,138337,1,0,0:0:0:0:
224,192,138412,1,8,0:0:0:0:
256,192,138462,1,8,0:0:0:0:
256,192,138512,1,8,0:0:0:0:
256,192,138562,1,8,0:0:0:0:
256,192,138612,1,8,0:0:0:0:
256,192,138662,1,8,0:0:0:0:
256,192,138712,1,0,0:0:0:0:
256,192,138862,1,8,0:0:0:0:
256,192,138912,1,8,0:0:0:0:
256,192,138962,1,8,0:0:0:0:
256,192,139012,1,0,0:0:0:0:
160,128,139062,1,0,0:0:0:0:
256,192,139112,1,0,0:0:0:0:
256,192,139162,1,8,0:0:0:0:
256,192,139237,1,0,0:0:0:0:
256,192,139312,1,8,0:0:0:0:
256,192,139462,1,0,0:0:0:0:
224,160,139537,1,8,0:0:0:0:
256,192,139687,1,8,0:0:0:0:
256,160,139762,1,0,0:0:0:0:
192,224,140062,1,8,0:0:0:0:
256,192,140212,1,0,0:0:0:0:
256,192,140437,1,0,0:0:0:0:
256,192,140512,1,8,0:0:0:0:
256,192,140562,1,8,0:0:0:0:
256,192,140612,1,8,0:0:0:0:
256,192,140662,1,0,0:0:0:0:
256,192,140812,1,0,0:0:0:0:
256,192,140862,1,0,0:0:0:0:
256,192,140912,1,0,0:0:0:0:
256,192,140962,1,8,0:0:0:0:
256,192,141112,1,0,0:0:0:0:
256,192,141187,1,8,0:0:0:0:
256,128,141262,1,8,0:0:0:0:
256,128,141337,1,8,0:0:0:0:
224,192,141412,1,0,0:0:0:0:
224,192,141487,1,8,0:0:0:0:
224,160,141637,1,0,0:0:0:0:
192,160,141712,1,8,0:0:0:0:
288,192,141862,1,0,0:0:0:0:
256,192,141937,1,0,0:0:0:0:
256,192,142087,1,8,0:0:0:0:
224,160,142162,1,0,0:0:0:0:
256,160,142462,1,8,0:0:0:0:
256,192,142612,1,0,0:0:0:0:
256,192,142762,1,8,0:0:0:0:
256,192,142912,1,0,0:0:0:0:
256,192,143062,1,0,0:0:0:0:
256,192,143137,1,0,0:0:0:0:
256,192,143212,1,8,0:0:0:0:
256,192,143262,1,8,0:0:0:0:
256,192,143312,1,8,0:0:0:0:
256,192,143362,1,8,0:0:0:0:
256,192,143412,1,8,0:0:0:0:
256,192,143462,1,8,0:0:0:0:
256,192,143512,1,4,0:0:0:0:
224,160,143812,1,0,0:0:0:0:
224,160,143862,1,0,0:0:0:0:
256,192,143912,1,0,0:0:0:0:
224,160,143962,1,8,0:0:0:0:
256,160,144037,1,0,0:0:0:0:
256,160,144112,1,8,0:0:0:0:
256,192,144262,1,8,0:0:0:0:
224,160,144337,1,0,0:0:0:0:
256,192,144487,1,0,0:0:0:0:
256,192,144562,1,8,0:0:0:0:
256,192,144862,1,0,0:0:0:0:
256,192,145012,1,8,0:0:0:0:
256,192,145237,1,0,0:0:0:0:
256,192,145312,1,8,0:0:0:0:
256,192,145362,1,8,0:0:0:0:
256,192,145412,1,8,0:0:0:0:
256,192,145462,1,0,0:0:0:0:
256,192,145612,1,0,0:0:0:0:
256,192,145662,1,0,0:0:0:0:
256,192,145712,1,0,0:0:0:0:
256,192,145762,1,8,0:0:0:0:
256,192,145912,1,0,0:0:0:0:
256,192,145987,1,8,0:0:0:0:
256,192,146062,1,8,0:0:0:0:
256,192,146137,1,8,0:0:0:0:
256,192,146212,1,0,0:0:0:0:
256,192,146287,1,8,0:0:0:0:
256,192,146437,1,0,0:0:0:0:
256,192,146512,1,8,0:0:0:0:
256,192,146662,1,0,0:0:0:0:
256,192,146737,1,0,0:0:0:0:
256,192,146887,1,8,0:0:0:0:
256,192,146962,1,0,0:0:0:0:
256,192,147262,1,8,0:0:0:0:
256,192,147412,1,0,0:0:0:0:
256,192,147562,1,8,0:0:0:0:
256,192,147712,1,0,0:0:0:0:
256,192,147862,1,8,0:0:0:0:
256,192,147912,1,8,0:0:0:0:
256,192,148012,1,0,0:0:0:0:
256,192,148062,1,0,0:0:0:0:
256,192,148112,1,0,0:0:0:0:
256,192,148162,1,0,0:0:0:0:
256,192,148212,1,0,0:0:0:0:
256,192,148262,1,0,0:0:0:0:
256,192,148312,1,8,0:0:0:0:
256,192,148462,1,8,0:0:0:0:
256,192,148512,1,8,0:0:0:0:
256,192,148562,1,8,0:0:0:0:
256,192,148612,1,0,0:0:0:0:
160,128,148662,1,0,0:0:0:0:
256,192,148712,1,0,0:0:0:0:
256,192,148762,1,8,0:0:0:0:
256,192,148912,1,12,0:0:0:0:
256,192,149062,1,0,0:0:0:0:
224,160,149137,1,8,0:0:0:0:
256,192,149287,1,8,0:0:0:0:
256,160,149362,1,0,0:0:0:0:
192,224,149662,1,8,0:0:0:0:
256,192,149812,1,0,0:0:0:0:
256,192,150037,1,0,0:0:0:0:
256,192,150112,1,8,0:0:0:0:
256,192,150162,1,8,0:0:0:0:
256,192,150212,1,8,0:0:0:0:
256,192,150262,1,0,0:0:0:0:
256,192,150412,1,0,0:0:0:0:
256,192,150462,1,8,0:0:0:0:
256,192,150512,1,8,0:0:0:0:
256,192,150562,1,0,0:0:0:0:
256,192,150712,1,8,0:0:0:0:
256,192,150762,1,8,0:0:0:0:
256,192,150812,1,8,0:0:0:0:
256,192,150862,1,8,0:0:0:0:
256,160,150912,1,8,0:0:0:0:
256,192,150962,1,8,0:0:0:0:
256,192,151012,1,8,0:0:0:0:
256,192,151062,1,8,0:0:0:0:
256,192,151112,1,8,0:0:0:0:
256,192,151162,1,8,0:0:0:0:
288,256,151212,1,8,0:0:0:0:
192,128,151262,1,8,0:0:0:0:
256,192,151312,1,8,0:0:0:0:
224,192,151362,1,8,0:0:0:0:
224,192,151412,1,8,0:0:0:0:
256,192,151462,1,8,0:0:0:0:
192,160,151512,1,8,0:0:0:0:
256,192,151562,1,8,0:0:0:0:
160,224,151612,1,8,0:0:0:0:
160,192,151662,1,8,0:0:0:0:
256,192,151712,1,8,0:0:0:0:
256,192,151762,1,8,0:0:0:0:
256,160,151812,1,8,0:0:0:0:
256,192,151862,1,8,0:0:0:0:
256,192,151912,12,0,152512,0:0:0:0:
256,192,152812,5,8,0:0:0:0:
256,192,152887,1,8,0:0:0:0:
256,192,152962,1,8,0:0:0:0:
256,192,153037,1,8,0:0:0:0:
256,192,153112,1,4,0:0:0:0:
256,192,153412,1,8,0:0:0:0:
256,192,153462,1,8,0:0:0:0:
256,192,153512,1,8,0:0:0:0:
256,192,153562,1,0,0:0:0:0:
256,192,153712,1,8,0:0:0:0:
256,192,153862,1,0,0:0:0:0:
256,192,153937,1,0,0:0:0:0:
256,192,154012,1,8,0:0:0:0:
256,192,154087,1,0,0:0:0:0:
256,192,154162,1,8,0:0:0:0:
256,192,154312,1,0,0:0:0:0:
256,192,154462,1,8,0:0:0:0:
256,192,154537,1,8,0:0:0:0:
256,192,154612,1,0,0:0:0:0:
256,192,154687,1,8,0:0:0:0:
256,192,154762,1,0,0:0:0:0:
256,192,154837,1,0,0:0:0:0:
256,192,154912,1,8,0:0:0:0:
224,160,155062,1,0,0:0:0:0:
224,192,155112,1,8,0:0:0:0:
224,160,155212,1,0,0:0:0:0:
224,160,155262,1,0,0:0:0:0:
192,160,155312,1,0,0:0:0:0:
224,160,155362,1,8,0:0:0:0:
224,160,155512,1,0,0:0:0:0:
256,192,155587,1,8,0:0:0:0:
256,192,155662,1,8,0:0:0:0:
256,192,155737,1,8,0:0:0:0:
256,192,155812,1,0,0:0:0:0:
224,224,155887,1,8,0:0:0:0:
256,192,156037,1,0,0:0:0:0:
256,192,156112,1,0,0:0:0:0:
256,192,156187,1,8,0:0:0:0:
256,192,156262,1,0,0:0:0:0:
256,192,156337,1,8,0:0:0:0:
256,192,156412,1,8,0:0:0:0:
256,192,156487,1,0,0:0:0:0:
256,192,156562,1,8,0:0:0:0:
256,192,156712,1,0,0:0:0:0:
256,192,156862,1,8,0:0:0:0:
256,192,156937,1,8,0:0:0:0:
256,192,157012,1,0,0:0:0:0:
256,192,157087,1,8,0:0:0:0:
256,192,157162,1,8,0:0:0:0:
256,192,157237,1,8,0:0:0:0:
256,192,157312,1,0,0:0:0:0:
256,192,157462,1,8,0:0:0:0:
256,160,157512,1,8,0:0:0:0:
256,192,157612,1,0,0:0:0:0:
256,192,157662,1,0,0:0:0:0:
256,192,157712,1,0,0:0:0:0:
256,192,157762,1,0,0:0:0:0:
256,192,157812,1,0,0:0:0:0:
256,192,157862,1,0,0:0:0:0:
256,192,157912,1,8,0:0:0:0:
256,192,158212,1,8,0:0:0:0:
256,192,158262,1,0,0:0:0:0:
256,192,158312,1,0,0:0:0:0:
256,192,158362,1,8,0:0:0:0:
256,192,158512,1,0,0:0:0:0:
256,192,158562,1,0,0:0:0:0:
256,192,158612,1,0,0:0:0:0:
256,192,158662,1,8,0:0:0:0:
256,192,158737,1,0,0:0:0:0:
256,192,158812,1,8,0:0:0:0:
256,192,158887,1,0,0:0:0:0:
256,192,158962,1,8,0:0:0:0:
256,192,159112,1,0,0:0:0:0:
256,192,159187,1,0,0:0:0:0:
256,192,159262,1,8,0:0:0:0:
256,192,159337,1,8,0:0:0:0:
256,192,159412,1,0,0:0:0:0:
256,192,159487,1,8,0:0:0:0:
256,192,159562,1,8,0:0:0:0:
256,192,159637,1,8,0:0:0:0:
288,192,159712,1,0,0:0:0:0:
288,192,159862,1,8,0:0:0:0:
256,160,159912,1,0,0:0:0:0:
256,160,160012,1,8,0:0:0:0:
256,160,160062,1,8,0:0:0:0:
256,160,160112,1,8,0:0:0:0:
256,160,160162,1,0,0:0:0:0:
256,160,160312,1,0,0:0:0:0:
256,160,160387,1,8,0:0:0:0:
256,160,160462,1,8,0:0:0:0:
256,160,160537,1,8,0:0:0:0:
256,160,160612,1,0,0:0:0:0:
256,160,160687,1,8,0:0:0:0:
256,160,160837,1,8,0:0:0:0:
256,160,160912,1,8,0:0:0:0:
256,160,160987,1,8,0:0:0:0:
256,160,161062,1,0,0:0:0:0:
256,160,161137,1,0,0:0:0:0:
256,160,161212,1,8,0:0:0:0:
256,160,161287,1,0,0:0:0:0:
256,160,161362,1,8,0:0:0:0:
256,160,161512,1,0,0:0:0:0:
256,160,161662,1,8,0:0:0:0:
256,160,161737,1,8,0:0:0:0:
256,160,161812,1,0,0:0:0:0:
256,160,161887,1,0,0:0:0:0:
256,160,161962,1,8,0:0:0:0:
256,160,162037,1,0,0:0:0:0:
256,160,162112,1,0,0:0:0:0:
288,160,162262,1,8,0:0:0:0:
288,160,162312,1,8,0:0:0:0:
256,160,162412,1,0,0:0:0:0:
256,160,162462,1,0,0:0:0:0:
256,160,162512,1,0,0:0:0:0:
256,160,162562,1,0,0:0:0:0:
256,160,162612,1,0,0:0:0:0:
256,160,162662,1,0,0:0:0:0:
256,160,162712,1,12,0:0:0:0:
256,192,163012,1,0,0:0:0:0:
256,192,163062,1,0,0:0:0:0:
256,192,163112,1,0,0:0:0:0:
256,192,163162,1,8,0:0:0:0:
256,192,163312,1,0,0:0:0:0:
224,156,163387,1,8,0:0:0:0:
224,192,163462,1,8,0:0:0:0:
224,192,163537,1,0,0:0:0:0:
224,192,163687,1,8,0:0:0:0:
224,192,163762,1,8,0:0:0:0:
224,192,163912,1,0,0:0:0:0:
224,192,163987,1,0,0:0:0:0:
224,192,164062,1,8,0:0:0:0:
224,192,164137,1,0,0:0:0:0:
224,192,164212,1,8,0:0:0:0:
224,192,164287,1,8,0:0:0:0:
224,192,164362,1,0,0:0:0:0:
224,192,164437,1,8,0:0:0:0:
224,192,164512,1,8,0:0:0:0:
256,192,164662,1,0,0:0:0:0:
256,192,164712,1,0,0:0:0:0:
256,192,164812,1,8,0:0:0:0:
256,192,164862,1,8,0:0:0:0:
256,192,164912,1,8,0:0:0:0:
256,192,164962,1,8,0:0:0:0:
256,192,165112,1,0,0:0:0:0:
256,192,165187,1,8,0:0:0:0:
256,192,165262,1,8,0:0:0:0:
256,192,165337,1,8,0:0:0:0:
256,192,165412,1,0,0:0:0:0:
256,192,165487,1,8,0:0:0:0:
256,192,165637,1,8,0:0:0:0:
256,192,165712,1,0,0:0:0:0:
256,192,165787,1,8,0:0:0:0:
256,192,165862,1,8,0:0:0:0:
256,192,165937,1,0,0:0:0:0:
256,192,166012,1,8,0:0:0:0:
256,192,166087,1,8,0:0:0:0:
256,192,166162,1,0,0:0:0:0:
256,192,166312,1,8,0:0:0:0:
256,192,166387,1,8,0:0:0:0:
256,192,166462,1,0,0:0:0:0:
256,192,166537,1,8,0:0:0:0:
256,192,166612,1,0,0:0:0:0:
256,192,166687,1,0,0:0:0:0:
256,192,166762,1,8,0:0:0:0:
206,148,166837,1,8,0:0:0:0:
206,148,166912,1,0,0:0:0:0:
256,160,167062,1,8,0:0:0:0:
256,160,167112,1,8,0:0:0:0:
256,192,167212,1,0,0:0:0:0:
256,192,167262,1,0,0:0:0:0:
256,192,167312,1,0,0:0:0:0:
256,192,167362,1,0,0:0:0:0:
256,192,167412,1,0,0:0:0:0:
256,192,167462,1,0,0:0:0:0:
256,160,167512,1,8,0:0:0:0:
256,192,167662,1,0,0:0:0:0:
288,160,167737,1,0,0:0:0:0:
256,192,167812,1,0,0:0:0:0:
224,160,167962,1,8,0:0:0:0:
224,160,168112,1,0,0:0:0:0:
224,160,168187,1,8,0:0:0:0:
224,160,168262,1,0,0:0:0:0:
224,160,168412,1,8,0:0:0:0:
256,192,168562,1,0,0:0:0:0:
256,192,168637,1,0,0:0:0:0:
256,192,168712,1,8,0:0:0:0:
256,160,168862,1,0,0:0:0:0:
256,160,168937,1,8,0:0:0:0:
256,160,169012,1,0,0:0:0:0:
256,160,169087,1,0,0:0:0:0:
256,160,169162,1,8,0:0:0:0:
256,160,169312,1,8,0:0:0:0:
256,160,169462,1,0,0:0:0:0:
256,160,169512,1,0,0:0:0:0:
256,160,169612,1,8,0:0:0:0:
256,160,169662,1,8,0:0:0:0:
256,160,169712,1,8,0:0:0:0:
256,160,169762,1,8,0:0:0:0:
256,192,169912,1,0,0:0:0:0:
256,192,169987,1,0,0:0:0:0:
256,192,170062,1,8,0:0:0:0:
256,192,170137,1,8,0:0:0:0:
256,192,170212,1,0,0:0:0:0:
256,192,170287,1,8,0:0:0:0:
256,192,170362,1,8,0:0:0:0:
256,192,170437,1,0,0:0:0:0:
256,192,170512,1,8,0:0:0:0:
256,192,170587,1,0,0:0:0:0:
256,192,170662,1,8,0:0:0:0:
256,192,170737,1,8,0:0:0:0:
256,192,170812,1,0,0:0:0:0:
256,192,170887,1,8,0:0:0:0:
256,192,170962,1,8,0:0:0:0:
256,192,171037,1,8,0:0:0:0:
288,192,171112,1,0,0:0:0:0:
256,192,171412,1,8,0:0:0:0:
256,192,171562,1,0,0:0:0:0:
256,192,171637,1,8,0:0:0:0:
256,192,171712,1,0,0:0:0:0:
256,192,171787,1,0,0:0:0:0:
256,192,171862,1,8,0:0:0:0:
256,192,172012,1,0,0:0:0:0:
256,192,172087,1,0,0:0:0:0:
256,192,172162,1,8,0:0:0:0:
256,192,172312,1,4,0:0:0:0:
256,192,172462,12,0,176512,0:0:0:0:
256,192,177112,5,0,0:0:0:0:
224,192,177712,1,8,0:0:0:0:
192,192,178012,1,0,0:0:0:0:
256,160,178162,1,8,0:0:0:0:
256,192,178912,12,0,179362,0:0:0:0:
256,192,179512,5,0,0:0:0:0:
320,128,179812,1,8,0:0:0:0:
256,192,179962,5,0,0:0:0:0:
256,192,180262,5,0,0:0:0:0:
224,192,180562,5,8,0:0:0:0:
256,192,180712,12,0,181612,0:0:0:0:
256,192,181912,5,0,0:0:0:0:
256,192,182062,1,8,0:0:0:0:
256,192,182212,1,0,0:0:0:0:
256,192,182362,1,0,0:0:0:0:
256,192,182512,1,8,0:0:0:0:
256,192,182662,1,8,0:0:0:0:
256,192,182812,1,0,0:0:0:0:
256,192,182962,1,8,0:0:0:0:
256,192,183112,1,0,0:0:0:0:
256,192,183262,1,0,0:0:0:0:
256,192,183412,1,8,0:0:0:0:
256,192,183562,1,0,0:0:0:0:
256,192,183712,1,8,0:0:0:0:
256,192,183862,1,8,0:0:0:0:
256,192,184012,1,0,0:0:0:0:
256,192,184162,1,0,0:0:0:0:
256,192,184312,1,8,0:0:0:0:
256,192,184462,1,0,0:0:0:0:
256,192,184612,1,8,0:0:0:0:
256,192,184762,1,8,0:0:0:0:
256,192,184912,1,0,0:0:0:0:
256,192,185062,1,8,0:0:0:0:
256,192,185212,1,0,0:0:0:0:
256,192,185362,1,8,0:0:0:0:
256,192,185512,1,8,0:0:0:0:
256,192,185662,1,0,0:0:0:0:
256,192,185812,1,8,0:0:0:0:
256,192,185962,1,8,0:0:0:0:
256,192,186112,1,0,0:0:0:0:
256,192,186262,1,0,0:0:0:0:
256,192,186412,1,0,0:0:0:0:
256,192,186562,1,8,0:0:0:0:
256,192,186712,1,0,0:0:0:0:
256,192,186862,1,0,0:0:0:0:
256,192,187012,1,8,0:0:0:0:
256,192,187162,1,0,0:0:0:0:
256,192,187312,1,8,0:0:0:0:
256,192,187462,1,8,0:0:0:0:
256,192,187612,1,0,0:0:0:0:
256,192,187762,1,8,0:0:0:0:
256,192,187912,1,0,0:0:0:0:
256,192,188062,1,8,0:0:0:0:
256,192,188212,1,8,0:0:0:0:
256,192,188362,1,0,0:0:0:0:
256,192,188512,1,8,0:0:0:0:
256,192,188662,1,8,0:0:0:0:
256,192,188812,1,8,0:0:0:0:
256,192,188962,1,8,0:0:0:0:
256,192,189112,12,0,191362,0:0:0:0:
256,192,191512,5,4,0:0:0:0:
256,192,191812,1,8,0:0:0:0:
256,192,191962,1,0,0:0:0:0:
256,192,192037,1,0,0:0:0:0:
256,192,192112,1,8,0:0:0:0:
256,192,192262,1,0,0:0:0:0:
256,192,192412,1,8,0:0:0:0:
256,192,192487,1,0,0:0:0:0:
256,192,192562,1,0,0:0:0:0:
256,192,192637,1,0,0:0:0:0:
256,192,192712,1,8,0:0:0:0:
256,192,192862,1,0,0:0:0:0:
256,192,193012,1,8,0:0:0:0:
256,192,193087,1,0,0:0:0:0:
256,192,193237,1,0,0:0:0:0:
256,192,193312,1,8,0:0:0:0:
256,192,193462,1,0,0:0:0:0:
256,192,193612,1,8,0:0:0:0:
256,192,193687,1,8,0:0:0:0:
256,192,193762,1,0,0:0:0:0:
256,192,193912,1,8,0:0:0:0:
256,192,194212,1,8,0:0:0:0:
224,160,194362,1,0,0:0:0:0:
224,192,194437,1,0,0:0:0:0:
224,192,194512,1,8,0:0:0:0:
224,192,194587,1,8,0:0:0:0:
224,192,194662,1,0,0:0:0:0:
224,192,194812,1,8,0:0:0:0:
224,192,194962,1,0,0:0:0:0:
224,192,195037,1,0,0:0:0:0:
224,192,195112,1,8,0:0:0:0:
224,192,195187,1,0,0:0:0:0:
224,192,195337,1,0,0:0:0:0:
224,192,195412,1,8,0:0:0:0:
224,192,195562,1,0,0:0:0:0:
224,192,195712,1,8,0:0:0:0:
224,192,195787,1,0,0:0:0:0:
224,192,195862,1,0,0:0:0:0:
224,192,195937,1,0,0:0:0:0:
224,192,196012,1,8,0:0:0:0:
224,192,196162,1,0,0:0:0:0:
224,192,196312,1,8,0:0:0:0:
224,192,196612,1,8,0:0:0:0:
224,192,196762,1,0,0:0:0:0:
224,192,196837,1,0,0:0:0:0:
224,192,196912,1,8,0:0:0:0:
224,192,197062,1,0,0:0:0:0:
224,192,197212,1,8,0:0:0:0:
224,192,197362,1,0,0:0:0:0:
224,192,197437,1,0,0:0:0:0:
224,192,197512,1,8,0:0:0:0:
224,192,197587,1,8,0:0:0:0:
224,192,197662,1,0,0:0:0:0:
224,192,197812,1,8,0:0:0:0:
224,192,197887,1,0,0:0:0:0:
224,192,198037,1,0,0:0:0:0:
224,192,198112,1,8,0:0:0:0:
224,192,198262,1,0,0:0:0:0:
224,192,198412,1,8,0:0:0:0:
224,192,198487,1,8,0:0:0:0:
224,192,198562,1,0,0:0:0:0:
224,192,198637,1,0,0:0:0:0:
224,192,198712,1,8,0:0:0:0:
224,192,198862,1,0,0:0:0:0:
224,192,199012,1,8,0:0:0:0:
224,192,199087,1,8,0:0:0:0:
224,192,199162,1,0,0:0:0:0:
224,192,199312,1,8,0:0:0:0:
224,192,199462,1,0,0:0:0:0:
224,192,199537,1,0,0:0:0:0:
224,192,199612,1,8,0:0:0:0:
224,192,199762,1,0,0:0:0:0:
224,192,199912,1,8,0:0:0:0:
224,160,199987,1,0,0:0:0:0:
224,160,200137,1,0,0:0:0:0:
224,192,200212,1,8,0:0:0:0:
224,192,200362,1,0,0:0:0:0:
224,192,200512,1,8,0:0:0:0:
224,192,200587,1,0,0:0:0:0:
224,192,200662,1,0,0:0:0:0:
224,192,200737,1,0,0:0:0:0:
224,192,200812,1,8,0:0:0:0:
224,192,200962,1,0,0:0:0:0:
224,192,201112,1,8,0:0:0:0:
256,192,201412,1,8,0:0:0:0:
256,192,201562,1,0,0:0:0:0:
256,192,201637,1,0,0:0:0:0:
256,192,201712,1,8,0:0:0:0:
256,192,201862,1,0,0:0:0:0:
256,192,202012,1,8,0:0:0:0:
256,192,202087,1,0,0:0:0:0:
256,192,202162,1,0,0:0:0:0:
256,192,202237,1,0,0:0:0:0:
256,192,202312,1,8,0:0:0:0:
256,192,202462,1,0,0:0:0:0:
256,192,202612,1,8,0:0:0:0:
256,192,202687,1,0,0:0:0:0:
256,192,202837,1,0,0:0:0:0:
256,192,202912,1,8,0:0:0:0:
256,192,203062,1,0,0:0:0:0:
256,192,203212,1,8,0:0:0:0:
256,192,203287,1,8,0:0:0:0:
256,192,203362,1,0,0:0:0:0:
256,192,203512,1,8,0:0:0:0:
256,192,203812,1,8,0:0:0:0:
224,160,203962,1,0,0:0:0:0:
224,192,204037,1,0,0:0:0:0:
224,192,204112,1,8,0:0:0:0:
224,192,204187,1,8,0:0:0:0:
224,192,204262,1,0,0:0:0:0:
224,192,204412,1,8,0:0:0:0:
224,192,204562,1,0,0:0:0:0:
224,192,204637,1,0,0:0:0:0:
224,192,204712,1,8,0:0:0:0:
224,192,204787,1,0,0:0:0:0:
224,192,204937,1,0,0:0:0:0:
224,192,205012,1,8,0:0:0:0:
224,192,205162,1,0,0:0:0:0:
224,192,205312,1,8,0:0:0:0:
224,192,205387,1,0,0:0:0:0:
224,192,205462,1,0,0:0:0:0:
224,192,205537,1,0,0:0:0:0:
224,192,205612,1,8,0:0:0:0:
224,192,205762,1,0,0:0:0:0:
224,192,205912,1,8,0:0:0:0:
224,192,206212,1,8,0:0:0:0:
224,192,206362,1,0,0:0:0:0:
224,192,206437,1,0,0:0:0:0:
224,192,206512,1,8,0:0:0:0:
224,192,206662,1,0,0:0:0:0:
224,192,206812,1,8,0:0:0:0:
224,192,206962,1,0,0:0:0:0:
224,192,207037,1,0,0:0:0:0:
224,192,207112,1,8,0:0:0:0:
224,192,207187,1,8,0:0:0:0:
224,192,207262,1,0,0:0:0:0:
224,192,207412,1,8,0:0:0:0:
224,192,207487,1,0,0:0:0:0:
224,192,207637,1,0,0:0:0:0:
224,192,207712,1,8,0:0:0:0:
224,192,207862,1,0,0:0:0:0:
224,192,208012,1,8,0:0:0:0:
224,192,208087,1,8,0:0:0:0:
224,192,208162,1,0,0:0:0:0:
224,192,208237,1,0,0:0:0:0:
224,192,208312,1,8,0:0:0:0:
256,192,208387,1,0,0:0:0:0:
224,192,208462,1,8,0:0:0:0:
256,192,208537,1,8,0:0:0:0:
224,192,208612,1,0,0:0:0:0:
224,192,208687,1,8,0:0:0:0:
224,192,208762,1,8,0:0:0:0:
256,192,208837,1,8,0:0:0:0:
256,192,208912,1,0,0:0:0:0:
256,192,208987,1,0,0:0:0:0:
256,192,209062,1,8,0:0:0:0:
224,192,209137,1,0,0:0:0:0:
224,192,209212,1,8,0:0:0:0:
256,192,209287,1,8,0:0:0:0:
224,192,209362,1,8,0:0:0:0:
256,192,209437,1,8,0:0:0:0:
224,192,209512,1,0,0:0:0:0:
256,192,209587,12,0,210562,0:0:0:0:
224,192,210712,5,4,0:0:0:0:
256,224,211162,1,4,0:0:0:0:
224,160,214312,1,8,0:0:0:0:
224,160,214462,1,0,0:0:0:0:
224,160,214612,1,8,0:0:0:0:
224,160,214762,1,8,0:0:0:0:
224,160,214912,1,0,0:0:0:0:
224,160,215062,1,8,0:0:0:0:
224,192,215212,1,0,0:0:0:0:
224,160,215362,1,0,0:0:0:0:
224,192,215512,5,4,0:0:0:0:
256,224,215962,1,4,0:0:0:0:
256,192,219112,1,0,0:0:0:0:
256,192,219187,1,8,0:0:0:0:
256,192,219262,1,0,0:0:0:0:
256,192,219337,1,0,0:0:0:0:
256,192,219412,1,8,0:0:0:0:
224,192,219562,1,0,0:0:0:0:
224,192,219637,1,0,0:0:0:0:
256,192,219712,12,0,220162,0:0:0:0:
224,192,220312,5,4,0:0:0:0:
256,224,220762,1,4,0:0:0:0:
256,192,221212,1,8,0:0:0:0:
256,192,221512,1,0,0:0:0:0:
256,192,221812,1,8,0:0:0:0:
256,192,221962,1,0,0:0:0:0:
256,192,222262,1,0,0:0:0:0:
256,192,222412,1,8,0:0:0:0:
256,192,222712,1,4,0:0:0:0:
256,192,223012,1,8,0:0:0:0:
256,192,223162,1,4,0:0:0:0:
224,192,223462,1,0,0:0:0:0:
224,192,223612,1,8,0:0:0:0:
256,192,223912,1,0,0:0:0:0:
256,192,224212,1,8,0:0:0:0:
256,192,224362,1,0,0:0:0:0:
256,192,224662,1,0,0:0:0:0:
256,192,224812,1,8,0:0:0:0:
256,192,225112,1,4,0:0:0:0:
288,192,225412,1,8,0:0:0:0:
288,224,225562,1,4,0:0:0:0:
256,192,225862,1,0,0:0:0:0:
256,192,226012,1,8,0:0:0:0:
256,192,226312,1,4,0:0:0:0:
256,192,226612,1,8,0:0:0:0:
256,192,226762,1,4,0:0:0:0:
256,192,227062,1,0,0:0:0:0:
256,192,227212,1,8,0:0:0:0:
256,192,227512,1,4,0:0:0:0:
256,192,227737,1,4,0:0:0:0:
256,192,227962,1,4,0:0:0:0:
256,192,228112,1,4,0:0:0:0:
256,192,228337,1,4,0:0:0:0:
256,192,228562,1,4,0:0:0:0:
256,192,228712,1,12,0:0:0:0:
256,192,228937,1,12,0:0:0:0:
256,192,229162,1,12,0:0:0:0:
224,192,229312,1,0,0:0:0:0:
224,192,229362,1,0,0:0:0:0:
224,192,229412,1,8,0:0:0:0:
256,192,229462,1,8,0:0:0:0:
256,192,229512,1,0,0:0:0:0:
256,192,229562,1,0,0:0:0:0:
256,192,229612,1,8,0:0:0:0:
224,192,229662,1,0,0:0:0:0:
224,192,229712,1,0,0:0:0:0:
224,192,229762,1,8,0:0:0:0:
224,192,229912,1,4,0:0:0:0:
256,160,230062,1,0,0:0:0:0:
256,160,230137,1,0,0:0:0:0:
256,160,230212,1,8,0:0:0:0:
256,160,230362,1,0,0:0:0:0:
256,160,230512,1,8,0:0:0:0:
256,160,230587,1,8,0:0:0:0:
256,160,230662,1,0,0:0:0:0:
256,160,230737,1,8,0:0:0:0:
256,160,230812,1,0,0:0:0:0:
256,160,230887,1,0,0:0:0:0:
256,160,230962,1,8,0:0:0:0:
256,160,231112,1,8,0:0:0:0:
256,160,231262,1,0,0:0:0:0:
256,160,231337,1,0,0:0:0:0:
256,160,231412,1,8,0:0:0:0:
256,160,231562,1,0,0:0:0:0:
256,160,231637,1,0,0:0:0:0:
256,160,231712,1,8,0:0:0:0:
256,160,231787,1,0,0:0:0:0:
256,160,231862,1,0,0:0:0:0:
256,160,231937,1,8,0:0:0:0:
256,160,232012,1,8,0:0:0:0:
256,160,232162,1,0,0:0:0:0:
256,160,232312,1,8,0:0:0:0:
224,160,232387,1,8,0:0:0:0:
224,160,232462,1,0,0:0:0:0:
224,160,232537,1,0,0:0:0:0:
224,160,232612,1,8,0:0:0:0:
224,160,232762,1,0,0:0:0:0:
224,160,232837,1,8,0:0:0:0:
224,160,232912,1,0,0:0:0:0:
224,160,232987,1,8,0:0:0:0:
224,160,233062,1,8,0:0:0:0:
224,160,233137,1,0,0:0:0:0:
224,160,233212,1,8,0:0:0:0:
224,160,233362,1,0,0:0:0:0:
224,160,233512,1,8,0:0:0:0:
288,128,233587,1,0,0:0:0:0:
256,128,233662,1,8,0:0:0:0:
256,128,233737,1,8,0:0:0:0:
256,128,233812,1,0,0:0:0:0:
256,128,233887,1,8,0:0:0:0:
256,128,233962,1,8,0:0:0:0:
256,160,234112,1,0,0:0:0:0:
256,160,234187,1,0,0:0:0:0:
256,160,234262,1,8,0:0:0:0:
256,160,234337,1,0,0:0:0:0:
256,160,234412,1,8,0:0:0:0:
256,160,234462,1,8,0:0:0:0:
256,160,234512,1,8,0:0:0:0:
256,160,234562,1,8,0:0:0:0:
256,128,234712,1,4,0:0:0:0:
256,160,234862,1,8,0:0:0:0:
256,160,234937,1,8,0:0:0:0:
256,160,235012,1,0,0:0:0:0:
256,160,235087,1,0,0:0:0:0:
256,160,235162,1,8,0:0:0:0:
256,160,235312,1,0,0:0:0:0:
256,160,235387,1,8,0:0:0:0:
256,160,235462,1,8,0:0:0:0:
256,160,235537,1,0,0:0:0:0:
256,160,235612,1,8,0:0:0:0:
256,160,235762,1,0,0:0:0:0:
256,160,235912,1,8,0:0:0:0:
256,160,235987,1,8,0:0:0:0:
256,160,236062,1,0,0:0:0:0:
256,160,236137,1,8,0:0:0:0:
256,160,236212,1,0,0:0:0:0:
256,160,236362,1,8,0:0:0:0:
256,160,236437,1,0,0:0:0:0:
256,160,236512,1,0,0:0:0:0:
256,160,236587,1,8,0:0:0:0:
256,160,236662,1,0,0:0:0:0:
256,160,236737,1,8,0:0:0:0:
256,160,236812,1,8,0:0:0:0:
256,160,236962,1,8,0:0:0:0:
256,160,237112,1,0,0:0:0:0:
256,192,237187,1,8,0:0:0:0:
256,192,237262,1,0,0:0:0:0:
256,192,237337,1,0,0:0:0:0:
256,192,237412,1,8,0:0:0:0:
256,192,237562,1,0,0:0:0:0:
256,192,237637,1,8,0:0:0:0:
256,192,237712,1,8,0:0:0:0:
256,192,237787,1,0,0:0:0:0:
256,192,237862,1,8,0:0:0:0:
256,192,237937,1,8,0:0:0:0:
256,192,238012,1,0,0:0:0:0:
256,192,238087,1,0,0:0:0:0:
256,192,238162,1,8,0:0:0:0:
256,192,238312,1,4,0:0:0:0:
256,192,238612,1,8,0:0:0:0:
256,192,238662,1,8,0:0:0:0:
256,192,238712,1,8,0:0:0:0:
256,192,238762,1,8,0:0:0:0:
288,224,238837,1,8,0:0:0:0:
256,192,238912,1,0,0:0:0:0:
256,192,239062,1,8,0:0:0:0:
256,192,239212,1,0,0:0:0:0:
256,192,239312,1,0,0:0:0:0:
256,192,239412,1,0,0:0:0:0:
256,192,239512,1,8,0:0:0:0:
256,192,239587,1,0,0:0:0:0:
256,192,239662,1,0,0:0:0:0:
256,192,239737,1,0,0:0:0:0:
256,192,239812,1,8,0:0:0:0:
256,192,239887,1,0,0:0:0:0:
256,192,239962,1,0,0:0:0:0:
256,192,240037,1,0,0:0:0:0:
256,192,240112,1,8,0:0:0:0:
256,192,240187,1,0,0:0:0:0:
256,192,240262,1,0,0:0:0:0:
256,192,240337,1,0,0:0:0:0:
256,192,240412,1,8,0:0:0:0:
256,192,240487,1,0,0:0:0:0:
256,192,240562,1,0,0:0:0:0:
256,192,240637,1,0,0:0:0:0:
256,192,240712,1,8,0:0:0:0:
256,192,240787,1,8,0:0:0:0:
256,192,240862,1,0,0:0:0:0:
256,192,240937,1,0,0:0:0:0:
256,192,241012,1,8,0:0:0:0:
256,192,241087,1,8,0:0:0:0:
256,192,241162,1,0,0:0:0:0:
256,192,241237,1,0,0:0:0:0:
256,192,241312,1,8,0:0:0:0:
256,192,241387,1,8,0:0:0:0:
256,192,241462,1,8,0:0:0:0:
256,192,241537,1,8,0:0:0:0:
256,192,241612,1,0,0:0:0:0:
256,192,241649,1,0,0:0:0:0:
256,192,241762,1,0,0:0:0:0:
256,192,241799,1,0,0:0:0:0:
256,192,241912,1,8,0:0:0:0:
256,192,241987,1,8,0:0:0:0:
256,192,242062,1,0,0:0:0:0:
256,192,242137,1,0,0:0:0:0:
256,192,242212,1,8,0:0:0:0:
256,192,242287,1,8,0:0:0:0:
256,192,242362,1,0,0:0:0:0:
256,192,242437,1,0,0:0:0:0:
256,192,242512,1,8,0:0:0:0:
256,192,242587,1,8,0:0:0:0:
256,192,242662,1,0,0:0:0:0:
256,192,242737,1,0,0:0:0:0:
256,192,242812,1,8,0:0:0:0:
256,192,242887,1,8,0:0:0:0:
256,192,242962,1,0,0:0:0:0:
256,192,243037,1,0,0:0:0:0:
256,192,243112,1,8,0:0:0:0:
256,192,243187,1,0,0:0:0:0:
256,192,243262,1,0,0:0:0:0:
256,192,243337,1,0,0:0:0:0:
256,192,243412,1,8,0:0:0:0:
256,192,243487,1,0,0:0:0:0:
256,192,243562,1,0,0:0:0:0:
256,192,243637,1,0,0:0:0:0:
256,192,243712,1,8,0:0:0:0:
256,192,243787,1,8,0:0:0:0:
256,192,243862,1,8,0:0:0:0:
256,192,243937,1,8,0:0:0:0:
256,192,244012,1,0,0:0:0:0:
256,192,244062,1,0,0:0:0:0:
256,192,244112,1,0,0:0:0:0:
256,192,244162,1,8,0:0:0:0:
256,192,244312,1,0,0:0:0:0:
256,192,244362,1,8,0:0:0:0:
256,192,244412,1,8,0:0:0:0:
256,192,244462,1,0,0:0:0:0:
288,192,244537,1,0,0:0:0:0:
256,192,244612,1,8,0:0:0:0:
256,192,244662,1,8,0:0:0:0:
256,192,244712,1,8,0:0:0:0:
256,192,244762,1,0,0:0:0:0:
256,192,244837,1,0,0:0:0:0:
256,192,244912,1,8,0:0:0:0:
256,192,244962,1,0,0:0:0:0:
256,192,245012,1,0,0:0:0:0:
256,192,245062,1,8,0:0:0:0:
256,192,245137,1,0,0:0:0:0:
256,192,245212,1,8,0:0:0:0:
256,192,245262,1,8,0:0:0:0:
256,192,245312,1,0,0:0:0:0:
256,192,245362,1,0,0:0:0:0:
256,192,245437,1,8,0:0:0:0:
256,192,245512,1,0,0:0:0:0:
256,192,245562,1,0,0:0:0:0:
256,192,245612,1,0,0:0:0:0:
256,192,245662,1,8,0:0:0:0:
256,192,245737,1,0,0:0:0:0:
256,192,245812,1,8,0:0:0:0:
256,192,245862,1,8,0:0:0:0:
256,192,245912,1,8,0:0:0:0:
256,192,245962,1,0,0:0:0:0:
256,192,246037,1,0,0:0:0:0:
256,192,246112,1,8,0:0:0:0:
256,192,246162,1,0,0:0:0:0:
256,192,246212,1,0,0:0:0:0:
256,192,246262,1,8,0:0:0:0:
256,192,246337,1,0,0:0:0:0:
256,192,246412,1,8,0:0:0:0:
256,192,246462,1,8,0:0:0:0:
256,192,246512,1,8,0:0:0:0:
256,192,246562,1,8,0:0:0:0:
256,192,246637,1,8,0:0:0:0:
256,192,246712,5,8,0:0:0:0:
256,192,246787,1,0,0:0:0:0:
256,192,246862,1,0,0:0:0:0:
256,192,246937,1,8,0:0:0:0:
256,192,247012,1,0,0:0:0:0:
256,192,247087,1,0,0:0:0:0:
256,192,247162,1,8,0:0:0:0:
256,192,247237,1,8,0:0:0:0:
256,192,247312,1,8,0:0:0:0:
256,192,247387,1,0,0:0:0:0:
256,192,247462,1,0,0:0:0:0:
256,192,247537,1,8,0:0:0:0:
256,192,247612,1,0,0:0:0:0:
256,192,247687,1,0,0:0:0:0:
256,192,247762,1,8,0:0:0:0:
256,192,247837,1,8,0:0:0:0:
256,192,247912,5,0,0:0:0:0:
256,192,248137,1,0,0:0:0:0:
256,192,248362,5,8,0:0:0:0:
256,192,248437,1,0,0:0:0:0:
256,192,248512,1,8,0:0:0:0:
256,192,248587,1,8,0:0:0:0:
256,192,248662,1,0,0:0:0:0:
256,192,248737,1,8,0:0:0:0:
256,192,248812,1,0,0:0:0:0:
256,192,248887,1,0,0:0:0:0:
256,192,248962,1,8,0:0:0:0:
256,192,249037,1,0,0:0:0:0:
250,196,249112,1,8,0:0:0:0:
250,196,249187,1,8,0:0:0:0:
256,192,249262,1,0,0:0:0:0:
256,192,249337,1,8,0:0:0:0:
256,192,249412,1,8,0:0:0:0:
256,192,249487,1,8,0:0:0:0:
256,192,249562,1,0,0:0:0:0:
256,192,249637,1,0,0:0:0:0:
256,192,249712,1,8,0:0:0:0:
256,192,249787,1,0,0:0:0:0:
250,196,249862,1,0,0:0:0:0:
256,192,249937,1,8,0:0:0:0:
256,192,250012,1,0,0:0:0:0:
256,192,250087,1,8,0:0:0:0:
256,192,250162,1,0,0:0:0:0:
256,192,250237,1,0,0:0:0:0:
256,192,250312,1,8,0:0:0:0:
256,192,250387,1,8,0:0:0:0:
250,196,250462,1,0,0:0:0:0:
256,192,250537,1,8,0:0:0:0:
256,192,250612,1,0,0:0:0:0:
256,192,250687,1,8,0:0:0:0:
256,192,250762,1,8,0:0:0:0:
256,192,250837,1,0,0:0:0:0:
256,192,250912,1,8,0:0:0:0:
250,196,250987,1,0,0:0:0:0:
256,192,251062,1,0,0:0:0:0:
256,192,251137,1,8,0:0:0:0:
256,192,251212,1,0,0:0:0:0:
256,192,251287,1,0,0:0:0:0:
256,192,251362,1,8,0:0:0:0:
250,196,251437,1,8,0:0:0:0:
256,192,251512,1,0,0:0:0:0:
256,192,251587,1,0,0:0:0:0:
256,192,251662,1,0,0:0:0:0:
256,192,251737,1,8,0:0:0:0:
256,192,251812,1,0,0:0:0:0:
256,192,251887,1,0,0:0:0:0:
256,192,251962,1,8,0:0:0:0:
256,192,252037,1,0,0:0:0:0:
256,192,252112,1,8,0:0:0:0:
256,192,252187,1,8,0:0:0:0:
256,192,252262,1,0,0:0:0:0:
256,192,252337,1,8,0:0:0:0:
256,192,252412,1,8,0:0:0:0:
256,192,252487,1,0,0:0:0:0:
288,160,252562,1,8,0:0:0:0:
256,192,252637,1,0,0:0:0:0:
224,160,252712,1,0,0:0:0:0:
224,160,252787,1,8,0:0:0:0:
224,160,252862,1,8,0:0:0:0:
256,192,252937,1,8,0:0:0:0:
256,192,253012,1,0,0:0:0:0:
256,192,253087,1,0,0:0:0:0:
256,192,253162,1,8,0:0:0:0:
256,192,253237,1,0,0:0:0:0:
256,192,253312,1,0,0:0:0:0:
256,192,253387,1,8,0:0:0:0:
256,192,253462,1,0,0:0:0:0:
256,192,253537,1,8,0:0:0:0:
256,192,253612,1,8,0:0:0:0:
256,192,253687,1,0,0:0:0:0:
256,192,253762,1,8,0:0:0:0:
256,192,253837,1,8,0:0:0:0:
256,192,253912,1,0,0:0:0:0:
256,192,253987,1,0,0:0:0:0:
256,192,254062,1,8,0:0:0:0:
256,192,254137,1,8,0:0:0:0:
256,192,254212,1,0,0:0:0:0:
256,192,254287,1,8,0:0:0:0:
256,192,254362,1,0,0:0:0:0:
256,192,254437,1,0,0:0:0:0:
256,192,254512,1,8,0:0:0:0:
256,192,254587,1,8,0:0:0:0:
256,192,254662,1,0,0:0:0:0:
256,192,254737,1,8,0:0:0:0:
256,192,254812,1,8,0:0:0:0:
256,192,254887,1,0,0:0:0:0:
256,192,254962,1,8,0:0:0:0:
256,192,255037,1,0,0:0:0:0:
256,192,255112,1,8,0:0:0:0:
256,192,255187,1,8,0:0:0:0:
256,192,255262,1,0,0:0:0:0:
256,192,255337,1,0,0:0:0:0:
256,192,255412,1,8,0:0:0:0:
256,192,255487,1,0,0:0:0:0:
256,192,255562,1,8,0:0:0:0:
256,192,255637,1,8,0:0:0:0:
256,192,255712,1,8,0:0:0:0:
256,192,255787,1,0,0:0:0:0:
256,192,255862,1,0,0:0:0:0:
256,192,255937,1,8,0:0:0:0:
256,192,256012,1,0,0:0:0:0:
256,192,256087,1,8,0:0:0:0:
256,192,256162,1,8,0:0:0:0:
256,192,256237,1,0,0:0:0:0:
256,192,256312,1,8,0:0:0:0:
256,192,256387,1,0,0:0:0:0:
256,192,256462,1,0,0:0:0:0:
256,192,256537,1,8,0:0:0:0:
256,192,256612,1,0,0:0:0:0:
256,192,256687,1,0,0:0:0:0:
256,192,256762,1,8,0:0:0:0:
256,192,256837,1,8,0:0:0:0:
256,192,256912,1,0,0:0:0:0:
256,192,256987,1,8,0:0:0:0:
256,192,257062,1,8,0:0:0:0:
256,192,257137,1,8,0:0:0:0:
256,192,257212,1,0,0:0:0:0:
256,192,257287,1,8,0:0:0:0:
256,192,257362,1,0,0:0:0:0:
256,192,257437,1,8,0:0:0:0:
256,192,257512,1,8,0:0:0:0:
256,192,257587,1,0,0:0:0:0:
256,192,257662,1,0,0:0:0:0:
256,192,257737,1,8,0:0:0:0:
256,192,257812,1,0,0:0:0:0:
256,192,257887,1,0,0:0:0:0:
256,192,257962,1,8,0:0:0:0:
256,192,258037,1,8,0:0:0:0:
256,192,258112,1,8,0:0:0:0:
256,192,258187,1,0,0:0:0:0:
256,192,258262,1,0,0:0:0:0:
256,192,258337,1,8,0:0:0:0:
256,192,258412,1,0,0:0:0:0:
256,192,258487,1,0,0:0:0:0:
256,192,258562,1,8,0:0:0:0:
256,192,258637,1,0,0:0:0:0:
256,192,258712,1,8,0:0:0:0:
256,192,258787,1,0,0:0:0:0:
256,192,258862,1,0,0:0:0:0:
256,192,258937,1,8,0:0:0:0:
256,192,259012,1,8,0:0:0:0:
256,192,259087,1,0,0:0:0:0:
256,192,259162,1,8,0:0:0:0:
256,192,259237,1,0,0:0:0:0:
256,192,259312,1,8,0:0:0:0:
256,192,259387,1,8,0:0:0:0:
256,192,259462,1,0,0:0:0:0:
256,192,259537,1,8,0:0:0:0:
256,192,259612,1,8,0:0:0:0:
256,192,259687,1,0,0:0:0:0:
256,192,259762,1,8,0:0:0:0:
256,192,259837,1,0,0:0:0:0:
256,192,259912,1,0,0:0:0:0:
256,192,259987,1,8,0:0:0:0:
256,192,260062,1,8,0:0:0:0:
256,192,260137,1,0,0:0:0:0:
256,192,260212,1,8,0:0:0:0:
256,192,260287,1,8,0:0:0:0:
256,192,260362,1,8,0:0:0:0:
256,192,260437,1,0,0:0:0:0:
256,192,260512,1,8,0:0:0:0:
256,192,260587,1,0,0:0:0:0:
256,192,260662,1,0,0:0:0:0:
256,192,260737,1,8,0:0:0:0:
256,192,260812,1,0,0:0:0:0:
256,192,260887,1,8,0:0:0:0:
256,192,260962,1,8,0:0:0:0:
256,192,261037,1,0,0:0:0:0:
256,192,261112,1,0,0:0:0:0:
256,192,261187,1,8,0:0:0:0:
256,192,261262,1,8,0:0:0:0:
256,192,261337,1,8,0:0:0:0:
256,192,261412,1,0,0:0:0:0:
256,192,261487,1,0,0:0:0:0:
256,192,261562,1,8,0:0:0:0:
256,192,261637,1,0,0:0:0:0:
256,192,261712,1,8,0:0:0:0:
256,192,261787,1,8,0:0:0:0:
256,192,261862,1,0,0:0:0:0:
256,192,261937,1,8,0:0:0:0:
256,192,262012,1,8,0:0:0:0:
256,192,262087,1,0,0:0:0:0:
256,192,262162,1,8,0:0:0:0:
256,192,262237,1,8,0:0:0:0:
256,192,262312,1,0,0:0:0:0:
256,192,262387,1,8,0:0:0:0:
256,192,262462,1,8,0:0:0:0:
256,192,262537,1,8,0:0:0:0:
256,192,262612,1,0,0:0:0:0:
256,192,262687,1,8,0:0:0:0:
256,192,262762,1,0,0:0:0:0:
256,192,262837,1,0,0:0:0:0:
256,192,262912,1,8,0:0:0:0:
256,192,263062,1,0,0:0:0:0:
256,192,263137,1,8,0:0:0:0:
256,192,263287,1,8,0:0:0:0:
256,192,263362,1,0,0:0:0:0:
256,192,263512,1,4,0:0:0:0:
256,192,263812,1,0,0:0:0:0:
256,192,263887,1,8,0:0:0:0:
256,192,263962,1,0,0:0:0:0:
256,192,264037,1,0,0:0:0:0:
256,192,264112,1,8,0:0:0:0:
256,192,264262,1,0,0:0:0:0:
256,192,264337,1,8,0:0:0:0:
256,192,264487,1,0,0:0:0:0:
256,192,264562,1,8,0:0:0:0:
256,192,264637,1,0,0:0:0:0:
256,192,264712,1,8,0:0:0:0:
256,192,264862,1,0,0:0:0:0:
256,192,264937,1,8,0:0:0:0:
256,192,265012,1,0,0:0:0:0:
256,192,265162,1,8,0:0:0:0:
256,192,265237,1,8,0:0:0:0:
256,192,265312,1,0,0:0:0:0:
256,192,265387,1,8,0:0:0:0:
256,192,265462,1,0,0:0:0:0:
256,192,265537,1,0,0:0:0:0:
256,192,265612,1,8,0:0:0:0:
256,192,265687,1,0,0:0:0:0:
256,192,265762,1,8,0:0:0:0:
256,192,265837,1,8,0:0:0:0:
256,192,265912,1,0,0:0:0:0:
256,192,265987,1,8,0:0:0:0:
256,192,266137,1,8,0:0:0:0:
256,192,266212,1,0,0:0:0:0:
256,192,266362,1,8,0:0:0:0:
256,192,266437,1,0,0:0:0:0:
256,192,266512,1,0,0:0:0:0:
256,192,266587,1,8,0:0:0:0:
256,192,266737,1,0,0:0:0:0:
256,192,266812,1,8,0:0:0:0:
256,192,266962,1,0,0:0:0:0:
256,192,267037,1,0,0:0:0:0:
256,192,267112,1,8,0:0:0:0:
256,192,267262,1,0,0:0:0:0:
256,192,267337,1,8,0:0:0:0:
256,192,267487,1,8,0:0:0:0:
256,192,267562,1,0,0:0:0:0:
256,192,267637,1,0,0:0:0:0:
256,192,267712,1,8,0:0:0:0:
256,192,267787,1,0,0:0:0:0:
256,192,267862,1,8,0:0:0:0:
256,192,267937,1,0,0:0:0:0:
256,192,268012,1,8,0:0:0:0:
256,192,268087,1,0,0:0:0:0:
256,192,268162,1,8,0:0:0:0:
224,192,268237,1,0,0:0:0:0:
224,160,268312,1,8,0:0:0:0:
256,192,268612,1,4,0:0:0:0:
256,192,268762,1,0,0:0:0:0:
256,192,268837,1,0,0:0:0:0:
256,192,268912,1,8,0:0:0:0:
256,192,268987,1,0,0:0:0:0:
256,192,269062,1,0,0:0:0:0:
256,192,269137,1,0,0:0:0:0:
256,192,269212,1,8,0:0:0:0:
256,192,269287,1,8,0:0:0:0:
256,192,269362,1,0,0:0:0:0:
256,192,269437,1,0,0:0:0:0:
256,192,269512,1,8,0:0:0:0:
256,192,269587,1,0,0:0:0:0:
256,192,269662,1,0,0:0:0:0:
256,192,269737,1,0,0:0:0:0:
256,192,269812,1,8,0:0:0:0:
256,192,269887,1,8,0:0:0:0:
256,192,269962,1,0,0:0:0:0:
256,192,270037,1,0,0:0:0:0:
256,192,270112,1,8,0:0:0:0:
256,192,270187,1,0,0:0:0:0:
256,192,270262,1,8,0:0:0:0:
256,192,270337,1,8,0:0:0:0:
256,192,270412,1,0,0:0:0:0:
256,192,270487,1,8,0:0:0:0:
256,192,270562,1,8,0:0:0:0:
256,192,270637,1,0,0:0:0:0:
256,192,270712,1,8,0:0:0:0:
256,192,270787,1,0,0:0:0:0:
256,192,270862,1,0,0:0:0:0:
256,192,270937,1,0,0:0:0:0:
256,192,271012,1,8,0:0:0:0:
256,192,271087,1,0,0:0:0:0:
256,192,271162,1,0,0:0:0:0:
256,192,271237,1,0,0:0:0:0:
256,192,271312,1,8,0:0:0:0:
256,192,271387,1,0,0:0:0:0:
256,192,271462,1,0,0:0:0:0:
256,192,271537,1,0,0:0:0:0:
256,192,271612,1,8,0:0:0:0:
256,192,271687,1,0,0:0:0:0:
256,192,271762,1,8,0:0:0:0:
256,192,271837,1,8,0:0:0:0:
256,192,271912,1,0,0:0:0:0:
256,192,271987,1,0,0:0:0:0:
256,192,272062,1,8,0:0:0:0:
256,192,272137,1,0,0:0:0:0:
256,192,272212,1,0,0:0:0:0:
256,192,272287,1,0,0:0:0:0:
256,192,272362,1,8,0:0:0:0:
256,192,272437,1,0,0:0:0:0:
256,192,272512,1,8,0:0:0:0:
256,192,272587,1,0,0:0:0:0:
256,192,272662,1,0,0:0:0:0:
256,192,272737,1,8,0:0:0:0:
256,192,272812,1,0,0:0:0:0:
256,192,272887,1,0,0:0:0:0:
256,192,272962,1,8,0:0:0:0:
256,192,273037,1,0,0:0:0:0:
256,192,273112,1,8,0:0:0:0:
256,192,273187,1,0,0:0:0:0:
256,192,273262,1,0,0:0:0:0:
256,192,273337,1,0,0:0:0:0:
256,192,273412,1,8,0:0:0:0:
256,192,273487,1,8,0:0:0:0:
256,192,273562,1,0,0:0:0:0:
256,192,273637,1,0,0:0:0:0:
256,192,273712,1,8,0:0:0:0:
256,192,273787,1,0,0:0:0:0:
256,192,273862,1,0,0:0:0:0:
256,192,273937,1,0,0:0:0:0:
256,192,274012,1,8,0:0:0:0:
256,192,274087,1,0,0:0:0:0:
256,192,274162,1,8,0:0:0:0:
256,192,274237,1,8,0:0:0:0:
256,192,274312,1,0,0:0:0:0:
256,192,274387,1,8,0:0:0:0:
256,192,274462,1,8,0:0:0:0:
256,192,274537,1,8,0:0:0:0:
256,192,274612,1,0,0:0:0:0:
256,192,274687,1,0,0:0:0:0:
256,192,274762,1,8,0:0:0:0:
256,192,274837,1,0,0:0:0:0:
256,192,274912,1,8,0:0:0:0:
256,192,274987,1,8,0:0:0:0:
256,192,275062,1,0,0:0:0:0:
256,192,275137,1,8,0:0:0:0:
256,192,275212,1,0,0:0:0:0:
256,192,275287,1,8,0:0:0:0:
256,192,275362,1,8,0:0:0:0:
256,192,275437,1,0,0:0:0:0:
256,192,275512,1,8,0:0:0:0:
256,192,275587,1,0,0:0:0:0:
256,192,275662,1,0,0:0:0:0:
256,192,275737,1,0,0:0:0:0:
256,192,275812,1,8,0:0:0:0:
256,192,275887,1,0,0:0:0:0:
256,192,275962,1,0,0:0:0:0:
256,192,276037,1,0,0:0:0:0:
256,192,276112,1,8,0:0:0:0:
256,192,276187,1,8,0:0:0:0:
256,192,276262,1,0,0:0:0:0:
256,192,276337,1,8,0:0:0:0:
256,192,276412,1,8,0:0:0:0:
256,192,276487,1,0,0:0:0:0:
256,192,276562,1,8,0:0:0:0:
256,192,276637,1,0,0:0:0:0:
256,192,276712,1,0,0:0:0:0:
256,192,276787,1,0,0:0:0:0:
256,192,276862,1,8,0:0:0:0:
256,192,276937,1,0,0:0:0:0:
256,192,277012,1,8,0:0:0:0:
256,192,277087,1,8,0:0:0:0:
256,192,277162,1,0,0:0:0:0:
256,192,277237,1,0,0:0:0:0:
256,192,277312,1,8,0:0:0:0:
256,192,277387,1,0,0:0:0:0:
256,192,277462,1,0,0:0:0:0:
256,192,277537,1,8,0:0:0:0:
256,192,277612,1,0,0:0:0:0:
256,192,277687,1,0,0:0:0:0:
256,192,277762,1,8,0:0:0:0:
256,192,277912,1,8,0:0:0:0:
256,192,277987,1,0,0:0:0:0:
256,192,278062,1,0,0:0:0:0:
256,192,278137,1,0,0:0:0:0:
256,192,278212,1,8,0:0:0:0:
256,192,278287,1,0,0:0:0:0:
256,192,278362,1,0,0:0:0:0:
256,192,278437,1,0,0:0:0:0:
256,192,278512,1,8,0:0:0:0:
224,192,278887,1,0,0:0:0:0:
160,224,278937,1,0,0:0:0:0:
224,192,278987,1,0,0:0:0:0:
224,192,279037,1,8,0:0:0:0:
244,172,279112,1,8,0:0:0:0:
224,192,279187,1,0,0:0:0:0:
256,192,279262,1,0,0:0:0:0:
256,192,279337,1,0,0:0:0:0:
256,192,279412,1,8,0:0:0:0:
256,192,279487,1,0,0:0:0:0:
256,192,279562,1,0,0:0:0:0:
256,192,279637,1,0,0:0:0:0:
256,192,279712,1,8,0:0:0:0:
256,192,280087,1,8,0:0:0:0:
256,192,280137,1,8,0:0:0:0:
256,192,280187,1,8,0:0:0:0:
256,192,280237,1,0,0:0:0:0:
241,166,280312,1,0,0:0:0:0:
256,192,280387,1,8,0:0:0:0:
256,192,280462,1,8,0:0:0:0:
256,192,280537,1,8,0:0:0:0:
256,192,280612,1,0,0:0:0:0:
256,192,280687,1,8,0:0:0:0:
256,192,280762,1,8,0:0:0:0:
256,192,280837,1,8,0:0:0:0:
256,192,280912,1,0,0:0:0:0:
256,192,281287,1,8,0:0:0:0:
256,192,281362,1,8,0:0:0:0:
256,192,281437,1,8,0:0:0:0:
256,192,281512,1,0,0:0:0:0:
256,192,281587,1,8,0:0:0:0:
256,192,281662,1,8,0:0:0:0:
256,192,281737,1,0,0:0:0:0:
256,192,281812,1,8,0:0:0:0:
256,192,281887,1,8,0:0:0:0:
256,192,281962,1,0,0:0:0:0:
256,192,282037,1,8,0:0:0:0:
256,192,282112,1,0,0:0:0:0:
256,224,282262,1,8,0:0:0:0:
256,224,282337,1,0,0:0:0:0:
256,224,282487,1,0,0:0:0:0:
256,224,282562,1,8,0:0:0:0:
256,224,282637,1,8,0:0:0:0:
256,224,282712,1,0,0:0:0:0:
256,192,282762,1,0,0:0:0:0:
256,192,282812,1,0,0:0:0:0:
256,192,282862,1,0,0:0:0:0:
256,192,283012,1,8,0:0:0:0:
256,192,283087,1,8,0:0:0:0:
256,192,283162,1,0,0:0:0:0:
256,192,283237,1,8,0:0:0:0:
256,192,283312,1,0,0:0:0:0:
256,192,283387,1,8,0:0:0:0:
256,192,283462,1,8,0:0:0:0:
256,192,283537,1,8,0:0:0:0:
256,192,283612,1,0,0:0:0:0:
256,192,283687,1,0,0:0:0:0:
256,192,283762,1,8,0:0:0:0:
256,192,283837,1,8,0:0:0:0:
256,192,283912,1,0,0:0:0:0:
256,192,283962,1,0,0:0:0:0:
256,192,284012,1,0,0:0:0:0:
256,192,284062,1,8,0:0:0:0:
256,192,284212,1,0,0:0:0:0:
256,192,284287,1,8,0:0:0:0:
256,192,284362,1,8,0:0:0:0:
256,192,284437,1,0,0:0:0:0:
256,192,284512,1,8,0:0:0:0:
256,192,284587,1,0,0:0:0:0:
256,192,284662,1,8,0:0:0:0:
256,192,284737,1,8,0:0:0:0:
256,192,284812,1,0,0:0:0:0:
256,192,284887,1,8,0:0:0:0:
256,192,284962,1,0,0:0:0:0:
256,192,285037,1,0,0:0:0:0:
256,192,285112,1,8,0:0:0:0:
256,192,285162,1,8,0:0:0:0:
256,192,285212,1,8,0:0:0:0:
256,192,285262,1,0,0:0:0:0:
256,192,285412,1,8,0:0:0:0:
256,192,285487,1,0,0:0:0:0:
256,192,285562,1,8,0:0:0:0:
256,192,285637,1,8,0:0:0:0:
256,192,285712,1,0,0:0:0:0:
256,192,285762,1,0,0:0:0:0:
256,192,285812,1,0,0:0:0:0:
256,192,285862,1,8,0:0:0:0:
256,192,286012,1,8,0:0:0:0:
256,192,286087,1,8,0:0:0:0:
256,192,286162,1,8,0:0:0:0:
256,192,286237,1,8,0:0:0:0:
256,192,286312,1,0,0:0:0:0:
256,192,286387,8,0,287362,0:0:0:0:
256,192,287512,5,0,0:0:0:0:
224,192,287962,1,0,0:0:0:0:
224,192,288037,1,0,0:0:0:0:
224,192,288112,1,8,0:0:0:0:
224,192,288262,1,0,0:0:0:0:
192,128,288562,1,8,0:0:0:0:
192,160,288637,1,8,0:0:0:0:
192,160,288712,1,8,0:0:0:0:
224,192,288862,1,0,0:0:0:0:
224,192,289162,1,0,0:0:0:0:
224,192,289312,1,8,0:0:0:0:
256,192,289462,1,0,0:0:0:0:
256,192,289762,1,0,0:0:0:0:
256,192,289912,1,8,0:0:0:0:
221,185,290062,1,0,0:0:0:0:
246,186,290212,1,0,0:0:0:0:
242,183,290362,1,0,0:0:0:0:
242,183,290437,1,0,0:0:0:0:
242,183,290512,1,8,0:0:0:0:
223,157,290662,1,0,0:0:0:0:
201,163,290812,1,0,0:0:0:0:
201,163,290962,1,8,0:0:0:0:
211,163,291037,1,8,0:0:0:0:
211,163,291112,1,8,0:0:0:0:
210,163,291262,1,0,0:0:0:0:
228,182,291562,1,0,0:0:0:0:
228,182,291712,1,8,0:0:0:0:
221,175,291862,1,0,0:0:0:0:
221,175,292012,1,0,0:0:0:0:
221,175,292162,1,8,0:0:0:0:
221,175,292312,1,0,0:0:0:0:
252,146,292762,1,0,0:0:0:0:
252,146,292837,1,0,0:0:0:0:
252,146,292912,1,8,0:0:0:0:
268,169,293062,1,0,0:0:0:0:
192,128,293362,1,8,0:0:0:0:
192,160,293437,1,8,0:0:0:0:
192,160,293512,1,8,0:0:0:0:
224,192,293662,1,0,0:0:0:0:
224,192,293962,1,0,0:0:0:0:
224,192,294112,1,8,0:0:0:0:
256,192,294262,1,0,0:0:0:0:
256,192,294562,1,0,0:0:0:0:
256,192,294712,1,8,0:0:0:0:
313,249,294862,1,0,0:0:0:0:
221,185,294937,1,0,0:0:0:0:
246,186,295012,1,0,0:0:0:0:
259,161,295162,1,0,0:0:0:0:
233,162,295237,1,0,0:0:0:0:
242,183,295312,1,8,0:0:0:0:
223,157,295462,1,0,0:0:0:0:
201,163,295612,1,0,0:0:0:0:
201,163,295762,1,8,0:0:0:0:
210,163,296062,1,0,0:0:0:0:
228,182,296362,1,0,0:0:0:0:
228,182,296512,1,8,0:0:0:0:
221,175,296662,1,8,0:0:0:0:
221,175,296812,1,8,0:0:0:0:
221,175,296962,1,8,0:0:0:0:
221,175,297112,1,4,0:0:0:0:
226,173,297262,1,0,0:0:0:0:
226,174,297337,1,0,0:0:0:0:
226,174,297412,1,8,0:0:0:0:
226,174,297562,1,8,0:0:0:0:
226,174,297637,1,8,0:0:0:0:
226,174,297712,1,0,0:0:0:0:
226,174,297862,1,0,0:0:0:0:
226,174,297937,1,8,0:0:0:0:
226,174,298012,1,0,0:0:0:0:
226,174,298087,1,0,0:0:0:0:
226,173,298162,1,8,0:0:0:0:
306,282,298312,1,0,0:0:0:0:
272,222,298462,1,8,0:0:0:0:
264,215,298537,1,0,0:0:0:0:
274,215,298612,1,0,0:0:0:0:
274,215,298687,1,8,0:0:0:0:
274,215,298762,1,8,0:0:0:0:
274,215,298912,1,0,0:0:0:0:
274,215,298987,1,8,0:0:0:0:
274,215,299062,1,0,0:0:0:0:
274,215,299137,1,8,0:0:0:0:
274,215,299212,1,8,0:0:0:0:
274,215,299362,1,8,0:0:0:0:
274,215,299512,1,0,0:0:0:0:
243,171,299662,1,8,0:0:0:0:
243,171,299737,1,8,0:0:0:0:
243,171,299812,1,0,0:0:0:0:
216,166,299887,1,0,0:0:0:0:
243,171,299962,1,8,0:0:0:0:
236,136,300112,1,0,0:0:0:0:
236,136,300187,1,0,0:0:0:0:
236,136,300262,1,8,0:0:0:0:
236,136,300337,1,0,0:0:0:0:
236,136,300412,1,8,0:0:0:0:
157,166,300487,1,8,0:0:0:0:
236,136,300562,1,0,0:0:0:0:
236,136,300712,1,8,0:0:0:0:
228,179,300862,1,0,0:0:0:0:
228,179,300937,1,8,0:0:0:0:
228,179,301012,1,0,0:0:0:0:
228,179,301162,1,8,0:0:0:0:
226,157,301237,1,8,0:0:0:0:
233,167,301312,1,0,0:0:0:0:
233,167,301387,1,8,0:0:0:0:
233,167,301462,1,0,0:0:0:0:
233,167,301537,1,0,0:0:0:0:
233,167,301612,1,8,0:0:0:0:
233,167,301687,1,0,0:0:0:0:
233,167,301762,1,8,0:0:0:0:
233,167,301837,1,8,0:0:0:0:
233,167,301912,1,0,0:0:0:0:
231,141,302062,1,8,0:0:0:0:
231,141,302137,1,0,0:0:0:0:
231,141,302212,1,8,0:0:0:0:
231,141,302362,1,0,0:0:0:0:
231,141,302437,1,0,0:0:0:0:
231,141,302512,1,8,0:0:0:0:
231,141,302587,1,0,0:0:0:0:
231,141,302662,1,8,0:0:0:0:
231,141,302812,1,8,0:0:0:0:
203,139,302887,5,0,0:0:0:0:
218,149,302962,1,8,0:0:0:0:
218,149,303037,1,8,0:0:0:0:
218,149,303112,1,0,0:0:0:0:
218,149,303187,1,8,0:0:0:0:
218,149,303262,1,0,0:0:0:0:
218,149,303412,1,8,0:0:0:0:
254,169,303487,1,8,0:0:0:0:
254,169,303562,1,0,0:0:0:0:
254,169,303637,1,0,0:0:0:0:
254,169,303712,1,8,0:0:0:0:
254,169,303787,1,8,0:0:0:0:
254,169,303862,1,0,0:0:0:0:
254,169,303937,1,8,0:0:0:0:
254,169,304012,1,0,0:0:0:0:
254,169,304087,1,0,0:0:0:0:
254,169,304162,1,8,0:0:0:0:
256,192,304312,1,0,0:0:0:0:
256,192,304462,1,0,0:0:0:0:
256,192,304537,1,8,0:0:0:0:
256,192,304612,1,8,0:0:0:0:
256,192,304687,1,0,0:0:0:0:
256,192,304762,1,8,0:0:0:0:
256,192,304912,1,8,0:0:0:0:
256,192,304987,1,0,0:0:0:0:
256,192,305062,1,0,0:0:0:0:
256,192,305137,1,8,0:0:0:0:
256,192,305212,1,0,0:0:0:0:
256,192,305287,1,0,0:0:0:0:
256,192,305362,1,8,0:0:0:0:
224,192,305512,1,4,0:0:0:0:
224,192,305662,1,8,0:0:0:0:
224,192,305737,1,0,0:0:0:0:
224,192,305887,1,8,0:0:0:0:
224,192,305962,1,0,0:0:0:0:
224,192,306112,1,8,0:0:0:0:
224,192,306187,1,0,0:0:0:0:
224,192,306337,1,0,0:0:0:0:
224,192,306412,1,8,0:0:0:0:
256,224,306712,1,4,0:0:0:0:
256,224,307012,1,0,0:0:0:0:
256,224,307062,1,0,0:0:0:0:
256,224,307112,1,0,0:0:0:0:
256,224,307162,1,0,0:0:0:0:
224,160,307312,1,8,0:0:0:0:
224,160,307462,1,0,0:0:0:0:
224,160,307612,1,8,0:0:0:0:
224,160,307687,1,8,0:0:0:0:
224,160,307762,1,8,0:0:0:0:
224,160,307912,1,0,0:0:0:0:
224,160,308062,1,0,0:0:0:0:
224,160,308212,1,8,0:0:0:0:
224,160,308362,1,0,0:0:0:0:
224,160,308512,1,8,0:0:0:0:
224,160,308662,1,8,0:0:0:0:
224,160,308812,1,0,0:0:0:0:
224,160,308887,1,0,0:0:0:0:
224,160,308962,1,8,0:0:0:0:
256,192,309112,1,0,0:0:0:0:
256,192,309262,1,0,0:0:0:0:
256,192,309412,1,8,0:0:0:0:
256,192,309562,1,8,0:0:0:0:
256,192,309712,1,0,0:0:0:0:
256,192,309862,1,8,0:0:0:0:
256,192,310012,1,8,0:0:0:0:
256,192,310087,1,8,0:0:0:0:
256,192,310162,1,0,0:0:0:0:
256,192,310312,1,8,0:0:0:0:
256,192,310462,1,0,0:0:0:0:
256,192,310612,1,8,0:0:0:0:
256,192,310762,1,8,0:0:0:0:
256,192,310912,1,0,0:0:0:0:
256,192,311062,1,8,0:0:0:0:
256,192,311212,1,8,0:0:0:0:
256,192,311287,1,8,0:0:0:0:
256,192,311362,1,0,0:0:0:0:
256,192,311437,1,8,0:0:0:0:
256,192,311512,1,0,0:0:0:0:
256,192,311562,1,0,0:0:0:0:
256,192,311612,1,0,0:0:0:0:
256,192,311662,1,8,0:0:0:0:
288,192,311737,1,0,0:0:0:0:
256,192,311812,1,8,0:0:0:0:
256,192,311862,1,8,0:0:0:0:
256,192,311912,1,8,0:0:0:0:
256,192,311962,1,0,0:0:0:0:
288,192,312037,1,0,0:0:0:0:
288,192,312112,1,8,0:0:0:0:
288,192,312162,1,0,0:0:0:0:
256,192,312212,1,0,0:0:0:0:
256,192,312262,1,8,0:0:0:0:
256,192,312337,1,0,0:0:0:0:
256,192,312412,1,8,0:0:0:0:
256,192,312462,1,8,0:0:0:0:
256,192,312512,1,0,0:0:0:0:
256,192,312562,1,0,0:0:0:0:
256,192,312637,1,8,0:0:0:0:
256,192,312712,1,0,0:0:0:0:
256,192,312762,1,8,0:0:0:0:
256,192,312812,1,8,0:0:0:0:
256,192,312862,1,0,0:0:0:0:
256,192,312937,1,0,0:0:0:0:
256,192,313012,1,8,0:0:0:0:
256,192,313062,1,0,0:0:0:0:
256,192,313112,1,0,0:0:0:0:
256,192,313162,1,8,0:0:0:0:
256,192,313237,1,0,0:0:0:0:
256,192,313312,1,8,0:0:0:0:
256,192,313362,1,8,0:0:0:0:
256,192,313412,1,8,0:0:0:0:
256,192,313462,1,0,0:0:0:0:
256,192,313537,1,0,0:0:0:0:
256,192,313612,1,8,0:0:0:0:
256,192,313662,1,8,0:0:0:0:
256,192,313712,1,8,0:0:0:0:
256,192,313762,1,8,0:0:0:0:
256,192,313837,1,0,0:0:0:0:
256,192,313912,1,8,0:0:0:0:
256,192,313987,1,8,0:0:0:0:
256,192,314062,1,0,0:0:0:0:
256,192,314137,1,8,0:0:0:0:
256,192,314212,1,8,0:0:0:0:
256,192,314287,1,0,0:0:0:0:
256,192,314362,1,8,0:0:0:0:
256,192,314437,1,0,0:0:0:0:
256,192,314512,1,8,0:0:0:0:
256,192,314587,1,8,0:0:0:0:
256,192,314662,1,0,0:0:0:0:
256,192,314737,1,0,0:0:0:0:
256,192,314812,1,8,0:0:0:0:
256,192,314887,1,8,0:0:0:0:
256,192,314962,1,8,0:0:0:0:
256,192,315037,1,8,0:0:0:0:
256,192,315112,1,0,0:0:0:0:
256,192,315412,1,8,0:0:0:0:
224,128,315562,1,0,0:0:0:0:
224,160,315712,1,0,0:0:0:0:
224,160,315787,1,0,0:0:0:0:
224,160,315862,1,0,0:0:0:0:
224,160,315937,1,0,0:0:0:0:
224,160,316012,1,8,0:0:0:0:
224,160,316087,1,8,0:0:0:0:
224,160,316162,1,8,0:0:0:0:
224,160,316237,1,8,0:0:0:0:
224,160,316312,1,4,0:0:0:0:
256,192,316612,1,8,0:0:0:0:
256,192,316662,1,8,0:0:0:0:
256,192,316712,1,8,0:0:0:0:
256,192,316762,1,8,0:0:0:0:
256,192,316912,1,0,0:0:0:0:
256,192,316987,1,8,0:0:0:0:
256,192,317062,1,8,0:0:0:0:
256,192,317137,1,8,0:0:0:0:
256,192,317212,1,0,0:0:0:0:
256,192,317287,1,8,0:0:0:0:
256,192,317362,1,8,0:0:0:0:
256,192,317437,1,8,0:0:0:0:
256,192,317512,1,0,0:0:0:0:
256,192,317587,1,0,0:0:0:0:
256,192,317662,1,8,0:0:0:0:
256,192,317737,1,8,0:0:0:0:
256,192,317812,1,0,0:0:0:0:
256,192,317887,1,0,0:0:0:0:
256,192,317962,1,8,0:0:0:0:
256,192,318037,1,0,0:0:0:0:
256,192,318112,1,8,0:0:0:0:
256,192,318187,1,8,0:0:0:0:
256,192,318262,1,8,0:0:0:0:
256,192,318337,1,8,0:0:0:0:
256,192,318412,1,0,0:0:0:0:
224,192,318462,1,0,0:0:0:0:
224,192,318512,1,0,0:0:0:0:
256,192,318562,1,8,0:0:0:0:
256,192,318712,1,0,0:0:0:0:
224,192,318762,1,8,0:0:0:0:
224,192,318812,1,8,0:0:0:0:
224,192,318862,1,0,0:0:0:0:
224,192,319012,1,8,0:0:0:0:
224,192,319062,1,8,0:0:0:0:
224,192,319112,1,8,0:0:0:0:
224,192,319162,1,0,0:0:0:0:
256,192,319312,1,0,0:0:0:0:
256,192,319412,1,8,0:0:0:0:
256,192,319512,1,8,0:0:0:0:
256,192,319612,1,0,0:0:0:0:
256,192,319712,1,8,0:0:0:0:
256,192,319812,1,8,0:0:0:0:
256,192,319912,1,0,0:0:0:0:
256,192,320012,1,0,0:0:0:0:
256,192,320112,1,8,0:0:0:0:
256,192,320212,1,0,0:0:0:0:
256,192,320312,1,0,0:0:0:0:
256,192,320412,1,8,0:0:0:0:
256,192,320512,1,0,0:0:0:0:
256,192,320662,1,8,0:0:0:0:
256,192,320712,1,8,0:0:0:0:
256,192,320812,1,8,0:0:0:0:
256,192,320862,1,8,0:0:0:0:
256,192,320962,1,8,0:0:0:0:
256,192,321012,1,8,0:0:0:0:
224,192,321112,1,4,0:0:0:0:
224,160,321412,1,8,0:0:0:0:
224,160,321462,1,8,0:0:0:0:
224,160,321512,1,8,0:0:0:0:
256,192,321562,1,8,0:0:0:0:
256,192,321712,1,0,0:0:0:0:
256,160,321787,1,8,0:0:0:0:
160,160,321937,1,8,0:0:0:0:
192,192,322012,1,0,0:0:0:0:
256,160,322162,1,0,0:0:0:0:
256,160,322212,1,8,0:0:0:0:
256,160,322262,1,8,0:0:0:0:
256,160,322312,1,0,0:0:0:0:
256,160,322462,1,8,0:0:0:0:
256,160,322512,1,8,0:0:0:0:
256,160,322562,1,8,0:0:0:0:
256,160,322612,1,0,0:0:0:0:
256,128,322687,1,0,0:0:0:0:
256,160,322762,1,8,0:0:0:0:
256,160,322812,1,8,0:0:0:0:
256,160,322862,1,0,0:0:0:0:
256,160,322912,1,0,0:0:0:0:
224,192,323062,1,8,0:0:0:0:
224,192,323137,1,0,0:0:0:0:
224,192,323287,1,0,0:0:0:0:
224,192,323362,1,8,0:0:0:0:
224,192,323512,1,4,0:0:0:0:
192,192,323812,1,8,0:0:0:0:
192,192,323862,1,0,0:0:0:0:
192,192,323912,1,0,0:0:0:0:
192,192,323962,1,8,0:0:0:0:
224,192,324112,1,8,0:0:0:0:
224,192,324187,1,8,0:0:0:0:
224,192,324262,1,0,0:0:0:0:
224,192,324337,1,8,0:0:0:0:
224,192,324487,1,8,0:0:0:0:
224,192,324562,1,0,0:0:0:0:
256,160,324637,1,0,0:0:0:0:
224,192,324712,1,8,0:0:0:0:
192,160,324862,1,0,0:0:0:0:
192,160,324937,1,8,0:0:0:0:
192,160,325012,1,0,0:0:0:0:
224,192,325162,1,8,0:0:0:0:
224,192,325212,1,8,0:0:0:0:
224,192,325262,1,8,0:0:0:0:
224,192,325312,1,0,0:0:0:0:
256,192,325387,1,8,0:0:0:0:
256,192,325462,1,0,0:0:0:0:
256,192,325537,1,0,0:0:0:0:
256,192,325612,1,8,0:0:0:0:
256,192,325762,1,8,0:0:0:0:
288,160,325912,1,0,0:0:0:0:
288,160,325962,1,0,0:0:0:0:
288,160,326012,1,0,0:0:0:0:
288,160,326062,1,8,0:0:0:0:
256,160,326212,1,4,0:0:0:0:
256,160,326512,1,0,0:0:0:0:
256,160,326587,1,8,0:0:0:0:
256,160,326662,1,8,0:0:0:0:
256,160,326737,1,8,0:0:0:0:
256,160,326812,1,0,0:0:0:0:
256,160,326887,1,0,0:0:0:0:
256,160,326962,1,8,0:0:0:0:
256,160,327037,1,8,0:0:0:0:
256,160,327112,1,0,0:0:0:0:
256,160,327187,1,8,0:0:0:0:
256,160,327262,1,0,0:0:0:0:
256,160,327337,1,8,0:0:0:0:
256,160,327412,1,8,0:0:0:0:
256,160,327487,1,0,0:0:0:0:
256,160,327562,1,8,0:0:0:0:
256,160,327637,1,0,0:0:0:0:
256,160,327712,1,8,0:0:0:0:
256,160,327787,1,8,0:0:0:0:
256,160,327862,1,8,0:0:0:0:
256,160,327937,1,8,0:0:0:0:
256,160,328012,1,0,0:0:0:0:
224,128,328062,1,0,0:0:0:0:
256,160,328112,1,0,0:0:0:0:
256,160,328162,1,8,0:0:0:0:
256,160,328312,1,0,0:0:0:0:
256,160,328362,1,8,0:0:0:0:
256,160,328412,1,8,0:0:0:0:
256,160,328462,1,0,0:0:0:0:
256,160,328612,1,8,0:0:0:0:
256,160,328662,1,8,0:0:0:0:
256,160,328712,1,8,0:0:0:0:
256,160,328762,1,0,0:0:0:0:
224,192,328912,1,8,0:0:0:0:
224,192,329012,1,8,0:0:0:0:
224,192,329112,1,0,0:0:0:0:
224,192,329212,1,8,0:0:0:0:
224,192,329312,1,8,0:0:0:0:
224,192,329412,1,0,0:0:0:0:
224,192,329512,1,8,0:0:0:0:
224,192,329612,1,0,0:0:0:0:
224,192,329712,1,0,0:0:0:0:
224,192,329812,1,8,0:0:0:0:
224,192,329912,1,0,0:0:0:0:
224,224,330012,1,0,0:0:0:0:
192,224,330112,1,8,0:0:0:0:
256,192,330262,1,8,0:0:0:0:
256,192,330312,1,8,0:0:0:0:
256,192,330412,1,8,0:0:0:0:
256,192,330462,1,8,0:0:0:0:
256,192,330562,1,8,0:0:0:0:
256,192,330612,1,8,0:0:0:0:
257,209,330712,1,0,0:0:0:0:
264,182,330762,1,0,0:0:0:0:
264,182,330812,1,0,0:0:0:0:
264,182,330862,1,8,0:0:0:0:
256,192,331012,1,0,0:0:0:0:
256,192,331087,1,0,0:0:0:0:
256,192,331162,1,8,0:0:0:0:
256,192,331237,1,0,0:0:0:0:
256,192,331312,1,8,0:0:0:0:
256,192,331387,1,8,0:0:0:0:
256,192,331462,1,0,0:0:0:0:
256,192,331537,1,8,0:0:0:0:
256,192,331612,1,0,0:0:0:0:
259,189,331687,1,8,0:0:0:0:
259,189,331762,1,8,0:0:0:0:
259,188,331837,1,0,0:0:0:0:
232,180,331912,1,8,0:0:0:0:
232,180,331962,1,8,0:0:0:0:
232,180,332012,1,0,0:0:0:0:
232,180,332062,1,8,0:0:0:0:
256,192,332212,1,8,0:0:0:0:
256,192,332287,1,0,0:0:0:0:
256,192,332362,1,8,0:0:0:0:
256,192,332437,1,8,0:0:0:0:
256,192,332512,1,0,0:0:0:0:
256,192,332587,1,8,0:0:0:0:
256,192,332662,1,8,0:0:0:0:
256,192,332737,1,0,0:0:0:0:
256,192,332812,1,8,0:0:0:0:
256,192,332887,1,8,0:0:0:0:
256,192,332962,1,0,0:0:0:0:
256,192,333037,1,0,0:0:0:0:
256,192,333112,1,8,0:0:0:0:
224,192,333162,1,0,0:0:0:0:
224,192,333212,1,0,0:0:0:0:
224,192,333262,1,8,0:0:0:0:
256,192,333412,1,8,0:0:0:0:
256,192,333487,1,8,0:0:0:0:
256,192,333562,1,8,0:0:0:0:
256,192,333637,1,8,0:0:0:0:
256,192,333712,1,0,0:0:0:0:
256,224,333862,1,0,0:0:0:0:
256,224,333937,1,0,0:0:0:0:
256,224,334012,1,8,0:0:0:0:
256,224,334087,1,0,0:0:0:0:
256,224,334162,1,8,0:0:0:0:
256,224,334237,1,8,0:0:0:0:
256,224,334312,1,0,0:0:0:0:
288,192,334612,1,8,0:0:0:0:
224,160,334762,1,0,0:0:0:0:
224,160,334837,1,8,0:0:0:0:
224,160,334912,1,0,0:0:0:0:
224,160,334987,1,8,0:0:0:0:
224,160,335062,1,8,0:0:0:0:
224,160,335137,1,0,0:0:0:0:
256,192,335212,1,8,0:0:0:0:
256,192,335287,1,8,0:0:0:0:
256,192,335362,1,8,0:0:0:0:
256,192,335512,1,4,0:0:0:0:
256,192,335662,12,0,337612,0:0:0:0:
256,192,337912,5,8,0:0:0:0:
224,192,338662,1,0,0:0:0:0:
224,192,338812,1,8,0:0:0:0:
224,192,338962,1,0,0:0:0:0:
256,160,339862,1,0,0:0:0:0:
256,160,340012,1,0,0:0:0:0:
256,160,340162,1,8,0:0:0:0:
256,128,340312,1,8,0:0:0:0:
256,192,340612,1,8,0:0:0:0:
256,192,341062,1,8,0:0:0:0:
256,192,341512,1,0,0:0:0:0:
256,192,341812,1,8,0:0:0:0:
256,192,342112,1,0,0:0:0:0:
256,192,342262,1,8,0:0:0:0:
256,192,342412,1,0,0:0:0:0:
256,192,342637,1,8,0:0:0:0:
256,192,342712,1,8,0:0:0:0:
256,192,343012,1,8,0:0:0:0:
256,192,343462,1,0,0:0:0:0:
256,192,343612,1,8,0:0:0:0:
256,192,343762,1,0,0:0:0:0:
224,160,343912,1,8,0:0:0:0:
224,160,344212,1,0,0:0:0:0:
224,160,344362,1,8,0:0:0:0:
224,160,344437,1,8,0:0:0:0:
224,160,344512,1,0,0:0:0:0:
224,160,344587,1,8,0:0:0:0:
224,160,344662,1,0,0:0:0:0:
224,160,344737,1,0,0:0:0:0:
224,160,344812,1,8,0:0:0:0:
224,160,344887,1,0,0:0:0:0:
224,160,344962,1,8,0:0:0:0:
224,160,345037,1,8,0:0:0:0:
224,160,345112,1,0,0:0:0:0:
266,156,346312,1,0,0:0:0:0:
224,192,347512,1,8,0:0:0:0:
192,192,348262,1,0,0:0:0:0:
256,192,348412,1,8,0:0:0:0:
256,192,348562,1,0,0:0:0:0:
192,192,349462,1,0,0:0:0:0:
224,160,349612,1,0,0:0:0:0:
224,160,349762,1,8,0:0:0:0:
224,160,349912,1,8,0:0:0:0:
256,160,351112,1,8,0:0:0:0:
256,192,352237,1,8,0:0:0:0:
256,192,352312,1,8,0:0:0:0:
256,165,353062,1,0,0:0:0:0:
256,165,353212,1,8,0:0:0:0:
256,165,353362,1,0,0:0:0:0:
259,212,354112,1,8,0:0:0:0:
259,212,354187,1,8,0:0:0:0:
259,212,354262,1,0,0:0:0:0:
259,212,354412,1,0,0:0:0:0:
259,212,354562,1,8,0:0:0:0:
256,192,354712,12,0,356812,0:0:0:0:
256,192,357112,5,0,0:0:0:0:
256,192,357262,1,0,0:0:0:0:
256,192,357412,1,8,0:0:0:0:
256,192,357562,1,0,0:0:0:0:
256,192,357712,1,0,0:0:0:0:
256,192,357862,1,8,0:0:0:0:
256,192,358012,1,0,0:0:0:0:
256,192,358162,1,0,0:0:0:0:
256,192,358312,1,0,0:0:0:0:
256,192,358462,1,8,0:0:0:0:
256,192,358612,1,0,0:0:0:0:
256,192,358762,1,0,0:0:0:0:
256,192,358912,1,0,0:0:0:0:
256,192,359062,1,8,0:0:0:0:
256,192,359212,1,8,0:0:0:0:
256,192,359362,1,0,0:0:0:0:
256,192,359512,1,0,0:0:0:0:
256,192,359662,1,0,0:0:0:0:
256,192,359812,1,8,0:0:0:0:
256,192,359962,1,0,0:0:0:0:
256,192,360112,1,0,0:0:0:0:
256,192,360262,1,8,0:0:0:0:
256,192,360412,1,0,0:0:0:0:
256,192,360562,1,0,0:0:0:0:
256,192,360712,1,0,0:0:0:0:
256,192,360862,1,8,0:0:0:0:
256,192,361012,1,0,0:0:0:0:
256,192,361162,1,0,0:0:0:0:
256,192,361312,1,0,0:0:0:0:
256,192,361462,1,8,0:0:0:0:
256,192,361612,1,0,0:0:0:0:
256,192,361762,1,8,0:0:0:0:
256,192,361912,1,0,0:0:0:0:
256,192,362062,1,0,0:0:0:0:
256,192,362212,1,8,0:0:0:0:
256,192,362362,1,0,0:0:0:0:
256,192,362512,1,0,0:0:0:0:
256,192,362662,1,8,0:0:0:0:
256,192,362812,1,0,0:0:0:0:
256,192,362962,1,0,0:0:0:0:
256,192,363112,1,0,0:0:0:0:
256,192,363269,1,8,0:0:0:0:
256,192,363427,1,0,0:0:0:0:
256,192,363585,1,0,0:0:0:0:
256,192,363743,1,0,0:0:0:0:
256,192,363919,1,8,0:0:0:0:
256,192,364095,1,0,0:0:0:0:
256,192,364272,1,0,0:0:0:0:
256,192,364448,1,8,0:0:0:0:
256,192,364645,1,0,0:0:0:0:
256,192,364842,1,0,0:0:0:0:
256,192,365062,1,8,0:0:0:0:
256,192,365283,1,8,0:0:0:0:
256,192,365517,1,0,0:0:0:0:
256,192,365751,1,0,0:0:0:0:
256,192,366031,1,8,0:0:0:0:
256,192,366311,1,0,0:0:0:0:
256,192,367252,1,0,0:0:0:0:
160,160,367363,1,0,0:0:0:0:
256,192,367474,1,8,0:0:0:0:
256,192,367759,1,8,0:0:0:0:
256,192,369074,1,0,0:0:0:0:
256,192,369313,12,0,378635,0:0:0:0:
