osu file format v14

[General]
AudioFilename: audio.mp3
AudioLeadIn: 0
PreviewTime: 133537
Countdown: 0
SampleSet: Soft
StackLeniency: 0.2
Mode: 0
LetterboxInBreaks: 0
WidescreenStoryboard: 0

[Editor]
Bookmarks: 4312,13912,23512,42712,61912,81112,90712,100312,109912,129112,133912,153112,162712,172312,191512,210712,229912,239512,249112,263512,268612,273412,277912,283012,288112,297112,306712,311512,316312,335512,354712,369074
DistanceSpacing: 0.3
BeatDivisor: 2
GridSize: 32
TimelineZoom: 1.9

[Metadata]
Title:Feelin Sky (Camellia's "200step" Self-remix)
TitleUnicode:Feelin Sky (Camellia's "200step" Self-remix)
Artist:Camellia
ArtistUnicode:かめりあ
Creator:Mir
Version:Redemption
Source:
Tags:cametek summary vip dubstep dnb wub dj genki
BeatmapID:1488838
BeatmapSetID:703731

[Difficulty]
HPDrainRate:5
CircleSize:4
OverallDifficulty:9.2
ApproachRate:9.7
SliderMultiplier:1.6
SliderTickRate:1

[Events]
//Background and Video events
0,0,"whalestep.jpg",0,0
//Break Periods
2,177312,188617
2,211661,215003
2,216462,219817
//Storyboard Layer 0 (Background)
//Storyboard Layer 1 (Fail)
//Storyboard Layer 2 (Pass)
//Storyboard Layer 3 (Foreground)
//Storyboard Sound Samples

[TimingPoints]
4312,300,4,2,1,10,1,0
4312,-133.333333333333,4,2,1,10,0,0
40312,-100,4,2,1,20,0,0
40912,-100,4,2,1,40,0,0
41512,-100,4,2,1,70,0,0
42112,-250,4,2,1,70,0,0
42712,-58.8235294117647,4,2,1,70,0,0
43762,-100,4,2,1,70,0,0
45112,-58.8235294117647,4,2,1,70,0,0
46162,-100,4,2,1,70,0,0
47512,-58.8235294117647,4,2,1,70,0,0
48562,-100,4,2,1,70,0,0
48712,-58.8235294117647,4,2,1,70,0,0
49762,-100,4,2,1,70,0,0
49912,-58.8235294117647,4,2,1,70,0,0
50962,-100,4,2,1,70,0,0
52312,-58.8235294117647,4,2,1,70,0,0
53362,-100,4,2,1,70,0,0
54712,-58.8235294117647,4,2,1,70,0,0
55762,-100,4,2,1,70,0,0
57112,-58.8235294117647,4,2,1,70,0,0
58162,-100,4,2,1,70,0,0
58312,-58.8235294117647,4,2,1,70,0,0
59362,-100,4,2,1,70,0,0
59512,-58.8235294117647,4,2,1,70,0,0
60562,-100,4,2,1,70,0,0
61912,-250,4,2,1,70,0,0
61987,-250,4,2,1,50,0,0
65962,-142.857142857143,4,2,1,50,0,0
66712,-250,4,2,1,50,0,0
70912,-83.3333333333333,4,2,1,50,0,0
71512,-250,4,2,1,50,0,0
75712,-142.857142857143,4,2,1,50,0,0
76312,-250,4,2,1,50,0,0
78712,-166.666666666667,4,2,1,50,0,0
79912,-125,4,2,1,50,0,0
100312,-100,4,2,1,70,0,0
107512,-66.6666666666667,4,2,1,70,0,0
109612,-133.333333333333,4,2,1,70,0,0
109912,-58.8235294117647,4,2,1,70,0,0
110512,-66.6666666666667,4,2,1,70,0,0
112312,-58.8235294117647,4,2,1,70,0,0
112912,-66.6666666666667,4,2,1,70,0,0
114112,-50,4,2,1,70,0,0
114712,-58.8235294117647,4,2,1,70,0,0
115312,-50,4,2,1,70,0,0
117112,-40,4,2,1,70,0,0
117412,-58.8235294117647,4,2,1,70,0,0
118162,-50,4,2,1,70,0,0
118912,-125,4,2,1,70,0,0
119512,-58.8235294117647,4,2,1,70,0,0
120112,-66.6666666666667,4,2,1,70,0,0
121912,-58.8235294117647,4,2,1,70,0,0
122512,-66.6666666666667,4,2,1,70,0,0
123712,-50,4,2,1,70,0,0
124312,-58.8235294117647,4,2,1,70,0,0
124912,-50,4,2,1,70,0,0
126712,-66.6666666666667,4,2,1,70,0,0
129112,-133.333333333333,4,2,1,70,0,0
130312,-133.333333333333,4,2,1,30,0,0
130912,-100,4,2,1,50,0,0
131512,-58.8235294117647,4,2,1,70,0,0
132112,-58.8235294117647,4,2,1,30,0,0
133912,-66.6666666666667,4,2,1,70,0,0
134512,-133.333333333333,4,2,1,70,0,0
134962,-200,4,2,1,70,0,0
135712,-100,4,2,1,70,0,0
136312,-50,4,2,1,70,0,0
136912,-133.333333333333,4,2,1,70,0,0
137362,-200,4,2,1,70,0,0
137662,-66.6666666666667,4,2,1,70,0,0
138412,-40,4,2,1,70,0,0
138712,-66.6666666666667,4,2,1,70,0,0
139237,-133.333333333333,4,2,1,70,0,0
139762,-200,4,2,1,70,0,0
140512,-100,4,2,1,70,0,0
141112,-50,4,2,1,70,0,0
141412,-200,4,2,1,70,0,0
141712,-100,4,2,1,70,0,0
142162,-200,4,2,1,70,0,0
142462,-66.6666666666667,4,2,1,70,0,0
143212,-40,4,2,1,70,0,0
143512,-50,4,2,1,70,0,0
144037,-133.333333333333,4,2,1,70,0,0
144562,-200,4,2,1,70,0,0
145312,-100,4,2,1,70,0,0
145912,-50,4,2,1,70,0,0
146437,-133.333333333333,4,2,1,70,0,0
146962,-200,4,2,1,70,0,0
147262,-66.6666666666667,4,2,1,70,0,0
148912,-133.333333333333,4,2,1,70,0,0
149362,-200,4,2,1,70,0,0
150112,-100,4,2,1,70,0,0
150412,-50,4,2,1,70,0,0
153712,-100,4,2,1,70,0,0
155062,-50,4,2,1,70,0,0
155512,-40,4,2,1,70,0,0
156112,-100,4,2,1,70,0,0
157462,-40,4,2,1,70,0,0
157912,-50,4,2,1,70,0,0
158512,-100,4,2,1,70,0,0
159862,-50,4,2,1,70,0,0
160312,-40,4,2,1,70,0,0
160912,-100,4,2,1,70,0,0
162262,-40,4,2,1,70,0,0
162712,-50,4,2,1,70,0,0
163312,-66.6666666666667,4,2,1,70,0,0
163912,-100,4,2,1,70,0,0
164512,-66.6666666666667,4,2,1,70,0,0
165112,-50,4,2,1,70,0,0
165712,-66.6666666666667,4,2,1,70,0,0
166312,-100,4,2,1,70,0,0
167062,-40,4,2,1,70,0,0
167512,-66.6666666666667,4,2,1,70,0,0
171112,-200,4,2,1,70,0,0
172387,-200,4,2,1,5,0,0
191512,-100,4,2,1,50,0,0
209512,-250,4,2,1,70,0,0
210712,-58.8235294117647,4,2,1,70,0,0
211462,-58.8235294117647,4,2,1,5,0,0
211612,-100,4,2,1,70,0,0
215512,-58.8235294117647,4,2,1,70,0,0
216262,-58.8235294117647,4,2,1,5,0,0
216412,-100,4,2,1,70,0,0
220312,-58.8235294117647,4,2,1,70,0,0
221212,-100,4,2,1,70,0,0
222712,-58.8235294117647,4,2,1,70,0,0
223612,-100,4,2,1,70,0,0
225112,-58.8235294117647,4,2,1,70,0,0
226012,-100,4,2,1,70,0,0
226312,-58.8235294117647,4,2,1,70,0,0
227212,-100,4,2,1,70,0,0
227512,-58.8235294117647,4,2,1,70,0,0
229312,-100,4,2,1,70,0,0
229912,-66.6666666666667,4,2,1,70,0,0
239212,-50,4,2,1,70,0,0
239512,-66.6666666666667,4,2,1,70,0,0
244312,-50,4,2,1,70,0,0
246712,-66.6666666666667,4,2,1,70,0,0
249112,-50,4,2,1,100,0,1
262912,-66.6666666666667,4,2,1,70,0,0
267712,-40,4,2,1,70,0,1
268312,-250,4,2,1,70,0,0
268612,-66.6666666666667,4,2,1,70,0,0
277912,-50,4,2,1,70,0,0
282112,-100,4,2,1,70,0,0
283012,-66.6666666666667,4,2,1,70,0,0
283912,-100,4,2,1,70,0,0
284212,-66.6666666666667,4,2,1,70,0,0
286312,-250,4,2,1,70,0,0
287512,-133.333333333333,4,2,1,70,0,0
288487,-133.333333333333,4,2,1,5,0,0
288562,-133.333333333333,4,2,1,70,0,0
297112,-66.6666666666667,4,2,1,70,0,0
306712,-100,4,2,1,70,0,0
309112,-100,4,2,1,30,0,0
310312,-100,4,2,1,40,0,0
310912,-100,4,2,1,60,0,0
313912,-66.6666666666667,4,2,1,70,0,0
316312,-58.8235294117647,4,2,1,100,0,1
318412,-40,4,2,1,100,0,1
318712,-50,4,2,1,100,0,1
321112,-58.8235294117647,4,2,1,100,0,1
321712,-50,4,2,1,100,0,1
323512,-66.6666666666667,4,2,1,100,0,1
323737,-66.6666666666667,4,2,1,5,0,1
323812,-66.6666666666667,4,2,1,100,0,1
325912,-40,4,2,1,100,0,0
326212,-58.8235294117647,4,2,1,100,0,1
328012,-40,4,2,1,100,0,1
328312,-50,4,2,1,100,0,1
330712,-40,4,2,1,100,0,1
331012,-66.6666666666667,4,2,1,100,0,1
333112,-133.333333333333,4,2,1,100,0,1
333412,-66.6666666666667,4,2,1,100,0,1
333712,-50,4,2,1,100,0,1
334012,-66.6666666666667,4,2,1,100,0,1
334312,-200,4,2,1,100,0,1
335512,-100,4,2,1,50,0,0
335962,-100,4,2,1,5,0,0
336037,-100,4,2,1,50,0,0
337162,-100,4,2,1,5,0,0
337237,-100,4,2,1,50,0,0
337912,-111.111111111111,4,2,1,50,0,0
339112,-125,4,2,1,50,0,0
339562,-125,4,2,1,5,0,0
339637,-125,4,2,1,50,0,0
340312,-142.857142857143,4,2,1,50,0,0
341512,-166.666666666667,4,2,1,50,0,0
342712,-200,4,2,1,50,0,0
345112,-200,4,2,1,30,0,0
354712,-133.333333333333,4,2,1,10,0,0
363112,315.789473684211,4,2,1,10,1,0
363269,-133.333333333333,4,2,1,10,0,0
363743,352.941176470588,4,2,1,10,1,0
363743,-133.333333333333,4,2,1,10,0,0
364448,394.736842105263,4,2,1,10,1,0
364448,-133.333333333333,4,2,1,10,0,0
364842,441.176470588235,4,2,1,10,1,0
365283,468.75,4,2,1,10,1,0
365751,560.747663551402,4,2,1,10,1,0
366311,627.615062761506,4,2,1,10,1,0
367252,444.444444444444,4,2,1,10,1,0
367474,571.428571428571,4,2,1,10,1,0
367759,526.315789473684,4,2,1,10,1,0
369074,478.08764940239,4,2,1,10,1,0
374811,-25,4,2,1,10,0,0
374930,-1000,4,2,1,10,0,0

[Colours]
Combo1 : 224,116,214
Combo2 : 255,189,157
Combo3 : 191,213,249
Combo4 : 240,191,235
Combo5 : 252,235,141
Combo6 : 124,103,224

[HitObjects]
146,154,4312,38,0,L|215:152,1,60.0000022888184,0|0,0:2|0:2,0:2:0:0:
260,91,4612,2,0,L|319:92,2,60.0000022888184,2|0|0,0:2|0:2|0:2,0:2:0:0:
195,38,5062,2,0,L|135:39,2,60.0000022888184,2|0|0,0:2|0:2|0:2,0:2:0:0:
260,91,5512,1,0,0:2:0:0:
260,91,5662,70,0,L|319:92,2,60.0000022888184,2|0|0,0:2|0:2|0:2,0:2:0:0:
205,153,6112,1,0,0:0:0:0:
205,153,6262,2,0,L|146:154,2,60.0000022888184,0|0|0,0:2|0:2|0:2,0:2:0:0:
180,334,6712,54,0,B|172:302|172:302|182:255,1,60.0000022888184,0|0,0:2|0:2,0:2:0:0:
91,219,7012,2,0,B|96:245|96:245|88:277,2,60.0000022888184,2|0|0,0:2|0:2|0:2,0:2:0:0:
145,153,7462,2,0,B|137:121|137:121|142:94,2,60.0000022888184,2|0|0,0:2|0:2|0:2,0:2:0:0:
91,219,7912,1,0,0:2:0:0:
91,219,8062,70,0,B|96:245|96:245|88:277,2,60.0000022888184,2|0|0,0:2|0:2|0:2,0:2:0:0:
46,143,8512,2,0,B|38:111|38:111|44:85,1,60.0000022888184,0|0,0:2|0:2,0:2:0:0:
144,35,8812,2,0,B|150:62|150:62|142:94,1,60.0000022888184,0|0,0:2|0:2,0:2:0:0:
228,122,9112,54,0,L|296:116,1,60.0000022888184,0|0,0:2|0:2,0:2:0:0:
372,81,9412,2,0,L|431:86,2,60.0000022888184,2|0|0,0:2|0:2|0:2,0:2:0:0:
301,16,9862,2,0,L|241:21,2,60.0000022888184,2|0|0,0:2|0:2|0:2,0:2:0:0:
372,81,10312,1,0,0:2:0:0:
372,81,10462,70,0,L|431:86,2,60.0000022888184,2|0|0,0:2|0:2|0:2,0:2:0:0:
287,116,10912,1,0,0:0:0:0:
287,116,11062,2,0,L|228:122,2,60.0000022888184,0|0|0,0:2|0:2|0:2,0:2:0:0:
278,264,11512,54,0,P|270:227|276:193,1,60.0000022888184,0|0,0:2|0:2,0:2:0:0:
359,302,11812,2,0,P|360:331|353:360,2,60.0000022888184,2|0|0,0:2|0:2|0:2,0:2:0:0:
418,239,12262,2,0,P|410:210|412:180,2,60.0000022888184,2|0|0,0:2|0:2|0:2,0:2:0:0:
359,302,12712,1,0,0:2:0:0:
359,302,12862,70,0,P|360:331|353:360,2,60.0000022888184,2|0|0,0:2|0:2|0:2,0:2:0:0:
278,264,13312,2,0,P|270:235|272:205,1,60.0000022888184,0|0,0:2|0:2,0:2:0:0:
337,79,13612,2,0,P|338:108|331:137,1,60.0000022888184,0|0,0:2|0:2,0:2:0:0:
208,146,13912,54,0,L|148:141,1,60.0000022888184,0|0,0:2|0:2,0:2:0:0:
277,83,14212,1,2,0:2:0:0:
277,83,14362,2,0,L|347:78,1,60.0000022888184,0|0,0:2|0:2,0:2:0:0:
204,35,14662,2,0,L|134:30,2,60.0000022888184,2|0|0,0:2|0:2|0:2,0:2:0:0:
208,146,15112,69,0,0:2:0:0:
208,146,15262,1,0,0:2:0:0:
208,146,15412,2,0,L|148:141,1,60.0000022888184,0|0,0:2|0:2,0:2:0:0:
26,96,15712,2,0,L|85:91,1,60.0000022888184,0|0,0:2|0:2,0:2:0:0:
147,140,16012,1,0,0:2:0:0:
147,140,16162,1,0,0:2:0:0:
86,204,16312,54,0,B|76:237|76:237|84:282,1,60.0000022888184,0|0,0:2|0:2,0:2:0:0:
172,347,16612,1,2,0:2:0:0:
172,347,16762,2,0,B|176:321|176:321|166:288,1,60.0000022888184,0|0,0:2|0:2,0:2:0:0:
86,204,17062,2,0,B|76:237|76:237|80:262,2,60.0000022888184,2|0|0,0:2|0:2|0:2,0:2:0:0:
147,140,17512,69,0,0:2:0:0:
147,140,17662,1,0,0:2:0:0:
147,140,17812,2,0,B|151:114|151:114|141:81,1,60.0000022888184,0|0,0:2|0:2,0:2:0:0:
63,15,18112,2,0,B|53:48|53:48|57:73,1,60.0000022888184,0|0,0:2|0:2,0:2:0:0:
187,13,18412,1,0,0:2:0:0:
187,13,18562,1,0,0:2:0:0:
251,68,18712,54,0,P|292:68|322:59,1,60.0000022888184,0|0,0:2|0:2,0:2:0:0:
387,36,19012,1,2,0:2:0:0:
387,36,19162,2,0,P|416:41|446:40,1,60.0000022888184,0|0,0:2|0:2,0:2:0:0:
402,137,19462,2,0,P|372:142|342:141,2,60.0000022888184,2|0|0,0:2|0:2|0:2,0:2:0:0:
445,220,19912,69,0,0:2:0:0:
445,220,20062,1,0,0:2:0:0:
445,220,20212,2,0,P|475:226|505:225,1,60.0000022888184,0|0,0:2|0:2,0:2:0:0:
392,288,20512,2,0,P|362:293|332:292,1,60.0000022888184,0|0,0:2|0:2,0:2:0:0:
257,234,20812,1,0,0:2:0:0:
257,234,20962,1,0,0:2:0:0:
180,280,21112,54,0,L|187:352,1,60.0000022888184,0|0,0:2|0:2,0:2:0:0:
100,250,21412,1,2,0:2:0:0:
100,250,21562,2,0,L|105:190,1,60.0000022888184,0|0,0:2|0:2,0:2:0:0:
188,103,21862,2,0,L|193:162,2,60.0000022888184,2|0|0,0:2|0:2|0:2,0:2:0:0:
110,19,22312,69,0,0:2:0:0:
110,19,22462,1,0,0:2:0:0:
110,19,22612,2,0,L|104:78,1,60.0000022888184,0|0,0:2|0:2,0:2:0:0:
188,103,22912,2,0,L|193:162,1,60.0000022888184,0|0,0:2|0:2,0:2:0:0:
205,256,23212,1,0,0:2:0:0:
205,256,23362,1,0,0:2:0:0:
276,197,23512,54,0,P|321:187|392:199,2,80.0000030517579,2|0|2,0:2|0:2|0:2,0:2:0:0:
205,256,24112,1,0,0:2:0:0:
152,180,24512,1,0,0:2:0:0:
149,160,24612,1,0,0:2:0:0:
143,140,24712,70,0,P|98:130|51:133,2,80.0000030517579,0|0|0,0:2|0:2|0:2,0:2:0:0:
215,92,25312,1,0,0:2:0:0:
399,146,25912,54,0,L|394:236,2,80.0000030517579,2|0|2,0:2|0:2|0:2,0:2:0:0:
459,80,26512,1,0,0:2:0:0:
299,29,26912,1,0,0:2:0:0:
302,48,27012,1,0,0:2:0:0:
304,67,27112,70,0,L|299:157,2,80.0000030517579,0|0|0,0:2|0:2|0:2,0:2:0:0:
389,30,27712,1,0,0:2:0:0:
95,109,28312,54,0,L|90:29,2,80.0000030517579,2|0|2,0:2|0:2|0:2,0:2:0:0:
152,171,28912,2,0,P|156:213|127:263,1,80.0000030517579,0|0,0:2|0:2,0:2:0:0:
88,311,29312,1,0,0:2:0:0:
72,323,29412,1,0,0:2:0:0:
57,337,29512,70,0,L|52:257,2,80.0000030517579,2|0|2,0:2|0:2|0:2,0:2:0:0:
141,247,30112,2,0,P|183:243|233:272,1,80.0000030517579,0|0,0:2|0:2,0:2:0:0:
267,322,30512,1,0,0:2:0:0:
330,259,30712,54,0,L|334:179,2,80.0000030517579,2|0|2,0:2|0:2|0:2,0:2:0:0:
379,337,31312,2,0,P|452:337|482:317,1,80.0000030517579,0|0,0:2|0:2,0:2:0:0:
500,265,31712,1,0,0:2:0:0:
503,245,31812,1,0,0:2:0:0:
506,225,31912,2,0,L|501:102,1,120.000004577637,2|2,0:2|0:2,0:2:0:0:
420,63,32362,69,0,0:2:0:0:
420,63,32437,1,0,0:2:0:0:
420,63,32512,2,0,L|417:113,3,30.0000011444092,2|0|0|0,0:2|0:2|0:2|0:2,0:2:0:0:
333,56,32812,2,0,L|331:26,3,30.0000011444092,0|0|0|0,0:2|0:2|0:2|0:2,0:2:0:0:
272,122,33112,54,0,B|284:160|284:160|278:222,2,80.0000030517579,2|0|2,0:2|0:2|0:2,0:2:0:0:
223,50,33712,1,0,0:2:0:0:
57,111,34112,1,0,0:2:0:0:
60,130,34212,1,0,0:2:0:0:
63,149,34312,70,0,B|51:187|51:187|57:249,2,80.0000030517579,0|0|0,0:2|0:2|0:2,0:2:0:0:
146,102,34912,1,0,0:2:0:0:
89,307,35512,54,0,L|-24:304,2,80.0000030517579,2|0|2,0:2|0:2|0:2,0:2:0:0:
181,314,36112,1,0,0:2:0:0:
396,252,36512,1,0,0:2:0:0:
393,232,36612,1,0,0:2:0:0:
391,212,36712,70,0,L|394:99,2,80.0000030517579,0|0|0,0:2|0:2|0:2,0:2:0:0:
311,250,37312,1,0,0:2:0:0:
199,85,37912,54,0,P|258:71|297:79,2,80.0000030517579,2|0|2,0:2|0:2|0:2,0:2:0:0:
124,136,38512,2,0,P|84:136|46:124,1,80.0000030517579,0|0,0:2|0:2,0:2:0:0:
16,212,38912,1,0,0:2:0:0:
19,231,39012,1,0,0:2:0:0:
23,250,39112,70,0,B|34:287|34:287|31:348,2,80.0000030517579,2|0|0,0:2|0:2|0:2,0:2:0:0:
114,236,39712,2,0,P|151:223|231:243,1,120.000004577637,0|0,0:2|0:2,0:2:0:0:
287,307,40162,1,0,0:2:0:0:
288,151,40312,54,8,L|280:111,3,40,8|8|8|8,0:2|0:2|0:2|0:2,0:2:0:0:
352,199,40612,2,8,L|345:239,3,40,8|8|8|8,0:2|0:2|0:2|0:2,0:2:0:0:
273,157,40912,70,8,L|265:117,1,40,8|8,0:2|0:2,0:2:0:0:
361,209,41062,2,8,L|353:248,1,40,8|8,0:2|0:2,0:2:0:0:
263,162,41212,2,8,L|255:122,1,40,8|8,0:2|0:2,0:2:0:0:
368,215,41362,2,8,L|360:254,1,40,8|8,0:2|0:2,0:2:0:0:
151,19,41512,37,8,3:2:0:0:
119,41,41587,1,8,3:2:0:0:
102,76,41662,1,8,3:2:0:0:
105,116,41737,1,8,3:2:0:0:
127,149,41812,1,8,3:2:0:0:
160,171,41887,1,8,3:2:0:0:
177,206,41962,1,8,3:2:0:0:
174,246,42037,1,8,3:2:0:0:
139,310,42112,54,0,P|101:306|39:358,1,112,8|0,0:2|0:2,0:2:0:0:
43,347,42712,54,0,B|111:331|151:359|151:359|198:340|198:340|241:379|334:352,1,272.000005187988,0|0,3:2|0:2,0:2:0:0:
265,141,43162,38,0,B|262:107|226:82|226:82|189:185|268:280,1,272.000005187988,0|0,3:2|0:2,0:2:0:0:
328,228,43612,1,0,0:2:0:0:
328,228,43762,22,0,P|376:224|425:241,1,80,0|0,0:2|0:2,0:2:0:0:
488,136,44062,2,0,P|440:132|391:149,1,80,0|0,0:2|0:2,0:2:0:0:
326,47,44362,2,0,P|365:42|404:50,1,80,0|0,0:2|0:2,0:2:0:0:
288,127,44662,21,0,0:2:0:0:
256,102,44812,1,0,0:2:0:0:
240,65,44962,1,0,0:2:0:0:
85,215,45112,70,0,B|120:119|135:79|79:22|16:49|5:96|27:126,1,272.000005187988,0|0,3:2|0:2,0:2:0:0:
37,303,45562,38,0,B|101:332|166:279|166:279|245:256|342:327,1,272.000005187988,0|2,3:2|0:2,0:2:0:0:
377,338,46012,1,2,0:2:0:0:
377,338,46162,22,0,L|379:253,1,80,2|0,0:2|0:2,0:2:0:0:
464,248,46462,2,0,L|462:163,1,80,0|0,0:2|0:2,0:2:0:0:
379,133,46762,2,0,L|381:48,1,80,0|0,0:2|0:2,0:2:0:0:
467,30,47062,21,2,0:2:0:0:
378,155,47212,1,2,0:2:0:0:
302,19,47362,1,2,0:2:0:0:
68,134,47512,70,0,B|266:122|266:122|175:158,1,272.000005187988,2|0,3:2|0:2,0:2:0:0:
86,266,47962,38,0,B|59:329|59:329|34:227|34:227|72:120,1,272.000005187988,0|0,3:2|0:2,0:2:0:0:
97,54,48412,1,0,0:2:0:0:
97,54,48562,1,0,0:2:0:0:
169,232,48712,38,0,B|245:246|286:192|292:149|292:149|291:225|366:260,1,272.000005187988,0|0,3:2|0:2,0:2:0:0:
491,166,49162,38,0,P|437:80|407:189,1,272.000005187988,0|0,3:2|0:2,0:2:0:0:
468,253,49612,1,0,0:2:0:0:
468,253,49762,1,0,0:2:0:0:
356,370,49912,38,0,B|171:363|171:363|237:357|264:315,1,272.000005187988,2|0,3:2|0:2,0:2:0:0:
373,270,50362,38,0,B|349:215|373:169|373:169|359:125|359:125|410:70|359:-23,1,272.000005187988,0|2,3:2|0:2,0:2:0:0:
287,57,50812,1,2,0:2:0:0:
287,57,50962,1,2,0:2:0:0:
91,89,51112,22,0,P|137:72|211:163,1,160,0|0,3:2|0:2,0:2:0:0:
58,191,51562,1,0,3:2:0:0:
55,210,51637,1,0,3:2:0:0:
53,229,51712,22,0,L|46:297,1,40,8|0,0:2|0:2,0:2:0:0:
137,299,51862,1,0,3:2:0:0:
139,318,51937,2,0,L|146:386,1,40,8|0,0:2|0:2,0:2:0:0:
226,358,52087,1,0,3:2:0:0:
245,357,52162,1,8,0:2:0:0:
264,356,52237,1,8,0:2:0:0:
284,356,52312,70,0,B|474:351|474:351|414:353|371:310,1,272.000005187988,0|0,3:2|0:2,0:2:0:0:
381,171,52762,38,0,P|492:216|397:225,1,272.000005187988,0|0,3:2|0:2,0:2:0:0:
352,258,53212,1,0,0:2:0:0:
352,258,53362,22,0,P|294:256|265:243,1,80,0|0,0:2|0:2,0:2:0:0:
145,179,53662,2,0,P|203:177|232:164,1,80,0|0,0:2|0:2,0:2:0:0:
308,89,53962,2,0,P|250:87|221:74,1,80,0|0,0:2|0:2,0:2:0:0:
159,33,54262,21,0,0:2:0:0:
189,6,54412,1,0,0:2:0:0:
229,0,54562,1,0,0:2:0:0:
22,181,54712,70,0,B|79:206|157:204|146:156|222:145|318:209,1,272.000005187988,0|0,3:2|0:2,0:2:0:0:
317,316,55162,38,0,B|288:340|282:378|282:378|222:267|300:168,1,272.000005187988,0|2,3:2|0:2,0:2:0:0:
336,114,55612,1,2,0:2:0:0:
336,114,55762,22,0,L|341:25,1,80,2|0,0:2|0:2,0:2:0:0:
425,186,56062,2,0,L|420:97,1,80,0|0,0:2|0:2,0:2:0:0:
500,298,56362,2,0,L|505:209,1,80,0|0,0:2|0:2,0:2:0:0:
510,136,56662,21,2,0:2:0:0:
415,206,56812,1,2,0:2:0:0:
496,318,56962,1,2,0:2:0:0:
420,106,57112,70,0,B|343:96|305:160|305:160|255:94|149:107,1,272.000005187988,2|0,3:2|0:2,0:2:0:0:
194,323,57562,38,0,P|254:270|124:266,1,272.000005187988,0|0,3:2|0:2,0:2:0:0:
107,307,58012,1,0,0:2:0:0:
107,307,58162,1,0,0:2:0:0:
43,182,58312,38,0,B|26:3|26:3|106:130,1,272.000005187988,0|0,3:2|0:2,0:2:0:0:
131,224,58762,38,0,B|213:205|213:205|295:229|295:229|419:196,1,272.000005187988,0|0,3:2|0:2,0:2:0:0:
478,235,59212,1,0,0:2:0:0:
478,235,59362,1,0,0:2:0:0:
383,92,59512,38,0,B|356:162|394:203|394:203|358:237|358:237|407:287|370:374,1,272.000005187988,2|0,3:2|0:2,0:2:0:0:
118,318,59962,38,0,B|186:330|220:270|220:270|261:359|301:335|325:283|291:282|269:301,1,272.000005187988,0|2,3:2|0:2,0:2:0:0:
118,318,60412,21,2,3:2:0:0:
78,146,60562,2,0,L|88:36,1,80,2|0,3:2|0:2,0:2:0:0:
213,190,60862,2,0,L|220:269,1,80,0|0,3:2|0:2,0:2:0:0:
424,101,61162,21,0,3:2:0:0:
384,92,61237,1,0,3:2:0:0:
344,84,61312,1,8,0:2:0:0:
213,190,61462,1,0,3:2:0:0:
253,182,61537,1,8,0:2:0:0:
370,326,61687,1,0,3:2:0:0:
330,317,61762,1,8,0:2:0:0:
290,309,61837,1,8,0:2:0:0:
253,299,61912,54,0,P|215:323|270:207,1,448,0|0,3:2|0:2,0:2:0:0:
407,207,64162,1,0,0:2:0:0:
407,207,64312,70,0,B|432:167|440:109|401:59|401:59|407:97|380:133,1,224,0|0,0:2|0:2,0:2:0:0:
318,78,65512,2,0,L|277:73,2,32,0|0|0,0:2|0:2|0:2,0:2:0:0:
209,17,65962,54,0,B|196:86|196:86|218:136|218:136|211:183|211:183|157:240,1,223.999993164063,0|0,0:2|0:2,0:2:0:0:
95,302,66712,38,0,B|254:293|254:293|189:331,1,224,0|0,0:2|0:2,0:2:0:0:
24,347,67912,70,0,P|11:308|111:222,1,192,0|0,0:2|0:2,0:2:0:0:
186,195,68962,1,0,0:2:0:0:
186,195,69112,6,0,B|193:153|193:153|163:28|163:28|161:92,1,224,0|0,0:2|0:2,0:2:0:0:
256,66,70312,70,0,L|296:59,1,32,0|0,0:2|0:2,0:2:0:0:
368,47,70612,2,0,L|399:41,1,32,0|0,0:2|0:2,0:2:0:0:
492,155,70912,70,0,B|506:194|506:194|501:237|501:237|506:240|506:240|496:240|496:240|501:244|501:244|484:356|484:356|456:265,1,287.999991210938,2|0,0:2|0:2,0:0:0:0:
395,232,71512,22,0,B|286:198|282:290|174:232,1,224,0|0,0:2|0:2,0:2:0:0:
236,168,72712,2,0,L|240:125,2,32,0|0|0,0:2|0:2|0:2,0:2:0:0:
179,234,73162,2,0,L|186:312,1,64,0|0,0:2|0:2,0:2:0:0:
261,323,73612,2,0,L|263:354,1,32,0|0,0:2|0:2,0:2:0:0:
179,234,73912,70,0,B|119:201|60:239|60:239|81:228|106:236,1,160,0|0,0:2|0:2,0:2:0:0:
105,309,74812,2,0,L|100:353,1,32,0|0,0:2|0:2,0:2:0:0:
93,233,75112,2,0,L|83:125,1,96,0|0,0:2|0:2,0:2:0:0:
58,51,75712,54,0,B|125:45|125:45|150:57|150:57|248:47,1,167.999994873047,0|0,0:2|0:2,0:2:0:0:
328,50,76312,38,0,B|326:103|284:130|284:130|327:162|325:228,1,192,0|0,0:2|0:2,0:2:0:0:
143,224,77362,1,0,0:2:0:0:
143,224,77512,70,0,P|178:178|185:274,1,224,0|0,0:2|0:2,0:2:0:0:
64,308,78712,6,0,B|51:257|51:257|82:107,1,191.999994140625,0|0,0:2|0:2,0:2:0:0:
46,42,79462,1,0,0:2:0:0:
46,42,79762,1,0,0:2:0:0:
80,121,79912,70,0,B|162:90|222:95|230:160|319:158|402:99|402:99|318:120|280:91,1,448,0|0,0:2|0:2,0:2:0:0:
293,99,81112,5,0,0:2:0:0:
293,99,81412,2,0,P|266:155|299:234,1,128,2|0,0:2|0:2,0:2:0:0:
333,303,81862,2,0,L|202:289,1,128,2|0,0:2|0:2,0:2:0:0:
129,275,82312,2,0,L|122:344,1,64,2|0,0:2|0:2,0:2:0:0:
51,268,82612,70,0,L|64:133,1,128,2|0,0:2|0:2,0:2:0:0:
21,66,83062,2,0,P|55:57|141:104,1,128,2|0,0:2|0:2,0:2:0:0:
144,179,83512,54,0,L|283:172,1,128,2|0,0:2|0:2,0:2:0:0:
302,97,83962,2,0,L|429:103,1,128,2|0,0:2|0:2,0:2:0:0:
489,164,84412,2,0,B|492:200|492:200|480:238,1,64,2|0,0:2|0:2,0:2:0:0:
299,276,84712,70,0,B|450:290,1,128,2|0,0:2|0:2,0:2:0:0:
417,369,85162,2,0,B|289:357,1,128,2|0,0:2|0:2,0:2:0:0:
160,303,85612,2,0,L|229:311,1,64,2|0,0:2|0:2,0:2:0:0:
352,260,85912,54,0,P|340:198|363:139,1,128,2|0,0:2|0:2,0:2:0:0:
450,152,86362,2,0,P|461:89|439:30,1,128,2|0,0:2|0:2,0:2:0:0:
349,16,86812,2,0,L|273:15,1,64,2|0,0:2|0:2,0:2:0:0:
198,174,87112,70,0,B|213:126|213:126|179:39,1,128,2|0,0:2|0:2,0:2:0:0:
44,125,87562,2,0,B|21:135|21:135|124:131,1,128,2|0,0:2|0:2,0:2:0:0:
184,53,88012,2,0,L|106:54,1,64,2|0,0:2|0:2,0:2:0:0:
44,125,88312,54,0,B|39:175|39:175|50:199|50:199|46:272,1,128,2|0,0:2|0:2,0:2:0:0:
42,341,88762,2,0,P|96:315|176:344,1,128,2|0,0:2|0:2,0:2:0:0:
222,282,89212,2,0,P|263:275|301:289,1,64,2|0,0:2|0:2,0:2:0:0:
365,355,89512,70,0,L|380:206,1,128,2|0,0:2|0:2,0:2:0:0:
385,141,89962,1,2,0:2:0:0:
385,141,90112,2,0,L|390:89,3,32,2|0|0|0,0:2|0:2|0:2|0:2,0:2:0:0:
301,174,90412,2,0,L|297:205,3,32,2|0|0|0,0:2|0:2|0:2|0:2,0:2:0:0:
176,66,90712,53,0,3:2:0:0:
176,66,91162,2,0,L|173:123,1,32,0|0,3:2|3:2,0:2:0:0:
169,200,91312,1,8,0:2:0:0:
169,200,92062,70,0,P|125:192|91:201,1,64,0|0,3:2|0:2,0:2:0:0:
37,239,92362,1,0,3:2:0:0:
185,211,92512,1,8,0:2:0:0:
37,239,92662,1,0,3:2:0:0:
37,239,93112,53,0,3:2:0:0:
37,239,93562,2,0,L|40:296,1,32,0|0,3:2|3:2,0:2:0:0:
45,357,93712,1,8,0:2:0:0:
45,357,94012,1,0,3:2:0:0:
117,306,94162,70,0,P|179:292|249:339,2,128,0|0|0,3:2|3:2|3:2,0:2:0:0:
45,357,94912,1,8,0:2:0:0:
342,198,95512,53,0,3:2:0:0:
342,198,95962,2,0,L|339:255,1,32,0|0,3:2|3:2,0:2:0:0:
336,315,96112,1,8,0:2:0:0:
336,315,96862,70,0,P|304:305|269:311,1,64,0|0,3:2|0:2,0:2:0:0:
201,350,97162,1,0,3:2:0:0:
354,330,97312,1,8,0:2:0:0:
201,350,97462,1,0,3:2:0:0:
201,350,97912,53,0,3:2:0:0:
201,350,98362,2,0,L|199:318,1,32,0|0,3:2|3:2,0:2:0:0:
196,225,98512,1,8,0:2:0:0:
196,225,98812,1,0,3:2:0:0:
123,274,98962,70,0,B|82:287|82:287|-7:281,2,128,0|0|0,3:2|3:2|3:2,0:2:0:0:
304,150,99712,1,8,0:2:0:0:
304,150,100312,54,0,L|204:142,1,80,0|0,3:2|0:2,0:2:0:0:
175,79,100612,2,0,L|95:85,1,80,0|0,3:2|0:2,0:2:0:0:
79,165,100912,2,0,L|-1:159,1,80,8|0,3:2|0:2,0:2:0:0:
304,150,101212,70,0,B|315:105|315:105|302:47,1,80,0|0,3:2|0:2,0:2:0:0:
224,143,101512,2,0,B|216:175|216:175|227:220,1,80,0|0,3:2|0:2,0:2:0:0:
303,315,101812,2,0,B|314:270|314:270|306:237,1,80,0|0,3:2|0:2,0:2:0:0:
212,306,102112,2,0,B|204:339|204:339|215:384,1,80,8|0,0:2|0:2,0:2:0:0:
131,185,102412,54,0,L|51:191,1,80,0|0,3:2|0:2,0:2:0:0:
224,143,102712,2,0,L|303:136,1,80,0|0,3:2|0:2,0:2:0:0:
480,158,103012,2,0,L|400:164,1,80,0|0,3:2|0:2,0:2:0:0:
306,237,103312,2,0,L|226:243,1,80,8|0,0:2|0:2,0:2:0:0:
266,36,103612,70,0,B|304:22|304:22|371:30,1,80,0|0,3:2|0:2,0:2:0:0:
138,76,103912,2,0,B|100:62|100:62|33:70,1,80,0|0,3:2|0:2,0:2:0:0:
224,143,104212,2,0,B|262:129|262:129|329:137,1,80,0|0,3:2|0:2,0:2:0:0:
116,202,104512,2,0,B|78:188|78:188|11:196,1,80,8|0,0:2|0:2,0:2:0:0:
223,270,104812,2,0,B|261:256|261:256|328:264,1,80,0|0,3:2|0:2,0:2:0:0:
38,192,105112,5,8,0:2:0:0:
92,291,105262,1,0,3:2:0:0:
102,117,105412,69,8,0:2:0:0:
99,263,105562,1,0,3:2:0:0:
192,94,105712,5,8,0:2:0:0:
118,246,105862,1,0,3:2:0:0:
282,111,106012,69,8,0:2:0:0:
148,242,106162,1,0,3:2:0:0:
421,145,106312,5,8,0:2:0:0:
367,244,106462,1,0,3:2:0:0:
357,70,106612,69,8,0:2:0:0:
360,216,106762,1,0,3:2:0:0:
267,47,106912,5,8,0:2:0:0:
341,199,107062,1,0,3:2:0:0:
177,64,107212,69,8,0:2:0:0:
311,195,107362,1,0,3:2:0:0:
162,297,107512,5,8,3:2:0:0:
154,257,107587,1,0,3:2:0:0:
146,217,107662,2,0,L|134:154,1,60.0000022888184,0|0,3:2|3:2,3:2:0:0:
267,47,107812,69,8,3:2:0:0:
259,87,107887,1,0,3:2:0:0:
251,127,107962,2,0,L|239:190,1,60.0000022888184,0|0,3:2|3:2,3:2:0:0:
368,337,108112,5,8,3:2:0:0:
360,297,108187,1,0,3:2:0:0:
352,257,108262,2,0,L|340:194,1,60.0000022888184,0|0,3:2|3:2,3:2:0:0:
326,51,108412,69,8,3:2:0:0:
267,47,108487,1,0,3:2:0:0:
207,44,108562,1,0,3:2:0:0:
147,41,108637,1,0,3:2:0:0:
49,31,108712,5,0,3:2:0:0:
424,316,109612,22,0,L|419:365,3,30.0000011444092,0|0|0|0,0:2|0:2|0:2|0:2,0:2:0:0:
364,255,109912,6,0,B|283:226|240:283|240:283|190:209|71:258,1,272.000005187988,4|0,3:2|0:2,0:2:0:0:
47,290,110287,1,0,0:2:0:0:
47,290,110362,2,0,L|35:212,1,68.0000012969971,0|0,3:2|3:2,0:2:0:0:
208,47,110512,70,0,B|341:36|341:36|285:75,1,180.000006866455,10|0,0:2|0:2,0:2:0:0:
118,111,110812,2,0,B|103:50|103:50|136:-17,1,120.000004577637,2|0,0:2|0:2,0:2:0:0:
415,108,111037,1,2,0:2:0:0:
404,135,111112,54,0,L|274:153,1,120.000004577637,2|0,0:2|3:2,0:2:0:0:
22,249,111337,1,2,0:2:0:0:
36,222,111412,2,0,L|154:205,1,120.000004577637,2|0,0:2|3:2,0:2:0:0:
298,282,111637,1,2,0:2:0:0:
274,263,111712,70,0,B|259:202|259:202|292:135,1,120.000004577637,10|0,0:2|3:2,0:2:0:0:
501,153,111937,1,2,0:2:0:0:
496,182,112012,1,2,0:0:0:0:
490,211,112087,2,0,L|390:228,1,60.0000022888184,2|0,0:2|0:2,0:2:0:0:
93,259,112237,1,2,0:2:0:0:
154,334,112312,54,0,B|198:295|213:232|175:181|106:180|106:180|144:186|159:211,1,272.000005187988,2|0,3:2|0:2,0:2:0:0:
217,140,112687,1,0,0:2:0:0:
217,140,112762,2,0,L|304:134,1,68.0000012969971,0|0,3:2|3:2,0:2:0:0:
511,381,112912,70,0,B|531:315|531:315|483:191,1,180.000006866455,10|0,0:2|0:2,0:2:0:0:
408,58,113212,2,0,L|394:190,1,120.000004577637,2|0,3:2|3:2,0:2:0:0:
266,311,113437,1,2,0:2:0:0:
279,337,113512,54,0,P|367:360|422:315,1,120.000004577637,2|0,0:2|3:2,0:2:0:0:
253,106,113737,1,2,0:2:0:0:
248,140,113812,2,0,B|233:234,2,60.0000022888184,2|2|0,0:2|0:2|3:2,0:2:0:0:
26,141,114037,1,2,0:0:0:0:
17,108,114112,70,0,P|27:70|54:41,1,80,10|0,0:2|0:2,0:2:0:0:
104,105,114262,2,0,P|138:85|178:84,1,80,2|0,0:2|0:2,0:2:0:0:
171,162,114412,2,0,P|209:173|239:200,1,80,2|0,0:2|0:2,0:2:0:0:
162,255,114562,2,0,P|182:289|185:329,1,80,2|0,0:2|0:2,0:2:0:0:
31,241,114712,54,0,B|84:242|84:242|121:225|121:225|162:256|162:256|216:231|216:231|320:233,1,272.000005187988,2|0,3:2|0:2,0:2:0:0:
357,326,115087,1,0,0:2:0:0:
357,326,115162,2,0,B|367:295|367:295|362:249,1,68.0000012969971,0|0,3:2|3:2,0:2:0:0:
197,1,115312,70,0,P|258:59|362:26,1,160,10|0,0:2|0:2,0:2:0:0:
457,13,115537,2,0,P|376:36|352:143,1,160,2|0,0:2|0:2,0:2:0:0:
314,226,115762,2,0,P|333:144|253:70,1,160,2|0,0:2|0:2,0:2:0:0:
128,153,115987,1,0,0:2:0:0:
162,173,116062,54,0,L|288:164,1,80,0|0,3:2|0:2,0:2:0:0:
393,220,116212,2,0,L|313:225,1,80,0|0,0:2|0:2,0:2:0:0:
151,278,116362,2,0,L|230:272,1,80,0|0,3:2|0:2,0:2:0:0:
446,284,116512,69,8,0:2:0:0:
463,91,116662,1,0,3:0:0:0:
480,128,116737,2,0,B|487:170|487:170|474:205,1,80,0|0,0:2|0:2,0:2:0:0:
338,338,116887,1,0,0:2:0:0:
319,302,116962,2,0,B|306:267|306:267|315:213,1,80,0|0,0:2|0:2,0:2:0:0:
331,72,117112,54,0,B|283:124|175:167|86:22|86:22|125:84|203:82,1,400,0|0,3:2|0:2,0:2:0:0:
232,233,117487,1,0,0:2:0:0:
232,233,117562,2,0,L|220:325,1,68.0000012969971,0|0,3:2|3:2,0:2:0:0:
61,314,117712,70,0,B|47:248|47:248|85:160,1,136.000002593994,8|0,0:2|0:2,0:2:0:0:
166,79,117937,1,0,0:2:0:0:
184,107,118012,2,0,L|172:199,1,68.0000012969971,0|0,3:2|0:2,0:2:0:0:
39,74,118162,54,0,B|50:11|50:11|74:185,1,240,0|0,3:2|0:2,0:2:0:0:
61,314,118462,70,0,B|116:281|175:298|175:298|171:301|171:301|224:328|292:301,1,240,0|0,3:2|0:2,0:2:0:0:
384,260,118762,2,0,B|373:298|373:298|387:364,1,80,0|0,3:2|0:2,0:2:0:0:
490,123,118912,38,0,B|449:121|449:121|442:116|442:116|442:123|442:123|435:119|435:119|392:118|392:118|354:132|354:132|254:129,1,224,10|0,0:2|0:2,0:2:0:0:
268,127,119512,6,0,B|301:184|301:184|287:313|287:313|220:387,1,272.000005187988,4|0,3:2|0:2,0:2:0:0:
208,278,119887,1,0,0:2:0:0:
208,278,119962,2,0,L|219:189,1,68.0000012969971,0|0,3:2|3:2,0:2:0:0:
2,44,120112,70,0,B|93:82|89:7|177:41,1,180.000006866455,10|0,0:2|0:2,0:2:0:0:
381,125,120412,2,0,P|324:109|268:126,1,120.000004577637,2|0,0:2|0:2,0:2:0:0:
309,336,120637,1,2,0:2:0:0:
323,309,120712,54,0,P|338:236|300:169,1,120.000004577637,2|0,0:2|3:2,0:2:0:0:
176,41,120937,1,2,0:2:0:0:
155,63,121012,2,0,P|138:119|154:176,1,120.000004577637,2|0,0:2|3:2,0:2:0:0:
214,361,121237,1,2,0:2:0:0:
198,335,121312,70,0,B|102:335|102:335|148:313,1,120.000004577637,10|0,0:2|3:2,0:2:0:0:
322,195,121537,1,2,0:2:0:0:
328,224,121612,1,2,0:0:0:0:
332,253,121687,2,0,B|356:255|356:255|440:231,1,60.0000022888184,2|0,0:2|0:2,0:2:0:0:
155,177,121837,1,2,0:2:0:0:
79,215,121912,54,0,B|57:148|106:115|106:115|36:141|-5:78|62:29|91:66|79:96,1,272.000005187988,2|0,3:2|0:2,0:2:0:0:
162,185,122287,1,0,0:2:0:0:
162,185,122362,2,0,L|271:186,1,68.0000012969971,0|0,3:2|3:2,0:2:0:0:
453,34,122512,70,0,B|328:35|328:35|249:83,1,180.000006866455,10|0,0:2|0:2,0:2:0:0:
332,253,122812,2,0,P|349:174|303:117,1,120.000004577637,2|0,3:2|3:2,0:2:0:0:
144,299,123037,1,2,0:2:0:0:
168,316,123112,54,0,B|209:329|209:329|319:317,1,120.000004577637,2|0,0:2|3:2,0:2:0:0:
139,204,123337,1,2,0:2:0:0:
115,187,123412,2,0,L|48:187,2,60.0000022888184,2|0|0,0:2|0:2|3:2,0:2:0:0:
332,141,123637,1,2,0:0:0:0:
359,114,123712,70,0,P|364:75|352:38,1,80,10|0,0:2|0:2,0:2:0:0:
397,191,123862,2,0,P|429:167|448:132,1,80,2|0,0:2|0:2,0:2:0:0:
372,278,124012,2,0,P|411:283|449:271,1,80,2|0,0:2|0:2,0:2:0:0:
286,321,124162,2,0,P|310:353|346:371,1,80,2|0,0:2|0:2,0:2:0:0:
253,202,124312,54,0,B|203:164|203:164|72:165|72:165|139:204,1,272.000005187988,2|0,3:2|0:2,0:2:0:0:
87,303,124687,1,0,0:2:0:0:
87,303,124762,2,0,B|125:309|125:309|154:304,1,68.0000012969971,0|0,3:2|3:2,0:2:0:0:
418,207,124912,70,0,P|343:220|270:106,1,160,10|0,0:2|0:2,0:2:0:0:
206,25,125137,2,0,P|255:82|193:202,1,160,2|0,0:2|0:2,0:2:0:0:
154,304,125362,2,0,P|180:232|315:226,1,160,2|0,0:2|0:2,0:2:0:0:
404,320,125587,1,0,0:2:0:0:
423,286,125662,54,0,L|416:188,1,80,0|0,3:2|0:2,0:2:0:0:
486,128,125812,2,0,L|491:48,1,80,0|0,0:2|0:2,0:2:0:0:
359,40,125962,2,0,L|353:119,1,80,0|0,3:2|0:2,0:2:0:0:
314,314,126112,69,8,0:2:0:0:
142,224,126262,1,0,3:2:0:0:
176,206,126337,2,0,B|214:195|214:195|313:213,1,80,0|0,0:2|0:2,0:2:0:0:
423,286,126487,1,0,0:2:0:0:
392,311,126562,2,0,B|354:322|354:322|255:304,1,80,0|0,0:2|0:2,0:2:0:0:
116,86,126712,54,0,L|341:85,1,180.000006866455,4|0,3:2|0:2,0:2:0:0:
396,22,127012,2,0,P|329:76|351:169,1,180.000006866455,8|0,0:2|0:2,0:2:0:0:
411,106,127312,1,0,3:2:0:0:
109,204,127462,69,0,0:2:0:0:
116,233,127537,1,0,0:2:0:0:
123,261,127612,1,8,0:2:0:0:
295,287,127762,1,0,0:2:0:0:
288,316,127837,1,0,0:2:0:0:
281,345,127912,54,0,B|218:361|218:361|84:336,1,180.000006866455,0|0,3:2|0:2,0:2:0:0:
34,131,128212,69,8,0:2:0:0:
22,313,128362,1,0,3:2:0:0:
77,62,128512,5,8,0:2:0:0:
97,281,128662,1,0,3:2:0:0:
101,310,128737,1,8,0:2:0:0:
104,339,128812,1,0,3:2:0:0:
281,345,128962,2,0,L|184:334,1,60.0000022888184,8|0,0:2|0:2,0:2:0:0:
34,131,129112,38,0,P|108:114|183:208,1,180.000006866455,0|0,3:2|0:2,0:2:0:0:
218,251,129712,70,0,L|296:245,1,60.0000022888184,0|0,0:2|0:2,0:2:0:0:
318,172,130012,2,0,L|377:176,1,60.0000022888184,0|0,0:2|0:2,0:2:0:0:
445,241,130312,6,8,L|453:290,7,30.0000011444092,8|8|8|8|8|8|8|8,0:2|0:2|0:2|0:2|0:2|0:2|0:2|0:2,0:2:0:0:
374,302,130912,2,8,L|366:351,7,40,8|8|8|8|8|8|8|8,0:2|0:2|0:2|0:2|0:2|0:2|0:2|0:2,0:2:0:0:
318,172,131512,22,0,B|257:132|197:129|136:194|136:194|172:164|241:173,1,272.000005187988,0|0,0:2|0:2,0:2:0:0:
249,234,131887,1,0,0:2:0:0:
249,234,131962,2,0,L|243:313,1,68.0000012969971,0|0,0:2|0:2,0:2:0:0:
138,347,132112,6,8,L|172:351,6,34.0000006484985,8|8|8|8|8|8|8,0:2|0:2|0:2|0:2|0:2|0:2|0:2,0:2:0:0:
94,255,132412,2,8,L|60:258,6,34.0000006484985,8|8|8|8|8|8|8,0:2|0:2|0:2|0:2|0:2|0:2|0:2,0:2:0:0:
165,167,132712,70,8,L|199:171,6,34.0000006484985,8|8|8|8|8|8|8,0:2|0:2|0:2|0:2|0:2|0:2|0:2,0:2:0:0:
73,81,133012,2,8,L|39:84,6,34.0000006484985,8|8|8|8|8|8|8,0:2|0:2|0:2|0:2|0:2|0:2|0:2,0:2:0:0:
189,0,133312,2,8,L|222:3,6,34.0000006484985,8|8|8|8|8|8|8,0:2|0:2|0:2|0:2|0:2|0:2|0:2,0:2:0:0:
150,85,133612,5,8,0:2:0:0:
163,86,133687,1,0,3:2:0:0:
176,87,133762,1,0,3:2:0:0:
189,88,133837,1,0,3:2:0:0:
269,89,133912,38,0,B|321:28|321:28|331:148|331:148|296:196|296:196|307:316,1,360.000013732911,4|0,3:2|0:2,0:2:0:0:
405,355,134437,1,0,3:2:0:0:
394,224,134512,70,0,P|441:221|459:211,1,60.0000022888184,8|0,0:2|0:2,0:2:0:0:
509,207,134737,2,0,P|462:210|444:220,1,60.0000022888184,0|0,0:2|0:2,0:2:0:0:
228,359,134962,54,0,L|211:258,1,100,0|0,3:2|0:2,0:2:0:0:
206,220,135412,2,0,L|213:266,1,40,0|0,3:2|0:2,0:2:0:0:
311,80,135637,1,0,3:2:0:0:
211,16,135712,70,0,P|154:0|99:21,1,120,8|0,0:2|0:2,0:2:0:0:
0,58,136012,2,0,P|66:73|134:28,1,120,0|0,0:2|0:2,0:2:0:0:
311,80,136312,70,0,B|378:24|378:24|339:237,1,240,2|0,3:2|0:2,0:2:0:0:
174,373,136612,2,0,B|161:307|161:307|147:286|147:286|134:219,1,160,2|0,0:2|0:2,0:2:0:0:
418,229,136837,1,0,3:2:0:0:
388,341,136912,70,0,L|306:346,1,60.0000022888184,8|0,0:2|0:2,0:2:0:0:
269,348,137137,2,0,L|329:344,1,60.0000022888184,0|0,0:2|0:2,0:2:0:0:
496,253,137362,70,0,P|499:212|491:192,1,60,0|0,3:2|0:2,0:2:0:0:
512,179,137662,54,0,P|504:138|491:121,1,60,0|0,3:2|0:2,0:2:0:0:
491,88,137812,2,0,P|464:56|444:48,1,60,0|0,3:2|0:2,0:2:0:0:
419,18,137962,2,0,P|378:15|358:23,1,60,0|0,3:2|0:2,0:2:0:0:
330,228,138112,1,8,0:2:0:0:
330,228,138262,54,0,L|220:226,1,60.0000022888184,2|0,3:2|0:2,0:2:0:0:
78,73,138412,38,0,B|83:28|122:6|122:6|169:29|219:121|70:273,1,300,2|0,0:2|0:2,0:2:0:0:
11,217,138712,22,0,B|271:227|271:227|147:277,1,360.000013732911,0|0,3:2|0:2,0:2:0:0:
25,323,139237,1,0,3:2:0:0:
11,217,139312,70,0,L|5:133,1,60.0000022888184,8|0,0:2|0:2,0:2:0:0:
2,97,139537,2,0,L|6:156,1,60.0000022888184,0|0,0:2|0:2,0:2:0:0:
310,242,139762,54,0,P|261:233|215:252,1,100,0|0,3:2|0:2,0:2:0:0:
178,264,140212,2,0,P|203:259|218:249,1,40,0|0,3:2|0:2,0:2:0:0:
374,336,140437,1,0,3:2:0:0:
271,336,140512,70,0,P|351:312|409:341,1,120,8|0,0:2|0:2,0:2:0:0:
487,323,140812,2,0,P|433:347|374:336,1,120,0|0,0:2|0:2,0:2:0:0:
398,128,141112,70,0,P|444:92|399:163,1,240,2|0,0:2|0:2,0:2:0:0:
356,197,141412,70,0,L|304:195,1,40,2|0,3:2|0:2,0:2:0:0:
73,97,141637,1,0,3:2:0:0:
128,196,141712,70,0,B|136:220|136:220|131:281,1,80,8|0,0:2|0:2,0:2:0:0:
128,353,141937,2,0,B|123:298|123:298|131:274,1,80,0|0,0:2|0:2,0:2:0:0:
468,297,142162,54,0,P|422:321|406:323,1,60,0|0,3:2|0:2,0:2:0:0:
421,346,142462,70,0,P|370:357|354:355,1,60,0|0,3:2|0:2,0:2:0:0:
342,375,142612,2,0,P|292:359|279:349,1,60.0000022888184,0|0,3:2|0:2,0:2:0:0:
249,344,142762,2,0,P|225:298|223:282,1,60,0|0,3:2|0:2,0:2:0:0:
215,135,142912,1,8,0:2:0:0:
215,135,143062,70,0,L|204:46,1,60.0000022888184,2|0,3:2|0:2,0:2:0:0:
0,196,143212,38,0,B|79:163|142:193|142:193|143:202|143:202|209:234|317:195,1,300,2|0,0:2|0:2,0:2:0:0:
406,277,143512,22,0,B|446:348|339:362|330:280|391:229|391:229|463:173|438:86|402:38|402:38|412:89|372:150,1,480,4|0,3:2|0:2,0:2:0:0:
215,135,144037,1,0,3:2:0:0:
197,25,144112,70,0,P|162:21|117:34,1,60.0000022888184,8|0,0:2|0:2,0:2:0:0:
78,25,144337,2,0,P|107:29|137:25,1,60.0000022888184,0|0,0:2|0:2,0:2:0:0:
11,141,144562,54,0,L|20:250,1,100,0|0,3:2|0:2,0:2:0:0:
22,280,145012,2,0,L|18:240,1,40,0|0,3:2|0:2,0:2:0:0:
64,384,145237,1,0,3:2:0:0:
123,285,145312,70,0,B|176:271|176:271|261:282,1,120,8|0,0:2|0:2,0:2:0:0:
354,303,145612,2,0,B|301:317|301:317|216:306,1,120,0|0,0:2|0:2,0:2:0:0:
253,160,145912,70,0,B|205:81|345:59|286:-11|243:-11|209:26|243:70,1,240,2|0,3:2|0:2,0:2:0:0:
461,127,146212,2,0,P|369:97|317:171,1,160,2|0,0:2|0:2,0:2:0:0:
354,303,146437,1,0,3:2:0:0:
469,265,146513,70,0,L|468:339,1,60.0000022888184,8|0,0:2|0:2,0:2:0:0:
468,384,146737,2,0,L|468:324,1,60.0000022888184,0|0,0:2|0:2,0:2:0:0:
442,71,146962,70,0,P|458:104|458:145,1,60,0|0,3:2|0:2,0:2:0:0:
478,141,147262,54,0,P|484:177|474:216,1,60,0|0,3:2|0:2,0:2:0:0:
496,213,147412,2,0,P|483:247|454:276,1,60,0|0,3:2|0:2,0:2:0:0:
465,289,147562,2,0,P|432:305|390:305,1,60,0|0,3:2|0:2,0:2:0:0:
341,116,147712,1,8,0:2:0:0:
341,116,147862,70,0,L|256:121,1,60.0000022888184,2|0,3:2|0:2,0:2:0:0:
153,207,148012,6,0,B|225:200|225:200|241:215|241:215|352:204,1,180.000006866455,2|0,0:2|0:2,0:2:0:0:
216,347,148312,38,0,L|206:287,1,60.0000022888184,0|0,0:2|0:2,0:2:0:0:
167,122,148462,2,0,B|131:83|131:83|162:256,1,180.000006866455,0|0,3:2|0:2,0:2:0:0:
128,339,148762,70,0,L|118:279,1,60.0000022888184,0|0,3:2|0:2,0:2:0:0:
224,109,148912,6,0,P|186:122|141:113,1,60.0000022888184,12|0,0:2|0:2,0:2:0:0:
109,134,149137,2,0,P|147:121|192:130,1,60.0000022888184,0|0,0:2|0:2,0:2:0:0:
0,343,149362,70,0,L|11:226,1,100,0|0,3:2|0:2,0:2:0:0:
14,203,149812,2,0,L|7:259,1,40,0|0,3:2|0:2,0:2:0:0:
134,359,150037,1,0,3:2:0:0:
199,277,150112,54,0,P|274:274|315:297,1,120,8|0,0:2|0:2,0:2:0:0:
452,234,150412,70,0,P|377:231|438:359,1,240,2|0,3:2|0:2,0:2:0:0:
452,234,150712,6,0,L|459:177,10,40,8|0|0|0|0|0|0|0|0|0|0,0:2|0:2|0:2|0:2|0:2|0:2|0:2|0:2|0:2|0:2|0:2,0:2:0:0:
372,176,151162,1,0,3:2:0:0:
372,176,151237,1,0,3:2:0:0:
372,176,151312,70,0,L|365:119,10,40,8|0|0|0|0|0|0|0|0|0|0,0:2|0:2|0:2|0:2|0:2|0:2|0:2|0:2|0:2|0:2|0:2,0:2:0:0:
459,111,151762,1,0,3:2:0:0:
459,111,151837,1,0,3:2:0:0:
459,111,151912,6,0,B|466:67|466:67|444:21,1,80,8|0,0:2|0:2,0:2:0:0:
343,37,152062,2,0,L|286:44,6,40,0|0|0|0|0|0|0,3:2|0:2|0:2|0:2|0:2|0:2|0:2,0:2:0:0:
358,35,152362,1,0,3:2:0:0:
292,127,152512,69,0,0:2:0:0:
255,142,152587,1,0,0:2:0:0:
215,144,152662,1,0,0:2:0:0:
176,132,152737,1,0,0:2:0:0:
105,50,152812,5,0,0:2:0:0:
178,75,152887,1,0,0:2:0:0:
215,144,152962,1,0,0:2:0:0:
194,219,153037,1,0,0:2:0:0:
142,278,153112,38,0,B|215:245|215:245|416:260,1,240,4|0,3:2|0:2,0:2:0:0:
461,315,153412,2,0,B|490:244|490:244|462:54,1,240,8|0,0:2|0:2,0:2:0:0:
449,0,153712,69,0,0:2:0:0:
364,138,153862,1,0,3:2:0:0:
236,66,154012,1,10,0:2:0:0:
266,57,154087,1,2,0:2:0:0:
296,47,154162,2,0,L|369:52,1,40,2|0,0:2|0:2,0:2:0:0:
142,278,154312,54,0,P|129:213|165:156,1,120,0|0,3:2|0:2,0:2:0:0:
334,234,154612,2,0,L|192:228,1,120,8|0,0:2|0:2,0:2:0:0:
152,167,154912,1,0,0:2:0:0:
301,315,155062,70,0,L|207:310,1,80,0|0,3:2|0:2,0:2:0:0:
44,287,155212,2,0,B|19:338|19:338|34:112,1,240,8|0,0:2|0:2,0:2:0:0:
286,101,155512,70,0,P|205:192|135:68,1,300,2|0,3:2|0:2,0:2:0:0:
276,87,155812,2,0,P|192:180|148:63,1,300,10|0,0:2|0:2,0:2:0:0:
230,26,156112,69,0,0:2:0:0:
380,149,156262,1,0,3:2:0:0:
152,167,156412,1,10,0:2:0:0:
150,197,156487,1,2,0:2:0:0:
151,228,156562,2,0,L|148:302,1,40,2|0,0:2|0:2,0:2:0:0:
151,376,156712,69,0,3:2:0:0:
70,288,156862,1,2,0:2:0:0:
70,288,156937,1,2,0:2:0:0:
70,288,157012,2,0,L|71:248,1,40,10|0,0:2|0:2,0:2:0:0:
77,130,157162,1,2,0:2:0:0:
77,130,157237,2,0,L|75:169,1,40,2|0,0:2|0:2,0:2:0:0:
277,142,157462,22,0,L|166:133,1,100,2|0,3:2|0:2,0:2:0:0:
370,157,157612,2,0,B|401:16|401:16|353:90,1,200,10|0,0:2|3:2,0:2:0:0:
260,247,157912,70,0,P|340:295|222:298,1,240,0|0,3:2|0:2,0:2:0:0:
24,295,158212,2,0,B|60:339|121:342|190:299|190:299|153:312|121:291,1,240,8|0,0:2|0:2,0:2:0:0:
76,213,158512,69,0,0:2:0:0:
250,353,158662,1,0,3:2:0:0:
277,142,158812,1,10,0:2:0:0:
279,110,158887,1,2,0:2:0:0:
280,78,158962,2,0,L|287:3,1,40,2|0,0:2|0:2,0:2:0:0:
70,96,159112,54,0,B|131:111|131:111|196:92,1,120,0|0,3:2|0:2,0:2:0:0:
399,37,159412,2,0,B|338:22|338:22|273:41,1,120,8|0,0:2|0:2,0:2:0:0:
185,94,159712,1,0,0:2:0:0:
355,222,159862,70,0,B|364:184|364:184|358:126,1,80,0|0,3:2|0:2,0:2:0:0:
286,285,160012,2,0,P|378:314|437:184,1,240,8|0,0:2|0:2,0:2:0:0:
185,94,160312,70,0,P|76:156|203:191,1,300,2|0,3:2|0:2,0:2:0:0:
197,114,160612,2,0,P|83:143|185:201,1,300,10|0,0:2|0:2,0:2:0:0:
270,169,160912,69,0,0:2:0:0:
71,289,161062,1,0,3:2:0:0:
256,374,161212,1,10,0:2:0:0:
258,342,161287,1,2,0:2:0:0:
260,310,161362,2,0,L|264:254,1,40,2|0,0:2|0:2,0:2:0:0:
270,169,161512,69,0,3:2:0:0:
379,231,161662,1,2,0:2:0:0:
379,231,161737,1,2,0:2:0:0:
379,231,161812,2,0,L|323:227,1,40,10|0,0:2|0:2,0:2:0:0:
351,147,161962,1,2,0:2:0:0:
351,147,162037,2,0,L|407:151,1,40,2|0,0:2|0:2,0:2:0:0:
470,253,162262,22,0,B|485:203|485:203|469:138,1,100,2|0,3:2|0:2,0:2:0:0:
314,331,162412,2,0,B|392:323|392:323|423:344|423:344|507:337,1,200,10|0,0:2|3:2,0:2:0:0:
234,373,162712,70,0,B|213:312|223:268|276:265|273:205|241:121,1,240,0|0,3:2|0:2,0:2:0:0:
56,201,163012,2,0,P|140:259|147:148,1,240,8|0,0:2|0:2,0:2:0:0:
91,124,163312,70,0,B|78:67|78:67|101:2,1,120.000004577637,0|2,3:2|0:2,0:2:0:0:
177,57,163537,1,2,0:2:0:0:
177,57,163612,2,0,L|286:64,1,60.0000022888184,10|0,0:2|0:2,0:2:0:0:
383,73,163762,2,0,L|323:69,1,60.0000022888184,2|0,0:2|0:2,0:2:0:0:
448,16,163912,54,0,P|471:72|437:147,1,120,0|0,3:2|0:2,0:2:0:0:
366,273,164212,2,0,P|350:216|373:161,1,120,8|0,0:2|0:2,0:2:0:0:
443,224,164512,70,0,B|487:198|487:198|451:338,1,180.000006866455,0|0,3:2|0:2,0:2:0:0:
187,299,164812,2,0,L|375:271,1,180.000006866455,8|0,0:2|0:2,0:2:0:0:
214,149,165112,70,0,P|129:88|55:190,1,240,2|0,3:2|0:2,0:2:0:0:
210,161,165412,2,0,P|122:96|61:188,1,240,10|0,0:2|0:2,0:2:0:0:
96,280,165712,70,0,B|137:230|137:230|136:143,1,120.000004577637,0|2,3:2|0:2,0:2:0:0:
11,251,165937,1,2,0:2:0:0:
11,251,166012,2,0,L|19:323,1,60.0000022888184,10|0,0:2|0:2,0:2:0:0:
96,280,166162,2,0,L|104:352,1,60.0000022888184,2|0,0:2|0:2,0:2:0:0:
188,353,166312,69,0,3:2:0:0:
345,311,166462,1,2,0:2:0:0:
345,311,166537,1,2,0:2:0:0:
345,311,166612,2,0,L|282:309,1,40,10|0,0:2|0:2,0:2:0:0:
192,357,166762,1,2,0:2:0:0:
192,357,166837,2,0,L|255:355,1,40,2|0,0:2|3:2,0:2:0:0:
421,365,167062,22,0,P|436:310|415:252,1,100,2|0,0:2|0:2,0:2:0:0:
300,96,167212,2,0,B|267:0|406:-24|422:71|335:222,1,300,10|0,0:2|0:2,0:2:0:0:
274,229,167512,5,8,0:2:0:0:
75,129,167662,1,0,3:2:0:0:
75,129,167812,1,0,3:2:0:0:
223,308,167962,5,8,0:2:0:0:
153,94,168112,1,0,3:2:0:0:
153,94,168262,1,0,3:2:0:0:
174,380,168412,69,8,0:2:0:0:
274,229,168562,1,0,3:2:0:0:
174,380,168712,5,8,0:2:0:0:
146,178,168862,1,0,3:2:0:0:
146,178,169012,1,0,3:2:0:0:
311,310,169162,69,8,0:2:0:0:
336,120,169312,1,0,3:2:0:0:
336,120,169462,1,0,3:2:0:0:
146,178,169612,5,8,0:2:0:0:
239,253,169762,2,0,L|240:180,1,60.0000022888184,0|0,3:2|3:2,0:2:0:0:
240,31,169912,5,8,0:2:0:0:
311,310,170062,1,0,3:2:0:0:
324,43,170212,37,8,0:2:0:0:
382,352,170362,1,0,3:2:0:0:
240,31,170512,37,8,0:2:0:0:
169,310,170662,1,0,3:2:0:0:
156,43,170812,37,8,0:2:0:0:
98,352,170962,1,0,3:2:0:0:
159,151,171112,70,0,L|103:144,1,40,0|0,3:2|1:1,0:2:0:0:
45,127,171337,1,0,1:1:0:0:
45,127,171412,1,8,0:1:0:0:
62,43,171562,1,0,1:1:0:0:
62,43,171637,1,0,1:1:0:0:
62,43,171712,1,0,1:1:0:0:
62,43,171787,1,0,1:1:0:0:
62,43,171862,2,0,L|66:2,2,40,8|0|0,0:1|0:2|0:2,0:2:0:0:
33,237,172312,69,4,3:2:0:0:
256,192,172387,12,0,177112,0:2:0:0:
256,192,189112,12,0,191362,0:2:0:0:
205,118,191512,6,0,L|311:112,1,80,0|0,3:2|0:2,0:2:0:0:
353,60,191812,2,0,L|432:64,1,80,0|0,3:2|0:2,0:2:0:0:
480,136,192112,1,2,3:2:0:0:
400,182,192262,2,0,B|391:222|391:222|403:283,1,80,2|0,0:2|3:2,0:2:0:0:
433,347,192562,1,2,0:2:0:0:
309,349,192712,70,0,B|316:310|316:310|307:270,1,80,0|0,3:2|0:2,0:2:0:0:
228,140,193012,2,0,B|219:180|219:180|226:218,1,80,0|0,3:2|0:2,0:2:0:0:
150,355,193312,2,0,B|157:316|157:316|148:276,1,80,0|0,3:2|0:2,0:2:0:0:
67,144,193612,2,0,B|58:184|58:184|65:222,1,80,0|2,3:2|0:2,0:2:0:0:
110,63,193912,6,0,P|63:53|20:65,1,80,2|0,3:2|0:2,0:2:0:0:
67,144,194212,1,2,3:2:0:0:
189,26,194362,2,0,P|236:16|279:28,1,80,2|0,0:2|3:2,0:2:0:0:
399,99,194662,2,0,P|352:109|309:97,1,80,2|0,0:2|3:2,0:2:0:0:
357,17,194962,1,2,0:2:0:0:
495,74,195112,70,0,L|483:174,1,80,2|0,3:2|0:2,0:2:0:0:
400,188,195412,2,0,L|412:288,1,80,0|0,3:2|0:2,0:2:0:0:
498,274,195712,2,0,L|486:374,1,80,0|0,3:2|0:2,0:2:0:0:
319,354,196012,2,0,B|358:348|358:348|421:357,1,80,0|0,3:2|0:2,0:2:0:0:
281,270,196312,6,0,B|240:275|240:275|201:269,1,80,0|0,3:2|0:2,0:2:0:0:
39,321,196612,2,0,B|79:326|79:326|118:320,1,80,0|0,3:2|0:2,0:2:0:0:
138,208,196912,1,2,3:2:0:0:
59,154,197062,2,0,B|44:198|44:198|49:244,1,80,2|0,0:2|3:2,0:2:0:0:
138,208,197362,1,2,0:2:0:0:
145,96,197512,70,0,L|127:1,1,80,2|0,3:2|0:2,0:2:0:0:
251,80,197812,2,0,L|237:159,1,80,0|0,3:2|0:2,0:2:0:0:
348,82,198112,2,0,L|330:-13,1,80,0|0,3:2|0:2,0:2:0:0:
454,66,198412,2,0,L|439:144,1,80,0|2,3:2|0:2,0:2:0:0:
301,213,198712,6,0,P|353:203|392:216,1,80,2|0,3:2|0:2,0:2:0:0:
512,275,199012,2,0,P|472:268|434:278,1,80,0|2,3:2|0:2,0:2:0:0:
272,323,199312,2,0,P|311:316|349:326,1,80,0|2,3:2|0:2,0:2:0:0:
440,358,199612,2,0,L|432:253,1,80,0|0,3:2|0:2,0:2:0:0:
193,267,199912,70,0,L|186:209,2,40,2|0|0,3:2|0:2|0:2,0:2:0:0:
162,352,200212,2,0,B|121:356|121:356|61:333,1,80,0|0,3:2|0:2,0:2:0:0:
93,172,200512,2,0,L|106:272,1,80,0|0,3:2|0:2,0:2:0:0:
0,353,200812,2,0,L|10:273,1,80,0|0,3:2|0:2,0:2:0:0:
93,172,201112,6,0,B|133:161|133:161|198:175,1,80,0|0,3:2|0:2,0:2:0:0:
257,207,201412,2,0,B|297:218|297:218|362:204,1,80,0|0,3:2|0:2,0:2:0:0:
423,180,201712,1,2,3:2:0:0:
351,40,201862,2,0,L|351:131,1,80,2|0,0:2|3:2,0:2:0:0:
423,180,202162,1,2,0:2:0:0:
334,289,202312,70,0,L|334:209,1,80,2|0,3:2|0:2,0:2:0:0:
427,280,202612,2,0,L|427:360,1,80,0|0,3:2|0:2,0:2:0:0:
256,282,202912,2,0,P|305:278|351:301,1,80,0|0,3:2|0:2,0:2:0:0:
199,356,203212,2,0,P|161:367|121:362,1,80,0|0,3:2|0:2,0:2:0:0:
151,280,203512,6,0,L|144:187,1,80,2|0,3:2|0:2,0:2:0:0:
40,144,203812,1,2,3:2:0:0:
47,229,203962,2,0,L|53:308,1,80,2|0,0:2|3:2,0:2:0:0:
144,200,204262,2,0,L|137:120,1,80,2|0,0:2|3:2,0:2:0:0:
98,37,204562,1,2,0:2:0:0:
204,68,204712,70,0,P|256:76|293:64,1,80,2|0,3:2|0:2,0:2:0:0:
360,19,205012,2,0,P|399:26|437:17,1,80,0|0,3:2|0:2,0:2:0:0:
499,116,205312,2,0,P|447:108|410:120,1,80,0|0,3:2|0:2,0:2:0:0:
358,171,205612,2,0,P|318:163|280:172,1,80,0|0,3:2|0:2,0:2:0:0:
316,331,205912,6,0,B|328:291|328:291|323:229,1,80,0|0,3:2|0:2,0:2:0:0:
222,296,206212,2,0,B|210:336|210:336|215:398,1,80,0|0,3:2|0:2,0:2:0:0:
324,252,206512,1,2,3:2:0:0:
280,172,206662,2,0,L|175:179,1,80,2|0,0:2|3:2,0:2:0:0:
139,247,206962,1,2,0:2:0:0:
105,155,207112,70,0,B|96:111|96:111|114:46,1,80,2|0,3:2|0:2,0:2:0:0:
202,0,207412,2,0,B|211:33|211:33|202:77,1,80,0|0,3:2|0:2,0:2:0:0:
25,160,207712,2,0,L|104:154,1,80,0|0,3:2|0:2,0:2:0:0:
282,72,208012,2,0,L|202:77,1,80,0|0,3:2|0:2,0:2:0:0:
74,325,208312,6,0,P|63:273|76:226,1,80,0|0,3:2|0:2,0:2:0:0:
285,187,208612,2,0,P|288:226|278:264,1,80,0|0,3:2|0:2,0:2:0:0:
184,369,208912,1,2,3:2:0:0:
67,247,209062,2,0,L|146:241,1,80,2|0,0:2|3:2,0:2:0:0:
278,264,209362,1,2,0:2:0:0:
240,83,209512,70,0,P|130:43|29:101,1,240,2|0,3:2|0:2,0:2:0:0:
7,177,210712,22,0,B|53:192|88:161|88:161|19:258|80:366,1,272.000005187988,0|0,3:2|0:2,0:2:0:0:
241,233,211162,38,0,P|164:214|238:299,1,272.000005187988,0|0,3:2|0:2,0:2:0:0:
428,99,215512,38,0,B|343:69|286:84|312:134|235:132|136:90,1,272.000005187988,0|0,3:2|0:2,0:2:0:0:
37,58,215962,38,0,B|76:45|100:6|100:6|54:70|44:149|93:235,1,272.000005187988,0|0,3:2|0:2,0:2:0:0:
299,108,220312,38,0,B|101:89|101:89|213:127,1,272.000005187988,0|0,3:2|0:2,0:2:0:0:
364,167,220762,38,0,P|385:253|289:186,1,272.000005187988,0|0,3:2|0:2,0:2:0:0:
299,108,221212,22,0,L|308:12,1,80,8|0,0:2|0:2,0:2:0:0:
398,0,221512,2,0,L|390:79,1,80,0|0,3:2|0:2,0:2:0:0:
467,145,221812,1,8,0:2:0:0:
467,145,221962,2,0,L|474:65,1,80,0|0,3:2|0:2,0:2:0:0:
390,79,222262,1,0,3:2:0:0:
390,79,222412,2,0,L|382:158,1,80,8|0,0:2|0:2,0:2:0:0:
281,318,222712,6,0,B|202:356|106:292|106:292|153:310|202:281,1,272.000005187988,0|8,3:2|0:2,0:2:0:0:
185,113,223162,38,0,B|142:100|117:42|117:42|165:137|129:246,1,272.000005187988,0|0,3:2|3:2,0:2:0:0:
28,324,223612,6,0,P|21:277|42:226,1,80,8|0,0:2|0:2,0:2:0:0:
189,287,223912,2,0,L|91:290,1,80,0|0,3:2|0:2,0:2:0:0:
139,207,224212,1,8,0:2:0:0:
139,207,224362,2,0,L|218:204,1,80,0|0,3:2|0:2,0:2:0:0:
353,267,224662,1,0,3:2:0:0:
353,267,224812,2,0,L|273:269,1,80,8|0,0:2|0:2,0:2:0:0:
56,86,225112,22,0,B|-3:91|-3:91|72:122|72:122|118:99|118:99|253:98,1,272.000005187988,0|8,3:2|0:2,0:2:0:0:
272,269,225562,38,0,B|263:159|263:159|293:95|293:95|283:5,1,272.000005187988,0|0,3:2|3:2,0:2:0:0:
198,98,226012,6,0,B|181:137|181:137|182:213,1,80,8|0,0:2|0:2,0:2:0:0:
370,137,226312,22,0,B|414:180|430:246|367:307|367:307|383:262|344:198,1,272.000005187988,0|8,3:2|0:2,0:2:0:0:
402,41,226762,38,0,P|485:5|446:129,1,272.000005187988,0|0,3:2|3:2,0:2:0:0:
370,137,227212,6,0,L|261:132,1,80,8|0,0:2|0:2,0:2:0:0:
13,62,227512,54,0,B|61:51|61:51|91:63|91:63|162:48,1,136.000002593994,8|0,0:2|0:2,0:2:0:0:
221,29,227737,2,0,L|203:197,1,136.000002593994,8|0,0:2|0:2,0:2:0:0:
116,215,227962,2,0,L|123:147,1,68.0000012969971,8|0,0:2|0:2,0:2:0:0:
46,265,228112,70,0,P|102:300|166:283,1,136.000002593994,8|0,0:2|0:2,0:2:0:0:
254,230,228337,2,0,L|236:398,1,136.000002593994,8|0,0:2|0:2,0:2:0:0:
325,330,228562,2,0,P|359:318|410:329,1,68.0000012969971,8|0,0:2|0:2,0:2:0:0:
484,360,228712,6,0,B|492:273|492:273|456:202,1,136.000002593994,8|0,0:2|0:2,0:2:0:0:
375,202,228937,2,0,B|353:158|353:158|361:71,1,136.000002593994,8|0,0:2|0:2,0:2:0:0:
452,0,229162,2,0,L|445:99,1,68.0000012969971,8|0,0:2|0:2,0:2:0:0:
375,202,229312,70,0,L|317:212,3,40,10|2|2|2,0:2|0:2|0:2|0:2,0:2:0:0:
256,165,229612,1,2,0:2:0:0:
253,188,229687,1,2,0:2:0:0:
250,211,229762,1,2,0:2:0:0:
247,234,229837,1,2,0:2:0:0:
237,314,229912,69,4,3:2:0:0:
196,93,230062,1,0,3:2:0:0:
335,208,230212,1,0,3:2:0:0:
163,192,230362,1,0,3:2:0:0:
304,93,230512,5,0,3:2:0:0:
163,192,230662,1,0,3:2:0:0:
335,208,230812,5,0,3:2:0:0:
196,93,230962,1,0,3:2:0:0:
246,259,231112,5,0,3:2:0:0:
196,93,231262,1,0,3:2:0:0:
69,206,231412,1,0,3:2:0:0:
145,294,231562,1,0,3:2:0:0:
101,109,231712,5,0,3:2:0:0:
145,294,231862,1,0,3:2:0:0:
196,93,232012,5,0,3:2:0:0:
246,259,232162,1,0,3:2:0:0:
349,54,232312,5,0,3:2:0:0:
335,300,232462,1,0,3:2:0:0:
430,195,232612,1,0,3:2:0:0:
252,170,232762,1,0,3:2:0:0:
335,300,232912,5,0,3:2:0:0:
341,141,233062,1,0,3:2:0:0:
416,352,233212,5,0,3:2:0:0:
430,195,233362,1,0,3:2:0:0:
246,259,233512,5,0,3:2:0:0:
430,195,233662,1,0,3:2:0:0:
258,83,233812,1,0,3:2:0:0:
335,300,233962,1,0,3:2:0:0:
430,195,234112,5,0,3:2:0:0:
246,259,234262,1,0,3:2:0:0:
258,83,234412,70,2,L|260:40,6,30.0000011444092,2|2|2|2|2|2|2,0:2|0:2|0:2|0:2|0:2|0:2|0:2,0:2:0:0:
208,149,234712,37,0,3:2:0:0:
86,47,234862,1,0,3:2:0:0:
55,198,235012,1,0,3:2:0:0:
177,57,235162,1,0,3:2:0:0:
85,282,235312,5,0,3:2:0:0:
118,131,235462,1,0,3:2:0:0:
182,366,235612,5,0,3:2:0:0:
149,215,235762,1,0,3:2:0:0:
327,285,235912,5,0,3:2:0:0:
208,149,236062,1,0,3:2:0:0:
182,366,236212,1,0,3:2:0:0:
297,155,236362,1,0,3:2:0:0:
275,362,236512,5,0,3:2:0:0:
149,215,236662,1,0,3:2:0:0:
375,189,236812,5,0,3:2:0:0:
182,366,236962,1,0,3:2:0:0:
208,149,237112,5,0,3:2:0:0:
431,253,237262,1,0,3:2:0:0:
287,276,237412,1,0,3:2:0:0:
371,46,237562,1,0,3:2:0:0:
431,253,237712,5,0,3:2:0:0:
274,86,237862,1,0,3:2:0:0:
287,276,238012,5,0,3:2:0:0:
371,46,238162,1,0,3:2:0:0:
202,321,238312,69,0,3:2:0:0:
167,331,238387,2,0,P|92:326|64:310,1,60.0000022888184,2|0,0:2|0:2,0:2:0:0:
18,32,238612,5,0,1:2:0:0:
21,62,238687,1,0,1:2:0:0:
24,92,238762,1,0,1:2:0:0:
27,121,238837,1,0,1:2:0:0:
30,149,238912,70,0,L|37:226,1,60.0000022888184,2|0,0:2|0:2,0:2:0:0:
108,332,239062,1,2,0:2:0:0:
116,296,239137,1,2,0:2:0:0:
126,261,239212,6,0,B|170:257|170:257|189:264|189:264|281:255,2,106.666666666667,0|2|2,0:2|0:2|0:2,0:2:0:0:
301,294,239512,69,12,3:2:0:0:
308,241,239587,1,0,3:2:0:0:
283,195,239662,1,0,3:2:0:0:
234,174,239737,1,0,3:2:0:0:
180,178,239812,6,0,L|109:188,3,60.0000022888184,8|0|0|0,3:2|3:2|3:2|3:2,0:2:0:0:
291,143,240112,69,8,3:2:0:0:
283,195,240187,1,0,3:2:0:0:
308,241,240262,1,0,3:2:0:0:
356,262,240337,1,0,3:2:0:0:
411,259,240412,6,0,L|482:249,3,60.0000022888184,8|0|0|0,3:2|3:2|3:2|3:2,0:2:0:0:
308,241,240712,69,8,3:2:0:0:
254,246,240787,1,0,3:2:0:0:
200,253,240862,1,0,3:2:0:0:
147,258,240937,1,0,3:2:0:0:
93,268,241012,6,0,L|34:278,3,60.0000022888184,8|0|0|0,3:2|3:2|3:2|3:2,0:2:0:0:
126,185,241312,69,8,3:2:0:0:
179,179,241387,1,0,3:2:0:0:
233,174,241462,1,0,3:2:0:0:
287,167,241537,1,0,3:2:0:0:
339,161,241612,6,0,L|411:151,1,60.0000022888184,10|0,3:2|0:2,0:2:0:0:
369,12,241762,2,0,L|309:20,1,60.0000022888184,10|0,3:2|0:2,0:2:0:0:
49,186,241912,69,8,3:2:0:0:
33,128,241987,1,0,3:2:0:0:
52,72,242062,1,0,3:2:0:0:
98,36,242137,1,0,3:2:0:0:
157,32,242212,1,8,3:2:0:0:
209,60,242287,1,0,3:2:0:0:
236,113,242362,1,0,3:2:0:0:
229,172,242437,1,0,3:2:0:0:
191,217,242512,5,8,3:2:0:0:
175,274,242587,1,0,3:2:0:0:
194,330,242662,1,0,3:2:0:0:
240,366,242737,1,0,3:2:0:0:
299,370,242812,1,8,3:2:0:0:
351,342,242887,1,0,3:2:0:0:
378,289,242962,1,0,3:2:0:0:
371,230,243037,1,0,3:2:0:0:
333,185,243112,69,8,3:2:0:0:
316,241,243187,1,0,3:2:0:0:
335,297,243262,1,0,3:2:0:0:
383,332,243337,1,0,3:2:0:0:
442,332,243412,1,8,3:2:0:0:
490,298,243487,1,0,3:2:0:0:
510,243,243562,1,0,3:2:0:0:
494,186,243637,1,0,3:2:0:0:
449,149,243712,5,8,3:2:0:0:
399,117,243787,1,0,3:2:0:0:
383,61,243862,1,0,3:2:0:0:
410,9,243937,1,0,3:2:0:0:
469,0,244012,70,0,B|486:58|486:58|456:153,1,120.000004577637,8|0,3:2|0:2,0:2:0:0:
386,247,244312,6,0,L|323:232,6,40,8|0|0|0|0|0|0,3:2|3:2|3:2|3:2|3:2|3:2|3:2,3:2:0:0:
292,168,244612,2,0,L|253:177,6,40,8|0|0|0|0|0|0,3:2|3:2|3:2|3:2|3:2|3:2|3:2,3:2:0:0:
252,281,244912,70,0,L|189:266,6,40,8|0|0|0|0|0|0,3:2|3:2|3:2|3:2|3:2|3:2|3:2,3:2:0:0:
158,202,245212,2,0,L|119:211,6,40,8|0|0|0|0|0|0,3:2|3:2|3:2|3:2|3:2|3:2|3:2,3:2:0:0:
11,288,245512,6,0,L|4:345,6,40,8|0|0|0|0|0|0,3:2|3:2|3:2|3:2|3:2|3:2|3:2,3:2:0:0:
12,151,245812,2,0,L|7:111,6,40,8|0|0|0|0|0|0,3:2|3:2|3:2|3:2|3:2|3:2|3:2,3:2:0:0:
95,300,246112,70,0,L|88:357,6,40,8|0|0|0|0|0|0,3:2|3:2|3:2|3:2|3:2|3:2|3:2,3:2:0:0:
95,124,246412,2,0,L|90:84,6,40,8|0|0|0|0|0|0,3:2|3:2|3:2|3:2|3:2|3:2|3:2,3:2:0:0:
119,211,246712,5,8,0:2:0:0:
156,256,246787,1,0,3:2:0:0:
213,273,246862,1,0,3:2:0:0:
269,256,246937,1,8,0:2:0:0:
307,180,247012,69,0,3:2:0:0:
344,134,247087,1,0,3:2:0:0:
401,117,247162,1,8,0:2:0:0:
457,135,247237,1,8,0:2:0:0:
486,213,247312,5,8,0:2:0:0:
426,212,247387,1,0,3:2:0:0:
366,211,247462,1,0,3:2:0:0:
307,211,247537,1,8,0:2:0:0:
246,160,247612,69,0,3:2:0:0:
186,159,247687,1,0,3:2:0:0:
126,158,247762,1,8,0:2:0:0:
66,157,247837,1,8,0:2:0:0:
6,210,247912,5,8,3:2:0:0:
121,64,248362,21,2,0:2:0:0:
139,87,248437,2,0,P|146:124|127:187,1,60.0000022888184,2|2,0:2|0:2,0:2:0:0:
280,44,248587,1,2,0:2:0:0:
264,68,248663,2,0,P|257:98|258:128,1,60.0000022888184,0|2,3:2|0:2,0:2:0:0:
377,153,248812,37,10,0:2:0:0:
361,176,248887,1,2,0:2:0:0:
348,197,248962,2,0,L|356:291,1,60.0000022888184,2|0,0:2|0:2,0:2:0:0:
260,364,249112,70,0,L|85:347,1,160,6|0,3:2|0:2,0:2:0:0:
1,269,249337,2,0,L|126:257,1,80,2|8,0:2|3:2,0:2:0:0:
176,234,249487,1,0,0:2:0:0:
156,199,249562,38,0,B|133:115|133:115|172:22,1,160,2|0,0:2|3:2,0:2:0:0:
249,23,249787,2,0,L|350:33,1,80,2|0,0:2|0:2,0:2:0:0:
446,120,249937,2,0,L|366:112,1,80,2|8,0:2|3:2,0:2:0:0:
161,47,250087,1,0,0:2:0:0:
122,58,250162,1,0,0:2:0:0:
96,88,250237,1,0,0:2:0:0:
83,125,250312,37,2,3:2:0:0:
89,164,250387,2,0,P|97:209|86:259,1,80,2|0,0:2|0:2,0:2:0:0:
11,359,250537,2,0,P|6:319|14:280,1,80,2|8,0:2|3:2,0:2:0:0:
165,293,250687,1,0,0:2:0:0:
204,294,250762,38,0,B|264:299|264:299|286:317|286:317|387:328,1,160,2|0,0:2|3:2,0:2:0:0:
438,279,250987,2,0,P|451:244|438:181,1,80,2|0,0:2|0:2,0:2:0:0:
357,76,251137,2,8,P|353:115|366:152,1,80,2|8,0:2|3:2,0:2:0:0:
434,25,251287,1,0,0:2:0:0:
365,0,251362,1,0,0:2:0:0:
292,14,251437,1,0,0:2:0:0:
263,86,251512,37,2,3:2:0:0:
267,126,251587,2,0,L|282:228,1,80,2|0,0:2|0:2,0:2:0:0:
166,138,251737,2,0,L|177:58,1,80,2|8,0:2|3:2,0:2:0:0:
33,198,251887,1,0,0:2:0:0:
56,231,251962,38,0,P|157:253|214:202,1,160,2|0,0:2|3:2,0:2:0:0:
166,138,252187,2,0,L|177:58,1,80,2|0,0:2|0:2,0:2:0:0:
64,43,252337,2,0,L|75:122,1,80,2|8,0:2|3:2,0:2:0:0:
200,225,252487,1,0,0:2:0:0:
239,229,252562,1,0,0:2:0:0:
277,219,252637,1,0,0:2:0:0:
307,193,252712,37,2,3:2:0:0:
323,156,252787,2,0,L|334:76,1,80,2|0,0:2|0:2,0:2:0:0:
429,0,252937,2,0,L|440:79,1,80,2|8,0:2|3:2,0:2:0:0:
367,251,253087,1,0,0:2:0:0:
388,217,253162,38,0,P|486:195|548:241,1,160,2|0,0:2|3:2,0:2:0:0:
486,358,253387,2,0,P|465:327|464:264,1,80,2|0,0:2|0:2,0:2:0:0:
367,251,253537,2,0,P|361:290|340:323,1,80,2|8,0:2|3:2,0:2:0:0:
162,305,253687,1,0,0:2:0:0:
157,265,253762,1,0,0:2:0:0:
180,232,253837,1,0,0:2:0:0:
217,218,253912,37,2,3:2:0:0:
255,228,253987,2,0,B|259:265|259:265|236:349,1,80,2|0,0:2|0:2,0:2:0:0:
170,142,254137,2,0,B|158:100|158:100|162:63,1,80,2|8,0:2|3:2,0:2:0:0:
375,72,254287,1,0,0:2:0:0:
346,99,254362,1,0,0:2:0:0:
307,107,254437,1,0,0:2:0:0:
269,93,254512,37,2,3:2:0:0:
242,62,254587,2,0,L|137:63,1,80,2|0,0:2|0:2,0:2:0:0:
93,19,254737,2,0,L|14:20,2,80,2|8|0,0:2|3:2|0:2,0:2:0:0:
2,113,254962,2,0,B|-5:151|-5:151|6:207,1,80,2|0,0:2|0:2,0:2:0:0:
281,223,255112,37,2,3:2:0:0:
248,199,255187,2,0,L|154:201,1,80,2|0,0:2|0:2,0:2:0:0:
84,292,255337,2,0,L|5:294,2,80,2|8|0,0:2|3:2|0:2,0:2:0:0:
271,384,255562,1,0,0:2:0:0:
285,347,255637,1,0,0:2:0:0:
281,303,255712,37,2,3:2:0:0:
248,279,255787,2,0,L|168:280,1,80,2|0,0:2|0:2,0:2:0:0:
361,351,255937,2,0,L|440:349,1,80,2|8,0:2|3:2,0:2:0:0:
464,221,256087,1,0,0:2:0:0:
465,181,256162,1,0,0:2:0:0:
466,141,256237,1,0,0:2:0:0:
467,101,256312,37,2,3:2:0:0:
469,61,256387,2,0,B|434:55|434:55|349:69,1,80,2|0,0:2|0:2,0:2:0:0:
281,149,256537,2,0,B|316:155|316:155|359:147,1,80,2|8,0:2|3:2,0:2:0:0:
217,30,256687,1,0,0:2:0:0:
198,65,256762,38,0,B|177:142|177:142|206:252,1,160,2|0,0:2|3:2,0:2:0:0:
274,327,256987,2,0,L|282:229,1,80,2|0,0:2|0:2,0:2:0:0:
359,147,257137,2,0,L|365:226,1,80,2|8,0:2|3:2,0:2:0:0:
390,360,257287,1,0,0:2:0:0:
429,351,257362,1,0,0:2:0:0:
460,326,257437,1,0,0:2:0:0:
477,289,257512,37,2,3:2:0:0:
473,249,257587,2,0,B|459:211|459:211|467:156,1,80,2|0,0:2|0:2,0:2:0:0:
484,91,257737,2,0,B|498:53|498:53|493:14,2,80,2|8|0,0:2|3:2|0:2,0:2:0:0:
214,58,257962,1,0,3:2:0:0:
292,42,258037,1,0,3:2:0:0:
373,28,258112,37,10,0:2:0:0:
370,67,258187,2,0,L|356:164,1,80,2|0,0:2|0:2,0:2:0:0:
266,199,258337,2,0,L|294:25,1,160,10|0,0:2|0:2,0:2:0:0:
314,294,258562,1,8,0:2:0:0:
224,295,258637,1,0,0:2:0:0:
167,231,258712,37,6,3:2:0:0:
162,182,258787,2,0,B|122:178|122:178|66:195,1,80,2|0,0:2|0:2,0:2:0:0:
1,288,258937,2,0,B|41:292|41:292|97:275,1,80,2|8,0:2|3:2,0:2:0:0:
18,16,259087,1,0,0:2:0:0:
0,49,259162,38,0,B|-5:108|-5:108|5:141|5:141|1:214,1,160,2|0,0:2|3:2,0:2:0:0:
1,367,259387,2,0,L|2:278,1,80,2|0,0:2|0:2,0:2:0:0:
84,109,259537,2,0,L|83:188,1,80,2|8,0:2|3:2,0:2:0:0:
137,333,259687,1,0,0:2:0:0:
176,335,259762,1,0,0:2:0:0:
214,324,259837,1,0,0:2:0:0:
245,299,259912,37,2,3:2:0:0:
259,261,259987,2,0,L|260:182,1,80,2|0,0:2|0:2,0:2:0:0:
181,78,260137,2,0,L|182:157,1,80,2|8,0:2|3:2,0:2:0:0:
377,223,260287,1,0,0:2:0:0:
404,193,260362,38,0,P|325:158|234:209,1,160,2|0,0:2|3:2,0:2:0:0:
182,157,260587,2,0,L|181:78,1,80,2|0,0:2|0:2,0:2:0:0:
274,0,260737,2,0,L|273:79,1,80,2|8,0:2|3:2,0:2:0:0:
179,291,260887,1,0,0:2:0:0:
102,306,260962,1,0,0:2:0:0:
34,267,261037,1,0,0:2:0:0:
10,192,261112,37,2,3:2:0:0:
19,153,261187,2,0,P|26:114|51:84,1,80,2|0,0:2|0:2,0:2:0:0:
182,157,261337,2,0,L|90:153,1,80,2|8,0:2|3:2,0:2:0:0:
272,79,261487,1,0,0:2:0:0:
293,112,261562,38,0,B|294:175|294:175|278:199|278:199|278:308,1,160,2|0,0:2|3:2,0:2:0:0:
364,356,261787,2,0,L|363:230,1,80,2|0,0:2|0:2,0:2:0:0:
433,132,261937,2,0,L|433:211,1,80,2|8,0:2|3:2,0:2:0:0:
235,336,262087,1,0,0:2:0:0:
203,311,262162,1,0,0:2:0:0:
190,272,262237,1,0,0:2:0:0:
201,233,262312,38,0,L|27:229,1,160,10|2,0:2|0:2,0:2:0:0:
35,69,262537,1,0,0:0:0:0:
35,69,262612,38,0,L|37:178,1,80,8|0,0:2|0:2,0:2:0:0:
30,384,262762,2,0,L|28:304,1,80,2|0,3:2|0:2,0:2:0:0:
119,132,262912,37,8,0:2:0:0:
143,114,262987,2,0,P|200:99|272:118,2,120.000004577637,2|2|2,0:2|3:2|0:2,0:2:0:0:
200,231,263362,1,0,3:2:0:0:
203,260,263437,1,0,0:2:0:0:
207,289,263512,54,0,L|217:379,2,60.0000022888184,6|0|0,3:2|0:2|0:2,0:2:0:0:
283,228,263737,2,0,P|355:210|437:257,1,120.000004577637,2|0,0:2|0:2,0:2:0:0:
429,360,263962,5,0,3:2:0:0:
435,330,264037,1,0,3:2:0:0:
410,312,264112,69,10,0:2:0:0:
404,282,264187,2,0,L|395:207,1,60.0000022888184,2|0,0:2|0:2,0:2:0:0:
495,100,264337,2,0,L|479:227,1,120.000004577637,2|0,0:2|0:2,0:2:0:0:
396,222,264562,2,0,L|388:162,1,60.0000022888184,2|0,0:2|0:2,0:2:0:0:
389,43,264712,5,2,0:2:0:0:
370,66,264787,2,0,L|310:73,1,60.0000022888184,2|0,0:2|3:2,0:2:0:0:
106,32,264937,2,0,L|225:17,1,120.000004577637,2|0,0:2|0:2,0:2:0:0:
310,73,265162,69,0,3:2:0:0:
298,100,265237,1,0,0:2:0:0:
271,114,265312,5,10,0:2:0:0:
280,142,265387,2,0,P|288:176|273:225,1,60.0000022888184,2|0,0:2|3:2,0:2:0:0:
95,186,265537,2,0,P|179:166|247:212,1,120.000004577637,2|0,0:2|0:2,0:2:0:0:
223,320,265762,1,0,0:2:0:0:
205,295,265837,1,0,0:2:0:0:
200,265,265912,21,2,3:2:0:0:
208,236,265987,2,0,L|207:162,1,60.0000022888184,2|0,0:2|0:2,0:2:0:0:
110,73,266137,2,0,B|83:123|83:123|100:219,1,120.000004577637,2|0,0:2|0:2,0:2:0:0:
148,339,266362,5,0,3:2:0:0:
120,351,266437,1,0,3:2:0:0:
91,314,266512,69,10,0:2:0:0:
66,330,266587,2,0,L|-9:324,1,60.0000022888184,2|0,0:2|0:2,0:2:0:0:
223,320,266737,2,0,L|217:416,2,60.0000022888184,2|0|0,0:2|3:2|0:2,0:2:0:0:
347,251,266962,2,0,L|272:245,1,60.0000022888184,2|2,3:2|0:2,0:2:0:0:
201,89,267112,70,0,L|308:89,1,60.0000022888184,10|2,0:2|0:2,0:2:0:0:
208,236,267262,1,0,3:2:0:0:
201,206,267337,1,2,3:2:0:0:
196,176,267412,2,0,L|89:176,1,60.0000022888184,8|0,0:2|0:2,0:2:0:0:
13,96,267562,1,2,3:2:0:0:
20,66,267637,1,2,3:2:0:0:
25,36,267712,38,0,B|73:26|73:26|184:35,1,100,14|0,0:2|0:2,0:2:0:0:
300,95,267862,2,0,B|249:99|249:99|201:89,1,100,14|0,0:2|0:2,0:2:0:0:
136,176,268012,2,0,P|184:281|154:324,1,100,14|0,0:2|0:2,0:2:0:0:
226,378,268162,2,4,P|240:330|277:298,1,100,14|0,0:2|0:2,0:2:0:0:
458,231,268312,6,0,P|469:266|467:287,1,48,0|0,0:2|0:2,0:2:0:0:
457,304,268612,6,0,L|254:298,1,180.000006866455,12|0,0:2|0:2,0:2:0:0:
269,204,268912,2,0,L|264:54,1,120.000004577637,0|0,3:2|0:2,0:2:0:0:
257,3,269137,1,2,0:2:0:0:
257,3,269212,2,0,L|197:9,1,60.0000022888184,10|0,3:2|0:2,0:2:0:0:
205,90,269362,2,0,L|267:83,1,60.0000022888184,2|0,0:2|0:2,0:2:0:0:
491,16,269512,70,0,P|433:3|363:42,1,120.000004577637,0|0,3:2|0:2,0:2:0:0:
448,208,269812,2,0,L|443:58,1,120.000004577637,8|0,3:2|0:2,0:2:0:0:
264,83,270112,2,0,L|267:155,1,60.0000022888184,2|0,3:2|0:2,0:2:0:0:
378,25,270262,1,0,0:2:0:0:
270,230,270412,2,0,L|273:302,1,60.0000022888184,10|0,3:2|0:2,0:2:0:0:
122,118,270562,1,2,0:2:0:0:
122,118,270637,1,2,0:2:0:0:
122,118,270712,54,0,L|-37:130,1,120.000004577637,2|0,3:2|0:2,0:2:0:0:
0,228,271012,2,0,L|119:218,1,120.000004577637,8|2,3:2|0:2,0:2:0:0:
200,208,271237,1,2,0:2:0:0:
200,208,271312,1,2,3:2:0:0:
2,127,271462,1,0,0:2:0:0:
182,355,271612,2,0,L|190:284,1,60.0000022888184,10|0,3:2|0:2,0:2:0:0:
200,208,271762,2,0,L|208:137,1,60.0000022888184,2|0,0:2|0:2,0:2:0:0:
174,61,271912,70,0,P|232:56|282:88,1,120.000004577637,0|0,3:2|0:2,0:2:0:0:
367,270,272212,2,0,L|376:151,1,120.000004577637,8|0,3:2|0:2,0:2:0:0:
386,1,272512,1,0,3:2:0:0:
280,195,272662,1,0,0:2:0:0:
481,205,272812,2,0,L|475:133,1,60.0000022888184,10|0,3:2|0:2,0:2:0:0:
393,8,272962,1,2,0:2:0:0:
393,8,273037,1,0,0:2:0:0:
393,8,273112,54,0,P|313:4|270:40,1,120.000004577637,0|0,3:2|0:2,0:2:0:0:
115,115,273412,2,0,P|167:141|225:131,1,120.000004577637,8|2,3:2|0:2,0:2:0:0:
287,30,273637,1,2,0:2:0:0:
287,30,273712,1,2,3:2:0:0:
180,243,273862,1,0,0:2:0:0:
184,0,274012,2,0,L|179:85,1,60.0000022888184,10|0,3:2|0:2,0:2:0:0:
115,115,274162,2,0,L|110:200,1,60.0000022888184,2|0,0:2|0:2,0:2:0:0:
182,360,274312,70,0,B|196:306|196:306|180:243,1,120.000004577637,0|0,3:2|0:2,0:2:0:0:
115,115,274612,2,0,P|167:141|225:131,1,120.000004577637,8|0,3:2|0:2,0:2:0:0:
404,89,274912,1,0,3:2:0:0:
269,239,275062,1,0,0:2:0:0:
172,0,275212,2,0,L|184:85,1,60.0000022888184,10|0,3:2|0:2,0:2:0:0:
320,87,275362,2,0,L|308:172,1,60.0000022888184,2|0,0:2|0:2,0:2:0:0:
269,239,275512,54,0,B|211:257|211:257|111:233,1,120.000004577637,0|0,3:2|0:2,0:2:0:0:
0,110,275812,2,0,B|57:96|57:96|115:114,1,120.000004577637,8|0,3:2|0:2,0:2:0:0:
158,364,276112,2,0,L|153:213,1,120.000004577637,0|2,3:2|0:2,0:2:0:0:
57,196,276337,1,2,0:2:0:0:
57,196,276412,2,0,L|60:315,1,120.000004577637,10|0,3:2|0:2,0:2:0:0:
413,138,276712,70,0,P|344:121|267:153,1,120.000004577637,0|2,3:2|0:2,0:2:0:0:
235,178,276937,1,2,0:2:0:0:
235,178,277012,1,10,3:2:0:0:
384,384,277162,1,2,0:2:0:0:
379,354,277237,1,2,0:2:0:0:
374,324,277312,6,0,L|354:184,1,120.000004577637,10|0,3:2|0:2,0:2:0:0:
297,132,277537,2,0,L|313:13,1,120.000004577637,8|0,3:2|0:2,0:2:0:0:
452,44,277762,2,0,L|357:43,1,60.0000022888184,8|0,3:2|0:2,0:2:0:0:
90,68,277912,54,0,B|37:35|37:35|272:38,1,240,8|0,3:2|0:2,0:2:0:0:
125,237,278212,38,0,B|91:70|91:70|151:143,1,240,8|0,3:2|0:2,0:2:0:0:
210,266,278512,38,0,P|122:329|32:237,1,240,8|0,3:2|0:2,0:2:0:0:
23,184,278812,53,0,0:2:0:0:
23,184,278887,2,0,L|0:56,2,80,2|2|2,0:2|0:2|0:2,0:2:0:0:
210,267,279112,22,0,B|318:217|373:283|373:283|344:263|290:268,1,240,8|0,3:2|0:2,0:2:0:0:
183,353,279412,38,0,P|125:297|219:180,1,240,8|0,3:2|0:2,0:2:0:0:
313,267,279712,38,0,B|335:159|236:152|304:8,1,240,8|0,3:2|0:2,0:2:0:0:
371,89,280012,54,2,L|422:92,6,40,2|2|2|2|2|2|2,0:2|0:2|0:2|0:2|0:2|0:2|0:2,0:2:0:0:
292,34,280312,22,0,B|211:34|211:34|180:51|180:51|93:46|93:46|133:85,1,240,8|0,3:2|0:2,0:2:0:0:
169,194,280612,38,0,B|140:248|140:248|119:70,1,240,8|0,3:2|0:2,0:2:0:0:
192,306,280913,38,0,P|67:273|169:194,1,320,8|0,3:2|0:2,0:2:0:0:
260,229,281287,1,2,0:2:0:0:
299,226,281362,1,2,0:2:0:0:
338,224,281437,1,2,0:2:0:0:
377,222,281512,38,0,B|386:136|386:136|348:45,1,160,8|0,3:2|0:2,0:2:0:0:
229,96,281737,2,0,P|324:111|361:48,1,160,8|0,3:2|0:2,0:2:0:0:
244,17,281962,2,0,L|226:110,1,80,8|0,3:2|0:2,0:2:0:0:
194,321,282112,6,0,L|150:318,1,40,2|2,3:2|0:2,0:2:0:0:
180,208,282262,1,2,0:2:0:0:
166,222,282337,2,0,L|122:219,1,40,2|0,0:2|0:2,0:2:0:0:
279,287,282487,1,2,0:2:0:0:
291,302,282562,1,2,0:2:0:0:
303,317,282637,1,2,0:2:0:0:
314,331,282712,6,0,L|169:319,1,120,0|0,3:2|0:2,0:2:0:0:
180,208,283012,5,8,3:2:0:0:
168,150,283087,1,8,3:2:0:0:
197,100,283162,1,8,3:2:0:0:
253,83,283237,1,8,3:2:0:0:
306,108,283312,1,8,3:2:0:0:
359,133,283387,1,8,3:2:0:0:
415,116,283462,1,8,3:2:0:0:
444,66,283537,1,8,3:2:0:0:
435,9,283612,1,8,3:2:0:0:
378,25,283687,1,8,3:2:0:0:
348,75,283762,1,8,3:2:0:0:
358,133,283837,1,8,3:2:0:0:
376,185,283912,54,0,B|392:247|392:247|375:328,1,120,0|0,3:2|0:2,0:2:0:0:
291,337,284212,69,8,3:2:0:0:
234,320,284287,1,8,3:2:0:0:
176,334,284362,1,8,3:2:0:0:
117,342,284437,1,8,3:2:0:0:
63,318,284512,1,8,3:2:0:0:
39,264,284587,1,8,3:2:0:0:
51,207,284662,1,8,3:2:0:0:
94,167,284737,1,8,3:2:0:0:
153,160,284812,1,8,3:2:0:0:
211,169,284887,1,8,3:2:0:0:
257,134,284962,1,8,3:2:0:0:
264,76,285037,1,8,3:2:0:0:
226,31,285112,6,0,L|236:227,1,180.000006866455,0|0,3:2|0:2,0:2:0:0:
291,337,285412,21,8,3:2:0:0:
345,358,285487,1,8,3:2:0:0:
402,342,285562,1,8,3:2:0:0:
437,295,285637,1,8,3:2:0:0:
437,244,285712,70,0,B|442:177|385:130|385:130|364:155|372:210,1,180.000006866455,0|0,3:2|0:2,0:2:0:0:
340,257,286012,53,8,3:2:0:0:
280,253,286087,1,8,3:2:0:0:
220,249,286162,1,8,3:2:0:0:
160,245,286237,1,8,3:2:0:0:
108,242,286312,6,0,P|62:250|138:317,1,224,0|0,3:2|0:2,0:2:0:0:
208,253,287512,6,0,P|188:207|206:132,1,120.000004577637,0|0,3:2|0:2,0:2:0:0:
211,118,287962,53,0,3:2:0:0:
220,223,288037,1,0,3:2:0:0:
232,329,288112,38,0,P|292:294|380:311,1,150.000005722046,12|0,0:2|0:2,0:2:0:0:
402,324,288562,70,0,L|408:258,1,60.0000022888184,0|0,0:2|0:2,0:2:0:0:
341,40,288862,2,0,L|347:119,1,60.0000022888184,0|0,3:2|0:2,0:2:0:0:
409,159,289162,1,0,3:2:0:0:
153,60,289312,69,8,0:2:0:0:
201,129,289462,2,0,P|249:126|273:119,1,60.0000022888184,0|0,3:2|0:2,0:2:0:0:
153,60,289762,1,0,0:2:0:0:
105,259,289912,6,0,L|114:122,1,120.000004577637,0|0,3:2|0:2,0:2:0:0:
26,244,290362,1,0,3:2:0:0:
26,244,290437,1,0,3:2:0:0:
105,259,290512,70,0,P|147:243|173:244,1,60.0000022888184,8|0,0:2|0:2,0:2:0:0:
243,228,290812,1,0,3:2:0:0:
156,324,290962,2,0,L|165:398,1,60.0000022888184,0|0,3:2|0:2,0:2:0:0:
372,318,291262,2,0,L|379:258,1,60.0000022888184,0|0,3:2|0:2,0:2:0:0:
398,156,291562,1,0,3:2:0:0:
195,196,291712,6,0,L|202:255,1,60.0000022888184,8|0,0:2|0:2,0:2:0:0:
254,124,292012,1,0,0:2:0:0:
180,65,292162,1,0,0:2:0:0:
90,279,292312,70,0,P|145:283|213:244,1,120.000004577637,0|0,3:2|0:2,0:2:0:0:
386,287,292762,1,0,3:2:0:0:
386,287,292837,1,0,3:2:0:0:
306,315,292912,5,8,0:2:0:0:
348,162,293062,2,0,L|344:86,1,60.0000022888184,0|0,0:2|0:2,0:2:0:0:
492,115,293362,2,0,P|438:129|412:128,1,60.0000022888184,0|0,0:2|0:2,0:2:0:0:
202,54,293662,70,0,P|230:43|259:39,1,60.0000022888184,0|0,3:2|0:2,0:2:0:0:
344,102,293962,1,0,3:2:0:0:
103,36,294112,5,8,0:2:0:0:
153,175,294262,2,0,L|144:116,1,60.0000022888184,0|0,3:2|0:2,0:2:0:0:
103,36,294562,1,0,0:2:0:0:
105,251,294712,70,0,P|181:258|219:228,1,120.000004577637,0|0,3:2|0:2,0:2:0:0:
333,337,295162,1,0,3:2:0:0:
333,337,295237,1,0,3:2:0:0:
405,361,295312,6,0,L|484:352,1,60.0000022888184,8|0,0:2|0:2,0:2:0:0:
250,317,295612,1,0,3:2:0:0:
390,283,295762,2,0,L|469:274,1,60.0000022888184,0|0,3:2|0:2,0:2:0:0:
303,150,296062,2,0,L|243:156,1,60.0000022888184,0|0,3:2|0:2,0:2:0:0:
243,156,296362,1,0,3:2:0:0:
39,48,296512,37,8,0:2:0:0:
139,264,296662,1,8,0:2:0:0:
175,20,296812,1,8,0:2:0:0:
9,196,296962,1,8,0:2:0:0:
243,156,297112,38,0,L|382:140,1,120.000004577637,4|0,3:2|0:2,0:2:0:0:
512,23,297412,2,0,L|392:36,1,120.000004577637,8|2,3:2|0:2,0:2:0:0:
253,48,297637,1,2,0:2:0:0:
253,48,297712,2,0,L|367:39,1,60.0000022888184,2|0,3:2|0:2,0:2:0:0:
362,142,297862,2,0,L|476:133,1,60.0000022888184,2|0,0:2|0:2,0:2:0:0:
512,23,298012,1,8,3:2:0:0:
329,234,298162,1,2,0:2:0:0:
329,234,298237,1,2,0:2:0:0:
329,234,298312,70,0,P|316:291|335:348,1,120.000004577637,2|0,3:2|0:2,0:2:0:0:
476,243,298612,2,0,P|494:186|480:128,1,120.000004577637,8|0,3:2|0:2,0:2:0:0:
312,43,298912,1,0,3:2:0:0:
397,180,299062,1,0,0:2:0:0:
464,23,299212,1,8,3:2:0:0:
225,46,299362,1,2,0:2:0:0:
225,46,299437,1,2,0:2:0:0:
225,46,299512,54,0,P|217:119|259:168,1,120.000004577637,2|0,3:2|0:2,0:2:0:0:
397,180,299812,2,0,L|390:263,1,60.0000022888184,10|0,3:2|0:2,0:2:0:0:
316,298,299962,2,0,L|309:381,1,60.0000022888184,2|0,0:2|0:2,0:2:0:0:
221,259,300112,2,0,L|86:263,1,120.000004577637,0|0,3:2|0:2,0:2:0:0:
23,164,300412,1,10,3:2:0:0:
128,3,300562,1,2,0:2:0:0:
128,3,300637,1,2,0:2:0:0:
128,3,300712,70,0,L|132:152,1,120.000004577637,2|0,3:2|0:2,0:2:0:0:
342,200,301012,2,0,L|343:73,1,120.000004577637,8|0,3:2|0:2,0:2:0:0:
250,24,301237,1,2,0:2:0:0:
250,24,301312,2,0,L|250:84,1,60.0000022888184,2|0,3:2|0:2,0:2:0:0:
247,270,301462,2,0,L|247:182,1,60.0000022888184,2|0,0:2|0:2,0:2:0:0:
131,122,301612,1,8,3:2:0:0:
342,80,301762,1,0,0:2:0:0:
190,332,301912,54,0,P|268:351|324:310,1,120.000004577637,0|0,3:2|0:2,0:2:0:0:
512,161,302212,2,0,P|455:143|400:164,1,120.000004577637,8|2,3:2|0:2,0:2:0:0:
461,238,302437,1,2,0:2:0:0:
461,238,302512,2,0,L|475:318,1,60.0000022888184,2|0,3:2|0:2,0:2:0:0:
386,325,302662,2,0,L|372:405,1,60.0000022888184,2|0,0:2|0:2,0:2:0:0:
400,163,302812,1,8,3:2:0:0:
274,214,302962,1,2,0:2:0:0:
274,214,303037,1,2,0:2:0:0:
274,214,303112,70,0,L|112:217,1,120.000004577637,2|0,3:2|0:2,0:2:0:0:
57,4,303412,2,0,P|116:6|166:37,1,120.000004577637,8|0,3:2|0:2,0:2:0:0:
321,81,303712,2,0,P|262:83|212:114,1,120.000004577637,0|0,3:2|0:2,0:2:0:0:
154,216,304012,1,8,3:2:0:0:
167,37,304162,1,0,0:2:0:0:
154,216,304312,54,0,B|151:278|151:278|177:351,1,120.000004577637,0|0,3:2|0:2,0:2:0:0:
294,384,304612,1,8,3:2:0:0:
249,198,304762,1,2,0:2:0:0:
249,198,304837,1,2,0:2:0:0:
249,198,304912,2,0,L|338:195,1,60.0000022888184,2|0,3:2|0:2,0:2:0:0:
393,188,305062,2,0,L|482:185,1,60.0000022888184,2|0,0:2|0:2,0:2:0:0:
404,341,305212,1,8,3:2:0:0:
257,288,305362,1,2,0:2:0:0:
257,288,305437,1,2,0:2:0:0:
257,288,305512,54,0,L|346:285,1,60.0000022888184,2|0,3:2|0:2,0:2:0:0:
475,108,305662,1,0,3:2:0:0:
468,78,305737,1,0,3:2:0:0:
280,9,305887,1,0,3:2:0:0:
273,39,305962,1,0,3:2:0:0:
110,143,306112,1,0,3:2:0:0:
103,113,306187,1,0,3:2:0:0:
295,229,306337,1,0,3:2:0:0:
288,259,306412,38,0,L|293:335,1,60.0000022888184,8|0,0:2|0:2,0:2:0:0:
113,202,306562,2,0,L|109:142,1,60.0000022888184,0|0,3:2|0:2,0:2:0:0:
273,39,306712,6,0,B|320:15|389:29|385:84|458:83|536:37,1,240,4|0,3:2|0:2,0:2:0:0:
494,144,307312,1,0,0:2:0:0:
494,144,307462,1,0,0:2:0:0:
424,199,307612,2,0,L|425:278,1,80,0|0,0:2|0:2,0:2:0:0:
455,369,307912,5,0,0:2:0:0:
455,369,308062,1,0,0:2:0:0:
344,294,308212,1,0,0:2:0:0:
344,294,308362,1,0,0:2:0:0:
246,373,308512,1,0,0:2:0:0:
246,373,308662,1,0,0:2:0:0:
149,308,308812,2,0,P|131:256|142:209,1,80,0|0,0:2|0:2,0:2:0:0:
123,94,309112,70,8,L|131:29,3,40,8|8|8|8,0:2|0:2|0:2|0:2,0:2:0:0:
209,45,309412,2,8,L|217:-20,3,40,8|8|8|8,0:2|0:2|0:2|0:2,0:2:0:0:
279,85,309712,5,8,0:2:0:0:
298,86,309787,1,8,0:2:0:0:
318,87,309862,1,8,0:2:0:0:
338,89,309937,1,8,0:2:0:0:
352,109,310012,69,8,0:2:0:0:
372,111,310087,1,8,0:2:0:0:
392,112,310162,1,8,0:2:0:0:
412,113,310237,1,8,0:2:0:0:
493,104,310312,53,8,0:2:0:0:
489,123,310387,1,8,0:2:0:0:
486,143,310462,1,8,0:2:0:0:
483,163,310537,1,8,0:2:0:0:
412,206,310612,69,8,0:2:0:0:
415,225,310687,1,8,0:2:0:0:
418,245,310762,1,8,0:2:0:0:
421,265,310837,1,8,0:2:0:0:
477,318,310912,6,8,L|469:370,1,40,8|8,0:2|0:2,0:2:0:0:
382,377,311062,2,8,L|375:337,1,40,8|8,0:2|0:2,0:2:0:0:
301,279,311212,2,8,L|293:331,1,40,8|8,0:2|0:2,0:2:0:0:
221,375,311362,2,8,L|214:335,1,40,8|8,0:2|0:2,0:2:0:0:
73,158,311512,69,12,0:2:0:0:
140,303,311662,1,0,3:2:0:0:
137,83,311812,5,8,0:2:0:0:
147,275,311962,1,0,3:2:0:0:
227,60,312112,69,8,0:2:0:0:
166,258,312262,1,0,3:2:0:0:
317,77,312412,5,8,0:2:0:0:
196,254,312562,1,0,3:2:0:0:
441,99,312712,69,8,0:2:0:0:
411,275,312862,1,0,3:2:0:0:
377,24,313012,5,8,0:2:0:0:
404,247,313162,1,0,3:2:0:0:
287,1,313312,69,8,0:2:0:0:
385,230,313462,1,0,3:2:0:0:
197,18,313612,5,8,0:2:0:0:
360,220,313762,1,0,3:2:0:0:
34,238,313912,69,8,3:2:0:0:
15,182,313987,1,0,3:2:0:0:
38,128,314062,1,0,3:2:0:0:
92,104,314137,1,0,3:2:0:0:
178,141,314212,5,8,3:2:0:0:
235,158,314287,1,0,3:2:0:0:
295,152,314362,1,0,3:2:0:0:
347,123,314437,1,0,3:2:0:0:
347,36,314512,69,8,3:2:0:0:
289,48,314587,1,0,3:2:0:0:
246,89,314662,1,0,3:2:0:0:
232,146,314737,1,0,3:2:0:0:
255,231,314812,5,8,3:2:0:0:
300,269,314887,1,0,3:2:0:0:
359,277,314962,1,0,3:2:0:0:
413,252,315037,1,0,3:2:0:0:
463,184,315112,69,8,3:2:0:0:
244,360,315562,38,0,L|185:355,1,60.0000022888184,2|2,0:0|0:0,0:0:0:0:
81,375,315712,5,2,0:2:0:0:
92,347,315787,1,2,0:2:0:0:
102,319,315862,1,2,0:2:0:0:
114,291,315937,1,2,0:2:0:0:
183,254,316012,37,2,0:2:0:0:
165,229,316087,1,2,0:2:0:0:
143,207,316162,1,2,0:2:0:0:
124,183,316237,1,2,0:2:0:0:
48,173,316312,54,0,B|31:24|31:24|98:98,1,204.000003890991,4|0,3:2|0:2,0:2:0:0:
213,177,316612,2,0,P|316:177|373:79,1,204.000003890991,8|0,3:2|0:2,0:2:0:0:
422,34,316912,37,0,3:2:0:0:
412,24,316987,1,2,0:2:0:0:
422,14,317062,1,2,0:2:0:0:
431,24,317137,1,2,0:2:0:0:
470,112,317212,37,8,3:2:0:0:
460,102,317287,1,2,0:2:0:0:
470,92,317362,1,2,0:2:0:0:
479,102,317437,1,2,0:2:0:0:
439,203,317512,37,0,3:2:0:0:
429,193,317587,1,2,0:2:0:0:
439,183,317662,1,2,0:2:0:0:
448,193,317737,1,2,0:2:0:0:
476,293,317812,37,8,3:2:0:0:
466,283,317887,1,2,0:2:0:0:
476,273,317962,1,2,0:2:0:0:
485,283,318037,1,2,0:2:0:0:
414,364,318112,37,0,3:2:0:0:
404,354,318187,1,2,0:2:0:0:
414,344,318262,1,2,0:2:0:0:
423,354,318337,1,2,0:2:0:0:
351,273,318412,38,0,P|211:201|167:330,1,300,8|0,3:2|0:2,0:2:0:0:
160,341,318712,38,0,P|196:215|95:142,1,240,0|0,3:2|0:2,0:2:0:0:
100,0,319012,2,0,P|64:126|165:199,1,240,8|0,3:2|0:2,0:2:0:0:
349,127,319312,38,0,L|336:9,2,106.666666666667,0|2|2,3:2|0:2|0:2,0:2:0:0:
351,273,319612,2,0,L|339:379,2,106.666666666667,8|2|2,3:2|0:2|0:2,0:2:0:0:
268,201,319912,37,0,3:2:0:0:
202,161,320012,1,2,0:2:0:0:
133,193,320112,1,2,0:2:0:0:
132,275,320212,37,8,3:2:0:0:
200,238,320312,1,2,0:2:0:0:
202,161,320412,1,2,0:2:0:0:
270,278,320512,38,0,L|277:357,1,80,2|0,3:2|0:2,0:2:0:0:
264,113,320661,2,0,L|256:33,1,80,2|0,0:2|0:2,0:2:0:0:
132,275,320812,2,0,L|139:354,1,80,10|0,3:2|0:2,0:2:0:0:
134,113,320961,2,0,L|126:33,1,80,2|0,0:2|0:2,0:2:0:0:
464,209,321112,38,0,B|409:205|409:205|362:223|362:223|316:203|316:203|265:200,1,204.000003890991,0|0,3:2|0:2,0:2:0:0:
408,26,321412,38,0,B|438:15|458:-11|458:-11|411:50|424:173,1,204.000003890991,8|0,3:2|0:2,0:2:0:0:
234,370,321712,38,0,P|286:304|393:322,1,160,2|0,3:2|0:2,0:2:0:0:
454,271,321937,1,2,0:2:0:0:
431,289,322012,2,0,P|402:284|363:182,1,80,8|0,3:2|0:2,0:2:0:0:
318,131,322162,2,0,P|348:209|279:293,1,160,2|0,0:2|3:2,0:2:0:0:
153,214,322387,1,0,0:2:0:0:
187,194,322462,38,0,L|313:203,1,80,0|0,0:2|0:2,0:2:0:0:
397,135,322612,2,0,L|317:130,1,80,8|0,3:2|0:2,0:2:0:0:
188,55,322762,2,0,L|267:61,1,80,0|0,0:2|0:2,0:2:0:0:
453,69,322912,37,0,3:2:0:0:
468,288,323062,1,0,0:2:0:0:
486,257,323137,2,0,B|504:221|504:221|495:118,1,80,0|8,0:2|3:2,0:2:0:0:
337,93,323287,1,0,0:2:0:0:
317,130,323362,2,0,B|304:165|304:165|313:219,1,80,0|0,0:2|0:2,0:2:0:0:
276,323,323512,38,0,B|182:362|183:275|74:329,1,180.000006866455,0|0,3:2|0:2,0:2:0:0:
36,263,323812,2,0,L|34:121,1,120.000004577637,8|0,3:2|0:2,0:2:0:0:
270,49,324112,1,0,3:2:0:0:
176,122,324262,1,0,0:2:0:0:
162,95,324337,2,0,L|167:17,1,60.0000022888184,2|8,0:2|3:2,0:2:0:0:
308,123,324487,1,0,0:2:0:0:
322,150,324562,2,0,L|317:228,1,60.0000022888184,2|0,0:2|0:2,0:2:0:0:
149,255,324712,37,8,0:2:0:0:
360,334,324862,1,0,3:2:0:0:
286,328,324937,1,0,3:2:0:0:
211,319,325012,1,0,3:2:0:0:
204,167,325162,37,8,0:2:0:0:
0,270,325312,1,0,3:2:0:0:
74,264,325387,1,0,3:2:0:0:
149,255,325462,1,0,3:2:0:0:
212,108,325612,38,0,L|200:198,1,60.0000022888184,8|0,0:2|0:2,0:2:0:0:
81,323,325762,2,0,L|73:263,1,60.0000022888184,0|0,3:2|0:2,0:2:0:0:
58,95,325912,6,2,L|53:45,6,50,2|2|2|2|2|2|2,0:2|0:2|0:2|0:2|0:2|0:2|0:2,0:2:0:0:
6,174,326212,22,0,B|101:219|111:132|217:172,1,204.000003890991,8|0,3:2|0:2,0:2:0:0:
286,30,326512,37,0,3:2:0:0:
276,20,326587,1,2,0:2:0:0:
286,10,326662,1,2,0:2:0:0:
295,20,326737,1,2,0:2:0:0:
334,108,326812,37,8,3:2:0:0:
324,98,326887,1,2,0:2:0:0:
334,88,326962,1,2,0:2:0:0:
343,98,327037,1,2,0:2:0:0:
303,199,327112,37,0,3:2:0:0:
293,189,327187,1,2,0:2:0:0:
303,179,327262,1,2,0:2:0:0:
312,189,327337,1,2,0:2:0:0:
340,289,327412,37,8,3:2:0:0:
330,279,327487,1,2,0:2:0:0:
340,269,327562,1,2,0:2:0:0:
349,279,327637,1,2,0:2:0:0:
278,360,327712,37,0,3:2:0:0:
268,350,327787,1,2,0:2:0:0:
278,340,327862,1,2,0:2:0:0:
287,350,327937,1,2,0:2:0:0:
374,370,328012,38,0,P|436:268|343:117,1,300,8|0,3:2|0:2,0:2:0:0:
215,151,328312,38,0,P|313:160|367:35,1,240,0|0,3:2|0:2,0:2:0:0:
512,18,328612,2,0,P|398:18|355:122,1,240,8|0,3:2|0:2,0:2:0:0:
361,283,328912,38,0,P|417:293|480:263,2,106.666666666667,0|2|2,3:2|0:2|0:2,0:2:0:0:
209,248,329212,2,0,P|153:258|90:228,2,106.666666666667,8|2|2,3:2|0:2|0:2,0:2:0:0:
348,86,329512,37,0,3:2:0:0:
274,71,329612,1,2,0:2:0:0:
230,131,329712,1,2,0:2:0:0:
348,86,329812,37,8,3:2:0:0:
327,14,329912,1,2,0:2:0:0:
253,0,330012,1,2,0:2:0:0:
302,147,330112,38,0,L|292:239,1,80,2|0,3:2|0:2,0:2:0:0:
425,97,330262,2,0,L|433:17,1,80,2|0,0:2|0:2,0:2:0:0:
361,283,330412,2,0,L|352:362,1,80,2|0,0:2|0:2,0:2:0:0:
503,189,330562,2,0,L|511:109,1,80,2|0,0:2|0:2,0:2:0:0:
193,91,330712,38,0,B|163:73|155:49|155:49|183:112|172:217,1,200,8|0,0:2|0:2,0:2:0:0:
22,334,331012,53,8,3:2:0:0:
69,297,331087,1,8,3:2:0:0:
127,285,331162,1,8,3:2:0:0:
185,297,331237,1,8,3:2:0:0:
233,333,331312,1,8,3:2:0:0:
280,370,331387,1,8,3:2:0:0:
338,382,331462,1,8,3:2:0:0:
396,370,331537,1,8,3:2:0:0:
444,334,331612,1,8,3:2:0:0:
461,277,331687,1,8,3:2:0:0:
446,219,331762,1,8,3:2:0:0:
404,178,331837,1,8,3:2:0:0:
346,164,331912,6,0,L|353:260,1,60.0000022888184,2|0,3:2|0:2,0:2:0:0:
445,88,332062,2,0,L|441:28,1,60.0000022888184,2|0,0:2|0:2,0:2:0:0:
220,236,332212,69,8,3:2:0:0:
163,253,332287,1,8,3:2:0:0:
105,242,332362,1,8,3:2:0:0:
59,204,332437,1,8,3:2:0:0:
36,149,332512,1,8,3:2:0:0:
43,90,332587,1,8,3:2:0:0:
77,42,332662,1,8,3:2:0:0:
130,15,332737,1,8,3:2:0:0:
190,17,332812,1,8,3:2:0:0:
241,47,332887,1,8,3:2:0:0:
271,98,332962,1,8,3:2:0:0:
274,157,333037,1,8,3:2:0:0:
255,207,333112,6,0,L|262:285,1,60.0000022888184,0|0,3:2|0:2,0:2:0:0:
366,342,333412,69,8,3:2:0:0:
421,321,333487,1,8,3:2:0:0:
455,273,333562,1,8,3:2:0:0:
454,214,333637,1,8,3:2:0:0:
418,166,333712,6,0,B|381:208|381:208|383:265,2,106.666666666667,2|2|2,3:2|0:2|0:2,0:2:0:0:
411,59,334012,69,8,3:2:0:0:
351,56,334087,1,8,3:2:0:0:
291,53,334162,1,8,3:2:0:0:
231,51,334237,1,8,3:2:0:0:
149,51,334312,54,0,L|151:107,1,40,0|0,3:2|1:2,0:2:0:0:
154,173,334537,1,0,1:2:0:0:
154,173,334612,1,8,0:1:0:0:
79,139,334762,1,0,1:0:0:0:
79,139,334837,1,0,1:0:0:0:
79,139,334912,1,0,1:0:0:0:
79,139,334987,1,0,1:0:0:0:
79,139,335062,1,8,0:1:0:0:
154,173,335212,70,0,L|156:207,1,20,2|0,0:2|0:2,0:2:0:0:
160,268,335362,2,0,L|162:302,1,20,2|0,0:2|0:2,0:2:0:0:
233,332,335512,5,0,3:2:0:0:
233,332,335662,1,0,0:2:0:0:
233,332,335812,2,0,P|308:330|338:343,1,80,0|0,0:2|0:2,0:2:0:0:
400,287,336037,70,0,L|395:368,2,80
435,210,336412,2,0,L|440:117,1,80,0|0,0:2|0:2,0:2:0:0:
274,26,336712,5,0,0:2:0:0:
274,26,336862,1,0,0:2:0:0:
274,26,337012,2,0,P|213:34|170:21,1,80,0|0,0:2|0:2,0:2:0:0:
112,62,337237,70,0,P|72:65|33:57,2,80,0|0|0,0:2|0:2|0:2,0:2:0:0:
131,149,337612,2,0,P|138:187|125:230,1,80,0|0,0:2|0:2,0:2:0:0:
109,362,337912,5,0,0:2:0:0:
109,362,338062,1,0,0:2:0:0:
109,362,338212,2,0,L|192:352,1,71.9999978027344,0|0,0:2|0:2,0:2:0:0:
255,311,338437,70,0,L|246:239,2,71.9999978027344,0|0|0,0:2|0:2|0:2,0:2:0:0:
347,321,338812,2,0,P|388:328|423:321,1,71.9999978027344,0|0,0:2|0:2,0:2:0:0:
361,133,339112,5,0,0:2:0:0:
361,133,339262,1,0,0:2:0:0:
361,133,339412,2,0,L|362:217,1,64,0|0,0:2|0:2,0:2:0:0:
456,185,339637,70,0,P|494:172|535:172,2,64
505,257,340012,2,0,L|505:344,1,64,0|0,0:2|0:2,0:2:0:0:
245,220,340312,5,0,0:2:0:0:
245,220,340462,1,0,0:2:0:0:
245,220,340612,2,0,P|198:221|172:210,1,55.9999982910157,0|0,0:2|0:2,0:2:0:0:
176,136,340837,70,0,L|184:62,2,55.9999982910157
90,91,341212,2,0,P|53:84|17:86,1,55.9999982910157,0|0,0:2|0:2,0:2:0:0:
61,236,341512,5,0,0:2:0:0:
61,236,341662,1,0,0:2:0:0:
61,236,341812,2,0,L|58:175,1,47.9999985351563,0|0,0:2|0:2,0:2:0:0:
148,216,342037,70,0,L|150:263,2,47.9999985351563,0|0|0,0:2|0:2|0:2,0:2:0:0:
176,138,342412,2,0,L|243:136,1,47.9999985351563,0|0,0:2|0:2,0:2:0:0:
398,70,342712,5,0,0:2:0:0:
398,70,342862,1,0,0:2:0:0:
398,70,343012,2,0,L|392:120,1,40,0|0,0:2|0:2,0:2:0:0:
382,225,343237,70,0,L|386:185,2,40,0|0|0,0:2|0:2|0:2,0:2:0:0:
399,306,343612,2,0,L|347:304,1,40,0|0,0:2|0:2,0:2:0:0:
257,318,343912,5,0,0:2:0:0:
257,318,344062,1,0,0:2:0:0:
257,318,344212,2,0,P|267:290|270:264,1,40,0|0,0:2|0:2,0:2:0:0:
185,224,344437,1,0,0:2:0:0:
185,224,344512,70,0,L|161:224,3,20,0|0|0|0,0:2|0:2|0:2|0:2,0:2:0:0:
266,198,344812,2,0,L|286:198,3,20,0|0|0|0,0:2|0:2|0:2|0:2,0:2:0:0:
369,210,345112,6,0,B|411:253|420:339|420:339|449:217|361:134|410:52|410:52|399:130|451:179,1,560,2|0,0:2|0:2,0:2:0:0:
320,46,347512,70,0,L|157:23,1,160,2|0,0:2|0:2,0:2:0:0:
61,48,348262,1,2,0:2:0:0:
92,129,348412,1,2,0:2:0:0:
32,199,348562,6,0,P|9:240|84:362,1,200,2|0,0:2|0:2,0:2:0:0:
185,307,349462,1,2,0:2:0:0:
267,350,349612,1,2,0:2:0:0:
342,293,349762,1,2,0:2:0:0:
446,374,349912,70,0,B|527:203|488:47|363:-4|287:23|258:135|311:180|368:192,1,560,2|0,0:2|0:2,0:2:0:0:
342,293,352237,1,2,0:2:0:0:
342,293,352312,6,0,B|270:259|263:330|177:277,1,160,2|0,0:2|0:2,0:2:0:0:
91,207,353062,1,2,0:2:0:0:
148,147,353212,1,2,0:2:0:0:
113,78,353362,2,0,P|76:73|15:169,1,160,2|0,0:2|0:2,0:2:0:0:
91,207,354112,70,2,L|94:220,2,10,2|2|2,0:2|0:2|0:2,0:2:0:0:
117,239,354262,1,2,0:0:0:0:
76,312,354412,1,2,0:2:0:0:
146,354,354562,1,2,0:2:0:0:
205,225,354712,6,0,L|274:227,1,60.0000022888184,0|0,0:2|0:2,0:2:0:0:
319,288,355012,2,0,L|378:287,2,60.0000022888184,2|0|0,0:2|0:2|0:2,0:2:0:0:
254,341,355462,2,0,L|194:340,2,60.0000022888184,2|0|0,0:2|0:2|0:2,0:2:0:0:
319,288,355912,1,0,0:2:0:0:
319,288,356062,70,0,L|378:287,2,60.0000022888184,2|0|0,0:2|0:2|0:2,0:2:0:0:
264,227,356512,2,0,L|205:226,1,60.0000022888184,0|0,0:2|0:2,0:2:0:0:
307,152,356812,2,0,L|367:158,1,60.0000022888184,0|0,0:2|0:2,0:2:0:0:
239,45,357112,54,0,B|231:77|231:77|241:124,1,60.0000022888184,0|0,0:2|0:2,0:2:0:0:
150,160,357412,2,0,B|155:134|155:134|147:102,2,60.0000022888184,2|0|0,0:2|0:2|0:2,0:2:0:0:
204,226,357862,2,0,B|196:258|196:258|201:285,2,60.0000022888184,2|0|0,0:2|0:2|0:2,0:2:0:0:
150,160,358312,1,0,0:2:0:0:
150,160,358462,70,0,B|155:134|155:134|147:102,2,60.0000022888184,2|0|0,0:2|0:2|0:2,0:2:0:0:
105,236,358912,2,0,B|97:268|97:268|103:294,1,60.0000022888184,0|0,0:2|0:2,0:2:0:0:
203,344,359212,2,0,B|209:317|209:317|201:285,1,60.0000022888184,0|0,0:2|0:2,0:2:0:0:
287,257,359512,54,0,L|355:263,1,60.0000022888184,0|0,0:2|0:2,0:2:0:0:
431,298,359812,2,0,L|490:293,2,60.0000022888184,2|0|0,0:2|0:2|0:2,0:2:0:0:
360,363,360262,2,0,L|300:358,2,60.0000022888184,2|0|0,0:2|0:2|0:2,0:2:0:0:
431,298,360712,1,0,0:2:0:0:
431,298,360862,70,0,L|490:293,2,60.0000022888184,2|0|0,0:2|0:2|0:2,0:2:0:0:
346,263,361312,2,0,L|287:257,1,60.0000022888184,0|0,0:2|0:2,0:2:0:0:
412,204,361612,2,0,L|471:199,1,60.0000022888184,0|0,0:2|0:2,0:2:0:0:
337,115,361912,38,0,P|329:152|335:186,1,60.0000022888184,0|0,0:2|0:2,0:2:0:0:
418,77,362212,2,0,P|419:48|412:19,2,60.0000022888184,2|0|0,0:2|0:2|0:2,0:2:0:0:
477,140,362662,2,0,P|469:169|471:199,2,60.0000022888184,2|0|0,0:2|0:2|0:2,0:2:0:0:
418,77,363112,1,0,0:2:0:0:
418,77,363269,6,0,P|419:48|409:17,2,60.0000022888184,2|0|0,0:2|0:2|0:2,0:2:0:0:
337,115,363743,2,0,P|329:144|336:182,1,60.0000022888184,2|0,0:2|0:2,0:2:0:0:
377,306,364095,21,2,0:0:0:0:
261,225,364272,5,2,0:0:0:0:
115,273,364448,69,2,0:0:0:0:
78,384,364645,5,2,0:0:0:0:
332,173,364842,69,2,0:2:0:0:
217,149,365062,5,2,0:2:0:0:
28,285,365283,53,2,0:2:0:0:
106,191,365517,5,2,0:2:0:0:
217,149,365751,5,2,0:2:0:0:
28,285,366031,5,2,0:2:0:0:
332,173,366311,5,2,0:2:0:0:
256,296,367252,38,0,L|256:256,2,40,2|2|2,0:2|0:2|0:2,0:2:0:0:
256,96,367759,21,2,0:2:0:0:
256,352,369074,37,2,0:2:0:0:
