osu file format v14

[General]
AudioFilename: audio.mp3
AudioLeadIn: 0
PreviewTime: 42187
Countdown: 1
SampleSet: Normal
StackLeniency: 0.7
Mode: 1
LetterboxInBreaks: 0
WidescreenStoryboard: 0

[Editor]
Bookmarks: 23512,42712,61912,81112,100312,109912,133912,153112,167512,172312,191512,210712,239512,249112,268312,287512,306712,323512,335512,288957
DistanceSpacing: 1
BeatDivisor: 4
GridSize: 32
TimelineZoom: 4.900003

[Metadata]
Title:Feelin Sky (Camellia's "200step" Self-remix)
TitleUnicode:Feelin Sky (Camellia's "200step" Self-remix)
Artist:Camellia
ArtistUnicode:Camellia
Creator:Backfire
Version:Universe
Source:
Tags:Camellia teaMblack19 dj genki hardcore electronic j-core japanese
BeatmapID:1491259
BeatmapSetID:705016

[Difficulty]
HPDrainRate:4
CircleSize:5
OverallDifficulty:7
ApproachRate:5
SliderMultiplier:1.4
SliderTickRate:1

[Events]
//Background and Video events
0,0,"Konachan.com - 162855 animal bird lighthouse night original scenic sky stars tokumu_kyuu water.jpg",0,0
//Break Periods
//Storyboard Layer 0 (Background)
//Storyboard Layer 1 (Fail)
//Storyboard Layer 2 (Pass)
//Storyboard Layer 3 (Foreground)
//Storyboard Sound Samples

[TimingPoints]
4312,300,4,1,0,30,1,0
4312,-156.25,4,1,0,30,0,0
6112,-153.846153846154,4,1,0,30,0,0
6412,-151.515151515152,4,1,0,30,0,0
6712,-149.253731343284,4,1,0,30,0,0
8062,-147.058823529412,4,1,0,30,0,0
8512,-144.927536231884,4,1,0,30,0,0
9112,-142.857142857143,4,1,0,30,0,0
10912,-140.845070422535,4,1,0,30,0,0
11212,-139.86013986014,4,1,0,30,0,0
11512,-138.888888888889,4,1,0,30,0,0
13312,-136.986301369863,4,1,0,30,0,0
13612,-135.135135135135,4,1,0,30,0,0
13912,-133.333333333333,4,1,0,30,0,0
16012,-131.578947368421,4,1,0,30,0,0
16162,-129.87012987013,4,1,0,30,0,0
16312,-128.205128205128,4,1,0,30,0,0
18562,-126.582278481013,4,1,0,30,0,0
18712,-125,4,1,0,30,0,0
20812,-123.456790123457,4,1,0,30,0,0
20962,-121.951219512195,4,1,0,30,0,0
21112,-120.481927710843,4,1,0,30,0,0
23362,-119.047619047619,4,2,0,30,0,0
23512,-117.647058823529,4,2,0,40,0,0
25912,-114.942528735632,4,2,0,40,0,0
28312,-112.359550561798,4,2,0,40,0,0
29412,-111.111111111111,4,2,0,40,0,0
29512,-109.89010989011,4,2,0,40,0,0
30712,-108.695652173913,4,2,0,40,0,0
32312,-105.263157894737,4,2,0,50,0,0
32412,-101.010101010101,4,2,0,50,0,0
32512,-98.0392156862745,4,2,0,50,0,0
32612,-94.3396226415094,4,2,0,50,0,0
32712,-91.743119266055,4,2,0,50,0,0
32812,-94.3396226415094,4,2,0,50,0,0
32912,-98.0392156862745,4,2,0,50,0,0
33012,-100,4,2,0,50,0,0
33112,-105.263157894737,4,2,0,40,0,0
35512,-104.166666666667,4,2,0,40,0,0
37912,-103.092783505155,4,2,0,40,0,0
39012,-102.040816326531,4,2,0,40,0,0
39112,-101.010101010101,4,2,0,40,0,0
40312,-100,4,1,0,50,0,0
40387,-99.009900990099,4,1,0,51,0,0
40462,-98.0392156862745,4,1,0,52,0,0
40537,-97.0873786407767,4,1,0,53,0,0
40612,-95.2380952380952,4,1,0,55,0,0
40687,-93.4579439252336,4,1,0,57,0,0
40762,-91.743119266055,4,1,0,59,0,0
40837,-90.0900900900901,4,1,0,61,0,0
40912,-86.9565217391304,4,1,0,65,0,0
40987,-84.7457627118644,4,1,0,68,0,0
41062,-82.6446280991736,4,1,0,71,0,0
41137,-80.6451612903226,4,1,0,74,0,0
41212,-76.9230769230769,4,1,0,80,0,0
41287,-74.0740740740741,4,1,0,81,0,0
41362,-71.4285714285714,4,1,0,82,0,0
41437,-68.9655172413793,4,1,0,83,0,0
41512,-62.5,4,1,0,85,0,0
41587,-58.8235294117647,4,1,0,86,0,0
41662,-55.5555555555556,4,1,0,87,0,0
41737,-52.6315789473684,4,1,0,88,0,0
41812,-50,4,1,0,90,0,0
41887,-47.6190476190476,4,1,0,92,0,0
41962,-45.4545454545455,4,1,0,95,0,0
42037,-43.4782608695652,4,1,0,97,0,0
42112,-40,4,1,0,100,0,0
42712,75,4,1,0,100,1,0
42712,-100,4,1,0,100,0,0
42749,200,4,1,0,100,1,0
42787,150,4,1,0,100,1,0
42824,120,4,1,0,100,1,0
42862,100,4,1,0,100,1,0
42899,85.7142857142857,4,1,0,100,1,0
42937,75,4,1,0,100,1,0
42974,66.6666666666667,4,1,0,100,1,0
43012,60,4,1,0,100,1,0
43049,60,4,1,0,100,1,0
43087,60,4,1,0,100,1,0
43124,60,4,1,0,100,1,0
43162,300,4,1,0,100,1,0
43162,-25,4,1,0,100,0,0
43462,-100,4,1,0,70,0,0
45112,60,4,1,0,100,1,0
45149,200,4,1,0,100,1,0
45186,150,4,1,0,100,1,0
45223,120,4,1,0,100,1,0
45260,100,4,1,0,100,1,0
45297,85.7142857142857,4,1,0,100,1,0
45334,80,4,1,0,100,1,0
45371,85.7142857142857,4,1,0,100,1,0
45408,100,4,1,0,100,1,0
45445,120,4,1,0,100,1,0
45482,150,4,1,0,100,1,0
45519,200,4,1,0,100,1,0
45562,300,4,1,0,100,1,0
45562,-25,4,1,0,100,0,0
45862,-100,4,1,0,70,0,0
47512,75,4,1,0,100,1,0
47549,200,4,1,0,100,1,0
47586,120,4,1,0,100,1,0
47623,85.7142857142857,4,1,0,100,1,0
47660,66.6666666666667,4,1,0,100,1,0
47697,54.5454545454545,4,1,0,100,1,0
47734,46.1538461538462,4,1,0,100,1,0
47771,40,4,1,0,100,1,0
47808,30,4,1,0,100,1,0
47845,25,4,1,0,100,1,0
47882,23.0769230769231,4,1,0,100,1,0
47919,21.4285714285714,4,1,0,100,1,0
47962,300,4,1,0,100,1,0
47962,-25,4,1,0,100,0,0
48262,-100,4,1,0,70,0,0
48712,75,4,1,0,100,1,0
48749,150,4,1,0,100,1,0
48786,100,4,1,0,100,1,0
48823,75,4,1,0,100,1,0
48860,60,4,1,0,100,1,0
48897,50,4,1,0,100,1,0
48934,40,4,1,0,100,1,0
48971,30,4,1,0,100,1,0
49008,24,4,1,0,100,1,0
49045,22.2222222222222,4,1,0,100,1,0
49082,20.6896551724138,4,1,0,100,1,0
49119,20,4,1,0,100,1,0
49162,300,4,1,0,100,1,0
49162,-25,4,1,0,100,0,0
49462,-100,4,1,0,70,0,0
49912,75,4,1,0,100,1,0
49949,100,4,1,0,100,1,0
49986,66.6666666666667,4,1,0,100,1,0
50023,50,4,1,0,100,1,0
50060,40,4,1,0,100,1,0
50097,33.3333333333333,4,1,0,100,1,0
50134,26.0869565217391,4,1,0,100,1,0
50171,23.0769230769231,4,1,0,100,1,0
50208,20.6896551724138,4,1,0,100,1,0
50245,18.75,4,1,0,100,1,0
50282,17.1428571428571,4,1,0,100,1,0
50319,15,4,1,0,100,1,0
50362,300,4,1,0,100,1,0
50362,-25,4,1,0,100,0,0
50662,-100,4,1,0,70,0,0
52312,75,4,1,0,100,1,0
52349,200,4,1,0,100,1,0
52386,150,4,1,0,100,1,0
52423,120,4,1,0,100,1,0
52460,100,4,1,0,100,1,0
52497,85.7142857142857,4,1,0,100,1,0
52534,75,4,1,0,100,1,0
52571,66.6666666666667,4,1,0,100,1,0
52608,60,4,1,0,100,1,0
52645,54.5454545454545,4,1,0,100,1,0
52682,50,4,1,0,100,1,0
52719,46.1538461538462,4,1,0,100,1,0
52762,300,4,1,0,100,1,0
52762,-25,4,1,0,100,0,0
53062,-100,4,1,0,70,0,0
54712,75,4,1,0,100,1,0
54749,200,4,1,0,100,1,0
54786,150,4,1,0,100,1,0
54823,120,4,1,0,100,1,0
54860,100,4,1,0,100,1,0
54897,85.7142857142857,4,1,0,100,1,0
54934,80,4,1,0,100,1,0
54971,85.7142857142857,4,1,0,100,1,0
55008,100,4,1,0,100,1,0
55045,120,4,1,0,100,1,0
55082,150,4,1,0,100,1,0
55119,200,4,1,0,100,1,0
55162,300,4,1,0,100,1,0
55162,-25,4,1,0,100,0,0
55462,-100,4,1,0,70,0,0
57112,75,4,1,0,100,1,0
57149,150,4,1,0,100,1,0
57186,100,4,1,0,100,1,0
57223,75,4,1,0,100,1,0
57260,60,4,1,0,100,1,0
57297,50,4,1,0,100,1,0
57334,42.8571428571429,4,1,0,100,1,0
57371,37.5,4,1,0,100,1,0
57408,33.3333333333333,4,1,0,100,1,0
57445,30,4,1,0,100,1,0
57482,27.2727272727273,4,1,0,100,1,0
57519,25,4,1,0,100,1,0
57562,300,4,1,0,100,1,0
57562,-25,4,1,0,100,0,0
57862,-100,4,1,0,70,0,0
58312,75,4,1,0,100,1,0
58349,120,4,1,0,100,1,0
58386,75,4,1,0,100,1,0
58423,54.5454545454545,4,1,0,100,1,0
58460,40,4,1,0,100,1,0
58497,31.5789473684211,4,1,0,100,1,0
58534,25,4,1,0,100,1,0
58571,23.0769230769231,4,1,0,100,1,0
58608,21.4285714285714,4,1,0,100,1,0
58645,20,4,1,0,100,1,0
58682,18.75,4,1,0,100,1,0
58719,17.1428571428571,4,1,0,100,1,0
58762,300,4,1,0,100,1,0
58762,-25,4,1,0,100,0,0
59062,-100,4,1,0,70,0,0
59512,75,4,1,0,100,1,0
59549,75,4,1,0,100,1,0
59586,40,4,1,0,100,1,0
59623,30,4,1,0,100,1,0
59660,26.0869565217391,4,1,0,100,1,0
59697,23.0769230769231,4,1,0,100,1,0
59734,20.6896551724138,4,1,0,100,1,0
59771,20,4,1,0,100,1,0
59808,15,4,1,0,100,1,0
59845,12,4,1,0,100,1,0
59882,10,4,1,0,100,1,0
59919,8.57142857142857,4,1,0,100,1,0
59962,300,4,1,0,100,1,0
59962,-25,4,1,0,100,0,0
60262,-100,4,1,0,70,0,0
61162,-97.0873786407767,4,1,0,70,0,0
61237,-94.3396226415094,4,1,0,70,0,0
61312,-90.9090909090909,4,1,0,70,0,0
61462,-89.2857142857143,4,1,0,70,0,0
61537,-86.9565217391304,4,1,0,70,0,0
61912,300,4,1,0,70,1,0
61912,-83.3333333333333,4,1,0,70,0,0
62512,-100,4,1,0,70,0,0
62962,-66.6666666666667,4,1,0,5,0,0
64162,-100,4,1,0,70,0,0
65362,-62.5,4,1,0,5,0,0
67162,-100,4,1,0,70,0,0
67762,-57.1428571428571,4,1,0,5,0,0
68962,-100,4,1,0,70,0,0
70162,-50,4,1,0,5,0,0
71512,-100,4,1,0,70,0,0
72562,-41.6666666666667,4,1,0,5,0,0
73762,-100,4,1,0,70,0,0
74962,-95.2380952380952,4,1,0,70,0,0
75037,-93.4579439252336,4,1,0,70,0,0
75112,-90.9090909090909,4,1,0,70,0,0
75562,-133.333333333333,4,1,0,70,0,0
76012,-80,4,1,0,70,0,0
76312,-100,4,1,0,70,0,0
77362,-38.4615384615385,4,1,0,5,0,0
78412,-100,4,1,0,70,0,0
79312,-97.0873786407767,4,1,0,70,0,0
79387,-94.3396226415094,4,1,0,70,0,0
79462,-90.9090909090909,4,1,0,70,0,0
79612,-83.3333333333333,4,1,0,70,0,0
79762,-66.6666666666667,4,1,0,70,0,0
81112,-133.333333333333,4,2,0,40,0,0
83512,-129.87012987013,4,2,0,43,0,0
85912,-125,4,2,0,45,0,0
86812,-120.481927710843,4,2,0,49,0,0
88012,-117.647058823529,4,2,0,53,0,0
89212,-113.636363636364,4,2,0,57,0,0
90412,-111.111111111111,4,1,0,60,0,0
93112,-108.695652173913,4,1,0,62,0,0
95212,-105.263157894737,4,1,0,65,0,0
97912,-102.040816326531,4,1,0,68,0,0
99712,-101.010101010101,4,1,0,69,0,0
100012,-98.0392156862745,4,1,0,70,0,0
100312,-96.1538461538461,4,1,0,71,0,0
100912,-94.3396226415094,4,1,0,72,0,0
102112,-92.5925925925926,4,1,0,73,0,0
103312,-90.9090909090909,4,1,0,74,0,0
104512,-89.2857142857143,4,1,0,75,0,0
105112,-87.719298245614,4,1,0,76,0,0
105412,-86.2068965517241,4,1,0,77,0,0
105712,-84.7457627118644,4,1,0,78,0,0
106012,-83.3333333333333,4,1,0,79,0,0
106312,-81.9672131147541,4,1,0,80,0,0
106612,-80.6451612903226,4,1,0,81,0,0
106912,-79.3650793650794,4,1,0,82,0,0
107212,-78.125,4,1,0,83,0,0
107512,-76.9230769230769,4,1,0,84,0,0
107587,-75.7575757575758,4,1,0,85,0,0
107662,-74.6268656716418,4,1,0,86,0,0
107737,-73.5294117647059,4,1,0,87,0,0
107812,-72.463768115942,4,1,0,88,0,0
107887,-71.4285714285714,4,1,0,90,0,0
107962,-70.9219858156028,4,1,0,90,0,0
108037,-70.4225352112676,4,1,0,90,0,0
108112,-69.9300699300699,4,1,0,90,0,0
108187,-69.4444444444444,4,1,0,90,0,0
108262,-68.9655172413793,4,1,0,90,0,0
108337,-68.4931506849315,4,1,0,90,0,0
108412,-68.0272108843537,4,1,0,90,0,0
108487,-67.5675675675676,4,1,0,90,0,0
108562,-67.1140939597315,4,1,0,90,0,0
108637,-66.6666666666667,4,1,0,90,0,0
108712,-50,4,1,0,5,0,0
109612,-71.4285714285714,4,1,0,70,0,0
109662,-74.0740740740741,4,1,0,70,0,0
109712,-76.9230769230769,4,1,0,70,0,0
109762,-80,4,1,0,70,0,0
109812,-83.3333333333333,4,1,0,70,0,0
109862,-86.9565217391304,4,1,0,70,0,0
109912,-90.9090909090909,4,1,0,70,0,1
112312,-89.2857142857143,4,1,0,70,0,1
112362,-87.719298245614,4,1,0,70,0,1
112412,-86.2068965517241,4,1,0,70,0,1
112462,-84.7457627118644,4,1,0,70,0,1
112612,-84.7457627118644,4,1,0,70,0,1
112662,-86.2068965517241,4,1,0,70,0,1
112712,-87.719298245614,4,1,0,70,0,1
112762,-89.2857142857143,4,1,0,70,0,1
112837,-90.9090909090909,4,1,0,70,0,1
114112,-86.9565217391304,4,1,0,70,0,1
114262,-83.3333333333333,4,1,0,70,0,1
114412,-80,4,1,0,70,0,1
114562,-76.9230769230769,4,1,0,70,0,1
114712,-66.6666666666667,4,1,0,70,0,1
114787,-90.9090909090909,4,1,0,70,0,1
117112,-83.3333333333333,4,1,0,70,0,1
118912,-66.6666666666667,4,1,0,70,0,1
119512,-90.9090909090909,4,1,0,70,0,1
121912,-88.4955752212389,4,1,0,70,0,1
121962,-86.2068965517241,4,1,0,70,0,1
122012,-84.0336134453781,4,1,0,70,0,1
122062,-81.9672131147541,4,1,0,70,0,1
122212,-81.9672131147541,4,1,0,70,0,1
122262,-84.0336134453781,4,1,0,70,0,1
122312,-86.2068965517241,4,1,0,70,0,1
122362,-88.4955752212389,4,1,0,70,0,1
122437,-90.9090909090909,4,1,0,70,0,1
123712,-83.3333333333333,4,1,0,70,0,1
123862,-76.9230769230769,4,1,0,70,0,1
124012,-71.4285714285714,4,1,0,70,0,1
124162,-66.6666666666667,4,1,0,70,0,1
124312,-57.1428571428571,4,1,0,70,0,1
124387,-90.9090909090909,4,1,0,70,0,1
126712,-83.3333333333333,4,1,0,70,0,1
127762,-82.6446280991736,4,1,0,70,0,1
127837,-81.3008130081301,4,1,0,70,0,1
127912,-80,4,1,0,70,0,1
129112,-76.9230769230769,4,1,0,70,0,0
129262,-50,4,1,0,70,0,0
131362,-76.9230769230769,4,1,0,70,0,0
131437,-75.187969924812,4,1,0,70,0,0
131512,-74.0740740740741,4,1,0,70,0,0
131662,-50,4,1,0,70,0,0
133462,-66.6666666666667,4,1,0,70,0,0
133612,-71.4285714285714,4,1,0,70,0,0
133687,-75.7575757575758,4,1,0,70,0,0
133762,-80.6451612903226,4,1,0,70,0,0
133837,-84.7457627118644,4,1,0,70,0,0
133912,-90.9090909090909,4,1,0,70,0,1
135712,-89.2857142857143,4,1,0,70,0,1
135762,-87.719298245614,4,1,0,70,0,1
135812,-86.2068965517241,4,1,0,70,0,1
135862,-84.7457627118644,4,1,0,70,0,1
135937,-86.2068965517241,4,1,0,70,0,1
136012,-87.719298245614,4,1,0,70,0,1
136087,-89.2857142857143,4,1,0,70,0,1
136312,-90.9090909090909,4,1,0,70,0,0
136387,-90.9090909090909,4,1,0,70,0,1
137662,-90.0900900900901,4,1,0,70,0,1
137737,-89.2857142857143,4,1,0,70,0,1
137812,-88.4955752212389,4,1,0,70,0,1
137887,-87.719298245614,4,1,0,70,0,1
137962,-86.9565217391304,4,1,0,70,0,1
138037,-86.2068965517241,4,1,0,70,0,1
138112,-85.4700854700855,4,1,0,70,0,1
138187,-84.7457627118644,4,1,0,70,0,1
138262,-83.3333333333333,4,1,0,70,0,1
138412,-76.9230769230769,4,1,0,70,0,1
138462,-75.187969924812,4,1,0,70,0,1
138512,-73.5294117647059,4,1,0,70,0,1
138562,-71.9424460431655,4,1,0,70,0,1
138712,-90.9090909090909,4,1,0,70,0,1
140512,-88.4955752212389,4,1,0,70,0,1
140562,-86.2068965517241,4,1,0,70,0,1
140612,-84.0336134453781,4,1,0,70,0,1
140662,-81.9672131147541,4,1,0,70,0,1
140737,-84.0336134453781,4,1,0,70,0,1
140812,-86.2068965517241,4,1,0,70,0,1
140887,-88.4955752212389,4,1,0,70,0,1
141112,-90.9090909090909,4,1,0,70,0,1
142312,-89.2857142857143,4,1,0,70,0,1
142387,-88.4955752212389,4,1,0,70,0,1
142462,-86.9565217391304,4,1,0,70,0,1
142537,-86.2068965517241,4,1,0,70,0,1
142612,-84.7457627118644,4,1,0,70,0,1
142687,-84.0336134453781,4,1,0,70,0,1
142762,-83.3333333333333,4,1,0,70,0,1
142837,-82.6446280991736,4,1,0,70,0,1
142912,-81.9672131147541,4,1,0,70,0,1
142987,-80.6451612903226,4,1,0,70,0,1
143062,-80,4,1,0,70,0,1
143212,-76.9230769230769,4,1,0,70,0,1
143262,-75.187969924812,4,1,0,70,0,1
143312,-73.5294117647059,4,1,0,70,0,1
143362,-71.9424460431655,4,1,0,70,0,1
143512,-90.9090909090909,4,1,0,70,0,1
145312,-88.4955752212389,4,1,0,70,0,1
145362,-85.4700854700855,4,1,0,70,0,1
145412,-83.3333333333333,4,1,0,70,0,1
145462,-81.3008130081301,4,1,0,70,0,1
145537,-83.3333333333333,4,1,0,70,0,1
145612,-85.4700854700855,4,1,0,70,0,1
145687,-88.4955752212389,4,1,0,70,0,1
145912,-90.9090909090909,4,1,0,70,0,1
147112,-89.2857142857143,4,1,0,70,0,1
147187,-87.719298245614,4,1,0,70,0,1
147262,-86.2068965517241,4,1,0,70,0,1
147337,-84.7457627118644,4,1,0,70,0,1
147412,-83.3333333333333,4,1,0,70,0,1
147487,-81.9672131147541,4,1,0,70,0,1
147562,-80.6451612903226,4,1,0,70,0,1
147637,-79.3650793650794,4,1,0,70,0,1
147712,-78.125,4,1,0,70,0,1
147787,-77.5193798449612,4,1,0,70,0,1
147862,-76.9230769230769,4,1,0,70,0,1
148012,-75.187969924812,4,1,0,70,0,1
148062,-73.5294117647059,4,1,0,70,0,1
148112,-71.9424460431655,4,1,0,70,0,1
148162,-71.4285714285714,4,1,0,70,0,1
148312,-72.992700729927,4,1,0,70,0,1
148387,-74.6268656716418,4,1,0,70,0,1
148462,-76.3358778625954,4,1,0,70,0,1
148537,-78.125,4,1,0,70,0,1
148612,-80,4,1,0,70,0,1
148762,-81.9672131147541,4,1,0,70,0,1
148912,-83.3333333333333,4,1,0,70,0,1
150112,-82.6446280991736,4,1,0,70,0,1
150162,-81.9672131147541,4,1,0,70,0,1
150212,-81.3008130081301,4,1,0,70,0,1
150262,-80.6451612903226,4,1,0,70,0,1
150562,-80,4,1,0,70,0,0
150712,-79.3650793650794,4,1,0,70,0,1
151162,-78.7401574803149,4,1,0,70,0,0
151237,-78.125,4,1,0,70,0,0
151312,-77.5193798449612,4,1,0,70,0,1
151762,-76.9230769230769,4,1,0,70,0,0
151837,-76.9230769230769,4,1,0,70,0,0
151912,-76.9230769230769,4,1,0,70,0,1
152512,-79.3650793650794,4,1,0,70,0,0
152587,-81.9672131147541,4,1,0,70,0,0
152662,-84.7457627118644,4,1,0,70,0,0
152737,-87.719298245614,4,1,0,70,0,0
152812,-90.9090909090909,4,1,0,70,0,0
152887,-92.5925925925926,4,1,0,70,0,0
152962,-94.3396226415094,4,1,0,70,0,0
153037,-96.1538461538461,4,1,0,70,0,0
153112,-98.0392156862745,4,1,0,70,0,1
153162,-100,4,1,0,70,0,0
155512,-100,4,1,0,70,0,1
155562,-100,4,1,0,70,0,0
157912,-100,4,1,0,70,0,1
157987,-100,4,1,0,70,0,0
160312,-100,4,1,0,70,0,1
160362,-100,4,1,0,70,0,0
162712,-98.0392156862745,4,1,0,70,0,0
162787,-96.1538461538461,4,1,0,70,0,0
162862,-94.3396226415094,4,1,0,70,0,0
162937,-93.4579439252336,4,1,0,70,0,0
163012,-95.2380952380952,4,1,0,70,0,0
163087,-98.0392156862745,4,1,0,70,0,0
163162,-100,4,1,0,70,0,0
163312,-97.0873786407767,4,1,0,70,0,0
163387,-94.3396226415094,4,1,0,70,0,0
163462,-91.743119266055,4,1,0,70,0,0
163537,-88.4955752212389,4,1,0,70,0,0
163612,-90.9090909090909,4,1,0,70,0,0
163687,-95.2380952380952,4,1,0,70,0,0
163762,-100,4,1,0,70,0,0
163912,-98.0392156862745,4,1,0,70,0,0
163987,-95.2380952380952,4,1,0,70,0,0
164062,-91.743119266055,4,1,0,70,0,0
164137,-88.4955752212389,4,1,0,70,0,0
164212,-90.9090909090909,4,1,0,70,0,0
164287,-95.2380952380952,4,1,0,70,0,0
164362,-100,4,1,0,70,0,0
164512,-96.1538461538461,4,1,0,70,0,0
164587,-94.3396226415094,4,1,0,70,0,0
164662,-91.743119266055,4,1,0,70,0,0
164737,-88.4955752212389,4,1,0,70,0,0
164812,-90.9090909090909,4,1,0,70,0,0
164862,-93.4579439252336,4,1,0,70,0,0
164912,-97.0873786407767,4,1,0,70,0,0
164962,-100,4,1,0,70,0,0
165112,-97.0873786407767,4,1,0,70,0,0
165187,-94.3396226415094,4,1,0,70,0,0
165262,-91.743119266055,4,1,0,70,0,0
165337,-91.743119266055,4,1,0,70,0,0
165412,-94.3396226415094,4,1,0,70,0,0
165487,-97.0873786407767,4,1,0,70,0,0
165562,-100,4,1,0,70,0,0
165712,-96.1538461538461,4,1,0,70,0,0
165787,-92.5925925925926,4,1,0,70,0,0
165862,-91.743119266055,4,1,0,70,0,0
165937,-89.2857142857143,4,1,0,70,0,0
166012,-90.9090909090909,4,1,0,70,0,0
166087,-94.3396226415094,4,1,0,70,0,0
166162,-100,4,1,0,70,0,0
166312,-98.0392156862745,4,1,0,70,0,0
166387,-97.0873786407767,4,1,0,70,0,0
166462,-96.1538461538461,4,1,0,70,0,0
166537,-94.3396226415094,4,1,0,70,0,0
166612,-93.4579439252336,4,1,0,70,0,0
166687,-91.743119266055,4,1,0,70,0,0
166762,-90.9090909090909,4,1,0,70,0,0
167212,-86.9565217391304,4,1,0,70,0,0
167262,-84.7457627118644,4,1,0,70,0,0
167312,-81.9672131147541,4,1,0,70,0,0
167362,-80,4,1,0,70,0,0
167512,-90.9090909090909,4,1,0,70,0,0
168562,-89.2857142857143,4,1,0,70,0,0
168637,-88.1057268722467,4,1,0,70,0,0
168712,-86.9565217391304,4,1,0,70,0,0
169762,-85.4700854700855,4,1,0,70,0,0
169837,-84.3881856540084,4,1,0,70,0,0
169912,-83.3333333333333,4,1,0,70,0,0
170362,-81.9672131147541,4,1,0,70,0,0
170437,-80.9716599190283,4,1,0,70,0,0
170512,-80,4,1,0,70,0,0
170962,-78.7401574803149,4,1,0,70,0,0
171037,-77.8210116731517,4,1,0,70,0,0
171112,-76.9230769230769,4,1,0,70,0,0
172312,-71.4285714285714,4,1,0,70,0,1
172387,-71.4285714285714,4,1,0,70,0,0
172912,-76.9230769230769,4,1,0,65,0,0
173512,-83.3333333333333,4,1,0,60,0,0
174112,-90.9090909090909,4,1,0,55,0,0
174712,-100,4,1,0,50,0,0
175312,-108.695652173913,4,1,0,45,0,0
175912,-117.647058823529,4,1,0,40,0,0
176512,-125,4,1,0,40,0,0
177112,-133.333333333333,4,1,0,40,0,0
178162,-100,4,1,0,5,0,0
179362,-133.333333333333,4,1,0,40,0,0
180562,-83.3333333333333,4,1,0,5,0,0
182512,-125,4,1,0,45,0,0
182962,-71.4285714285714,4,1,0,5,0,0
184162,-121.951219512195,4,1,0,50,0,0
185512,-62.5,4,1,0,5,0,0
186712,-117.647058823529,4,1,0,55,0,0
187762,-55.5555555555556,4,1,0,5,0,0
189112,-117.647058823529,4,1,0,60,0,0
190012,-116.279069767442,4,1,0,60,0,0
190162,-114.942528735632,4,1,0,60,0,0
190237,-113.636363636364,4,1,0,60,0,0
190312,-112.359550561798,4,1,0,60,0,0
190462,-111.111111111111,4,1,0,60,0,0
190612,-109.289617486339,4,1,0,60,0,0
190762,-107.52688172043,4,1,0,60,0,0
190912,-105.820105820106,4,1,0,60,0,0
191062,-104.166666666667,4,1,0,60,0,0
191212,-102.564102564103,4,1,0,62,0,0
191362,-101.010101010101,4,1,0,65,0,0
191512,-100,4,1,0,70,0,0
196012,-98.0392156862745,4,1,0,70,0,0
196162,-96.6183574879227,4,1,0,70,0,0
196312,-95.2380952380952,4,1,0,70,0,0
200812,-93.4579439252336,4,1,0,70,0,0
200962,-92.1658986175115,4,1,0,70,0,0
201112,-90.9090909090909,4,1,0,70,0,0
205612,-89.2857142857143,4,1,0,70,0,0
205762,-88.1057268722467,4,1,0,70,0,0
205912,-86.9565217391304,4,1,0,70,0,0
206512,-86.2068965517241,4,1,0,70,0,0
207412,-84.7457627118644,4,1,0,70,0,0
208012,-83.3333333333333,4,1,0,70,0,0
209512,300,4,1,0,5,1,0
209512,-66.6666666666667,4,1,0,5,0,0
209530,6,4,1,0,5,1,0
209530,-1000,4,1,0,5,0,0
210566,300,4,1,0,5,1,0
210712,300,4,1,0,100,1,0
210712,-25,4,1,0,100,0,0
210730,6,4,1,0,100,1,0
210730,-1000,4,1,0,100,0,0
211162,300,4,1,0,100,1,0
211162,-25,4,1,0,100,0,0
211237,-100,4,1,0,70,0,0
215512,300,4,1,0,100,1,0
215512,-25,4,1,0,100,0,0
215530,6,4,1,0,100,1,0
215530,-1000,4,1,0,100,0,0
215962,300,4,1,0,100,1,0
215962,-25,4,1,0,100,0,0
216112,-100,4,1,0,70,0,0
220312,300,4,1,0,100,1,0
220312,-25,4,1,0,100,0,0
220330,6,4,1,0,100,1,0
220330,-1000,4,1,0,100,0,0
220762,300,4,1,0,100,1,0
220762,-25,4,1,0,100,0,0
220837,-100,4,1,0,70,0,0
222712,300,4,1,0,100,1,0
222712,-25,4,1,0,100,0,0
222730,6,5,1,0,100,1,0
222730,-1000,5,1,0,100,0,0
223012,300,4,1,0,100,1,0
223012,-100,4,1,0,100,0,0
223030,6,4,1,0,100,1,0
223030,-1000,4,1,0,100,0,0
223162,300,4,1,0,100,1,0
223162,-25,4,1,0,100,0,0
223237,-100,4,1,0,70,0,0
225112,300,4,1,0,100,1,0
225112,-25,4,1,0,100,0,0
225130,6,6,1,0,100,1,0
225130,-1000,6,1,0,100,0,0
225411,300,4,1,0,100,1,0
225411,-100,4,1,0,100,0,0
225429,6,4,1,0,100,1,0
225429,-1000,4,1,0,100,0,0
225562,300,4,1,0,100,1,0
225562,-25,4,1,0,100,0,0
225712,-100,4,1,0,70,0,0
226312,300,4,1,0,100,1,0
226312,-25,4,1,0,100,0,0
226330,6,7,1,0,100,1,0
226330,-1000,7,1,0,100,0,0
226612,300,4,1,0,100,1,0
226612,-100,4,1,0,100,0,0
226630,6,4,1,0,100,1,0
226630,-1000,4,1,0,100,0,0
226762,300,4,1,0,100,1,0
226762,-25,4,1,0,100,0,0
226837,-100,4,1,0,70,0,0
227530,6,4,1,0,100,1,0
227530,-1000,4,1,0,100,0,0
227736,300,4,1,0,100,1,0
227754,6,4,1,0,100,1,0
227754,-1000,4,1,0,100,0,0
227960,300,4,1,0,100,1,0
227979,6,4,1,0,100,1,0
227979,-1000,4,1,0,100,0,0
228110,300,4,1,0,100,1,0
228128,6,4,1,0,100,1,0
228128,-1000,4,1,0,100,0,0
228334,300,4,1,0,100,1,0
228352,6,4,1,0,100,1,0
228352,-1000,4,1,0,100,0,0
228558,300,4,1,0,100,1,0
228576,6,4,1,0,100,1,0
228576,-1000,4,1,0,100,0,0
228707,300,4,1,0,100,1,0
228725,6,4,1,0,100,1,0
228725,-1000,4,1,0,100,0,0
228931,300,4,1,0,100,1,0
228949,6,4,1,0,100,1,0
228949,-1000,4,1,0,100,0,0
229155,300,4,1,0,100,1,0
229173,6,4,1,0,100,1,0
229173,-1000,4,1,0,100,0,0
229312,300,4,1,0,70,1,0
229912,300,4,1,0,80,1,0
234412,30,4,1,0,80,1,0
234712,300,4,1,0,85,1,0
238312,300,4,1,0,70,1,0
238312,-40,4,1,0,70,0,0
238330,6,4,1,0,70,1,0
238330,-1000,4,1,0,70,0,0
238612,300,4,1,0,70,1,0
238630,6,4,1,0,70,1,0
238630,-1000,4,1,0,70,0,0
238686,300,4,1,0,70,1,0
238704,6,4,1,0,70,1,0
238704,-1000,4,1,0,70,0,0
238760,300,4,1,0,70,1,0
238778,6,4,1,0,70,1,0
238778,-1000,4,1,0,70,0,0
238834,300,4,1,0,70,1,0
238852,6,4,1,0,70,1,0
238852,-1000,4,1,0,70,0,0
238908,300,4,1,0,70,1,0
238926,300,4,1,0,70,1,0
239001,-100,4,1,0,70,0,0
239512,300,4,1,0,70,1,0
239512,-95.2380952380952,4,1,0,70,0,1
241612,-93.0232558139535,4,1,0,70,0,0
241912,300,4,1,0,70,1,1
241912,-90.9090909090909,4,1,0,70,0,1
244012,-25,4,1,0,70,0,0
244312,-86.9565217391304,4,1,0,70,0,1
245362,-84.7457627118644,4,1,0,70,0,0
245512,-83.3333333333333,4,1,0,70,0,1
246562,-81.6326530612245,4,1,0,70,0,0
246712,-80,4,1,0,70,0,1
247912,-81.3008130081301,4,1,0,70,0,0
248362,-82.6446280991736,4,1,0,70,0,0
248437,-84.0336134453781,4,1,0,70,0,0
248512,-84.7457627118644,4,1,0,70,0,0
248587,-85.4700854700855,4,1,0,70,0,0
248662,-86.2068965517241,4,1,0,70,0,0
248737,-86.9565217391304,4,1,0,70,0,0
248812,-87.719298245614,4,1,0,70,0,0
248887,-88.4955752212389,4,1,0,70,0,0
248962,-89.2857142857143,4,1,0,70,0,0
249037,-90.0900900900901,4,1,0,70,0,0
249112,-90.9090909090909,4,1,0,80,0,1
251362,-89.2857142857143,4,1,0,80,0,1
251437,-88.1057268722467,4,1,0,80,0,1
251512,-86.9565217391304,4,1,0,80,0,1
253762,-88.1057268722467,4,1,0,80,0,1
253837,-89.2857142857143,4,1,0,80,0,1
253912,-90.9090909090909,4,1,0,80,0,1
254812,-90.0900900900901,4,1,0,80,0,1
254887,-89.2857142857143,4,1,0,80,0,1
254962,-88.4955752212389,4,1,0,80,0,1
255037,-87.719298245614,4,1,0,80,0,1
255112,-86.9565217391304,4,1,0,80,0,1
256312,-86.2068965517241,4,1,0,80,0,1
256387,-85.4700854700855,4,1,0,80,0,1
256462,-84.7457627118644,4,1,0,80,0,1
256537,-84.0336134453781,4,1,0,80,0,1
256612,-83.3333333333333,4,1,0,80,0,1
256912,-82.6446280991736,4,1,0,80,0,1
256987,-81.9672131147541,4,1,0,80,0,1
257062,-81.3008130081301,4,1,0,80,0,1
257137,-80.6451612903226,4,1,0,80,0,1
257212,-80,4,1,0,80,0,1
257512,-79.3650793650794,4,1,0,80,0,1
257587,-78.7401574803149,4,1,0,80,0,1
257662,-78.125,4,1,0,80,0,1
257737,-77.5193798449612,4,1,0,80,0,1
257812,-76.9230769230769,4,1,0,80,0,1
258112,-78.125,4,1,0,80,0,1
258187,-79.3650793650794,4,1,0,80,0,1
258262,-80.6451612903226,4,1,0,80,0,1
258337,-82.6446280991736,4,1,0,80,0,1
258412,-84.0336134453781,4,1,0,80,0,1
258487,-85.4700854700855,4,1,0,80,0,1
258562,-86.9565217391304,4,1,0,80,0,1
258637,-88.4955752212389,4,1,0,80,0,1
258712,-90.0900900900901,4,1,0,80,0,1
260962,-88.4955752212389,4,1,0,80,0,1
261037,-86.9565217391304,4,1,0,80,0,1
261112,-86.2068965517241,4,1,0,80,0,1
262312,-83.3333333333333,4,1,0,80,0,1
262612,-81.9672131147541,4,1,0,70,0,1
262912,-76.9230769230769,4,1,0,70,0,1
263137,-71.4285714285714,4,1,0,70,0,1
263362,-66.6666666666667,4,1,0,70,0,1
263512,-80,4,1,0,70,0,0
263662,-83.3333333333333,4,1,0,70,0,0
263962,-84.7457627118644,4,1,0,70,0,0
264037,-86.2068965517241,4,1,0,70,0,0
264112,-86.9565217391304,4,1,0,70,0,0
264262,-90.9090909090909,4,1,0,70,0,0
264562,-95.2380952380952,4,1,0,70,0,0
264862,-100,4,1,0,70,0,0
265162,-95.2380952380952,4,1,0,70,0,0
265912,-90.9090909090909,4,1,0,70,0,0
266362,-83.3333333333333,4,1,0,70,0,0
266962,-80,4,1,0,70,0,0
267112,-79.3650793650794,4,1,0,70,0,0
267187,-78.7401574803149,4,1,0,70,0,0
267262,-78.125,4,1,0,70,0,0
267412,-77.5193798449612,4,1,0,70,0,0
267487,-76.9230769230769,4,1,0,70,0,0
267562,-76.9230769230769,4,1,0,70,0,0
267712,-71.4285714285714,4,1,0,70,0,0
267862,-66.6666666666667,4,1,0,70,0,0
268012,-62.5,4,1,0,70,0,0
268162,-58.8235294117647,4,1,0,70,0,0
268312,-25,4,1,0,10,0,0
268612,-90.9090909090909,4,1,0,70,0,1
277912,-89.2857142857143,4,1,0,70,0,1
278212,-87.719298245614,4,1,0,70,0,1
278512,-86.9565217391304,4,1,0,70,0,1
278662,-86.9565217391304,4,1,0,70,0,1
278812,-86.2068965517241,4,1,0,70,0,1
278887,-85.4700854700855,4,1,0,70,0,1
278962,-84.7457627118644,4,1,0,70,0,1
279037,-84.0336134453781,4,1,0,70,0,1
279112,-83.3333333333333,4,1,0,70,0,1
279412,-84.7457627118644,4,1,0,70,0,1
279712,-86.2068965517241,4,1,0,70,0,1
279862,-86.9565217391304,4,1,0,70,0,1
280012,-87.719298245614,4,1,0,70,0,1
280087,-88.4955752212389,4,1,0,70,0,1
280162,-89.2857142857143,4,1,0,70,0,1
280237,-90.0900900900901,4,1,0,70,0,1
280312,-90.9090909090909,4,1,0,70,0,1
280612,-89.2857142857143,4,1,0,70,0,1
280912,-87.719298245614,4,1,0,70,0,1
281062,-86.9565217391304,4,1,0,70,0,1
281212,-86.2068965517241,4,1,0,70,0,1
281287,-85.4700854700855,4,1,0,70,0,1
281362,-84.7457627118644,4,1,0,70,0,1
281437,-84.0336134453781,4,1,0,70,0,1
281512,-83.3333333333333,4,1,0,70,0,1
281737,-80,4,1,0,70,0,1
281962,-76.9230769230769,4,1,0,70,0,1
282112,-78.125,4,1,0,70,0,1
282187,-79.3650793650794,4,1,0,70,0,1
282262,-80.6451612903226,4,1,0,70,0,1
282337,-81.9672131147541,4,1,0,70,0,1
282487,-82.6446280991736,4,1,0,70,0,1
282562,-81.9672131147541,4,1,0,70,0,1
282637,-81.3008130081301,4,1,0,70,0,1
282712,-80.6451612903226,4,1,0,70,0,0
283012,-80,4,1,0,70,0,1
283912,-78.4313725490196,4,1,0,70,0,0
284212,-78.4313725490196,4,1,0,70,0,1
285112,-76.9230769230769,4,1,0,70,0,0
285412,-75.187969924812,4,1,0,70,0,1
285712,-75.187969924812,4,1,0,70,0,0
286012,-73.5294117647059,4,1,0,70,0,1
286312,-71.4285714285714,4,1,0,30,0,0
287512,-66.6666666666667,4,1,0,90,0,1
287587,-100,4,1,0,70,0,0
287962,-97.0873786407767,4,1,0,70,0,0
288037,-94.3396226415094,4,1,0,70,0,0
288112,-90.9090909090909,4,1,0,85,0,1
289312,-86.9565217391304,4,1,0,85,0,1
290512,-83.3333333333333,4,1,0,85,0,1
291712,-80,4,1,0,85,0,1
292912,-76.9230769230769,4,1,0,85,0,1
294112,-74.0740740740741,4,1,0,85,0,1
295312,-71.4285714285714,4,1,0,85,0,1
296512,-66.6666666666667,4,1,0,85,0,1
296662,-62.5,4,1,0,85,0,1
296812,-58.8235294117647,4,1,0,85,0,1
296962,-55.5555555555556,4,1,0,85,0,1
297112,-90.9090909090909,4,1,0,85,0,1
299512,-88.4955752212389,4,1,0,85,0,1
301912,-86.2068965517241,4,1,0,85,0,1
304312,-83.3333333333333,4,1,0,85,0,1
305512,-80,4,1,0,85,0,1
305737,-76.9230769230769,4,1,0,85,0,1
305962,-74.0740740740741,4,1,0,85,0,1
306187,-71.4285714285714,4,1,0,85,0,1
306337,-66.6666666666667,4,1,0,85,0,1
306712,-71.4285714285714,4,1,0,70,0,0
306862,-75.187969924812,4,1,0,70,0,0
306912,-80,4,1,0,70,0,0
306962,-83.3333333333333,4,1,0,70,0,0
307012,-86.9565217391304,4,1,0,70,0,0
307162,-90.9090909090909,4,1,0,70,0,0
307312,-95.2380952380952,4,1,0,70,0,0
308512,-90.9090909090909,4,1,0,70,0,0
309712,-89.2857142857143,4,1,0,70,0,0
310312,-87.719298245614,4,1,0,70,0,0
311212,-86.9565217391304,4,1,0,70,0,0
311268,-86.2068965517241,4,1,0,70,0,0
311324,-85.4700854700855,4,1,0,70,0,0
311380,-84.7457627118644,4,1,0,70,0,0
311512,-83.3333333333333,4,1,0,70,0,0
311812,-82.6446280991736,4,1,0,70,0,0
312112,-81.9672131147541,4,1,0,70,0,0
312412,-81.3008130081301,4,1,0,70,0,0
312712,-80.6451612903226,4,1,0,70,0,0
313012,-80,4,1,0,70,0,0
313312,-79.3650793650794,4,1,0,70,0,0
313612,-78.7401574803149,4,1,0,70,0,0
313912,-78.125,4,1,0,70,0,0
313987,-77.5193798449612,4,1,0,70,0,0
314062,-76.9230769230769,4,1,0,70,0,0
314137,-76.3358778625954,4,1,0,70,0,0
314212,-75.7575757575758,4,1,0,70,0,0
314287,-75.187969924812,4,1,0,70,0,0
314362,-75.187969924812,4,1,0,70,0,0
314437,-74.6268656716418,4,1,0,70,0,0
314512,-74.6268656716418,4,1,0,70,0,0
314587,-74.0740740740741,4,1,0,70,0,0
314662,-73.5294117647059,4,1,0,70,0,0
314737,-73.5294117647059,4,1,0,70,0,0
314812,-72.992700729927,4,1,0,70,0,0
314887,-72.992700729927,4,1,0,70,0,0
314962,-72.463768115942,4,1,0,70,0,0
315037,-71.9424460431655,4,1,0,70,0,0
315112,-71.4285714285714,4,1,0,70,0,0
316012,-72.992700729927,4,1,0,70,0,0
316062,-74.6268656716418,4,1,0,70,0,0
316112,-76.3358778625954,4,1,0,70,0,0
316162,-78.125,4,1,0,70,0,0
316212,-80,4,1,0,70,0,0
316262,-81.9672131147541,4,1,0,70,0,0
316312,-83.3333333333333,4,1,0,70,0,0
316912,-83.3333333333333,4,1,0,70,0,0
316987,-83.3333333333333,4,1,0,70,0,0
317212,-76.9230769230769,4,1,0,70,0,0
317287,-83.3333333333333,4,1,0,70,0,0
317512,-71.4285714285714,4,1,0,70,0,0
317587,-83.3333333333333,4,1,0,70,0,0
317812,-62.5,4,1,0,70,0,0
317887,-83.3333333333333,4,1,0,70,0,0
318112,-55.5555555555556,4,1,0,70,0,0
318187,-83.3333333333333,4,1,0,70,0,0
318412,-50,4,1,0,70,0,0
318487,-83.3333333333333,4,1,0,70,0,0
318562,-82.6446280991736,4,1,0,70,0,0
318612,-81.3008130081301,4,1,0,70,0,0
318662,-80.6451612903226,4,1,0,70,0,0
318712,-80,4,1,0,70,0,0
318862,-80.6451612903226,4,1,0,70,0,0
318912,-81.3008130081301,4,1,0,70,0,0
318962,-81.9672131147541,4,1,0,70,0,0
319012,-82.6446280991736,4,1,0,70,0,0
319312,-83.3333333333333,4,1,0,70,0,0
319412,-83.3333333333333,4,1,0,70,0,0
319612,-66.6666666666667,4,1,0,70,0,0
319712,-83.3333333333333,4,1,0,70,0,0
319912,-50,4,1,0,70,0,0
320012,-83.3333333333333,4,1,0,70,0,0
320212,-33.3333333333333,4,1,0,70,0,0
320312,-83.3333333333333,4,1,0,70,0,0
320512,-76.9230769230769,4,1,0,70,0,0
320662,-71.4285714285714,4,1,0,70,0,0
320812,-66.6666666666667,4,1,0,70,0,0
320962,-62.5,4,1,0,70,0,0
321112,-80,4,1,0,70,0,0
323512,-76.9230769230769,4,1,0,70,0,0
324712,-75.7575757575758,4,1,0,70,0,0
324862,-75.187969924812,4,1,0,70,0,0
324937,-74.6268656716418,4,1,0,70,0,0
325012,-74.0740740740741,4,1,0,70,0,0
325162,-73.5294117647059,4,1,0,70,0,0
325212,-72.992700729927,4,1,0,70,0,0
325262,-72.463768115942,4,1,0,70,0,0
325312,-71.9424460431655,4,1,0,70,0,0
325612,-71.4285714285714,4,1,0,70,0,0
325762,-68.9655172413793,4,1,0,70,0,0
325912,-70.4225352112676,4,1,0,70,0,0
325962,-72.463768115942,4,1,0,70,0,0
326012,-74.6268656716418,4,1,0,70,0,0
326062,-76.9230769230769,4,1,0,70,0,0
326112,-78.7401574803149,4,1,0,70,0,0
326162,-80.6451612903226,4,1,0,70,0,0
326212,-83.3333333333333,4,1,0,70,0,0
326512,-83.3333333333333,4,1,0,70,0,0
326587,-83.3333333333333,4,1,0,70,0,0
326812,-66.6666666666667,4,1,0,70,0,0
326887,-83.3333333333333,4,1,0,70,0,0
327112,-55.5555555555556,4,1,0,70,0,0
327187,-83.3333333333333,4,1,0,70,0,0
327412,-41.6666666666667,4,1,0,70,0,0
327487,-83.3333333333333,4,1,0,70,0,0
327712,-33.3333333333333,4,1,0,70,0,0
327787,-83.3333333333333,4,1,0,70,0,0
328012,-76.9230769230769,4,1,0,70,0,0
328162,-71.4285714285714,4,1,0,70,0,0
328312,-74.0740740740741,4,1,0,70,0,0
328462,-76.9230769230769,4,1,0,70,0,0
328612,-80,4,1,0,70,0,0
328912,-80,4,1,0,70,0,0
329012,-80,4,1,0,70,0,0
329212,-62.5,4,1,0,70,0,0
329312,-80,4,1,0,70,0,0
329512,-50,4,1,0,70,0,0
329612,-80,4,1,0,70,0,0
329812,-33.3333333333333,4,1,0,70,0,0
329912,-80,4,1,0,70,0,0
330112,-76.9230769230769,4,1,0,70,0,0
330262,-71.4285714285714,4,1,0,70,0,0
330412,-66.6666666666667,4,1,0,70,0,0
330562,-62.5,4,1,0,70,0,0
330712,-64.9350649350649,4,1,0,70,0,0
330762,-66.6666666666667,4,1,0,70,0,0
330812,-68.4931506849315,4,1,0,70,0,0
330862,-70.4225352112676,4,1,0,70,0,0
330912,-74.0740740740741,4,1,0,70,0,0
330962,-76.9230769230769,4,1,0,70,0,0
331012,-80,4,1,0,70,0,0
331912,-75.7575757575758,4,1,0,70,0,0
331962,-70.9219858156028,4,1,0,70,0,0
332012,-66.6666666666667,4,1,0,70,0,0
332062,-68.4931506849315,4,1,0,70,0,0
332112,-72.463768115942,4,1,0,70,0,0
332162,-74.6268656716418,4,1,0,70,0,0
332212,-76.9230769230769,4,1,0,70,0,0
333112,-73.5294117647059,4,1,0,70,0,0
333162,-69.4444444444444,4,1,0,70,0,0
333212,-62.5,4,1,0,70,0,0
333262,-64.9350649350649,4,1,0,70,0,0
333312,-68.0272108843537,4,1,0,70,0,0
333362,-71.4285714285714,4,1,0,70,0,0
333412,-74.0740740740741,4,1,0,70,0,0
333712,-70.4225352112676,4,1,0,70,0,0
333762,-66.2251655629139,4,1,0,70,0,0
333812,-62.5,4,1,0,70,0,0
333862,-59.1715976331361,4,1,0,70,0,0
333912,-62.5,4,1,0,70,0,0
333962,-66.6666666666667,4,1,0,70,0,0
334012,-67.5675675675676,4,1,0,70,0,0
334087,-68.4931506849315,4,1,0,70,0,0
334162,-69.4444444444444,4,1,0,70,0,0
334237,-70.4225352112676,4,1,0,70,0,0
334312,-71.4285714285714,4,1,0,70,0,0
335512,-76.9230769230769,4,1,0,70,0,1
335587,-80,4,1,0,65,0,0
336712,-83.3333333333333,4,1,0,60,0,0
337912,-86.9565217391304,4,1,0,55,0,0
339112,-90.9090909090909,4,1,0,50,0,0
340312,-95.2380952380952,4,1,0,45,0,0
341512,-100,4,1,0,40,0,0
342637,-102.040816326531,4,1,0,38,0,0
342712,-105.263157894737,4,1,0,35,0,0
343912,-111.111111111111,4,1,0,30,0,0
344662,-117.647058823529,4,1,0,25,0,0
344812,-125,4,1,0,25,0,0
344962,-128.205128205128,4,1,0,25,0,0
345112,-133.333333333333,4,2,0,25,0,0
354712,-100,4,1,0,5,0,0
363112,315.789473684211,4,1,0,70,1,0
363743,352.941176470588,4,1,0,70,1,0
364448,394.736842105263,4,1,0,70,1,0
364842,441.176470588235,4,1,0,70,1,0
365283,468.75,4,1,0,70,1,0
365751,560.747663551402,4,1,0,70,1,0
366311,627.615062761506,4,1,0,70,1,0
367252,444.444444444444,4,1,0,70,1,0
367474,571.428571428571,4,1,0,70,1,0
367759,526.315789473684,4,1,0,70,1,0
369074,480,4,1,0,70,1,8

[HitObjects]
320,160,4312,5,0,0:0:0:0:
320,160,4612,1,8,0:0:0:0:
320,160,5062,1,8,0:0:0:0:
384,192,5662,1,8,0:0:0:0:
416,160,6112,1,0,0:0:0:0:
416,160,6412,1,8,0:0:0:0:
416,160,6712,1,0,0:0:0:0:
416,160,7012,1,8,0:0:0:0:
352,160,7462,1,8,0:0:0:0:
352,160,8062,1,8,0:0:0:0:
384,160,8512,1,8,0:0:0:0:
416,160,8812,1,8,0:0:0:0:
416,160,8962,1,0,0:0:0:0:
416,160,9112,1,0,0:0:0:0:
416,160,9412,1,8,0:0:0:0:
416,160,9862,1,8,0:0:0:0:
416,160,10462,1,8,0:0:0:0:
416,160,10762,1,0,0:0:0:0:
416,160,10912,1,8,0:0:0:0:
384,160,11212,1,8,0:0:0:0:
384,160,11362,1,8,0:0:0:0:
416,160,11512,1,0,0:0:0:0:
416,160,11812,1,8,0:0:0:0:
384,160,12112,1,0,0:0:0:0:
416,160,12262,1,8,0:0:0:0:
384,160,12562,1,0,0:0:0:0:
384,160,12712,1,8,0:0:0:0:
384,160,12862,1,0,0:0:0:0:
384,160,13162,1,0,0:0:0:0:
384,160,13312,1,8,0:0:0:0:
384,160,13462,1,0,0:0:0:0:
384,160,13612,1,8,0:0:0:0:
384,160,13762,1,0,0:0:0:0:
416,160,13912,1,0,0:0:0:0:
384,160,14062,1,0,0:0:0:0:
352,128,14212,1,8,0:0:0:0:
384,160,14362,1,0,0:0:0:0:
384,160,14512,1,0,0:0:0:0:
384,160,14662,1,8,0:0:0:0:
384,160,14812,1,0,0:0:0:0:
448,160,14962,1,0,0:0:0:0:
448,160,15112,1,0,0:0:0:0:
480,192,15262,1,8,0:0:0:0:
480,192,15412,1,0,0:0:0:0:
480,192,15562,1,0,0:0:0:0:
480,192,15712,1,8,0:0:0:0:
480,192,15862,1,0,0:0:0:0:
480,192,16012,1,8,0:0:0:0:
480,192,16162,1,8,0:0:0:0:
480,192,16312,1,0,0:0:0:0:
480,192,16462,1,0,0:0:0:0:
448,160,16612,1,8,0:0:0:0:
416,160,16762,1,0,0:0:0:0:
416,160,16912,1,0,0:0:0:0:
448,160,17062,1,8,0:0:0:0:
448,160,17212,1,0,0:0:0:0:
448,160,17362,1,0,0:0:0:0:
448,160,17512,1,0,0:0:0:0:
416,128,17662,1,8,0:0:0:0:
416,128,17812,1,0,0:0:0:0:
416,128,17962,1,0,0:0:0:0:
416,128,18112,1,8,0:0:0:0:
416,128,18262,1,0,0:0:0:0:
416,160,18412,1,8,0:0:0:0:
416,160,18562,1,0,0:0:0:0:
416,160,18712,1,0,0:0:0:0:
448,160,18862,1,0,0:0:0:0:
448,160,19012,1,8,0:0:0:0:
448,160,19162,1,0,0:0:0:0:
448,160,19312,1,0,0:0:0:0:
448,160,19462,1,8,0:0:0:0:
448,160,19612,1,0,0:0:0:0:
448,160,19762,1,0,0:0:0:0:
448,160,19912,1,0,0:0:0:0:
448,160,20062,1,8,0:0:0:0:
448,160,20212,1,0,0:0:0:0:
448,160,20362,1,0,0:0:0:0:
448,160,20512,1,8,0:0:0:0:
448,160,20662,1,0,0:0:0:0:
448,160,20812,1,8,0:0:0:0:
448,160,20962,1,8,0:0:0:0:
448,160,21112,1,0,0:0:0:0:
448,160,21262,1,0,0:0:0:0:
448,160,21412,1,8,0:0:0:0:
448,160,21562,1,0,0:0:0:0:
448,160,21712,1,0,0:0:0:0:
448,160,21862,1,8,0:0:0:0:
448,160,22012,1,0,0:0:0:0:
448,160,22162,1,0,0:0:0:0:
448,160,22312,1,0,0:0:0:0:
480,160,22462,5,8,0:0:0:0:
480,160,22612,1,0,0:0:0:0:
480,160,22762,1,0,0:0:0:0:
480,160,22912,1,8,0:0:0:0:
480,160,23062,1,0,0:0:0:0:
480,160,23212,1,8,0:0:0:0:
480,160,23362,1,8,0:0:0:0:
320,192,23512,5,0,0:0:0:0:
320,192,23712,1,0,0:0:0:0:
352,160,23912,1,8,0:0:0:0:
352,160,24112,1,8,0:0:0:0:
320,128,24512,1,0,0:0:0:0:
320,160,24612,1,0,0:0:0:0:
320,160,24712,1,8,0:0:0:0:
320,160,24912,1,0,0:0:0:0:
320,160,25112,1,8,0:0:0:0:
352,160,25312,1,8,0:0:0:0:
352,192,25912,1,0,0:0:0:0:
352,192,26112,1,0,0:0:0:0:
352,192,26312,1,8,0:0:0:0:
352,192,26512,1,8,0:0:0:0:
352,192,26912,1,0,0:0:0:0:
352,192,27012,1,0,0:0:0:0:
352,192,27112,1,8,0:0:0:0:
384,192,27212,1,8,0:0:0:0:
384,160,27312,1,0,0:0:0:0:
352,192,27512,1,0,0:0:0:0:
384,160,27712,1,8,0:0:0:0:
384,160,28312,1,0,0:0:0:0:
384,160,28512,1,0,0:0:0:0:
384,160,28712,1,8,0:0:0:0:
384,160,28912,1,8,0:0:0:0:
384,160,29312,1,0,0:0:0:0:
384,160,29412,1,0,0:0:0:0:
384,160,29512,1,8,0:0:0:0:
384,160,29712,1,0,0:0:0:0:
416,160,29912,1,8,0:0:0:0:
416,160,30112,1,8,0:0:0:0:
416,160,30512,1,0,0:0:0:0:
416,160,30712,1,8,0:0:0:0:
416,160,30912,1,0,0:0:0:0:
416,160,31112,1,8,0:0:0:0:
384,160,31312,1,8,0:0:0:0:
416,192,31712,1,8,0:0:0:0:
416,192,31912,1,0,0:0:0:0:
416,192,32112,1,8,0:0:0:0:
416,192,32312,1,0,0:0:0:0:
416,192,32412,1,0,0:0:0:0:
416,192,32512,1,8,0:0:0:0:
416,192,32612,1,0,0:0:0:0:
416,192,32712,1,8,0:0:0:0:
416,192,32812,1,8,0:0:0:0:
416,192,32912,1,0,0:0:0:0:
416,192,33012,1,0,0:0:0:0:
416,192,33112,1,8,0:0:0:0:
416,160,33312,1,0,0:0:0:0:
384,160,33512,1,8,0:0:0:0:
384,160,33712,1,8,0:0:0:0:
384,160,34112,1,0,0:0:0:0:
384,160,34212,1,0,0:0:0:0:
384,160,34312,1,0,0:0:0:0:
384,160,34512,1,0,0:0:0:0:
384,160,34712,1,8,0:0:0:0:
384,160,34912,1,8,0:0:0:0:
384,160,35512,1,8,0:0:0:0:
384,160,35712,1,0,0:0:0:0:
384,160,35912,1,8,0:0:0:0:
416,160,36112,1,8,0:0:0:0:
416,160,36412,1,0,0:0:0:0:
416,160,36512,1,0,0:0:0:0:
416,160,36612,1,0,0:0:0:0:
416,160,36712,1,8,0:0:0:0:
416,160,36912,1,0,0:0:0:0:
416,160,37112,1,8,0:0:0:0:
416,160,37312,1,8,0:0:0:0:
416,160,37912,1,8,0:0:0:0:
416,160,38112,1,0,0:0:0:0:
416,160,38312,1,8,0:0:0:0:
416,160,38512,1,8,0:0:0:0:
416,160,38912,1,8,0:0:0:0:
416,160,39012,1,8,0:0:0:0:
416,160,39112,1,0,0:0:0:0:
416,160,39312,1,0,0:0:0:0:
416,160,39512,1,8,0:0:0:0:
416,160,39712,1,8,0:0:0:0:
352,160,40112,1,0,0:0:0:0:
352,160,40312,1,8,0:0:0:0:
416,128,40387,1,0,0:0:0:0:
416,160,40462,1,0,0:0:0:0:
416,160,40537,1,0,0:0:0:0:
384,160,40612,1,8,0:0:0:0:
384,160,40687,1,0,0:0:0:0:
384,160,40762,1,0,0:0:0:0:
384,160,40837,1,0,0:0:0:0:
384,160,40912,1,8,0:0:0:0:
384,160,40987,1,0,0:0:0:0:
384,160,41062,1,0,0:0:0:0:
384,160,41137,1,0,0:0:0:0:
384,160,41212,1,8,0:0:0:0:
384,160,41287,1,0,0:0:0:0:
384,160,41362,1,0,0:0:0:0:
384,160,41437,1,0,0:0:0:0:
384,160,41512,1,8,0:0:0:0:
384,160,41587,5,0,0:0:0:0:
384,160,41662,1,0,0:0:0:0:
384,160,41737,1,0,0:0:0:0:
384,160,41812,1,8,0:0:0:0:
384,160,41887,1,0,0:0:0:0:
384,160,41962,1,0,0:0:0:0:
384,160,42037,1,0,0:0:0:0:
256,192,42112,12,0,42412,0:0:0:0:
256,192,42712,5,4,0:0:0:0:
256,192,43161,5,4,0:0:0:0:
256,192,43462,1,0,0:0:0:0:
256,192,43612,1,8,0:0:0:0:
256,192,43762,1,0,0:0:0:0:
256,192,44062,1,8,0:0:0:0:
256,192,44362,1,8,0:0:0:0:
256,192,44662,1,0,0:0:0:0:
256,192,44812,1,0,0:0:0:0:
256,192,44962,1,8,0:0:0:0:
256,192,45112,5,4,0:0:0:0:
256,192,45562,5,4,0:0:0:0:
256,192,45862,1,0,0:0:0:0:
256,192,46012,1,8,0:0:0:0:
256,192,46162,1,0,0:0:0:0:
256,192,46462,1,8,0:0:0:0:
256,192,46762,1,8,0:0:0:0:
256,192,47062,1,0,0:0:0:0:
256,192,47212,1,0,0:0:0:0:
256,192,47362,1,8,0:0:0:0:
256,192,47512,5,4,0:0:0:0:
256,192,47962,5,4,0:0:0:0:
256,192,48262,1,0,0:0:0:0:
256,192,48412,1,8,0:0:0:0:
256,192,48562,1,0,0:0:0:0:
256,192,48712,5,4,0:0:0:0:
256,192,49162,5,4,0:0:0:0:
256,192,49462,1,0,0:0:0:0:
256,192,49612,1,0,0:0:0:0:
256,192,49762,1,8,0:0:0:0:
256,192,49837,1,8,0:0:0:0:
256,192,49912,5,4,0:0:0:0:
256,192,50362,5,4,0:0:0:0:
256,192,50662,1,0,0:0:0:0:
256,192,50812,1,8,0:0:0:0:
256,192,50962,1,0,0:0:0:0:
256,192,51112,1,0,0:0:0:0:
256,192,51562,1,0,0:0:0:0:
256,192,51637,1,0,0:0:0:0:
256,192,51712,1,8,0:0:0:0:
256,192,51862,1,0,0:0:0:0:
256,192,51937,1,8,0:0:0:0:
256,192,52087,1,0,0:0:0:0:
256,192,52162,1,8,0:0:0:0:
256,192,52237,1,8,0:0:0:0:
256,192,52312,5,4,0:0:0:0:
256,192,52762,5,4,0:0:0:0:
256,192,53062,1,0,0:0:0:0:
256,192,53212,1,8,0:0:0:0:
256,192,53362,1,0,0:0:0:0:
256,192,53662,1,8,0:0:0:0:
256,192,53962,1,8,0:0:0:0:
256,192,54262,1,0,0:0:0:0:
256,192,54412,1,0,0:0:0:0:
256,192,54562,1,8,0:0:0:0:
256,192,54712,5,4,0:0:0:0:
256,192,55162,5,4,0:0:0:0:
256,192,55462,1,0,0:0:0:0:
256,192,55612,1,8,0:0:0:0:
256,192,55762,1,0,0:0:0:0:
256,192,56062,1,8,0:0:0:0:
256,192,56362,1,8,0:0:0:0:
256,192,56662,1,0,0:0:0:0:
256,192,56812,1,0,0:0:0:0:
256,192,56962,1,8,0:0:0:0:
256,192,57112,5,4,0:0:0:0:
256,192,57562,5,4,0:0:0:0:
256,192,57862,1,0,0:0:0:0:
256,192,58012,1,8,0:0:0:0:
256,192,58162,1,8,0:0:0:0:
256,192,58312,5,4,0:0:0:0:
256,192,58762,5,4,0:0:0:0:
256,192,59062,1,8,0:0:0:0:
256,192,59212,1,0,0:0:0:0:
256,192,59362,1,8,0:0:0:0:
256,192,59437,1,8,0:0:0:0:
256,192,59512,5,4,0:0:0:0:
256,192,59962,5,4,0:0:0:0:
256,192,60262,1,0,0:0:0:0:
256,192,60412,1,8,0:0:0:0:
256,192,60562,1,8,0:0:0:0:
256,192,60712,1,0,0:0:0:0:
256,192,60862,1,8,0:0:0:0:
256,192,61162,1,0,0:0:0:0:
256,192,61237,1,0,0:0:0:0:
256,192,61312,1,8,0:0:0:0:
256,192,61462,1,0,0:0:0:0:
256,192,61537,1,8,0:0:0:0:
256,192,61687,1,0,0:0:0:0:
256,192,61762,1,8,0:0:0:0:
256,192,61837,1,8,0:0:0:0:
256,192,61912,5,4,0:0:0:0:
352,192,62512,1,0,0:0:0:0:
352,192,62662,1,8,0:0:0:0:
256,192,62962,12,0,64012,0:0:0:0:
352,160,64162,5,0,0:0:0:0:
352,160,64312,1,8,0:0:0:0:
352,160,64612,1,0,0:0:0:0:
352,160,64762,1,8,0:0:0:0:
352,160,65062,1,8,0:0:0:0:
256,192,65362,12,0,66712,0:0:0:0:
320,160,67162,5,0,0:0:0:0:
320,160,67312,1,8,0:0:0:0:
352,160,67387,1,0,0:0:0:0:
352,160,67462,1,8,0:0:0:0:
256,192,67762,12,0,68812,0:0:0:0:
352,160,68962,5,0,0:0:0:0:
352,160,69112,1,8,0:0:0:0:
352,160,69337,1,0,0:0:0:0:
352,160,69562,1,8,0:0:0:0:
352,160,69862,1,8,0:0:0:0:
256,192,70162,12,0,71362,0:0:0:0:
384,128,71512,5,0,0:0:0:0:
352,160,71962,1,0,0:0:0:0:
352,160,72112,1,8,0:0:0:0:
352,160,72262,1,0,0:0:0:0:
256,192,72562,12,0,73612,0:0:0:0:
352,160,73762,5,0,0:0:0:0:
352,160,73912,1,8,0:0:0:0:
352,160,74212,1,8,0:0:0:0:
352,160,74362,1,8,0:0:0:0:
352,160,74662,1,0,0:0:0:0:
352,160,74962,1,8,0:0:0:0:
384,192,75037,1,0,0:0:0:0:
384,192,75112,1,8,0:0:0:0:
416,192,75562,1,0,0:0:0:0:
448,160,76012,1,8,0:0:0:0:
448,160,76312,1,0,0:0:0:0:
352,160,76912,1,0,0:0:0:0:
352,160,77062,1,8,0:0:0:0:
256,192,77362,12,0,78262,0:0:0:0:
288,160,78412,5,0,0:0:0:0:
288,160,78712,1,8,0:0:0:0:
352,160,79012,1,0,0:0:0:0:
352,160,79162,1,0,0:0:0:0:
352,160,79312,1,8,0:0:0:0:
352,160,79387,1,0,0:0:0:0:
352,160,79462,1,8,0:0:0:0:
352,160,79612,1,0,0:0:0:0:
256,192,79762,12,0,80962,0:0:0:0:
256,192,81112,5,0,0:0:0:0:
256,192,81412,1,8,0:0:0:0:
256,192,81712,1,0,0:0:0:0:
256,192,81862,1,8,0:0:0:0:
256,192,82312,1,8,0:0:0:0:
256,192,82612,1,8,0:0:0:0:
256,192,82912,1,0,0:0:0:0:
256,192,83062,1,8,0:0:0:0:
256,192,83212,1,0,0:0:0:0:
256,192,83512,1,0,0:0:0:0:
256,192,83812,1,8,0:0:0:0:
256,192,84112,1,0,0:0:0:0:
256,192,84262,1,8,0:0:0:0:
256,192,84712,1,8,0:0:0:0:
256,192,85012,1,8,0:0:0:0:
256,192,85312,1,0,0:0:0:0:
256,192,85462,1,8,0:0:0:0:
256,192,85612,1,8,0:0:0:0:
256,192,85912,1,0,0:0:0:0:
256,192,86062,1,8,0:0:0:0:
256,192,86362,1,8,0:0:0:0:
256,192,86512,1,0,0:0:0:0:
256,192,86812,1,8,0:0:0:0:
256,192,87112,1,0,0:0:0:0:
256,192,87262,1,8,0:0:0:0:
256,192,87562,1,8,0:0:0:0:
256,192,87712,1,8,0:0:0:0:
256,192,88012,1,8,0:0:0:0:
256,192,88312,1,8,0:0:0:0:
256,192,88462,1,0,0:0:0:0:
256,192,88762,1,0,0:0:0:0:
256,192,88912,1,8,0:0:0:0:
256,192,89212,1,8,0:0:0:0:
256,192,89512,1,8,0:0:0:0:
256,192,89662,1,0,0:0:0:0:
256,192,89962,1,8,0:0:0:0:
256,192,90112,1,8,0:0:0:0:
256,192,90412,1,8,0:0:0:0:
256,192,90712,1,0,0:0:0:0:
256,192,90862,1,8,0:0:0:0:
256,192,91162,1,0,0:0:0:0:
256,192,91237,1,0,0:0:0:0:
256,192,91312,1,8,0:0:0:0:
256,192,91612,1,8,0:0:0:0:
256,192,91912,1,8,0:0:0:0:
256,192,92062,1,0,0:0:0:0:
256,192,92362,1,0,0:0:0:0:
256,192,92512,1,8,0:0:0:0:
256,192,92662,1,0,0:0:0:0:
256,192,92812,1,8,0:0:0:0:
256,192,93112,1,0,0:0:0:0:
256,192,93262,1,8,0:0:0:0:
256,192,93562,1,0,0:0:0:0:
256,192,93637,1,0,0:0:0:0:
256,192,93712,1,8,0:0:0:0:
256,192,94012,1,0,0:0:0:0:
256,192,94162,1,0,0:0:0:0:
256,192,94312,1,8,0:0:0:0:
256,192,94462,1,0,0:0:0:0:
256,192,94762,1,0,0:0:0:0:
256,192,94912,1,8,0:0:0:0:
256,192,95212,1,8,0:0:0:0:
256,192,95512,1,0,0:0:0:0:
256,192,95662,1,8,0:0:0:0:
256,192,95962,1,0,0:0:0:0:
256,192,96037,1,0,0:0:0:0:
256,192,96112,1,8,0:0:0:0:
256,192,96412,1,8,0:0:0:0:
256,192,96712,1,8,0:0:0:0:
256,192,96862,1,0,0:0:0:0:
256,192,97162,1,0,0:0:0:0:
256,192,97312,1,8,0:0:0:0:
256,192,97462,1,0,0:0:0:0:
256,192,97612,1,8,0:0:0:0:
256,192,97912,1,0,0:0:0:0:
256,192,98062,1,8,0:0:0:0:
256,192,98362,1,0,0:0:0:0:
256,192,98437,1,0,0:0:0:0:
256,192,98512,1,8,0:0:0:0:
256,192,98812,1,0,0:0:0:0:
256,192,98962,1,0,0:0:0:0:
256,192,99112,1,8,0:0:0:0:
256,192,99262,1,0,0:0:0:0:
256,192,99562,1,0,0:0:0:0:
256,192,99712,1,8,0:0:0:0:
256,192,100012,1,8,0:0:0:0:
288,128,100312,1,0,0:0:0:0:
320,160,100462,1,0,0:0:0:0:
320,160,100612,1,0,0:0:0:0:
384,160,100762,1,0,0:0:0:0:
384,160,100912,1,8,0:0:0:0:
384,160,101062,1,0,0:0:0:0:
384,160,101212,1,0,0:0:0:0:
320,192,101362,1,0,0:0:0:0:
320,192,101512,1,0,0:0:0:0:
352,160,101662,1,0,0:0:0:0:
352,160,101812,1,0,0:0:0:0:
352,160,101962,1,0,0:0:0:0:
352,160,102112,1,8,0:0:0:0:
352,160,102262,1,0,0:0:0:0:
352,160,102412,1,0,0:0:0:0:
352,160,102562,1,0,0:0:0:0:
352,160,102712,1,0,0:0:0:0:
352,160,102862,1,0,0:0:0:0:
352,160,103012,1,0,0:0:0:0:
352,160,103162,1,0,0:0:0:0:
352,160,103312,1,8,0:0:0:0:
352,160,103462,1,0,0:0:0:0:
352,160,103612,1,0,0:0:0:0:
384,160,103762,1,0,0:0:0:0:
352,160,103912,1,0,0:0:0:0:
352,160,104062,1,0,0:0:0:0:
352,160,104212,1,0,0:0:0:0:
352,192,104362,1,0,0:0:0:0:
352,192,104512,1,8,0:0:0:0:
384,192,104662,1,0,0:0:0:0:
384,192,104812,1,0,0:0:0:0:
384,160,104962,1,0,0:0:0:0:
384,160,105112,1,8,0:0:0:0:
416,192,105262,1,0,0:0:0:0:
416,192,105412,1,8,0:0:0:0:
448,160,105562,1,0,0:0:0:0:
448,192,105712,1,8,0:0:0:0:
448,160,105862,1,0,0:0:0:0:
448,160,106012,1,8,0:0:0:0:
448,160,106162,1,0,0:0:0:0:
448,160,106312,1,8,0:0:0:0:
448,160,106462,1,0,0:0:0:0:
448,160,106612,1,8,0:0:0:0:
448,160,106762,1,0,0:0:0:0:
448,160,106912,1,8,0:0:0:0:
448,160,107062,1,0,0:0:0:0:
448,160,107212,1,8,0:0:0:0:
480,160,107362,1,0,0:0:0:0:
480,160,107512,1,8,0:0:0:0:
416,160,107587,1,8,0:0:0:0:
384,160,107662,1,8,0:0:0:0:
384,160,107737,1,8,0:0:0:0:
384,160,107812,1,8,0:0:0:0:
384,160,107887,1,8,0:0:0:0:
416,160,107962,1,8,0:0:0:0:
384,160,108037,1,8,0:0:0:0:
384,160,108112,1,8,0:0:0:0:
384,160,108187,1,8,0:0:0:0:
384,160,108262,1,8,0:0:0:0:
384,128,108337,1,8,0:0:0:0:
384,128,108412,1,8,0:0:0:0:
384,128,108487,1,8,0:0:0:0:
384,128,108562,1,8,0:0:0:0:
384,128,108637,1,8,0:0:0:0:
256,192,108712,12,0,109462,0:0:0:0:
384,128,109612,5,8,0:0:0:0:
384,128,109662,1,8,0:0:0:0:
416,128,109712,1,8,0:0:0:0:
384,128,109762,1,8,0:0:0:0:
256,160,109812,1,8,0:0:0:0:
256,160,109862,1,8,0:0:0:0:
256,192,109912,5,4,0:0:0:0:
256,192,110062,1,0,0:0:0:0:
256,192,110112,1,8,0:0:0:0:
256,192,110162,1,8,0:0:0:0:
256,192,110212,1,0,0:0:0:0:
256,192,110362,1,0,0:0:0:0:
256,192,110437,1,0,0:0:0:0:
256,192,110512,1,8,0:0:0:0:
256,192,110662,1,8,0:0:0:0:
256,192,110737,1,8,0:0:0:0:
256,192,110812,1,0,0:0:0:0:
256,192,110887,1,0,0:0:0:0:
256,192,110962,1,8,0:0:0:0:
256,192,111037,1,8,0:0:0:0:
256,192,111112,1,0,0:0:0:0:
256,192,111262,1,0,0:0:0:0:
256,192,111412,1,0,0:0:0:0:
256,192,111487,1,8,0:0:0:0:
256,192,111562,1,0,0:0:0:0:
256,192,111637,1,8,0:0:0:0:
256,192,111712,1,8,0:0:0:0:
256,192,111862,1,8,0:0:0:0:
256,192,111937,1,8,0:0:0:0:
256,192,112012,1,0,0:0:0:0:
256,192,112087,1,8,0:0:0:0:
256,192,112162,1,8,0:0:0:0:
256,192,112237,1,8,0:0:0:0:
256,192,112312,1,0,0:0:0:0:
256,192,112362,1,0,0:0:0:0:
256,192,112412,1,0,0:0:0:0:
256,192,112462,1,8,0:0:0:0:
256,192,112612,1,8,0:0:0:0:
256,192,112662,1,8,0:0:0:0:
256,192,112712,1,8,0:0:0:0:
256,192,112762,1,0,0:0:0:0:
256,192,112837,1,0,0:0:0:0:
256,192,112912,1,8,0:0:0:0:
256,192,113062,1,8,0:0:0:0:
256,192,113137,1,8,0:0:0:0:
256,192,113212,1,0,0:0:0:0:
256,192,113287,1,8,0:0:0:0:
256,192,113362,1,0,0:0:0:0:
256,192,113437,1,8,0:0:0:0:
256,192,113512,1,8,0:0:0:0:
256,192,113662,1,0,0:0:0:0:
256,192,113737,1,0,0:0:0:0:
256,192,113812,1,8,0:0:0:0:
256,192,113887,1,8,0:0:0:0:
256,192,113962,1,0,0:0:0:0:
256,192,114037,1,8,0:0:0:0:
256,192,114112,1,0,0:0:0:0:
256,192,114149,1,0,0:0:0:0:
256,192,114262,1,8,0:0:0:0:
256,192,114299,1,8,0:0:0:0:
256,192,114412,1,0,0:0:0:0:
256,192,114449,1,0,0:0:0:0:
256,192,114562,1,8,0:0:0:0:
256,192,114599,1,8,0:0:0:0:
256,192,114712,5,4,0:0:0:0:
256,192,114862,1,8,0:0:0:0:
256,192,114912,1,0,0:0:0:0:
256,192,114962,1,0,0:0:0:0:
256,192,115012,1,8,0:0:0:0:
256,192,115162,1,0,0:0:0:0:
256,192,115237,1,0,0:0:0:0:
256,192,115312,1,8,0:0:0:0:
256,192,115387,1,0,0:0:0:0:
256,192,115537,1,8,0:0:0:0:
256,192,115687,1,0,0:0:0:0:
256,192,115762,1,8,0:0:0:0:
256,192,115912,1,0,0:0:0:0:
256,192,115987,1,0,0:0:0:0:
256,192,116062,1,8,0:0:0:0:
256,192,116112,1,8,0:0:0:0:
256,192,116162,1,8,0:0:0:0:
256,192,116212,1,0,0:0:0:0:
256,192,116362,1,0,0:0:0:0:
256,192,116512,1,8,0:0:0:0:
256,192,116587,1,8,0:0:0:0:
256,192,116662,1,0,0:0:0:0:
256,192,116737,1,8,0:0:0:0:
256,192,116887,1,8,0:0:0:0:
256,192,116962,1,8,0:0:0:0:
256,192,117112,5,12,0:0:0:0:
256,192,117262,1,8,0:0:0:0:
256,192,117312,1,0,0:0:0:0:
256,192,117362,1,0,0:0:0:0:
256,192,117412,1,8,0:0:0:0:
256,192,117487,1,8,0:0:0:0:
256,192,117562,1,0,0:0:0:0:
256,192,117637,1,0,0:0:0:0:
256,192,117712,1,8,0:0:0:0:
256,192,117862,1,8,0:0:0:0:
256,192,117937,1,8,0:0:0:0:
256,192,118012,1,0,0:0:0:0:
256,192,118162,1,0,0:0:0:0:
256,192,118237,1,8,0:0:0:0:
256,192,118312,1,0,0:0:0:0:
256,192,118462,1,0,0:0:0:0:
256,192,118537,1,8,0:0:0:0:
256,192,118687,1,8,0:0:0:0:
256,192,118762,1,0,0:0:0:0:
256,192,118837,1,0,0:0:0:0:
256,192,118912,12,0,119362,0:0:0:0:
256,192,119512,5,4,0:0:0:0:
256,192,119662,1,8,0:0:0:0:
256,192,119712,1,8,0:0:0:0:
256,192,119762,1,8,0:0:0:0:
256,192,119812,1,0,0:0:0:0:
256,192,119962,1,0,0:0:0:0:
256,192,120037,1,0,0:0:0:0:
256,192,120112,1,8,0:0:0:0:
256,192,120262,1,0,0:0:0:0:
256,192,120337,1,8,0:0:0:0:
256,192,120412,1,8,0:0:0:0:
256,192,120487,1,0,0:0:0:0:
256,192,120562,1,8,0:0:0:0:
256,192,120637,1,8,0:0:0:0:
256,192,120712,1,0,0:0:0:0:
256,192,120862,1,0,0:0:0:0:
256,192,121012,1,0,0:0:0:0:
256,192,121087,1,8,0:0:0:0:
256,192,121162,1,0,0:0:0:0:
256,192,121237,1,8,0:0:0:0:
256,192,121312,1,8,0:0:0:0:
256,192,121462,1,0,0:0:0:0:
256,192,121537,1,8,0:0:0:0:
256,192,121612,1,0,0:0:0:0:
256,192,121687,1,8,0:0:0:0:
256,192,121762,1,8,0:0:0:0:
256,192,121837,1,8,0:0:0:0:
256,192,121912,1,0,0:0:0:0:
256,192,121962,1,0,0:0:0:0:
256,192,122012,1,0,0:0:0:0:
256,192,122062,1,8,0:0:0:0:
256,192,122212,1,8,0:0:0:0:
256,192,122262,1,8,0:0:0:0:
256,192,122312,1,8,0:0:0:0:
256,192,122362,1,0,0:0:0:0:
256,192,122437,1,0,0:0:0:0:
256,192,122512,1,8,0:0:0:0:
256,192,122662,1,8,0:0:0:0:
256,192,122737,1,8,0:0:0:0:
256,192,122812,1,0,0:0:0:0:
256,192,122887,1,8,0:0:0:0:
256,192,122962,1,0,0:0:0:0:
256,192,123037,1,8,0:0:0:0:
256,192,123112,1,8,0:0:0:0:
256,192,123262,1,0,0:0:0:0:
256,192,123337,1,8,0:0:0:0:
256,192,123412,1,8,0:0:0:0:
256,192,123487,1,8,0:0:0:0:
256,192,123562,1,0,0:0:0:0:
256,192,123637,1,8,0:0:0:0:
256,192,123712,1,0,0:0:0:0:
256,192,123749,1,0,0:0:0:0:
256,192,123862,1,8,0:0:0:0:
256,192,123899,1,8,0:0:0:0:
256,192,124012,1,0,0:0:0:0:
256,192,124049,1,0,0:0:0:0:
256,192,124162,1,8,0:0:0:0:
256,192,124199,1,8,0:0:0:0:
256,192,124312,5,4,0:0:0:0:
256,192,124462,1,0,0:0:0:0:
256,192,124512,1,0,0:0:0:0:
256,192,124562,1,0,0:0:0:0:
256,192,124612,1,8,0:0:0:0:
256,192,124762,1,0,0:0:0:0:
256,192,124837,1,0,0:0:0:0:
256,192,124912,1,8,0:0:0:0:
256,192,124987,1,8,0:0:0:0:
256,192,125137,1,8,0:0:0:0:
256,192,125212,1,0,0:0:0:0:
256,192,125287,1,0,0:0:0:0:
256,192,125362,1,8,0:0:0:0:
256,192,125512,1,0,0:0:0:0:
256,192,125587,1,0,0:0:0:0:
256,192,125662,1,8,0:0:0:0:
256,192,125712,1,8,0:0:0:0:
256,192,125762,1,8,0:0:0:0:
256,192,125812,1,0,0:0:0:0:
256,192,125887,1,8,0:0:0:0:
256,192,125962,1,0,0:0:0:0:
256,192,126037,1,0,0:0:0:0:
256,192,126112,1,8,0:0:0:0:
256,192,126187,1,8,0:0:0:0:
256,192,126262,1,0,0:0:0:0:
256,192,126337,1,8,0:0:0:0:
256,192,126412,1,0,0:0:0:0:
256,192,126487,1,8,0:0:0:0:
256,192,126562,1,8,0:0:0:0:
256,192,126712,5,12,0:0:0:0:
256,192,126862,1,0,0:0:0:0:
256,192,126912,1,0,0:0:0:0:
256,192,126962,1,0,0:0:0:0:
256,192,127012,1,8,0:0:0:0:
256,192,127162,1,8,0:0:0:0:
256,192,127237,1,8,0:0:0:0:
256,192,127312,1,0,0:0:0:0:
256,192,127462,1,0,0:0:0:0:
256,192,127537,1,0,0:0:0:0:
256,192,127612,1,8,0:0:0:0:
256,192,127687,1,0,0:0:0:0:
256,192,127762,1,8,0:0:0:0:
256,192,127837,1,0,0:0:0:0:
256,192,127912,1,0,0:0:0:0:
256,192,128062,1,0,0:0:0:0:
256,192,128137,1,0,0:0:0:0:
256,192,128212,1,8,0:0:0:0:
256,192,128362,1,0,0:0:0:0:
256,192,128512,1,8,0:0:0:0:
256,192,128662,1,0,0:0:0:0:
256,192,128737,1,8,0:0:0:0:
256,192,128812,1,0,0:0:0:0:
256,192,128962,1,8,0:0:0:0:
256,192,129112,5,4,0:0:0:0:
256,192,129262,12,0,131212,0:0:0:0:
256,192,131362,5,8,0:0:0:0:
256,192,131437,1,8,0:0:0:0:
256,192,131512,5,4,0:0:0:0:
256,192,131662,12,0,133312,0:0:0:0:
256,192,133462,5,0,0:0:0:0:
256,192,133612,1,8,0:0:0:0:
256,192,133687,1,8,0:0:0:0:
256,192,133762,1,8,0:0:0:0:
256,192,133837,1,8,0:0:0:0:
256,192,133912,5,4,0:0:0:0:
384,160,134062,1,0,0:0:0:0:
352,160,134112,1,0,0:0:0:0:
352,160,134162,1,0,0:0:0:0:
352,160,134212,1,8,0:0:0:0:
352,160,134362,1,0,0:0:0:0:
320,128,134437,1,8,0:0:0:0:
352,128,134512,1,0,0:0:0:0:
352,128,134662,1,0,0:0:0:0:
352,128,134737,1,8,0:0:0:0:
352,128,134887,1,8,0:0:0:0:
384,160,134962,1,0,0:0:0:0:
384,160,135112,1,0,0:0:0:0:
384,128,135187,1,8,0:0:0:0:
352,128,135262,1,8,0:0:0:0:
352,128,135337,1,8,0:0:0:0:
384,128,135412,1,0,0:0:0:0:
384,128,135562,1,8,0:0:0:0:
416,160,135637,1,0,0:0:0:0:
384,128,135712,1,8,0:0:0:0:
448,128,135762,1,8,0:0:0:0:
448,96,135812,1,8,0:0:0:0:
352,128,135862,1,0,0:0:0:0:
352,128,136012,1,8,0:0:0:0:
448,128,136087,1,8,0:0:0:0:
384,128,136162,1,0,0:0:0:0:
384,128,136312,1,4,0:0:0:0:
384,160,136462,1,0,0:0:0:0:
384,160,136537,1,0,0:0:0:0:
384,160,136612,1,8,0:0:0:0:
384,160,136687,1,0,0:0:0:0:
384,160,136762,1,8,0:0:0:0:
384,160,136837,1,8,0:0:0:0:
384,160,136912,1,8,0:0:0:0:
384,128,136987,1,0,0:0:0:0:
384,160,137137,1,8,0:0:0:0:
384,160,137287,1,0,0:0:0:0:
384,160,137362,1,8,0:0:0:0:
352,160,137512,1,0,0:0:0:0:
352,160,137662,1,8,0:0:0:0:
384,160,137737,1,0,0:0:0:0:
352,160,137812,1,8,0:0:0:0:
384,128,137887,1,0,0:0:0:0:
384,128,137962,1,8,0:0:0:0:
384,160,138037,1,0,0:0:0:0:
384,128,138112,1,8,0:0:0:0:
384,128,138187,1,0,0:0:0:0:
384,128,138262,1,8,0:0:0:0:
384,96,138312,1,8,0:0:0:0:
384,128,138412,1,0,0:0:0:0:
448,96,138462,1,0,0:0:0:0:
448,96,138512,1,0,0:0:0:0:
384,128,138562,1,8,0:0:0:0:
448,96,138712,1,4,0:0:0:0:
416,160,138862,1,8,0:0:0:0:
416,160,138937,1,0,0:0:0:0:
352,128,139012,1,8,0:0:0:0:
416,96,139087,1,0,0:0:0:0:
384,128,139162,1,8,0:0:0:0:
352,128,139237,1,8,0:0:0:0:
352,128,139312,1,0,0:0:0:0:
352,128,139387,1,8,0:0:0:0:
352,128,139537,1,0,0:0:0:0:
352,128,139687,1,8,0:0:0:0:
352,128,139762,1,0,0:0:0:0:
320,128,139912,1,0,0:0:0:0:
352,160,139987,1,8,0:0:0:0:
320,128,140062,1,8,0:0:0:0:
320,128,140137,1,8,0:0:0:0:
352,128,140212,1,0,0:0:0:0:
352,160,140287,1,8,0:0:0:0:
352,160,140362,1,8,0:0:0:0:
352,160,140437,1,8,0:0:0:0:
352,160,140512,1,0,0:0:0:0:
320,128,140562,1,0,0:0:0:0:
384,96,140612,1,0,0:0:0:0:
384,64,140662,1,8,0:0:0:0:
384,96,140812,1,8,0:0:0:0:
320,128,140887,1,8,0:0:0:0:
384,96,140962,1,0,0:0:0:0:
352,128,141112,1,8,0:0:0:0:
352,128,141262,1,0,0:0:0:0:
352,128,141412,1,8,0:0:0:0:
352,128,141487,1,0,0:0:0:0:
352,128,141562,1,8,0:0:0:0:
352,128,141637,1,8,0:0:0:0:
352,128,141712,1,0,0:0:0:0:
320,128,141787,1,8,0:0:0:0:
320,128,141937,1,8,0:0:0:0:
320,128,142087,1,0,0:0:0:0:
320,128,142162,1,8,0:0:0:0:
320,128,142312,1,0,0:0:0:0:
320,128,142387,1,8,0:0:0:0:
320,128,142462,1,0,0:0:0:0:
352,128,142537,1,8,0:0:0:0:
352,128,142612,1,0,0:0:0:0:
352,128,142687,1,8,0:0:0:0:
352,128,142762,1,0,0:0:0:0:
352,128,142837,1,8,0:0:0:0:
352,128,142912,1,0,0:0:0:0:
352,128,142987,1,8,0:0:0:0:
320,128,143062,1,0,0:0:0:0:
384,128,143112,1,0,0:0:0:0:
416,128,143212,1,8,0:0:0:0:
416,128,143262,1,8,0:0:0:0:
416,128,143312,1,8,0:0:0:0:
416,96,143362,1,0,0:0:0:0:
416,96,143512,1,4,0:0:0:0:
352,128,143662,1,0,0:0:0:0:
352,128,143737,1,0,0:0:0:0:
352,128,143812,1,8,0:0:0:0:
352,128,143887,1,8,0:0:0:0:
384,128,143962,1,0,0:0:0:0:
352,128,144037,1,0,0:0:0:0:
384,128,144112,1,8,0:0:0:0:
352,128,144187,1,0,0:0:0:0:
352,128,144337,1,8,0:0:0:0:
352,128,144487,1,0,0:0:0:0:
352,128,144562,1,8,0:0:0:0:
352,128,144712,1,8,0:0:0:0:
352,160,144787,1,0,0:0:0:0:
320,160,144862,1,8,0:0:0:0:
352,160,144937,1,8,0:0:0:0:
352,160,145012,1,0,0:0:0:0:
352,128,145087,1,0,0:0:0:0:
352,128,145162,1,8,0:0:0:0:
352,128,145237,1,0,0:0:0:0:
352,128,145312,1,8,0:0:0:0:
352,128,145362,1,8,0:0:0:0:
352,128,145412,1,8,0:0:0:0:
352,128,145462,1,0,0:0:0:0:
320,128,145612,1,8,0:0:0:0:
320,128,145687,1,0,0:0:0:0:
320,128,145762,1,8,0:0:0:0:
352,160,145912,1,4,0:0:0:0:
384,128,146062,1,0,0:0:0:0:
384,128,146137,1,8,0:0:0:0:
384,128,146212,1,8,0:0:0:0:
384,128,146287,1,8,0:0:0:0:
384,128,146362,1,0,0:0:0:0:
384,128,146437,1,8,0:0:0:0:
384,128,146512,1,8,0:0:0:0:
384,128,146587,1,0,0:0:0:0:
384,128,146737,1,8,0:0:0:0:
384,128,146887,1,0,0:0:0:0:
384,128,146962,1,8,0:0:0:0:
384,128,147112,1,8,0:0:0:0:
384,128,147187,1,0,0:0:0:0:
384,128,147262,1,8,0:0:0:0:
384,128,147337,1,0,0:0:0:0:
384,128,147412,1,8,0:0:0:0:
384,128,147487,1,0,0:0:0:0:
384,128,147562,1,8,0:0:0:0:
384,128,147637,1,0,0:0:0:0:
384,128,147712,1,8,0:0:0:0:
352,128,147787,1,0,0:0:0:0:
352,128,147862,1,8,0:0:0:0:
416,128,147912,1,8,0:0:0:0:
384,160,148012,1,0,0:0:0:0:
384,160,148062,1,0,0:0:0:0:
384,160,148112,1,0,0:0:0:0:
384,160,148162,1,8,0:0:0:0:
384,128,148312,1,8,0:0:0:0:
416,128,148387,1,8,0:0:0:0:
416,128,148462,1,0,0:0:0:0:
384,128,148537,1,0,0:0:0:0:
384,128,148612,1,8,0:0:0:0:
384,128,148762,1,0,0:0:0:0:
384,160,148912,1,12,0:0:0:0:
384,128,149062,1,0,0:0:0:0:
352,128,149137,1,8,0:0:0:0:
352,128,149287,1,0,0:0:0:0:
352,128,149362,1,8,0:0:0:0:
352,128,149512,1,0,0:0:0:0:
384,160,149662,1,8,0:0:0:0:
384,160,149737,1,0,0:0:0:0:
416,160,149812,1,8,0:0:0:0:
352,160,149887,1,8,0:0:0:0:
384,160,149962,1,0,0:0:0:0:
384,160,150037,1,8,0:0:0:0:
384,160,150112,1,0,0:0:0:0:
416,128,150162,1,0,0:0:0:0:
416,160,150212,1,0,0:0:0:0:
384,160,150262,1,8,0:0:0:0:
384,160,150337,1,8,0:0:0:0:
384,160,150412,1,0,0:0:0:0:
384,128,150562,1,0,0:0:0:0:
384,128,150712,1,8,0:0:0:0:
416,160,150762,1,8,0:0:0:0:
416,160,150812,1,8,0:0:0:0:
416,192,150862,1,0,0:0:0:0:
416,192,150937,1,0,0:0:0:0:
416,192,151012,1,8,0:0:0:0:
416,192,151087,1,0,0:0:0:0:
416,192,151162,1,8,0:0:0:0:
416,192,151237,1,0,0:0:0:0:
416,192,151312,1,8,0:0:0:0:
480,160,151362,1,8,0:0:0:0:
416,160,151412,1,8,0:0:0:0:
416,192,151462,1,0,0:0:0:0:
416,192,151537,1,0,0:0:0:0:
416,192,151612,1,8,0:0:0:0:
416,192,151687,1,0,0:0:0:0:
416,192,151762,1,8,0:0:0:0:
416,192,151837,1,0,0:0:0:0:
448,192,151912,1,8,0:0:0:0:
384,160,151962,1,8,0:0:0:0:
384,160,152012,1,8,0:0:0:0:
448,160,152062,1,0,0:0:0:0:
448,160,152137,1,0,0:0:0:0:
448,160,152212,1,8,0:0:0:0:
448,160,152287,1,0,0:0:0:0:
448,160,152362,1,8,0:0:0:0:
448,160,152437,1,0,0:0:0:0:
384,160,152512,1,8,0:0:0:0:
384,160,152587,1,8,0:0:0:0:
384,160,152662,1,8,0:0:0:0:
416,128,152737,1,8,0:0:0:0:
416,128,152812,1,8,0:0:0:0:
416,128,152887,1,8,0:0:0:0:
384,128,152962,1,8,0:0:0:0:
320,96,153037,1,8,0:0:0:0:
256,192,153112,5,4,0:0:0:0:
256,192,153262,1,8,0:0:0:0:
256,192,153312,1,0,0:0:0:0:
256,192,153362,1,0,0:0:0:0:
256,192,153412,1,8,0:0:0:0:
256,192,153562,1,8,0:0:0:0:
256,192,153637,1,8,0:0:0:0:
256,192,153712,1,0,0:0:0:0:
256,192,153862,1,0,0:0:0:0:
256,192,153937,1,0,0:0:0:0:
256,192,154012,1,8,0:0:0:0:
256,192,154087,1,0,0:0:0:0:
256,192,154162,1,8,0:0:0:0:
256,192,154312,1,0,0:0:0:0:
256,192,154462,1,0,0:0:0:0:
256,192,154537,1,0,0:0:0:0:
256,192,154612,1,8,0:0:0:0:
256,192,154762,1,8,0:0:0:0:
256,192,154837,1,8,0:0:0:0:
256,192,154912,1,0,0:0:0:0:
256,192,154987,1,8,0:0:0:0:
256,192,155062,1,0,0:0:0:0:
256,192,155137,1,8,0:0:0:0:
256,192,155212,1,0,0:0:0:0:
256,192,155262,1,0,0:0:0:0:
256,192,155312,1,0,0:0:0:0:
256,192,155362,1,8,0:0:0:0:
256,192,155512,1,4,0:0:0:0:
256,192,155662,1,8,0:0:0:0:
256,192,155712,1,0,0:0:0:0:
256,192,155762,1,0,0:0:0:0:
256,192,155812,1,8,0:0:0:0:
256,192,155962,1,0,0:0:0:0:
256,192,156037,1,8,0:0:0:0:
256,192,156112,1,0,0:0:0:0:
256,192,156262,1,0,0:0:0:0:
256,192,156337,1,8,0:0:0:0:
256,192,156412,1,0,0:0:0:0:
256,192,156487,1,0,0:0:0:0:
256,192,156562,1,8,0:0:0:0:
256,192,156712,1,0,0:0:0:0:
256,192,156862,1,8,0:0:0:0:
256,192,156937,1,8,0:0:0:0:
256,192,157012,1,0,0:0:0:0:
256,192,157087,1,8,0:0:0:0:
256,192,157162,1,8,0:0:0:0:
256,192,157237,1,8,0:0:0:0:
256,192,157312,1,0,0:0:0:0:
256,192,157462,1,0,0:0:0:0:
256,192,157537,1,0,0:0:0:0:
256,192,157612,1,8,0:0:0:0:
256,192,157662,1,8,0:0:0:0:
256,192,157712,1,8,0:0:0:0:
256,192,157762,1,0,0:0:0:0:
256,192,157912,1,4,0:0:0:0:
256,192,158062,1,8,0:0:0:0:
256,192,158112,1,0,0:0:0:0:
256,192,158162,1,0,0:0:0:0:
256,192,158212,1,8,0:0:0:0:
256,192,158362,1,0,0:0:0:0:
256,192,158437,1,0,0:0:0:0:
256,192,158512,1,8,0:0:0:0:
256,192,158662,1,0,0:0:0:0:
256,192,158737,1,8,0:0:0:0:
256,192,158812,1,8,0:0:0:0:
256,192,158887,1,0,0:0:0:0:
256,192,158962,1,8,0:0:0:0:
256,192,159112,1,0,0:0:0:0:
256,192,159262,1,0,0:0:0:0:
256,192,159337,1,0,0:0:0:0:
256,192,159412,1,8,0:0:0:0:
256,192,159562,1,0,0:0:0:0:
256,192,159637,1,8,0:0:0:0:
256,192,159712,1,0,0:0:0:0:
256,192,159787,1,8,0:0:0:0:
256,192,159862,1,0,0:0:0:0:
256,192,159937,1,0,0:0:0:0:
256,192,160012,1,8,0:0:0:0:
256,192,160062,1,0,0:0:0:0:
256,192,160112,1,0,0:0:0:0:
256,192,160162,1,8,0:0:0:0:
256,192,160312,1,4,0:0:0:0:
256,192,160462,1,0,0:0:0:0:
256,192,160512,1,0,0:0:0:0:
256,192,160562,1,0,0:0:0:0:
256,192,160612,1,8,0:0:0:0:
256,192,160762,1,0,0:0:0:0:
256,192,160837,1,8,0:0:0:0:
256,192,160912,1,8,0:0:0:0:
256,192,161062,1,0,0:0:0:0:
256,192,161137,1,0,0:0:0:0:
256,192,161212,1,8,0:0:0:0:
256,192,161287,1,0,0:0:0:0:
256,192,161362,1,8,0:0:0:0:
256,192,161512,1,0,0:0:0:0:
256,192,161662,1,8,0:0:0:0:
256,192,161737,1,8,0:0:0:0:
256,192,161812,1,0,0:0:0:0:
256,192,161887,1,8,0:0:0:0:
256,192,161962,1,8,0:0:0:0:
256,192,162037,1,8,0:0:0:0:
256,192,162112,1,0,0:0:0:0:
256,192,162262,1,0,0:0:0:0:
256,192,162337,1,0,0:0:0:0:
256,192,162412,1,8,0:0:0:0:
256,192,162462,1,8,0:0:0:0:
256,192,162512,1,8,0:0:0:0:
256,192,162562,1,0,0:0:0:0:
256,192,162712,1,0,0:0:0:0:
256,192,162787,1,0,0:0:0:0:
256,192,162862,1,8,0:0:0:0:
256,192,162937,1,0,0:0:0:0:
256,192,163012,1,8,0:0:0:0:
256,192,163087,1,8,0:0:0:0:
256,192,163162,1,0,0:0:0:0:
256,192,163312,1,8,0:0:0:0:
256,192,163387,1,8,0:0:0:0:
256,192,163462,1,0,0:0:0:0:
256,192,163537,1,0,0:0:0:0:
256,192,163612,1,8,0:0:0:0:
256,192,163687,1,0,0:0:0:0:
256,192,163762,1,8,0:0:0:0:
256,192,163912,1,0,0:0:0:0:
256,192,163987,1,0,0:0:0:0:
256,192,164062,1,8,0:0:0:0:
256,192,164137,1,0,0:0:0:0:
256,192,164212,1,8,0:0:0:0:
256,192,164287,1,8,0:0:0:0:
256,192,164362,1,0,0:0:0:0:
256,192,164512,1,8,0:0:0:0:
256,192,164587,1,8,0:0:0:0:
256,192,164662,1,0,0:0:0:0:
256,192,164737,1,0,0:0:0:0:
256,192,164812,1,8,0:0:0:0:
256,192,164887,1,8,0:0:0:0:
256,192,164962,1,0,0:0:0:0:
256,192,165112,1,0,0:0:0:0:
256,192,165187,1,0,0:0:0:0:
256,192,165262,1,8,0:0:0:0:
256,192,165337,1,0,0:0:0:0:
256,192,165412,1,8,0:0:0:0:
256,192,165487,1,8,0:0:0:0:
256,192,165562,1,0,0:0:0:0:
256,192,165712,1,0,0:0:0:0:
256,192,165787,1,0,0:0:0:0:
256,192,165862,1,8,0:0:0:0:
256,192,165937,1,8,0:0:0:0:
256,192,166012,1,0,0:0:0:0:
256,192,166087,1,0,0:0:0:0:
256,192,166162,1,8,0:0:0:0:
256,192,166312,1,0,0:0:0:0:
256,192,166387,1,0,0:0:0:0:
256,192,166462,1,8,0:0:0:0:
256,192,166537,1,0,0:0:0:0:
256,192,166612,1,8,0:0:0:0:
256,192,166687,1,0,0:0:0:0:
256,192,166762,1,8,0:0:0:0:
256,192,166837,1,8,0:0:0:0:
256,192,166912,1,0,0:0:0:0:
256,192,166987,1,8,0:0:0:0:
256,192,167062,1,0,0:0:0:0:
256,192,167137,1,8,0:0:0:0:
256,192,167212,1,8,0:0:0:0:
256,192,167262,1,8,0:0:0:0:
256,192,167312,1,8,0:0:0:0:
256,192,167362,1,0,0:0:0:0:
384,160,167512,1,8,0:0:0:0:
384,160,167562,1,0,0:0:0:0:
384,160,167612,1,0,0:0:0:0:
384,160,167662,1,8,0:0:0:0:
352,128,167812,1,0,0:0:0:0:
384,128,167962,1,8,0:0:0:0:
384,128,168037,1,0,0:0:0:0:
384,160,168112,1,8,0:0:0:0:
384,128,168262,1,0,0:0:0:0:
384,128,168412,1,8,0:0:0:0:
384,128,168487,1,8,0:0:0:0:
384,128,168562,1,0,0:0:0:0:
384,128,168637,1,0,0:0:0:0:
384,160,168712,1,8,0:0:0:0:
384,160,168762,1,0,0:0:0:0:
384,128,168812,1,0,0:0:0:0:
384,160,168862,1,8,0:0:0:0:
384,128,169012,1,0,0:0:0:0:
384,128,169162,1,8,0:0:0:0:
384,128,169237,1,0,0:0:0:0:
384,128,169312,1,8,0:0:0:0:
384,128,169462,1,0,0:0:0:0:
384,128,169612,1,8,0:0:0:0:
384,128,169687,1,8,0:0:0:0:
384,128,169762,1,0,0:0:0:0:
384,128,169837,1,0,0:0:0:0:
352,160,169912,1,8,0:0:0:0:
384,128,169962,1,0,0:0:0:0:
384,160,170012,1,0,0:0:0:0:
352,128,170062,1,8,0:0:0:0:
384,128,170137,1,0,0:0:0:0:
384,128,170212,1,8,0:0:0:0:
384,128,170287,1,8,0:0:0:0:
384,128,170362,1,0,0:0:0:0:
384,128,170437,1,0,0:0:0:0:
384,128,170512,1,8,0:0:0:0:
384,128,170562,1,0,0:0:0:0:
384,128,170612,1,0,0:0:0:0:
384,128,170662,1,8,0:0:0:0:
384,128,170737,1,0,0:0:0:0:
384,128,170812,1,8,0:0:0:0:
384,128,170887,1,8,0:0:0:0:
384,128,170962,1,0,0:0:0:0:
416,128,171037,1,0,0:0:0:0:
416,128,171112,1,8,0:0:0:0:
384,128,171262,1,0,0:0:0:0:
384,128,171337,1,0,0:0:0:0:
384,128,171412,1,8,0:0:0:0:
384,128,171562,1,0,0:0:0:0:
416,128,171637,1,8,0:0:0:0:
416,128,171712,1,8,0:0:0:0:
416,128,171787,1,0,0:0:0:0:
416,128,171862,1,8,0:0:0:0:
416,128,172012,1,0,0:0:0:0:
416,128,172087,1,0,0:0:0:0:
416,128,172162,1,8,0:0:0:0:
256,192,172312,5,4,0:0:0:0:
256,192,172462,12,0,177112,0:0:0:0:
384,160,177712,5,8,0:0:0:0:
384,160,177862,1,8,0:0:0:0:
256,192,178162,12,0,179212,0:0:0:0:
320,128,179362,5,0,0:0:0:0:
384,128,179512,1,8,0:0:0:0:
384,128,179737,1,0,0:0:0:0:
416,160,179962,1,8,0:0:0:0:
416,160,180262,1,8,0:0:0:0:
256,192,180562,12,0,181912,0:0:0:0:
352,160,182512,5,0,0:0:0:0:
352,192,182662,1,8,0:0:0:0:
256,192,182962,12,0,184012,0:0:0:0:
384,128,184162,5,0,0:0:0:0:
384,160,184312,1,8,0:0:0:0:
384,160,184612,1,8,0:0:0:0:
384,160,184762,1,0,0:0:0:0:
384,128,185062,1,8,0:0:0:0:
384,128,185362,1,0,0:0:0:0:
256,192,185512,12,0,186562,0:0:0:0:
416,128,186712,5,0,0:0:0:0:
448,192,187312,1,0,0:0:0:0:
448,192,187462,1,8,0:0:0:0:
256,192,187762,12,0,188812,0:0:0:0:
352,160,189112,5,0,0:0:0:0:
352,160,189412,1,8,0:0:0:0:
384,128,189562,1,0,0:0:0:0:
352,128,189712,1,8,0:0:0:0:
352,128,189787,1,0,0:0:0:0:
352,128,189862,1,8,0:0:0:0:
352,96,190012,1,0,0:0:0:0:
352,96,190162,1,8,0:0:0:0:
352,96,190237,1,8,0:0:0:0:
320,96,190312,1,8,0:0:0:0:
352,96,190462,1,0,0:0:0:0:
352,128,190612,1,8,0:0:0:0:
352,128,190762,1,0,0:0:0:0:
352,128,190912,1,8,0:0:0:0:
352,128,191062,1,0,0:0:0:0:
352,96,191212,1,8,0:0:0:0:
352,96,191362,1,0,0:0:0:0:
320,128,191512,1,12,0:0:0:0:
352,128,191662,1,0,0:0:0:0:
352,128,191812,1,8,0:0:0:0:
352,128,191962,1,0,0:0:0:0:
352,128,192112,1,8,0:0:0:0:
352,128,192187,1,8,0:0:0:0:
352,128,192262,1,0,0:0:0:0:
352,160,192412,1,8,0:0:0:0:
320,160,192562,1,0,0:0:0:0:
320,160,192637,1,0,0:0:0:0:
320,160,192712,1,8,0:0:0:0:
320,160,192862,1,0,0:0:0:0:
352,160,193012,1,8,0:0:0:0:
352,160,193162,1,0,0:0:0:0:
352,160,193312,1,8,0:0:0:0:
384,160,193462,1,0,0:0:0:0:
416,160,193612,1,8,0:0:0:0:
384,160,193762,1,8,0:0:0:0:
384,160,193837,1,0,0:0:0:0:
416,160,193912,1,8,0:0:0:0:
384,160,193987,1,8,0:0:0:0:
384,160,194062,1,0,0:0:0:0:
384,160,194212,1,8,0:0:0:0:
384,160,194362,1,0,0:0:0:0:
384,128,194437,1,0,0:0:0:0:
384,128,194512,1,8,0:0:0:0:
384,160,194662,1,0,0:0:0:0:
384,160,194812,1,8,0:0:0:0:
384,160,194962,1,0,0:0:0:0:
384,160,195037,1,8,0:0:0:0:
384,160,195112,1,8,0:0:0:0:
384,160,195187,1,0,0:0:0:0:
416,192,195262,1,0,0:0:0:0:
384,192,195412,1,8,0:0:0:0:
416,160,195562,1,0,0:0:0:0:
352,160,195712,1,8,0:0:0:0:
352,160,195862,1,0,0:0:0:0:
352,160,196012,1,8,0:0:0:0:
352,160,196162,1,8,0:0:0:0:
384,160,196312,1,8,0:0:0:0:
384,192,196462,1,0,0:0:0:0:
384,192,196612,1,8,0:0:0:0:
384,192,196762,1,0,0:0:0:0:
416,192,196912,1,8,0:0:0:0:
416,192,196987,1,8,0:0:0:0:
416,192,197062,1,0,0:0:0:0:
384,192,197212,1,8,0:0:0:0:
416,160,197362,1,0,0:0:0:0:
416,160,197437,1,0,0:0:0:0:
416,160,197512,1,8,0:0:0:0:
416,160,197587,1,8,0:0:0:0:
416,160,197662,1,0,0:0:0:0:
384,160,197812,1,8,0:0:0:0:
384,160,197962,1,0,0:0:0:0:
416,192,198112,1,8,0:0:0:0:
416,192,198262,1,0,0:0:0:0:
416,192,198412,1,8,0:0:0:0:
416,192,198562,1,0,0:0:0:0:
416,192,198637,1,8,0:0:0:0:
416,160,198712,1,8,0:0:0:0:
416,160,198787,1,0,0:0:0:0:
448,128,198862,1,0,0:0:0:0:
416,192,199012,1,8,0:0:0:0:
448,160,199162,1,0,0:0:0:0:
416,160,199237,1,0,0:0:0:0:
416,160,199312,1,8,0:0:0:0:
384,192,199462,1,0,0:0:0:0:
384,192,199612,1,8,0:0:0:0:
384,192,199762,1,0,0:0:0:0:
416,160,199912,1,8,0:0:0:0:
416,160,199987,1,8,0:0:0:0:
416,160,200062,1,0,0:0:0:0:
416,160,200137,1,0,0:0:0:0:
416,160,200212,1,8,0:0:0:0:
384,192,200362,1,0,0:0:0:0:
416,160,200512,1,8,0:0:0:0:
352,192,200662,1,0,0:0:0:0:
416,160,200812,1,8,0:0:0:0:
352,160,200962,1,8,0:0:0:0:
416,160,201112,1,8,0:0:0:0:
384,192,201262,1,0,0:0:0:0:
384,192,201412,1,8,0:0:0:0:
384,192,201562,1,0,0:0:0:0:
384,192,201637,1,0,0:0:0:0:
352,160,201712,1,8,0:0:0:0:
352,160,201787,1,8,0:0:0:0:
352,160,201862,1,0,0:0:0:0:
384,192,202012,1,8,0:0:0:0:
384,128,202162,1,0,0:0:0:0:
384,128,202237,1,8,0:0:0:0:
384,128,202312,1,8,0:0:0:0:
384,128,202387,1,0,0:0:0:0:
384,128,202462,1,0,0:0:0:0:
384,192,202612,1,8,0:0:0:0:
384,192,202762,1,0,0:0:0:0:
384,192,202912,1,8,0:0:0:0:
384,192,203062,1,0,0:0:0:0:
384,192,203212,1,8,0:0:0:0:
416,128,203362,1,0,0:0:0:0:
416,128,203437,1,0,0:0:0:0:
416,128,203512,1,8,0:0:0:0:
416,128,203587,1,8,0:0:0:0:
416,128,203662,1,0,0:0:0:0:
416,128,203812,1,8,0:0:0:0:
416,128,203962,1,0,0:0:0:0:
416,128,204037,1,0,0:0:0:0:
448,160,204112,1,8,0:0:0:0:
448,160,204262,1,0,0:0:0:0:
416,160,204412,1,8,0:0:0:0:
416,160,204562,1,0,0:0:0:0:
416,160,204637,1,8,0:0:0:0:
416,160,204712,1,8,0:0:0:0:
416,160,204787,1,0,0:0:0:0:
416,160,204862,1,0,0:0:0:0:
416,160,205012,1,8,0:0:0:0:
416,160,205162,1,0,0:0:0:0:
416,160,205237,1,0,0:0:0:0:
416,160,205312,1,8,0:0:0:0:
416,160,205387,1,8,0:0:0:0:
416,160,205462,1,0,0:0:0:0:
416,160,205612,1,8,0:0:0:0:
416,160,205762,1,8,0:0:0:0:
416,160,205912,1,8,0:0:0:0:
384,192,206062,1,0,0:0:0:0:
416,192,206137,1,0,0:0:0:0:
384,192,206212,1,8,0:0:0:0:
416,192,206362,1,0,0:0:0:0:
384,192,206512,1,8,0:0:0:0:
384,192,206662,1,8,0:0:0:0:
384,192,206737,1,8,0:0:0:0:
384,192,206812,1,0,0:0:0:0:
384,192,206962,1,8,0:0:0:0:
384,192,207037,1,0,0:0:0:0:
384,192,207112,1,8,0:0:0:0:
384,192,207187,1,8,0:0:0:0:
384,192,207262,1,0,0:0:0:0:
384,192,207337,1,0,0:0:0:0:
384,192,207412,1,8,0:0:0:0:
384,192,207562,1,0,0:0:0:0:
384,192,207712,1,8,0:0:0:0:
416,160,207787,1,8,0:0:0:0:
416,160,207862,1,0,0:0:0:0:
384,160,208012,1,8,0:0:0:0:
384,160,208162,1,0,0:0:0:0:
384,160,208237,1,0,0:0:0:0:
384,160,208312,1,8,0:0:0:0:
384,160,208387,1,0,0:0:0:0:
384,160,208462,1,8,0:0:0:0:
384,160,208537,1,8,0:0:0:0:
384,160,208612,1,0,0:0:0:0:
384,160,208687,1,0,0:0:0:0:
384,160,208762,1,8,0:0:0:0:
384,160,208912,1,8,0:0:0:0:
384,160,208987,1,0,0:0:0:0:
384,160,209062,1,8,0:0:0:0:
384,160,209137,1,8,0:0:0:0:
384,160,209212,1,0,0:0:0:0:
384,160,209362,1,0,0:0:0:0:
256,192,209512,12,0,210562,0:0:0:0:
256,192,210712,5,4,0:0:0:0:
256,192,211162,5,4,0:0:0:0:
256,192,211462,1,0,0:0:0:0:
256,192,211612,1,8,0:0:0:0:
256,192,211762,1,0,0:0:0:0:
256,192,211912,1,0,0:0:0:0:
256,192,212362,1,0,0:0:0:0:
256,192,212662,1,0,0:0:0:0:
256,192,212812,1,0,0:0:0:0:
256,192,212962,1,8,0:0:0:0:
256,192,213112,1,0,0:0:0:0:
256,192,213562,1,0,0:0:0:0:
256,192,214012,1,0,0:0:0:0:
256,192,214312,1,0,0:0:0:0:
256,192,214612,1,8,0:0:0:0:
256,192,214912,1,0,0:0:0:0:
256,192,215212,1,8,0:0:0:0:
256,192,215512,5,4,0:0:0:0:
256,192,215962,5,4,0:0:0:0:
256,192,216262,1,0,0:0:0:0:
256,192,216412,1,8,0:0:0:0:
256,192,216562,1,0,0:0:0:0:
256,192,216712,1,0,0:0:0:0:
256,192,217162,1,0,0:0:0:0:
256,192,217462,1,8,0:0:0:0:
256,192,217612,1,0,0:0:0:0:
256,192,217762,1,8,0:0:0:0:
256,192,217912,1,0,0:0:0:0:
256,192,218362,1,0,0:0:0:0:
256,192,218812,1,0,0:0:0:0:
256,192,219112,1,0,0:0:0:0:
256,192,219262,1,0,0:0:0:0:
256,192,219412,1,8,0:0:0:0:
256,192,219712,1,0,0:0:0:0:
256,192,219862,1,8,0:0:0:0:
256,192,220012,1,8,0:0:0:0:
256,192,220312,5,4,0:0:0:0:
256,192,220762,5,4,0:0:0:0:
256,192,221062,1,0,0:0:0:0:
256,192,221212,1,8,0:0:0:0:
256,192,221362,1,0,0:0:0:0:
256,192,221512,1,0,0:0:0:0:
256,192,221812,1,8,0:0:0:0:
256,192,221962,1,0,0:0:0:0:
256,192,222262,1,0,0:0:0:0:
256,192,222412,1,8,0:0:0:0:
256,192,222562,1,8,0:0:0:0:
256,192,222712,5,4,0:0:0:0:
256,192,223012,1,8,0:0:0:0:
256,192,223162,5,4,0:0:0:0:
256,192,223462,1,0,0:0:0:0:
256,192,223612,1,8,0:0:0:0:
256,192,223912,1,0,0:0:0:0:
256,192,224212,1,8,0:0:0:0:
256,192,224362,1,0,0:0:0:0:
256,192,224662,1,0,0:0:0:0:
256,192,224812,1,8,0:0:0:0:
256,192,225112,5,4,0:0:0:0:
256,192,225411,1,8,0:0:0:0:
256,192,225562,5,4,0:0:0:0:
256,192,225862,1,0,0:0:0:0:
256,192,226012,1,8,0:0:0:0:
256,192,226162,1,8,0:0:0:0:
256,192,226312,5,4,0:0:0:0:
256,192,226612,1,8,0:0:0:0:
256,192,226762,5,4,0:0:0:0:
256,192,227062,1,8,0:0:0:0:
256,192,227212,1,0,0:0:0:0:
256,192,227362,1,8,0:0:0:0:
256,192,227512,5,4,0:0:0:0:
256,192,227737,5,4,0:0:0:0:
256,192,227962,5,4,0:0:0:0:
256,192,228112,5,12,0:0:0:0:
256,192,228337,5,12,0:0:0:0:
256,192,228562,5,12,0:0:0:0:
256,192,228712,5,4,0:0:0:0:
256,192,228937,5,4,0:0:0:0:
256,192,229162,5,4,0:0:0:0:
256,192,229312,1,8,0:0:0:0:
256,192,229362,1,8,0:0:0:0:
256,192,229412,1,8,0:0:0:0:
256,192,229462,1,0,0:0:0:0:
256,192,229537,1,0,0:0:0:0:
256,192,229612,1,8,0:0:0:0:
256,192,229687,1,0,0:0:0:0:
256,192,229762,1,8,0:0:0:0:
256,192,229837,1,8,0:0:0:0:
448,128,229912,1,0,0:0:0:0:
384,128,230062,1,0,0:0:0:0:
384,160,230137,1,0,0:0:0:0:
384,128,230212,1,8,0:0:0:0:
384,128,230362,1,0,0:0:0:0:
384,128,230512,1,0,0:0:0:0:
416,128,230587,1,0,0:0:0:0:
416,128,230662,1,8,0:0:0:0:
416,160,230737,1,0,0:0:0:0:
384,160,230812,1,8,0:0:0:0:
384,160,230962,1,0,0:0:0:0:
384,160,231112,1,8,0:0:0:0:
384,128,231262,1,0,0:0:0:0:
384,128,231337,1,8,0:0:0:0:
384,128,231487,1,8,0:0:0:0:
384,128,231562,1,0,0:0:0:0:
384,128,231712,1,8,0:0:0:0:
384,128,231787,1,0,0:0:0:0:
384,128,231862,1,0,0:0:0:0:
384,128,231937,1,0,0:0:0:0:
384,128,232012,1,8,0:0:0:0:
384,128,232162,1,0,0:0:0:0:
384,128,232312,1,8,0:0:0:0:
384,128,232387,1,8,0:0:0:0:
384,128,232462,1,0,0:0:0:0:
384,128,232612,1,8,0:0:0:0:
384,128,232762,1,0,0:0:0:0:
384,128,232837,1,0,0:0:0:0:
384,128,232912,1,8,0:0:0:0:
384,128,232987,1,0,0:0:0:0:
384,128,233062,1,0,0:0:0:0:
384,128,233137,1,8,0:0:0:0:
384,128,233212,1,0,0:0:0:0:
384,128,233362,1,8,0:0:0:0:
384,128,233512,1,0,0:0:0:0:
384,128,233587,1,0,0:0:0:0:
384,128,233662,1,8,0:0:0:0:
384,128,233812,1,8,0:0:0:0:
384,128,233962,1,0,0:0:0:0:
384,128,234037,1,0,0:0:0:0:
384,128,234112,1,8,0:0:0:0:
384,128,234187,1,8,0:0:0:0:
384,128,234262,1,0,0:0:0:0:
192,256,234412,2,0,L|352:128,8,140
352,160,234712,1,0,0:0:0:0:
352,160,234862,1,0,0:0:0:0:
352,160,234937,1,0,0:0:0:0:
352,160,235012,1,8,0:0:0:0:
352,160,235162,1,0,0:0:0:0:
352,160,235312,1,8,0:0:0:0:
352,160,235387,1,0,0:0:0:0:
352,160,235462,1,0,0:0:0:0:
352,160,235537,1,0,0:0:0:0:
352,160,235612,1,8,0:0:0:0:
352,160,235762,1,0,0:0:0:0:
352,160,235912,1,8,0:0:0:0:
352,160,236062,1,8,0:0:0:0:
384,128,236137,1,8,0:0:0:0:
384,128,236212,1,0,0:0:0:0:
384,128,236362,1,0,0:0:0:0:
384,128,236437,1,8,0:0:0:0:
384,128,236512,1,8,0:0:0:0:
384,128,236587,1,0,0:0:0:0:
384,128,236662,1,0,0:0:0:0:
384,128,236737,1,0,0:0:0:0:
384,128,236812,1,8,0:0:0:0:
384,128,236962,1,0,0:0:0:0:
384,128,237112,1,8,0:0:0:0:
384,128,237187,1,0,0:0:0:0:
384,128,237262,1,0,0:0:0:0:
384,128,237337,1,8,0:0:0:0:
384,128,237412,1,8,0:0:0:0:
352,128,237562,1,0,0:0:0:0:
384,160,237637,1,0,0:0:0:0:
352,128,237712,1,8,0:0:0:0:
384,128,237787,1,0,0:0:0:0:
384,128,237862,1,8,0:0:0:0:
384,128,237937,1,8,0:0:0:0:
384,128,238012,1,0,0:0:0:0:
384,128,238087,1,0,0:0:0:0:
384,128,238162,1,8,0:0:0:0:
384,128,238312,1,4,0:0:0:0:
352,128,238612,1,8,0:0:0:0:
352,128,238687,1,8,0:0:0:0:
352,128,238762,1,8,0:0:0:0:
352,128,238837,1,8,0:0:0:0:
352,128,238912,1,4,0:0:0:0:
352,128,239062,1,0,0:0:0:0:
352,128,239212,1,0,0:0:0:0:
416,96,239312,1,0,0:0:0:0:
416,96,239412,1,0,0:0:0:0:
256,192,239512,5,8,0:0:0:0:
256,192,239587,1,8,0:0:0:0:
256,192,239662,1,0,0:0:0:0:
256,192,239737,1,0,0:0:0:0:
256,192,239812,1,8,0:0:0:0:
256,192,239887,1,0,0:0:0:0:
256,192,239962,1,8,0:0:0:0:
256,192,240037,1,0,0:0:0:0:
256,192,240112,1,8,0:0:0:0:
256,192,240187,1,8,0:0:0:0:
256,192,240262,1,0,0:0:0:0:
256,192,240337,1,8,0:0:0:0:
256,192,240412,1,8,0:0:0:0:
256,192,240487,1,0,0:0:0:0:
256,192,240562,1,8,0:0:0:0:
256,192,240637,1,0,0:0:0:0:
256,192,240712,1,8,0:0:0:0:
256,192,240787,1,8,0:0:0:0:
256,192,240862,1,0,0:0:0:0:
256,192,240937,1,8,0:0:0:0:
256,192,241012,1,8,0:0:0:0:
256,192,241087,1,0,0:0:0:0:
256,192,241162,1,8,0:0:0:0:
256,192,241237,1,0,0:0:0:0:
256,192,241312,1,8,0:0:0:0:
256,192,241387,1,8,0:0:0:0:
256,192,241462,1,0,0:0:0:0:
256,192,241537,1,8,0:0:0:0:
256,192,241612,1,0,0:0:0:0:
256,192,241762,1,0,0:0:0:0:
256,192,241912,1,8,0:0:0:0:
256,192,241987,1,0,0:0:0:0:
256,192,242062,1,8,0:0:0:0:
256,192,242137,1,0,0:0:0:0:
256,192,242212,1,8,0:0:0:0:
256,192,242287,1,8,0:0:0:0:
256,192,242362,1,0,0:0:0:0:
256,192,242437,1,0,0:0:0:0:
256,192,242512,1,8,0:0:0:0:
256,192,242587,1,8,0:0:0:0:
256,192,242662,1,0,0:0:0:0:
256,192,242737,1,8,0:0:0:0:
256,192,242812,1,8,0:0:0:0:
256,192,242887,1,0,0:0:0:0:
256,192,242962,1,8,0:0:0:0:
256,192,243037,1,0,0:0:0:0:
256,192,243112,1,8,0:0:0:0:
256,192,243187,1,8,0:0:0:0:
256,192,243262,1,0,0:0:0:0:
256,192,243337,1,8,0:0:0:0:
256,192,243412,1,0,0:0:0:0:
256,192,243487,1,0,0:0:0:0:
256,192,243562,1,8,0:0:0:0:
256,192,243637,1,0,0:0:0:0:
256,192,243712,1,8,0:0:0:0:
256,192,243787,1,8,0:0:0:0:
256,192,243862,1,0,0:0:0:0:
256,192,243937,1,8,0:0:0:0:
320,192,244012,2,0,L|320:32,2,140
320,128,244312,5,8,0:0:0:0:
320,128,244387,1,0,0:0:0:0:
288,128,244462,1,0,0:0:0:0:
288,128,244537,1,0,0:0:0:0:
288,128,244612,1,8,0:0:0:0:
288,128,244687,1,8,0:0:0:0:
288,128,244762,1,0,0:0:0:0:
288,128,244837,1,0,0:0:0:0:
288,160,244912,1,8,0:0:0:0:
288,160,244987,1,0,0:0:0:0:
288,160,245062,1,0,0:0:0:0:
288,160,245137,1,0,0:0:0:0:
288,160,245212,1,8,0:0:0:0:
288,128,245362,1,8,0:0:0:0:
288,224,245512,1,8,0:0:0:0:
320,128,245587,1,8,0:0:0:0:
320,128,245662,1,0,0:0:0:0:
352,128,245737,1,0,0:0:0:0:
320,128,245812,1,8,0:0:0:0:
320,128,245887,1,0,0:0:0:0:
320,128,245962,1,0,0:0:0:0:
320,128,246037,1,0,0:0:0:0:
320,128,246112,1,8,0:0:0:0:
320,128,246187,1,8,0:0:0:0:
320,128,246262,1,0,0:0:0:0:
320,128,246337,1,0,0:0:0:0:
320,96,246412,1,8,0:0:0:0:
288,128,246562,1,8,0:0:0:0:
256,192,246712,1,8,0:0:0:0:
256,192,246787,1,0,0:0:0:0:
256,192,246862,1,0,0:0:0:0:
256,192,246937,1,8,0:0:0:0:
256,192,247012,1,0,0:0:0:0:
256,192,247087,1,0,0:0:0:0:
256,192,247162,1,8,0:0:0:0:
256,192,247237,1,8,0:0:0:0:
256,192,247312,1,8,0:0:0:0:
256,192,247387,1,0,0:0:0:0:
256,192,247462,1,0,0:0:0:0:
256,192,247537,1,8,0:0:0:0:
256,192,247612,1,0,0:0:0:0:
256,192,247687,1,0,0:0:0:0:
256,192,247762,1,8,0:0:0:0:
256,192,247837,1,8,0:0:0:0:
352,160,247912,1,0,0:0:0:0:
352,128,248362,5,8,0:0:0:0:
352,128,248437,1,0,0:0:0:0:
352,128,248512,1,8,0:0:0:0:
352,128,248587,1,8,0:0:0:0:
256,192,248662,5,0,0:0:0:0:
256,192,248737,1,8,0:0:0:0:
256,192,248812,1,0,0:0:0:0:
256,192,248887,1,8,0:0:0:0:
256,192,248962,1,8,0:0:0:0:
384,128,249037,1,0,0:0:0:0:
352,192,249112,1,8,0:0:0:0:
320,160,249187,1,0,0:0:0:0:
320,128,249262,1,8,0:0:0:0:
320,128,249337,1,8,0:0:0:0:
320,160,249412,1,0,0:0:0:0:
320,160,249487,1,8,0:0:0:0:
320,160,249562,1,8,0:0:0:0:
320,160,249637,1,0,0:0:0:0:
320,160,249712,1,0,0:0:0:0:
320,160,249787,1,8,0:0:0:0:
320,160,249862,1,0,0:0:0:0:
320,160,249937,1,8,0:0:0:0:
320,160,250012,1,0,0:0:0:0:
320,160,250087,1,8,0:0:0:0:
320,160,250162,1,8,0:0:0:0:
320,160,250237,1,0,0:0:0:0:
320,160,250312,1,8,0:0:0:0:
320,160,250387,1,8,0:0:0:0:
320,160,250462,1,0,0:0:0:0:
320,160,250537,1,8,0:0:0:0:
320,160,250612,1,0,0:0:0:0:
320,160,250687,1,0,0:0:0:0:
320,160,250762,1,8,0:0:0:0:
320,160,250837,1,0,0:0:0:0:
320,160,250912,1,8,0:0:0:0:
320,160,250987,1,8,0:0:0:0:
320,160,251062,1,0,0:0:0:0:
320,160,251137,1,0,0:0:0:0:
320,160,251212,1,8,0:0:0:0:
320,160,251287,1,0,0:0:0:0:
320,160,251362,1,8,0:0:0:0:
384,128,251437,1,8,0:0:0:0:
320,160,251512,1,0,0:0:0:0:
320,160,251587,1,0,0:0:0:0:
320,192,251662,1,8,0:0:0:0:
352,192,251737,1,8,0:0:0:0:
320,192,251812,1,0,0:0:0:0:
320,128,251887,1,8,0:0:0:0:
320,128,251962,1,8,0:0:0:0:
320,160,252037,1,0,0:0:0:0:
320,160,252112,1,8,0:0:0:0:
320,160,252187,1,0,0:0:0:0:
320,160,252262,1,8,0:0:0:0:
320,160,252337,1,0,0:0:0:0:
320,160,252412,1,8,0:0:0:0:
320,160,252487,1,8,0:0:0:0:
320,160,252562,1,0,0:0:0:0:
320,160,252637,1,0,0:0:0:0:
320,160,252712,1,8,0:0:0:0:
320,160,252787,1,0,0:0:0:0:
320,160,252862,1,8,0:0:0:0:
320,160,252937,1,8,0:0:0:0:
320,160,253012,1,0,0:0:0:0:
320,160,253087,1,0,0:0:0:0:
320,160,253162,1,8,0:0:0:0:
320,160,253237,1,0,0:0:0:0:
320,160,253312,1,8,0:0:0:0:
288,160,253387,1,8,0:0:0:0:
320,160,253462,1,0,0:0:0:0:
320,160,253537,1,8,0:0:0:0:
320,160,253612,1,0,0:0:0:0:
320,160,253687,1,8,0:0:0:0:
320,160,253762,1,8,0:0:0:0:
352,128,253837,1,0,0:0:0:0:
320,160,253912,1,8,0:0:0:0:
320,160,253987,1,0,0:0:0:0:
320,160,254062,1,8,0:0:0:0:
320,160,254137,1,8,0:0:0:0:
320,128,254212,1,0,0:0:0:0:
352,160,254287,1,0,0:0:0:0:
352,160,254362,1,8,0:0:0:0:
320,160,254437,1,0,0:0:0:0:
320,160,254512,1,8,0:0:0:0:
320,160,254587,1,8,0:0:0:0:
320,160,254662,1,0,0:0:0:0:
320,160,254737,1,8,0:0:0:0:
320,128,254812,1,0,0:0:0:0:
416,128,254887,1,0,0:0:0:0:
352,160,254962,1,8,0:0:0:0:
416,128,255037,1,0,0:0:0:0:
352,160,255112,1,8,0:0:0:0:
320,160,255187,1,8,0:0:0:0:
320,160,255262,1,0,0:0:0:0:
320,128,255337,1,8,0:0:0:0:
320,128,255412,1,0,0:0:0:0:
320,128,255487,1,0,0:0:0:0:
320,128,255562,1,8,0:0:0:0:
320,128,255637,1,0,0:0:0:0:
320,128,255712,1,8,0:0:0:0:
416,160,255762,1,8,0:0:0:0:
320,96,255812,1,8,0:0:0:0:
320,128,255862,1,0,0:0:0:0:
320,128,255937,1,0,0:0:0:0:
320,128,256012,1,8,0:0:0:0:
320,160,256087,1,0,0:0:0:0:
320,128,256162,1,8,0:0:0:0:
320,128,256237,1,0,0:0:0:0:
320,128,256312,1,8,0:0:0:0:
320,128,256387,1,8,0:0:0:0:
352,128,256462,1,0,0:0:0:0:
352,160,256537,1,8,0:0:0:0:
352,128,256612,1,0,0:0:0:0:
320,128,256687,1,0,0:0:0:0:
352,128,256762,1,8,0:0:0:0:
320,128,256837,1,0,0:0:0:0:
352,160,256912,1,8,0:0:0:0:
352,160,256987,1,8,0:0:0:0:
352,160,257062,1,0,0:0:0:0:
352,160,257137,1,8,0:0:0:0:
352,160,257212,1,0,0:0:0:0:
320,128,257287,1,0,0:0:0:0:
352,160,257362,1,8,0:0:0:0:
320,128,257437,1,0,0:0:0:0:
352,160,257512,1,8,0:0:0:0:
352,160,257587,1,8,0:0:0:0:
352,160,257662,1,0,0:0:0:0:
352,160,257737,1,8,0:0:0:0:
352,160,257812,1,0,0:0:0:0:
384,160,257887,1,0,0:0:0:0:
384,160,257962,1,8,0:0:0:0:
352,128,258037,1,0,0:0:0:0:
352,160,258112,1,8,0:0:0:0:
352,128,258187,1,0,0:0:0:0:
352,160,258262,1,0,0:0:0:0:
352,128,258337,1,8,0:0:0:0:
352,128,258412,1,0,0:0:0:0:
352,160,258487,1,0,0:0:0:0:
352,160,258562,1,8,0:0:0:0:
384,128,258637,1,8,0:0:0:0:
320,128,258712,1,0,0:0:0:0:
320,160,258787,1,8,0:0:0:0:
320,160,258862,1,0,0:0:0:0:
320,160,258937,1,8,0:0:0:0:
320,160,259012,1,8,0:0:0:0:
352,160,259087,1,0,0:0:0:0:
352,160,259162,1,8,0:0:0:0:
352,160,259237,1,0,0:0:0:0:
352,160,259312,1,8,0:0:0:0:
352,160,259387,1,8,0:0:0:0:
320,160,259462,1,0,0:0:0:0:
352,160,259537,1,8,0:0:0:0:
352,160,259612,1,0,0:0:0:0:
352,160,259687,1,0,0:0:0:0:
352,160,259762,1,8,0:0:0:0:
352,160,259837,1,0,0:0:0:0:
352,128,259912,1,8,0:0:0:0:
352,160,259987,1,8,0:0:0:0:
352,160,260062,1,0,0:0:0:0:
352,160,260137,1,8,0:0:0:0:
352,128,260212,1,8,0:0:0:0:
352,128,260287,1,0,0:0:0:0:
352,128,260362,1,8,0:0:0:0:
352,128,260437,1,0,0:0:0:0:
352,160,260512,1,8,0:0:0:0:
352,160,260587,1,8,0:0:0:0:
352,160,260662,1,0,0:0:0:0:
384,160,260737,1,0,0:0:0:0:
352,160,260812,1,8,0:0:0:0:
384,160,260887,1,0,0:0:0:0:
384,160,260962,1,8,0:0:0:0:
320,160,261037,1,8,0:0:0:0:
320,160,261112,1,0,0:0:0:0:
320,128,261187,1,0,0:0:0:0:
320,160,261262,1,8,0:0:0:0:
320,160,261337,1,8,0:0:0:0:
320,160,261412,1,0,0:0:0:0:
320,160,261487,1,0,0:0:0:0:
320,160,261562,1,8,0:0:0:0:
320,160,261637,1,0,0:0:0:0:
320,160,261712,1,8,0:0:0:0:
352,160,261787,1,8,0:0:0:0:
352,160,261862,1,0,0:0:0:0:
352,160,261937,1,8,0:0:0:0:
352,160,262012,1,8,0:0:0:0:
352,128,262087,1,0,0:0:0:0:
352,160,262162,1,0,0:0:0:0:
352,128,262237,1,0,0:0:0:0:
352,128,262312,1,8,0:0:0:0:
384,160,262462,1,0,0:0:0:0:
352,160,262537,1,0,0:0:0:0:
352,160,262612,1,8,0:0:0:0:
352,128,262762,1,0,0:0:0:0:
320,160,262912,1,8,0:0:0:0:
416,160,262949,1,8,0:0:0:0:
384,160,263137,1,8,0:0:0:0:
416,160,263174,1,8,0:0:0:0:
384,160,263362,1,8,0:0:0:0:
416,160,263399,1,8,0:0:0:0:
384,192,263512,1,4,0:0:0:0:
384,160,263662,1,8,0:0:0:0:
384,160,263962,1,8,0:0:0:0:
320,160,264037,1,8,0:0:0:0:
352,160,264112,1,0,0:0:0:0:
384,160,264262,1,8,0:0:0:0:
384,160,264562,1,8,0:0:0:0:
384,160,264862,1,8,0:0:0:0:
384,160,265012,1,0,0:0:0:0:
352,160,265162,1,8,0:0:0:0:
384,128,265237,1,8,0:0:0:0:
384,128,265312,1,0,0:0:0:0:
352,160,265462,1,0,0:0:0:0:
384,128,265537,1,8,0:0:0:0:
384,128,265687,1,8,0:0:0:0:
384,128,265762,1,0,0:0:0:0:
384,128,265912,1,0,0:0:0:0:
384,128,265987,1,8,0:0:0:0:
384,128,266062,1,8,0:0:0:0:
384,128,266137,1,0,0:0:0:0:
384,128,266212,1,8,0:0:0:0:
384,128,266362,1,0,0:0:0:0:
384,160,266437,1,8,0:0:0:0:
384,160,266512,1,8,0:0:0:0:
384,160,266587,1,0,0:0:0:0:
384,160,266662,1,8,0:0:0:0:
384,128,266737,1,8,0:0:0:0:
384,128,266812,1,0,0:0:0:0:
384,128,266962,1,0,0:0:0:0:
416,128,267037,1,8,0:0:0:0:
384,128,267112,1,8,0:0:0:0:
384,128,267187,5,8,0:0:0:0:
384,128,267262,1,0,0:0:0:0:
384,128,267337,1,0,0:0:0:0:
384,128,267412,1,8,0:0:0:0:
384,128,267487,1,8,0:0:0:0:
384,128,267562,1,0,0:0:0:0:
384,160,267637,1,0,0:0:0:0:
416,128,267712,1,8,0:0:0:0:
416,160,267749,1,8,0:0:0:0:
416,128,267862,1,8,0:0:0:0:
416,128,267899,1,8,0:0:0:0:
416,128,268012,1,8,0:0:0:0:
416,128,268049,1,8,0:0:0:0:
416,128,268162,1,8,0:0:0:0:
416,128,268199,1,8,0:0:0:0:
256,160,268312,6,0,P|384:96|384:160,1,280
256,192,268612,5,12,0:0:0:0:
256,192,268762,1,8,0:0:0:0:
256,192,268837,1,8,0:0:0:0:
256,192,268912,1,0,0:0:0:0:
256,192,268987,1,8,0:0:0:0:
256,192,269062,1,0,0:0:0:0:
256,192,269137,1,8,0:0:0:0:
256,192,269212,1,8,0:0:0:0:
256,192,269287,1,8,0:0:0:0:
256,192,269362,1,0,0:0:0:0:
256,192,269512,1,0,0:0:0:0:
256,192,269662,1,0,0:0:0:0:
256,192,269737,1,0,0:0:0:0:
256,192,269812,1,8,0:0:0:0:
256,192,269962,1,8,0:0:0:0:
256,192,270112,1,0,0:0:0:0:
256,192,270187,1,8,0:0:0:0:
256,192,270262,1,0,0:0:0:0:
256,192,270337,1,8,0:0:0:0:
256,192,270412,1,8,0:0:0:0:
256,192,270487,1,0,0:0:0:0:
256,192,270562,1,8,0:0:0:0:
256,192,270637,1,8,0:0:0:0:
256,192,270712,1,0,0:0:0:0:
256,192,270862,1,0,0:0:0:0:
256,192,270937,1,0,0:0:0:0:
256,192,271012,1,8,0:0:0:0:
256,192,271162,1,0,0:0:0:0:
256,192,271237,1,8,0:0:0:0:
256,192,271312,1,0,0:0:0:0:
256,192,271387,1,8,0:0:0:0:
256,192,271462,1,0,0:0:0:0:
256,192,271537,1,8,0:0:0:0:
256,192,271612,1,8,0:0:0:0:
256,192,271687,1,8,0:0:0:0:
256,192,271762,1,0,0:0:0:0:
256,192,271912,1,0,0:0:0:0:
256,192,272062,1,0,0:0:0:0:
256,192,272137,1,0,0:0:0:0:
256,192,272212,1,8,0:0:0:0:
256,192,272362,1,8,0:0:0:0:
256,192,272512,1,8,0:0:0:0:
256,192,272587,1,8,0:0:0:0:
256,192,272662,1,0,0:0:0:0:
256,192,272737,1,8,0:0:0:0:
256,192,272812,1,8,0:0:0:0:
256,192,272887,1,0,0:0:0:0:
256,192,272962,1,8,0:0:0:0:
256,192,273037,1,8,0:0:0:0:
256,192,273112,1,0,0:0:0:0:
256,192,273262,1,0,0:0:0:0:
256,192,273337,1,0,0:0:0:0:
256,192,273412,1,8,0:0:0:0:
256,192,273562,1,8,0:0:0:0:
256,192,273637,1,8,0:0:0:0:
256,192,273712,1,0,0:0:0:0:
256,192,273787,1,0,0:0:0:0:
256,192,273862,1,8,0:0:0:0:
256,192,273937,1,0,0:0:0:0:
256,192,274012,1,8,0:0:0:0:
256,192,274087,1,8,0:0:0:0:
256,192,274162,1,0,0:0:0:0:
256,192,274312,1,0,0:0:0:0:
256,192,274462,1,0,0:0:0:0:
256,192,274537,1,0,0:0:0:0:
256,192,274612,1,8,0:0:0:0:
256,192,274762,1,8,0:0:0:0:
256,192,274912,1,0,0:0:0:0:
256,192,274987,1,8,0:0:0:0:
256,192,275062,1,0,0:0:0:0:
256,192,275137,1,8,0:0:0:0:
256,192,275212,1,8,0:0:0:0:
256,192,275287,1,0,0:0:0:0:
256,192,275362,1,8,0:0:0:0:
256,192,275437,1,8,0:0:0:0:
256,192,275512,1,0,0:0:0:0:
256,192,275662,1,0,0:0:0:0:
256,192,275737,1,0,0:0:0:0:
256,192,275812,1,8,0:0:0:0:
256,192,275962,1,8,0:0:0:0:
256,192,276037,1,0,0:0:0:0:
256,192,276112,1,0,0:0:0:0:
256,192,276187,1,8,0:0:0:0:
256,192,276262,1,8,0:0:0:0:
256,192,276337,1,0,0:0:0:0:
256,192,276412,1,8,0:0:0:0:
256,192,276487,1,8,0:0:0:0:
256,192,276562,1,0,0:0:0:0:
256,192,276712,1,0,0:0:0:0:
256,192,276862,1,8,0:0:0:0:
256,192,276937,1,0,0:0:0:0:
256,192,277012,1,8,0:0:0:0:
256,192,277087,1,8,0:0:0:0:
256,192,277162,1,0,0:0:0:0:
256,192,277237,1,0,0:0:0:0:
256,192,277312,1,8,0:0:0:0:
256,192,277387,1,8,0:0:0:0:
256,192,277462,1,0,0:0:0:0:
256,192,277537,1,8,0:0:0:0:
256,192,277687,1,0,0:0:0:0:
256,192,277762,1,8,0:0:0:0:
256,192,277837,1,8,0:0:0:0:
256,192,277912,5,4,0:0:0:0:
256,192,278212,5,4,0:0:0:0:
256,192,278512,5,4,0:0:0:0:
256,192,278662,1,8,0:0:0:0:
256,192,278812,1,0,0:0:0:0:
256,192,278887,1,8,0:0:0:0:
256,192,278962,1,8,0:0:0:0:
256,192,279037,1,8,0:0:0:0:
256,192,279112,5,4,0:0:0:0:
256,192,279412,5,4,0:0:0:0:
256,192,279712,5,4,0:0:0:0:
256,192,279862,1,8,0:0:0:0:
256,192,280012,1,0,0:0:0:0:
256,192,280087,1,0,0:0:0:0:
256,192,280162,1,8,0:0:0:0:
256,192,280237,1,8,0:0:0:0:
256,192,280312,5,4,0:0:0:0:
256,192,280612,5,4,0:0:0:0:
256,192,280912,5,4,0:0:0:0:
256,192,281062,1,8,0:0:0:0:
256,192,281212,1,8,0:0:0:0:
256,192,281287,1,0,0:0:0:0:
256,192,281362,1,0,0:0:0:0:
256,192,281437,1,0,0:0:0:0:
256,192,281512,5,12,0:0:0:0:
256,192,281737,5,12,0:0:0:0:
256,192,281962,5,12,0:0:0:0:
256,192,282112,1,0,0:0:0:0:
256,192,282187,1,8,0:0:0:0:
256,192,282262,1,0,0:0:0:0:
256,192,282337,1,8,0:0:0:0:
256,192,282487,1,8,0:0:0:0:
256,192,282562,1,0,0:0:0:0:
256,192,282637,1,8,0:0:0:0:
256,192,282712,1,0,0:0:0:0:
256,192,283012,1,0,0:0:0:0:
256,192,283087,1,0,0:0:0:0:
256,192,283162,1,8,0:0:0:0:
256,192,283237,1,8,0:0:0:0:
256,192,283312,1,0,0:0:0:0:
256,192,283387,1,8,0:0:0:0:
256,192,283462,1,0,0:0:0:0:
256,192,283537,1,8,0:0:0:0:
256,192,283612,1,0,0:0:0:0:
256,192,283687,1,0,0:0:0:0:
256,192,283762,1,8,0:0:0:0:
256,192,283837,1,8,0:0:0:0:
256,192,283912,1,0,0:0:0:0:
256,192,284212,1,0,0:0:0:0:
256,192,284287,1,0,0:0:0:0:
256,192,284362,1,8,0:0:0:0:
256,192,284437,1,8,0:0:0:0:
256,192,284512,1,0,0:0:0:0:
256,192,284587,1,8,0:0:0:0:
256,192,284662,1,0,0:0:0:0:
256,192,284737,1,8,0:0:0:0:
256,192,284812,1,0,0:0:0:0:
256,192,284887,1,8,0:0:0:0:
256,192,284962,1,8,0:0:0:0:
256,192,285037,1,8,0:0:0:0:
256,192,285112,1,0,0:0:0:0:
256,192,285412,1,0,0:0:0:0:
256,192,285487,1,0,0:0:0:0:
256,192,285562,1,8,0:0:0:0:
256,192,285637,1,8,0:0:0:0:
256,192,285712,1,0,0:0:0:0:
256,192,286012,1,0,0:0:0:0:
256,192,286087,1,8,0:0:0:0:
256,192,286162,1,8,0:0:0:0:
256,192,286237,1,8,0:0:0:0:
256,192,286312,12,0,287362,0:0:0:0:
256,192,287512,5,4,0:0:0:0:
352,160,287662,1,0,0:0:0:0:
320,160,287812,1,0,0:0:0:0:
256,192,287962,1,0,0:0:0:0:
256,192,288037,1,0,0:0:0:0:
256,192,288112,1,12,0:0:0:0:
288,160,288262,1,8,0:0:0:0:
288,160,288412,1,0,0:0:0:0:
288,160,288562,1,8,0:0:0:0:
288,160,288712,1,0,0:0:0:0:
320,160,288862,1,8,0:0:0:0:
320,160,289012,1,0,0:0:0:0:
352,160,289162,1,8,0:0:0:0:
352,160,289312,1,12,0:0:0:0:
320,128,289462,1,0,0:0:0:0:
320,128,289612,1,0,0:0:0:0:
352,160,289762,1,0,0:0:0:0:
352,160,289912,1,8,0:0:0:0:
352,160,290062,1,0,0:0:0:0:
352,160,290212,1,8,0:0:0:0:
352,160,290362,1,0,0:0:0:0:
320,128,290437,1,0,0:0:0:0:
352,160,290512,1,12,0:0:0:0:
352,160,290662,1,0,0:0:0:0:
352,160,290812,5,8,0:0:0:0:
320,160,290962,1,8,0:0:0:0:
320,160,291112,1,0,0:0:0:0:
352,160,291262,1,8,0:0:0:0:
352,160,291412,1,0,0:0:0:0:
352,160,291562,1,8,0:0:0:0:
352,160,291712,1,12,0:0:0:0:
352,160,291862,1,0,0:0:0:0:
352,160,292012,1,0,0:0:0:0:
352,160,292162,1,0,0:0:0:0:
352,160,292312,1,8,0:0:0:0:
352,160,292462,1,0,0:0:0:0:
352,160,292612,1,0,0:0:0:0:
352,160,292762,1,0,0:0:0:0:
352,160,292837,1,0,0:0:0:0:
352,160,292912,1,12,0:0:0:0:
352,160,293062,1,8,0:0:0:0:
352,160,293212,1,0,0:0:0:0:
352,160,293362,1,8,0:0:0:0:
352,160,293512,1,0,0:0:0:0:
352,160,293662,1,8,0:0:0:0:
352,160,293812,1,0,0:0:0:0:
352,160,293962,1,8,0:0:0:0:
352,160,294112,1,12,0:0:0:0:
352,160,294262,1,0,0:0:0:0:
352,160,294412,1,0,0:0:0:0:
352,160,294562,1,0,0:0:0:0:
352,160,294712,1,8,0:0:0:0:
352,160,294862,1,8,0:0:0:0:
352,160,295012,1,0,0:0:0:0:
352,160,295162,1,0,0:0:0:0:
320,128,295237,1,0,0:0:0:0:
352,160,295312,1,12,0:0:0:0:
352,160,295462,5,0,0:0:0:0:
352,160,295612,1,8,0:0:0:0:
352,160,295762,1,8,0:0:0:0:
352,160,295912,1,0,0:0:0:0:
352,160,296062,1,8,0:0:0:0:
352,160,296212,1,0,0:0:0:0:
352,160,296362,1,8,0:0:0:0:
384,128,296512,5,8,0:0:0:0:
448,128,296549,1,8,0:0:0:0:
384,128,296662,1,8,0:0:0:0:
448,128,296699,1,8,0:0:0:0:
352,160,296812,1,8,0:0:0:0:
384,160,296849,1,8,0:0:0:0:
352,160,296962,1,8,0:0:0:0:
384,160,296999,1,8,0:0:0:0:
352,160,297112,1,4,0:0:0:0:
320,128,297262,1,0,0:0:0:0:
320,160,297337,1,0,0:0:0:0:
320,160,297412,1,8,0:0:0:0:
352,128,297562,1,0,0:0:0:0:
352,128,297712,1,8,0:0:0:0:
320,128,297787,1,8,0:0:0:0:
320,128,297862,1,0,0:0:0:0:
320,128,297937,1,0,0:0:0:0:
320,128,298012,1,8,0:0:0:0:
320,128,298162,1,0,0:0:0:0:
320,128,298312,1,8,0:0:0:0:
320,128,298462,1,0,0:0:0:0:
320,128,298537,1,0,0:0:0:0:
320,128,298612,1,8,0:0:0:0:
320,128,298762,1,0,0:0:0:0:
320,128,298837,1,0,0:0:0:0:
352,128,298912,1,8,0:0:0:0:
352,128,298987,1,8,0:0:0:0:
352,128,299062,1,8,0:0:0:0:
352,128,299137,1,0,0:0:0:0:
352,128,299212,1,8,0:0:0:0:
352,128,299362,1,8,0:0:0:0:
352,128,299512,1,0,0:0:0:0:
352,128,299587,1,0,0:0:0:0:
352,128,299662,1,8,0:0:0:0:
416,160,299812,1,8,0:0:0:0:
384,160,299962,1,8,0:0:0:0:
384,128,300037,1,8,0:0:0:0:
384,128,300112,1,0,0:0:0:0:
384,128,300262,1,0,0:0:0:0:
384,128,300337,1,0,0:0:0:0:
384,128,300412,1,8,0:0:0:0:
384,128,300562,1,0,0:0:0:0:
384,128,300637,1,0,0:0:0:0:
384,128,300712,1,8,0:0:0:0:
384,128,300787,1,0,0:0:0:0:
384,128,300862,1,0,0:0:0:0:
384,128,300937,1,0,0:0:0:0:
384,128,301012,1,8,0:0:0:0:
384,128,301162,1,8,0:0:0:0:
384,128,301312,1,0,0:0:0:0:
384,128,301387,1,0,0:0:0:0:
384,128,301462,1,8,0:0:0:0:
384,128,301612,1,8,0:0:0:0:
384,128,301687,1,8,0:0:0:0:
384,128,301762,1,0,0:0:0:0:
384,128,301837,1,0,0:0:0:0:
384,128,301912,1,8,0:0:0:0:
384,128,302062,1,0,0:0:0:0:
384,128,302212,1,8,0:0:0:0:
384,128,302362,1,0,0:0:0:0:
384,128,302437,1,0,0:0:0:0:
384,128,302512,1,8,0:0:0:0:
384,128,302662,1,0,0:0:0:0:
384,128,302812,1,8,0:0:0:0:
384,128,302887,1,0,0:0:0:0:
384,128,302962,1,0,0:0:0:0:
384,128,303037,1,0,0:0:0:0:
384,128,303112,1,8,0:0:0:0:
384,128,303262,1,0,0:0:0:0:
384,128,303412,1,8,0:0:0:0:
384,128,303562,1,0,0:0:0:0:
384,128,303637,1,8,0:0:0:0:
384,128,303712,1,0,0:0:0:0:
384,128,303787,1,0,0:0:0:0:
384,128,303862,1,8,0:0:0:0:
384,128,304012,1,0,0:0:0:0:
384,128,304087,1,0,0:0:0:0:
384,128,304162,1,8,0:0:0:0:
384,128,304312,1,8,0:0:0:0:
384,128,304462,1,0,0:0:0:0:
384,128,304537,1,0,0:0:0:0:
384,128,304612,1,8,0:0:0:0:
384,128,304762,1,0,0:0:0:0:
384,128,304837,1,0,0:0:0:0:
384,128,304912,1,8,0:0:0:0:
384,128,304987,1,8,0:0:0:0:
384,128,305062,1,0,0:0:0:0:
384,128,305137,1,0,0:0:0:0:
384,128,305212,1,8,0:0:0:0:
384,128,305362,1,8,0:0:0:0:
384,128,305437,1,8,0:0:0:0:
384,128,305512,1,4,0:0:0:0:
384,128,305662,5,8,0:0:0:0:
352,160,305737,1,4,0:0:0:0:
320,128,305887,1,8,0:0:0:0:
320,128,305962,1,4,0:0:0:0:
320,128,306112,1,8,0:0:0:0:
320,128,306187,1,4,0:0:0:0:
320,128,306337,1,0,0:0:0:0:
320,128,306412,1,8,0:0:0:0:
320,128,306562,1,8,0:0:0:0:
256,192,306712,5,4,0:0:0:0:
256,192,306862,1,8,0:0:0:0:
256,192,306912,1,8,0:0:0:0:
256,192,306962,1,8,0:0:0:0:
256,192,307012,1,0,0:0:0:0:
256,192,307162,1,0,0:0:0:0:
256,192,307312,1,8,0:0:0:0:
256,192,307612,1,8,0:0:0:0:
256,192,307912,1,0,0:0:0:0:
256,192,308212,1,0,0:0:0:0:
256,192,308512,1,8,0:0:0:0:
256,192,308812,1,8,0:0:0:0:
256,192,309112,1,0,0:0:0:0:
256,192,309412,1,0,0:0:0:0:
256,192,309562,1,8,0:0:0:0:
256,192,309712,1,0,0:0:0:0:
256,192,309937,1,8,0:0:0:0:
256,192,310012,1,8,0:0:0:0:
256,192,310162,1,8,0:0:0:0:
256,192,310312,1,0,0:0:0:0:
256,192,310612,1,0,0:0:0:0:
256,192,310912,1,8,0:0:0:0:
256,192,311062,1,8,0:0:0:0:
256,192,311212,1,0,0:0:0:0:
256,192,311268,1,8,0:0:0:0:
256,192,311324,1,8,0:0:0:0:
256,192,311380,1,0,0:0:0:0:
256,192,311512,1,8,0:0:0:0:
256,192,311662,1,0,0:0:0:0:
256,192,311812,1,8,0:0:0:0:
256,192,311962,1,0,0:0:0:0:
256,192,312112,1,8,0:0:0:0:
256,192,312262,1,0,0:0:0:0:
256,192,312412,1,8,0:0:0:0:
256,192,312562,1,0,0:0:0:0:
256,192,312712,1,8,0:0:0:0:
256,192,312862,1,0,0:0:0:0:
256,192,313012,1,8,0:0:0:0:
256,192,313162,1,0,0:0:0:0:
256,192,313312,1,8,0:0:0:0:
256,192,313462,1,0,0:0:0:0:
256,192,313612,1,8,0:0:0:0:
256,192,313762,1,0,0:0:0:0:
256,192,313912,1,8,0:0:0:0:
256,192,313987,1,0,0:0:0:0:
256,192,314062,1,8,0:0:0:0:
256,192,314137,1,0,0:0:0:0:
256,192,314212,1,8,0:0:0:0:
256,192,314287,1,8,0:0:0:0:
256,192,314362,1,0,0:0:0:0:
256,192,314437,1,0,0:0:0:0:
256,192,314512,1,8,0:0:0:0:
256,192,314587,1,0,0:0:0:0:
256,192,314662,1,8,0:0:0:0:
256,192,314737,1,0,0:0:0:0:
256,192,314812,1,8,0:0:0:0:
256,192,314887,1,8,0:0:0:0:
256,192,314962,1,0,0:0:0:0:
256,192,315037,1,0,0:0:0:0:
256,192,315112,12,0,315862,0:0:0:0:
256,192,316012,5,8,0:0:0:0:
384,160,316062,1,8,0:0:0:0:
384,128,316112,1,8,0:0:0:0:
384,128,316162,1,8,0:0:0:0:
384,128,316212,1,8,0:0:0:0:
384,128,316262,1,8,0:0:0:0:
256,192,316312,5,4,0:0:0:0:
256,192,316462,1,0,0:0:0:0:
256,192,316512,1,0,0:0:0:0:
256,192,316562,1,0,0:0:0:0:
256,192,316612,1,8,0:0:0:0:
256,192,316762,1,0,0:0:0:0:
256,192,316912,1,0,0:0:0:0:
256,192,316987,1,8,0:0:0:0:
256,192,317062,1,8,0:0:0:0:
256,192,317137,1,8,0:0:0:0:
256,192,317212,1,0,0:0:0:0:
256,192,317287,1,8,0:0:0:0:
256,192,317362,1,8,0:0:0:0:
256,192,317437,1,8,0:0:0:0:
256,192,317512,1,0,0:0:0:0:
256,192,317587,1,8,0:0:0:0:
256,192,317662,1,8,0:0:0:0:
256,192,317737,1,8,0:0:0:0:
256,192,317812,1,0,0:0:0:0:
256,192,317887,1,8,0:0:0:0:
256,192,317962,1,8,0:0:0:0:
256,192,318037,1,8,0:0:0:0:
256,192,318112,1,0,0:0:0:0:
256,192,318187,1,8,0:0:0:0:
256,192,318262,1,8,0:0:0:0:
256,192,318337,1,8,0:0:0:0:
256,192,318412,1,0,0:0:0:0:
256,192,318487,1,8,0:0:0:0:
256,192,318562,1,8,0:0:0:0:
256,192,318612,1,8,0:0:0:0:
256,192,318662,1,8,0:0:0:0:
256,192,318712,1,0,0:0:0:0:
256,192,318862,1,0,0:0:0:0:
256,192,318912,1,0,0:0:0:0:
256,192,318962,1,0,0:0:0:0:
256,192,319012,1,8,0:0:0:0:
256,192,319162,1,8,0:0:0:0:
256,192,319237,1,8,0:0:0:0:
256,192,319312,1,0,0:0:0:0:
256,192,319412,1,8,0:0:0:0:
256,192,319512,1,8,0:0:0:0:
256,192,319612,1,0,0:0:0:0:
256,192,319712,1,8,0:0:0:0:
256,192,319812,1,8,0:0:0:0:
256,192,319912,1,0,0:0:0:0:
256,192,320012,1,8,0:0:0:0:
256,192,320112,1,8,0:0:0:0:
256,192,320212,1,0,0:0:0:0:
256,192,320312,1,8,0:0:0:0:
256,192,320412,1,8,0:0:0:0:
256,192,320512,1,0,0:0:0:0:
256,192,320549,1,0,0:0:0:0:
256,192,320662,1,8,0:0:0:0:
256,192,320699,1,8,0:0:0:0:
256,192,320812,1,0,0:0:0:0:
256,192,320849,1,0,0:0:0:0:
256,192,320962,1,8,0:0:0:0:
256,192,320999,1,8,0:0:0:0:
256,192,321112,5,4,0:0:0:0:
256,192,321262,1,0,0:0:0:0:
256,192,321312,1,0,0:0:0:0:
256,192,321362,1,0,0:0:0:0:
256,192,321412,1,8,0:0:0:0:
256,192,321562,1,0,0:0:0:0:
256,192,321637,1,8,0:0:0:0:
256,192,321712,1,8,0:0:0:0:
256,192,321787,1,0,0:0:0:0:
256,192,321937,1,8,0:0:0:0:
256,192,322012,1,0,0:0:0:0:
256,192,322087,1,0,0:0:0:0:
256,192,322162,1,8,0:0:0:0:
256,192,322312,1,0,0:0:0:0:
256,192,322387,1,0,0:0:0:0:
256,192,322462,1,8,0:0:0:0:
256,192,322512,1,8,0:0:0:0:
256,192,322562,1,8,0:0:0:0:
256,192,322612,1,0,0:0:0:0:
256,192,322762,1,0,0:0:0:0:
256,192,322912,1,8,0:0:0:0:
256,192,322987,1,8,0:0:0:0:
256,192,323062,1,0,0:0:0:0:
256,192,323137,1,8,0:0:0:0:
256,192,323212,1,0,0:0:0:0:
256,192,323287,1,8,0:0:0:0:
256,192,323362,1,8,0:0:0:0:
352,160,323512,1,4,0:0:0:0:
352,160,323662,1,0,0:0:0:0:
352,160,323737,1,0,0:0:0:0:
352,128,323812,1,8,0:0:0:0:
352,128,323962,1,0,0:0:0:0:
352,160,324112,1,8,0:0:0:0:
352,160,324187,1,8,0:0:0:0:
352,160,324262,1,0,0:0:0:0:
352,128,324337,1,0,0:0:0:0:
352,128,324412,1,8,0:0:0:0:
384,128,324562,1,0,0:0:0:0:
384,128,324712,1,8,0:0:0:0:
384,128,324862,1,0,0:0:0:0:
384,128,324937,1,0,0:0:0:0:
384,128,325012,1,8,0:0:0:0:
384,128,325162,1,8,0:0:0:0:
416,128,325212,1,8,0:0:0:0:
416,128,325262,1,8,0:0:0:0:
448,128,325312,1,0,0:0:0:0:
416,96,325387,1,0,0:0:0:0:
416,96,325462,1,8,0:0:0:0:
416,128,325612,1,8,0:0:0:0:
416,128,325762,1,0,0:0:0:0:
416,128,325912,1,8,0:0:0:0:
448,128,325962,1,8,0:0:0:0:
448,128,326012,1,8,0:0:0:0:
448,128,326062,1,8,0:0:0:0:
448,128,326112,1,8,0:0:0:0:
448,128,326162,1,8,0:0:0:0:
448,128,326212,1,0,0:0:0:0:
448,128,326362,1,0,0:0:0:0:
352,128,326512,1,0,0:0:0:0:
352,128,326587,1,8,0:0:0:0:
352,128,326662,1,8,0:0:0:0:
352,128,326737,1,8,0:0:0:0:
352,128,326812,1,0,0:0:0:0:
352,160,326887,1,8,0:0:0:0:
352,160,326962,1,8,0:0:0:0:
352,160,327037,1,8,0:0:0:0:
352,160,327112,1,0,0:0:0:0:
384,160,327187,1,8,0:0:0:0:
384,160,327262,1,8,0:0:0:0:
384,160,327337,1,8,0:0:0:0:
384,160,327412,1,0,0:0:0:0:
384,160,327487,1,8,0:0:0:0:
384,160,327562,1,8,0:0:0:0:
352,128,327637,1,8,0:0:0:0:
352,128,327712,1,0,0:0:0:0:
352,128,327787,1,8,0:0:0:0:
352,128,327862,1,8,0:0:0:0:
352,128,327937,1,8,0:0:0:0:
352,128,328012,1,0,0:0:0:0:
352,160,328062,1,0,0:0:0:0:
352,160,328162,1,8,0:0:0:0:
352,128,328212,1,8,0:0:0:0:
352,160,328312,1,0,0:0:0:0:
352,160,328462,1,8,0:0:0:0:
384,128,328612,1,0,0:0:0:0:
384,128,328762,1,8,0:0:0:0:
384,128,328912,1,0,0:0:0:0:
384,96,329012,1,8,0:0:0:0:
384,128,329112,1,8,0:0:0:0:
384,128,329212,1,0,0:0:0:0:
384,128,329312,1,8,0:0:0:0:
384,128,329412,1,8,0:0:0:0:
384,128,329512,1,0,0:0:0:0:
384,128,329612,1,8,0:0:0:0:
384,128,329712,1,8,0:0:0:0:
384,128,329812,1,0,0:0:0:0:
384,128,329912,1,8,0:0:0:0:
384,128,330012,1,8,0:0:0:0:
384,128,330112,1,0,0:0:0:0:
448,160,330149,1,0,0:0:0:0:
448,128,330262,1,8,0:0:0:0:
448,128,330299,1,8,0:0:0:0:
416,128,330412,1,0,0:0:0:0:
416,128,330449,1,0,0:0:0:0:
416,128,330562,1,8,0:0:0:0:
416,128,330599,1,8,0:0:0:0:
352,128,330712,1,0,0:0:0:0:
416,64,330762,1,0,0:0:0:0:
416,96,330812,1,0,0:0:0:0:
416,96,330862,1,0,0:0:0:0:
416,96,330912,1,0,0:0:0:0:
416,96,330962,1,0,0:0:0:0:
416,96,331012,1,8,0:0:0:0:
416,192,331087,1,8,0:0:0:0:
384,128,331162,1,8,0:0:0:0:
384,128,331237,1,8,0:0:0:0:
384,128,331312,1,8,0:0:0:0:
384,128,331387,1,8,0:0:0:0:
384,128,331462,1,8,0:0:0:0:
416,128,331537,1,8,0:0:0:0:
416,160,331612,1,8,0:0:0:0:
416,192,331687,1,8,0:0:0:0:
416,160,331762,1,8,0:0:0:0:
416,160,331837,1,8,0:0:0:0:
416,160,331912,1,0,0:0:0:0:
416,128,331962,1,0,0:0:0:0:
416,128,332012,1,0,0:0:0:0:
384,128,332062,1,0,0:0:0:0:
384,128,332112,1,0,0:0:0:0:
384,128,332162,1,0,0:0:0:0:
384,160,332212,1,8,0:0:0:0:
352,128,332287,1,8,0:0:0:0:
352,128,332362,1,8,0:0:0:0:
352,128,332437,1,8,0:0:0:0:
352,128,332512,1,8,0:0:0:0:
352,128,332587,1,8,0:0:0:0:
352,128,332662,1,8,0:0:0:0:
352,128,332737,1,8,0:0:0:0:
352,192,332812,1,8,0:0:0:0:
352,160,332887,1,8,0:0:0:0:
352,160,332962,1,8,0:0:0:0:
352,160,333037,1,8,0:0:0:0:
320,160,333112,1,0,0:0:0:0:
320,160,333162,1,0,0:0:0:0:
320,160,333212,1,0,0:0:0:0:
320,160,333262,1,0,0:0:0:0:
320,160,333312,1,0,0:0:0:0:
320,160,333362,1,0,0:0:0:0:
320,160,333412,1,8,0:0:0:0:
352,160,333487,1,8,0:0:0:0:
352,160,333562,1,8,0:0:0:0:
352,160,333637,1,8,0:0:0:0:
352,128,333712,1,0,0:0:0:0:
320,128,333762,1,0,0:0:0:0:
320,128,333812,1,0,0:0:0:0:
320,128,333862,1,0,0:0:0:0:
320,128,333912,1,0,0:0:0:0:
320,128,333962,1,0,0:0:0:0:
352,128,334012,1,8,0:0:0:0:
352,160,334087,1,8,0:0:0:0:
352,160,334162,1,8,0:0:0:0:
352,160,334237,1,8,0:0:0:0:
384,160,334312,1,4,0:0:0:0:
384,160,334462,5,0,0:0:0:0:
384,160,334537,1,0,0:0:0:0:
384,160,334612,1,8,0:0:0:0:
384,160,334762,1,0,0:0:0:0:
384,160,334837,1,8,0:0:0:0:
384,160,334912,1,8,0:0:0:0:
384,160,334987,1,0,0:0:0:0:
384,160,335062,1,8,0:0:0:0:
384,128,335212,1,0,0:0:0:0:
384,128,335287,1,0,0:0:0:0:
384,128,335362,1,8,0:0:0:0:
256,192,335512,5,0,0:0:0:0:
256,192,335662,1,8,0:0:0:0:
256,192,335812,1,8,0:0:0:0:
256,192,335887,1,0,0:0:0:0:
256,192,336037,1,8,0:0:0:0:
256,192,336112,1,0,0:0:0:0:
256,192,336187,1,8,0:0:0:0:
256,192,336337,1,0,0:0:0:0:
256,192,336412,1,8,0:0:0:0:
256,192,336562,1,8,0:0:0:0:
256,192,336712,1,0,0:0:0:0:
256,192,337012,1,8,0:0:0:0:
256,192,337087,1,0,0:0:0:0:
256,192,337237,1,0,0:0:0:0:
256,192,337312,1,0,0:0:0:0:
256,192,337387,1,8,0:0:0:0:
256,192,337537,1,0,0:0:0:0:
256,192,337612,1,8,0:0:0:0:
256,192,337762,1,0,0:0:0:0:
256,192,337912,1,8,0:0:0:0:
256,192,338212,1,0,0:0:0:0:
256,192,338287,1,8,0:0:0:0:
256,192,338437,1,0,0:0:0:0:
256,192,338512,1,8,0:0:0:0:
256,192,338587,1,8,0:0:0:0:
256,192,338737,1,8,0:0:0:0:
256,192,338812,1,8,0:0:0:0:
256,192,338962,1,0,0:0:0:0:
256,192,339112,1,0,0:0:0:0:
256,192,339412,1,8,0:0:0:0:
256,192,339487,1,0,0:0:0:0:
256,192,339637,1,8,0:0:0:0:
256,192,339712,1,0,0:0:0:0:
256,192,339787,1,8,0:0:0:0:
256,192,339937,1,8,0:0:0:0:
256,192,340012,1,0,0:0:0:0:
256,192,340162,1,8,0:0:0:0:
256,192,340312,1,0,0:0:0:0:
256,192,340612,1,8,0:0:0:0:
256,192,340762,1,0,0:0:0:0:
256,192,341062,1,8,0:0:0:0:
256,192,341362,1,0,0:0:0:0:
256,192,341512,1,8,0:0:0:0:
256,192,341812,1,8,0:0:0:0:
256,192,341962,1,0,0:0:0:0:
256,192,342262,1,8,0:0:0:0:
256,192,342412,1,8,0:0:0:0:
256,192,342637,1,8,0:0:0:0:
256,192,342712,1,8,0:0:0:0:
256,192,343012,1,8,0:0:0:0:
256,192,343162,1,0,0:0:0:0:
256,192,343462,1,0,0:0:0:0:
256,192,343612,1,8,0:0:0:0:
256,192,343762,1,0,0:0:0:0:
256,192,343912,1,0,0:0:0:0:
256,192,344212,1,8,0:0:0:0:
256,192,344362,1,0,0:0:0:0:
256,192,344662,1,0,0:0:0:0:
256,192,344812,1,0,0:0:0:0:
256,192,344962,1,0,0:0:0:0:
256,192,345112,1,0,0:0:0:0:
256,192,345712,1,8,0:0:0:0:
256,192,346912,1,8,0:0:0:0:
256,192,347512,1,8,0:0:0:0:
256,192,347962,1,0,0:0:0:0:
256,192,348112,1,8,0:0:0:0:
256,192,348262,1,0,0:0:0:0:
256,192,348412,1,8,0:0:0:0:
256,192,348562,1,0,0:0:0:0:
256,192,349312,1,8,0:0:0:0:
256,192,349462,1,0,0:0:0:0:
256,192,349612,1,0,0:0:0:0:
256,192,349762,1,8,0:0:0:0:
256,192,349912,1,0,0:0:0:0:
256,192,350362,1,0,0:0:0:0:
256,192,350512,1,8,0:0:0:0:
256,192,351112,1,0,0:0:0:0:
256,192,351562,1,0,0:0:0:0:
256,192,351712,1,8,0:0:0:0:
256,192,352237,1,8,0:0:0:0:
256,192,352312,1,8,0:0:0:0:
256,192,352762,1,0,0:0:0:0:
256,192,352912,1,8,0:0:0:0:
256,192,353062,1,0,0:0:0:0:
256,192,353212,1,8,0:0:0:0:
256,192,353362,1,8,0:0:0:0:
256,192,353512,1,0,0:0:0:0:
256,192,354112,1,8,0:0:0:0:
256,192,354162,1,8,0:0:0:0:
256,192,354212,1,8,0:0:0:0:
256,192,354262,1,8,0:0:0:0:
256,192,354412,1,0,0:0:0:0:
256,192,354562,1,8,0:0:0:0:
256,192,354712,1,4,0:0:0:0:
256,192,354862,12,0,357112,0:0:0:0:
