osu file format v14

[General]
AudioFilename: audio.mp3
AudioLeadIn: 0
PreviewTime: 156572
Countdown: 0
SampleSet: Normal
StackLeniency: 0.2
Mode: 0
LetterboxInBreaks: 0
WidescreenStoryboard: 1

[Editor]
Bookmarks: 2287,11429,20572,29715,38858,48001,66287,75429,84572,93715,102858,121144,139429,157715,176001,194287,212572,221715,230858,240001
DistanceSpacing: 0.7
BeatDivisor: 4
GridSize: 32
TimelineZoom: 4.599998

[Metadata]
Title:Fastest Crash
TitleUnicode:Fastest Crash
Artist:Camellia
ArtistUnicode:かめりあ
Creator:Opsi
Version:Dementia
Source:
Tags:experimental technical fast sliders melodic dubstep wubstep drop
BeatmapID:1347013
BeatmapSetID:634897

[Difficulty]
HPDrainRate:5
CircleSize:4
OverallDifficulty:8.8
ApproachRate:9.6
SliderMultiplier:1.92
SliderTickRate:1

[Events]
//Background and Video events
0,0,"bg.jpg",0,0
//Break Periods
2,89343,92635
2,144201,151492
//Storyboard Layer 0 (Background)
//Storyboard Layer 1 (Fail)
//Storyboard Layer 2 (Pass)
//Storyboard Layer 3 (Foreground)
//Storyboard Sound Samples

[TimingPoints]
2287,285.714285714286,4,2,1,35,1,0
10287,-100,4,2,1,55,0,0
18715,-90.9090909090909,4,2,1,55,0,0
19429,-133.333333333333,4,2,1,65,0,0
20001,-100,4,2,1,70,0,0
20287,-71.4285714285714,4,2,1,75,0,0
20572,-83.3333333333333,4,2,1,70,0,0
22572,-62.5,4,2,1,70,0,0
22858,-83.3333333333333,4,2,1,70,0,0
24858,-62.5,4,2,1,70,0,0
25144,-83.3333333333333,4,2,1,70,0,0
25572,-80,4,2,1,70,0,0
25858,-166.666666666667,4,2,1,50,0,0
26287,-83.3333333333333,4,2,1,70,0,0
28572,-75.7575757575758,4,2,1,70,0,0
29429,-62.5,4,2,1,70,0,0
29715,-83.3333333333333,4,1,1,70,0,0
34001,-62.5,4,1,1,70,0,0
34287,-83.3333333333333,4,1,1,70,0,0
38287,-71.4285714285714,4,1,1,70,0,0
38572,-62.5,4,1,1,70,0,0
38858,-83.3333333333333,4,1,1,70,0,0
39715,-62.5,4,1,1,70,0,0
40001,-83.3333333333333,4,1,1,70,0,0
40858,-62.5,4,1,1,70,0,0
41144,-83.3333333333333,4,1,1,70,0,0
42001,-62.5,4,1,1,70,0,0
42287,-83.3333333333333,4,1,1,70,0,0
43144,-100,4,1,1,70,0,0
43429,-83.3333333333333,4,1,1,70,0,0
44287,-125,4,1,1,70,0,0
44572,-83.3333333333333,4,1,1,70,0,0
45429,-100,4,1,1,70,0,0
45715,-83.3333333333333,4,1,1,70,0,0
48001,-83.3333333333333,4,2,1,70,0,0
49858,-125,4,2,1,70,0,0
50287,-66.6666666666667,4,2,1,70,0,0
51001,-55.5555555555556,4,2,1,70,0,0
51715,-66.6666666666667,4,2,1,70,0,0
52287,-166.666666666667,4,2,1,70,0,0
52572,-83.3333333333333,4,2,1,70,0,0
54572,-125,4,2,1,70,0,0
54858,-62.5,4,2,1,70,0,0
55572,-55.5555555555556,4,2,1,70,0,0
56001,-66.6666666666667,4,2,1,70,0,0
56715,-125,4,2,1,70,0,0
57144,-83.3333333333333,4,2,1,70,0,0
59001,-125,4,2,1,70,0,0
59429,-66.6666666666667,4,2,1,70,0,0
60144,-55.5555555555556,4,2,1,70,0,0
60858,-66.6666666666667,4,2,1,70,0,0
61429,-166.666666666667,4,2,1,70,0,0
61715,-76.9230769230769,4,2,1,70,0,0
62572,-100,4,2,1,70,0,0
62715,-90.9090909090909,4,2,1,70,0,0
62858,-76.9230769230769,4,2,1,70,0,0
64001,-66.6666666666667,4,2,1,70,0,0
64715,-52.6315789473684,4,2,1,70,0,0
65429,-76.9230769230769,4,2,1,70,0,0
66287,-83.3333333333333,4,2,1,80,0,1
68001,-100,4,2,1,80,0,1
68572,-83.3333333333333,4,2,1,80,0,1
72572,-100,4,2,1,80,0,1
73144,-83.3333333333333,4,2,1,80,0,1
75429,-76.9230769230769,4,2,1,85,0,1
76287,-62.5,4,2,1,85,0,1
76572,-76.9230769230769,4,2,1,85,0,1
77144,-100,4,2,1,85,0,1
77429,-66.6666666666667,4,2,1,85,0,1
77715,-76.9230769230769,4,2,1,85,0,1
78572,-62.5,4,2,1,85,0,1
78858,-71.4285714285714,4,2,1,85,0,1
80858,-58.8235294117647,4,2,1,85,0,1
81144,-66.6666666666667,4,2,1,85,0,1
81715,-90.9090909090909,4,2,1,85,0,1
82287,-62.5,4,2,1,85,0,1
83144,-52.6315789473684,4,2,1,85,0,1
83429,-58.8235294117647,4,2,1,85,0,1
84572,-188.679245283019,4,2,1,80,0,0
84715,-200,4,2,1,45,0,0
89001,-100,4,2,1,45,0,0
93144,-200,4,2,1,45,0,0
93715,-90.9090909090909,4,1,1,65,0,0
96572,-76.9230769230769,4,1,1,65,0,0
97429,-86.9565217391304,4,1,1,60,0,0
97715,-100,4,1,1,55,0,0
98001,-117.647058823529,4,1,1,50,0,0
98287,-76.9230769230769,4,1,1,65,0,0
99429,-71.4285714285714,4,1,1,70,0,0
100287,-66.6666666666667,4,1,1,70,0,0
100572,-62.5,4,1,1,80,0,0
100858,-55.5555555555556,4,1,1,80,0,0
101144,-50,4,1,1,80,0,0
101358,-76.9230769230769,4,1,1,80,0,0
101429,-71.4285714285714,4,1,1,80,0,0
101501,-66.6666666666667,4,1,1,80,0,0
101572,-62.5,4,1,1,80,0,0
101644,-58.8235294117647,4,1,1,80,0,0
101715,-333.3333333333,4,1,1,80,0,0
101787,-333.3333333333,4,1,1,35,0,0
102572,-52.6315789473684,4,1,1,80,0,0
102858,-58.8235294117647,4,2,1,80,0,0
103144,-50,4,2,1,80,0,0
103429,-41.6666666666667,4,2,1,80,0,0
104001,-76.9230769230769,4,2,1,80,0,0
104429,-62.5,4,2,1,80,0,0
105144,-66.6666666666667,4,2,1,80,0,0
105715,-55.5555555555556,4,2,1,80,0,0
106001,-62.5,4,2,1,80,0,0
106287,-76.9230769230769,4,2,1,80,0,0
106858,-90.9090909090909,4,2,1,80,0,0
107144,-111.111111111111,4,2,1,80,0,0
107429,-58.8235294117647,4,2,1,80,0,0
107715,-50,4,2,1,80,0,0
108001,-45.4545454545455,4,2,1,80,0,0
108287,-41.6666666666667,4,2,1,80,0,0
108572,-62.5,4,2,1,80,0,0
108787,-62.5,4,2,1,80,0,0
109144,-55.5555555555556,4,2,1,80,0,0
109429,-71.4285714285714,4,2,1,80,0,0
109715,-58.8235294117647,4,2,1,80,0,0
110287,-52.6315789473684,4,2,1,80,0,0
110572,-62.5,4,2,1,80,0,0
111429,-55.5555555555556,4,2,1,80,0,0
112715,-45.4545454545455,4,2,1,80,0,0
113144,-55.5555555555556,4,2,1,80,0,0
113358,-76.9230769230769,4,2,1,80,0,0
113715,-66.6666666666667,4,2,1,80,0,0
114287,-58.8235294117647,4,2,1,80,0,0
114858,-55.5555555555556,4,2,1,80,0,0
115429,-66.6666666666667,4,2,1,80,0,0
116001,-90.9090909090909,4,2,1,80,0,0
116287,-111.111111111111,4,2,1,80,0,0
116572,-58.8235294117647,4,2,1,80,0,0
117144,-41.6666666666667,4,2,1,80,0,0
117858,-71.4285714285714,4,2,1,80,0,0
118144,-66.6666666666667,4,2,1,80,0,0
118858,-62.5,4,2,1,80,0,0
119429,-47.6190476190476,4,2,1,80,0,0
119715,-62.5,4,2,1,80,0,0
120001,-83.3333333333333,4,2,1,80,0,0
121287,-58.8235294117647,4,2,1,80,0,0
121715,-52.6315789473684,4,2,1,80,0,0
122287,-76.9230769230769,4,2,1,80,0,0
122858,-62.5,4,2,1,80,0,0
123429,-58.8235294117647,4,2,1,80,0,0
124001,-50,4,2,1,80,0,0
124572,-58.8235294117647,4,2,1,80,0,0
125144,-66.6666666666667,4,2,1,80,0,0
125429,-100,4,2,1,80,0,0
125715,-55.5555555555556,4,2,1,80,0,0
126287,-50,4,2,1,80,0,0
126858,-76.9230769230769,4,2,1,80,0,0
127429,-55.5555555555556,4,2,1,80,0,0
127715,-71.4285714285714,4,2,1,80,0,0
128001,-55.5555555555556,4,2,1,80,0,0
129144,-58.8235294117647,4,2,1,80,0,0
129715,-55.5555555555556,4,2,1,80,0,0
130858,-52.6315789473684,4,2,1,80,0,0
131429,-76.9230769230769,4,2,1,80,0,0
132001,-58.8235294117647,4,2,1,80,0,0
133429,-50,4,2,1,80,0,0
133715,-58.8235294117647,4,2,1,80,0,0
134287,-66.6666666666667,4,2,1,80,0,0
134572,-100,4,2,1,80,0,0
134858,-58.8235294117647,4,2,1,80,0,0
135572,-50,4,2,1,80,0,0
136001,-58.8235294117647,4,2,1,80,0,0
144001,-76.9230769230769,4,2,0,5,0,0
148572,-76.9230769230769,4,2,1,50,0,0
152858,-76.9230769230769,4,2,0,5,0,0
153144,-100,4,1,1,20,0,0
154144,-83.3333333333333,4,1,1,30,0,0
154715,-66.6666666666667,4,1,1,30,0,0
155287,-62.5,4,1,1,30,0,0
155429,-100,4,1,1,40,0,0
156715,-250,4,2,0,80,0,0
157429,-50,4,1,2,80,0,0
157715,-66.6666666666667,4,2,1,80,0,1
158144,-83.3333333333333,4,2,1,80,0,1
160001,-66.6666666666667,4,2,1,80,0,1
160287,-83.3333333333333,4,2,1,80,0,1
165715,-66.6666666666667,4,2,1,80,0,1
166001,-83.3333333333333,4,2,1,80,0,1
176001,-166.666666666667,4,2,0,80,0,0
176287,-83.3333333333333,4,2,1,80,0,1
179715,-66.6666666666667,4,2,1,80,0,1
180001,-83.3333333333333,4,2,1,80,0,1
181715,-66.6666666666667,4,2,1,80,0,1
182001,-83.3333333333333,4,2,1,80,0,1
184429,-71.4285714285714,4,2,1,80,0,1
188644,-55.5555555555556,4,2,1,80,0,1
189358,-71.4285714285714,4,2,1,80,0,1
194287,-83.3333333333333,4,2,1,60,0,0
195429,-62.5,4,2,1,60,0,0
195572,-83.3333333333333,4,2,1,60,0,0
196287,-62.5,4,2,1,60,0,0
196429,-83.3333333333333,4,2,1,60,0,0
197715,-62.5,4,2,1,60,0,0
198858,-83.3333333333333,4,2,1,60,0,0
204572,-62.5,4,2,1,60,0,0
204715,-83.3333333333333,4,2,1,60,0,0
205429,-62.5,4,2,1,60,0,0
205572,-83.3333333333333,4,2,1,60,0,0
206858,-62.5,4,2,1,60,0,0
208001,-83.3333333333333,4,2,1,60,0,0
210572,-50,4,2,1,60,0,0
212572,-83.3333333333333,4,2,1,60,0,0
213715,-58.8235294117647,4,2,1,60,0,0
213858,-83.3333333333333,4,2,1,60,0,0
214572,-58.8235294117647,4,2,1,60,0,0
214715,-83.3333333333333,4,2,1,60,0,0
216001,-58.8235294117647,4,2,1,60,0,0
217144,-83.3333333333333,4,2,1,60,0,0
221715,-71.4285714285714,4,1,1,60,0,0
229715,-100,4,2,1,60,0,0
230001,-83.3333333333333,4,2,1,60,0,0
230287,-71.4285714285714,4,2,1,60,0,0
230572,-62.5,4,2,1,60,0,0
230858,-83.3333333333333,4,2,1,80,0,0
232001,-71.4285714285714,4,2,1,80,0,0
232429,-76.9230769230769,4,2,1,80,0,0
232858,-58.8235294117647,4,2,1,80,0,0
233144,-83.3333333333333,4,2,1,70,0,0
235144,-58.8235294117647,4,2,1,70,0,0
235429,-83.3333333333333,4,2,1,70,0,0
236144,-125,4,2,1,70,0,0
236572,-83.3333333333333,4,2,1,70,0,0
238858,-76.9230769230769,4,2,1,80,0,0
239715,-62.5,4,2,1,80,0,0
240001,-25,4,2,1,80,0,0

[Colours]
Combo1 : 135,84,231
Combo2 : 173,255,95
Combo3 : 53,128,238
Combo4 : 17,254,176

[HitObjects]
39,132,10287,6,0,L|42:155,4,24,0|0|0|0|0,0:2|0:0|0:0|0:0|0:0,0:0:0:0:
227,149,10572,1,0,0:0:0:0:
133,256,10715,6,0,L|136:279,4,24,0|0|0|0|0,0:2|0:0|0:0|0:0|0:0,0:0:0:0:
166,241,10929,1,0,0:0:0:0:
312,0,11144,5,0,0:0:0:0:
397,70,11287,2,0,L|409:40,2,24
312,106,11429,6,0,P|346:147|426:160,1,96,2|0,0:0|0:0,0:0:0:0:
405,163,11644,1,0,0:0:0:0:
424,160,11715,1,0,0:0:0:0:
293,323,11858,2,0,L|317:229,1,96,2|0,0:0|0:0,0:0:0:0:
397,70,12144,1,0,0:0:0:0:
221,136,12287,2,0,L|197:131,4,24
45,202,12572,5,2,0:0:0:0:
105,271,12715,2,0,L|96:311,2,24
186,224,12858,5,0,0:0:0:0:
293,323,13001,2,0,P|230:336|181:306,1,96,2|0,0:0|0:0,0:0:0:0:
183,303,13215,1,0,0:0:0:0:
172,278,13286,1,0,0:0:0:0:
173,249,13358,1,0,0:0:0:0:
186,224,13429,1,0,0:0:0:0:
326,181,13572,6,0,L|317:221,4,24,0|0|0|0|2,0:0|0:0|0:0|0:0|0:0,0:0:0:0:
359,39,13858,1,0,0:0:0:0:
466,137,14001,2,0,L|474:177,4,24,0|0|0|0|2,0:0|0:0|0:0|0:0|0:0,0:0:0:0:
494,4,14287,1,0,0:0:0:0:
311,29,14429,2,0,L|369:41,2,48
399,165,14715,5,0,0:0:0:0:
392,143,14786,1,0,0:0:0:0:
385,121,14858,1,2,0:0:0:0:
255,238,15001,2,0,L|242:279,4,24
355,366,15287,2,0,L|341:319,1,48,2|0,0:0|0:0,0:0:0:0:
320,180,15429,2,0,P|253:150|176:200,1,144
154,204,15715,6,0,L|167:250,1,48
268,284,15858,2,0,L|254:237,1,48
177,84,16001,5,2,0:0:0:0:
154,204,16144,2,0,P|102:184|68:138,1,96
342,56,16429,2,2,B|364:131|364:131|313:187,1,144,2|0,0:0|0:0,0:0:0:0:
248,189,16715,2,0,L|209:184,4,24
405,233,17000,1,0,0:0:0:0:
271,104,17144,5,2,0:0:0:0:
428,143,17287,2,0,L|430:110,4,24
315,258,17571,1,2,0:0:0:0:
271,104,17715,1,0,0:0:0:0:
255,122,17786,1,0,0:0:0:0:
246,144,17857,1,0,0:0:0:0:
243,168,17929,1,0,0:0:0:0:
248,189,18000,1,0,0:0:0:0:
98,250,18144,6,0,L|101:272,4,24,0|0|0|0|2,0:0|0:0|0:0|0:0|0:2,0:0:0:0:
6,205,18429,1,0,0:0:0:0:
92,147,18572,1,0,0:0:0:0:
293,317,18715,6,0,L|334:309,4,26.4000008056641,2|0|0|0|0,0:0|0:0|0:0|0:0|0:0,0:0:0:0:
209,198,19001,2,0,L|168:190,4,26.4000008056641
272,73,19287,1,0,0:0:0:0:
412,191,19429,6,0,B|479:142|455:64|455:64|416:84|417:142,1,216.000008239746,2|2,0:0|0:0,0:0:0:0:
310,210,20001,6,0,P|345:268|430:293,1,144
424,319,20287,2,0,P|334:292|286:182,1,201.599993847656
269,364,20572,5,4,1:0:0:0:
342,131,20715,2,0,B|286:107|286:107|217:133,1,115.199996484375,2|0,0:0|0:0,0:0:0:0:
398,72,21001,2,0,B|288:26|288:26|159:70,1,230.39999296875,4|0,1:2|0:0,0:0:0:0:
106,41,21358,1,0,0:0:0:0:
129,58,21429,1,0,0:0:0:0:
149,86,21501,1,0,0:0:0:0:
161,125,21572,1,0,0:0:0:0:
156,171,21644,1,0,0:0:0:0:
129,215,21715,6,0,B|96:262|54:253|54:253|76:243|91:229,1,115.199996484375,4|2,1:0|0:0,0:0:0:0:
62,134,22001,1,0,0:0:0:0:
223,252,22144,2,0,B|199:318|144:342|102:331|102:331|140:319|169:291,1,230.39999296875,4|0,1:2|0:0,0:0:0:0:
315,103,22572,6,0,B|431:119|431:119|386:152,1,153.6,2|0,0:1|0:0,0:0:0:0:
322,230,22858,5,4,1:0:0:0:
239,144,23001,2,0,P|231:83|275:24,1,115.199996484375,2|0,0:0|0:0,0:0:0:0:
398,189,23287,2,0,P|406:244|380:295,1,115.199996484375,4|0,1:2|0:0,0:0:0:0:
359,374,23501,1,0,0:0:0:0:
356,345,23572,1,0,0:0:0:0:
343,313,23644,1,0,0:0:0:0:
318,282,23715,1,0,0:0:0:0:
278,259,23787,1,0,0:0:0:0:
227,252,23858,2,0,P|234:295|255:333,1,57.5999982421876
139,192,24001,6,0,B|161:165|161:165|238:143,1,115.199996484375,4|2,1:0|0:0,0:0:0:0:
322,230,24287,1,0,0:0:0:0:
318,56,24429,2,0,B|286:42|286:42|207:63,1,115.199996484375,4|0,1:2|0:3,0:3:0:0:
75,94,24715,1,0,0:0:0:0:
38,214,24858,6,0,B|59:233|109:242|148:216|148:216|131:206|112:205,1,153.6,2|0,0:1|0:0,0:0:0:0:
170,376,25144,5,4,1:0:0:0:
279,336,25287,1,2,0:2:0:0:
52,333,25429,1,8,0:0:0:0:
113,206,25572,2,0,P|179:227|241:194,1,120,4|2,1:2|0:2,0:0:0:0:
151,62,25858,6,0,P|157:102|175:58,1,115.199996484375,8|2,1:2|0:2,0:0:0:0:
173,260,26287,6,0,L|169:375,1,115.199996484375,4|2,1:0|0:0,0:0:0:0:
293,92,26572,1,8,0:0:0:0:
315,210,26715,2,0,P|368:272|484:258,1,172.799994726563,6|0,2:2|0:0,0:0:0:0:
454,275,27001,1,8,0:0:0:0:
466,47,27144,5,0,1:0:0:0:
453,79,27215,1,0,1:0:0:0:
440,111,27287,1,0,1:0:0:0:
427,143,27358,1,0,1:0:0:0:
414,175,27429,6,0,L|498:150,3,57.5999982421876,4|0|2|0,1:0|2:2|2:0|2:0,1:0:0:0:
312,105,27715,2,0,L|314:17,1,57.5999982421876,8|0,2:2|2:2,1:0:0:0:
255,296,27858,6,0,L|201:365,3,57.5999982421876,4|0|2|0,1:2|2:2|2:0|2:0,1:0:0:0:
214,179,28144,2,0,L|131:149,1,57.5999982421876,8|0,0:2|2:2,1:0:0:0:
378,293,28287,5,0,1:0:0:0:
386,304,28358,1,0,1:0:0:0:
394,316,28429,1,0,1:0:0:0:
402,327,28500,1,0,1:0:0:0:
409,338,28572,6,0,B|329:317|329:317|272:361|272:361|254:296|254:296|173:273|173:273|194:253|194:253|151:236|131:216|118:151|157:112|201:96|201:96|241:144|202:203,1,633.599998066406,4|0,1:0|0:0,0:0:0:0:
348,88,29429,6,0,L|311:237,1,153.6,2|0,1:1|0:0,0:0:0:0:
77,346,29715,5,0,0:0:0:0:
118,119,29858,1,0,0:0:0:0:
173,273,30001,1,0,0:0:0:0:
13,244,30144,1,0,0:0:0:0:
208,89,30287,5,0,0:0:0:0:
102,213,30429,1,0,0:0:0:0:
47,59,30572,1,0,0:0:0:0:
235,168,30715,1,0,0:3:0:0:
179,11,30858,5,0,0:0:0:0:
155,151,31001,1,0,0:0:0:0:
341,40,31144,1,0,0:0:0:0:
208,89,31287,1,0,0:0:0:0:
304,263,31429,5,0,0:0:0:0:
288,104,31572,1,0,0:0:0:0:
182,232,31715,1,0,0:0:0:0:
395,196,31859,1,0,0:0:0:0:
412,200,31930,1,0,0:0:0:0:
430,203,32001,5,0,0:0:0:0:
291,347,32144,1,0,0:0:0:0:
317,181,32287,1,0,0:0:0:0:
408,340,32429,2,0,L|555:360,1,115.199996484375
201,188,32715,2,0,L|316:180,1,115.199996484375
291,347,33000,1,0,0:0:0:0:
251,85,33144,5,0,0:0:0:0:
251,85,33215,1,0,0:0:0:0:
251,85,33287,1,0,0:0:0:0:
95,196,33429,1,0,0:0:0:0:
128,34,33572,5,0,0:0:0:0:
128,34,33644,1,0,0:0:0:0:
128,34,33715,1,0,0:0:0:0:
201,188,33858,1,0,0:0:0:0:
365,55,34001,6,0,P|451:70|504:149,1,153.6,2|2,0:0|2:2,0:0:0:0:
390,377,34287,5,0,0:0:0:0:
385,178,34429,1,0,0:0:0:0:
298,323,34572,1,0,0:0:0:0:
470,315,34715,1,0,0:0:0:0:
141,255,34858,5,0,0:0:0:0:
298,323,35001,1,0,0:0:0:0:
281,161,35144,1,0,0:0:0:0:
199,343,35287,1,0,0:0:0:0:
164,138,35429,5,0,0:0:0:0:
243,248,35572,1,0,0:0:0:0:
47,115,35715,1,0,0:0:0:0:
187,21,35858,1,0,0:0:0:0:
131,287,36001,5,0,0:0:0:0:
164,138,36144,1,0,0:0:0:0:
199,343,36287,1,0,0:0:0:0:
63,231,36429,1,0,0:0:0:0:
46,234,36500,1,0,0:0:0:0:
29,237,36572,5,0,0:0:0:0:
118,374,36715,1,0,0:0:0:0:
164,138,36858,1,0,0:0:0:0:
63,231,37001,2,0,P|124:273|200:265,1,115.199996484375
266,46,37287,2,0,P|221:9|165:1,1,115.199996484375
164,138,37572,1,0,0:0:0:0:
426,34,37715,5,0,0:0:0:0:
266,46,37858,2,0,B|328:40|328:40|343:23|343:23|361:38|361:38|425:33,1,172.799994726563
351,129,38144,2,0,L|353:158,2,28.7999991210938
351,113,38287,6,0,L|441:104,1,67.1999979492188
359,227,38429,2,0,L|269:236,1,67.1999979492188
266,46,38572,6,0,B|373:34|373:34|307:4,1,153.6,2|0,1:1|2:0,0:0:0:0:
38,10,38858,5,4,0:0:0:0:
123,178,39001,1,0,0:0:0:0:
173,6,39144,1,0,0:0:0:0:
12,130,39287,1,0,0:0:0:0:
266,46,39429,5,0,0:0:0:0:
109,65,39572,1,0,0:0:0:0:
200,188,39715,2,0,B|249:217|308:197|308:197|296:176|277:170,1,153.6,2|0,0:0|0:0,0:0:0:0:
73,350,40001,5,0,0:0:0:0:
123,178,40144,1,0,0:0:0:0:
208,346,40287,1,0,0:0:0:0:
59,237,40429,1,0,0:0:0:0:
344,226,40572,5,0,0:0:0:0:
166,262,40715,1,0,0:0:0:0:
282,156,40858,2,0,B|336:140|388:175|388:175|371:192|351:193,1,153.6,2|0,0:0|0:0,0:0:0:0:
347,212,41072,1,0,0:0:0:0:
344,226,41144,5,0,0:0:0:0:
371,24,41287,1,0,0:0:0:0:
220,86,41429,1,0,0:0:0:0:
433,94,41572,1,0,0:0:0:0:
269,0,41715,5,0,0:0:0:0:
344,226,41858,1,0,0:0:0:0:
346,65,42001,2,0,B|337:17|270:0|270:0|296:18|305:33,1,153.6,2|0,0:0|0:0,0:0:0:0:
378,330,42287,5,0,0:0:0:0:
378,330,42358,1,0,0:0:0:0:
378,330,42429,1,0,0:0:0:0:
236,203,42572,1,0,0:0:0:0:
218,369,42715,5,0,0:0:0:0:
218,369,42786,1,0,0:0:0:0:
218,369,42857,1,0,0:0:0:0:
344,226,43001,1,0,0:0:0:0:
130,237,43144,6,0,B|93:250|93:250|59:235|59:235|20:246|20:246|-25:224,1,144,0|0,0:0|2:0,0:0:0:0:
54,319,43429,5,4,0:0:0:0:
62,160,43572,1,0,0:0:0:0:
243,267,43715,1,0,0:0:0:0:
130,237,43858,1,0,0:0:0:0:
251,108,44001,1,0,0:0:0:0:
207,189,44144,1,0,0:0:0:0:
325,112,44287,6,0,B|289:93|251:108|251:108|275:123|308:119,1,115.2,0|0,2:0|2:0,2:0:0:0:
433,143,44572,5,4,0:0:0:0:
297,2,44715,1,0,0:0:0:0:
234,202,44858,1,0,0:0:0:0:
325,112,45001,1,0,0:0:0:0:
126,171,45144,1,0,0:0:0:0:
262,312,45287,1,0,0:0:0:0:
71,359,45429,6,0,L|64:384,6,24,0|0|0|0|0|0|2,2:0|2:0|2:0|2:0|2:0|2:0|2:0,2:0:0:0:
173,361,45715,5,0,0:0:0:0:
126,171,45858,1,0,0:0:0:0:
332,224,46001,5,0,0:0:0:0:
107,189,46144,1,0,0:0:0:0:
360,44,46287,6,0,B|378:38|386:25|386:25|339:11|301:37,1,115.199996484375,2|0,2:0|2:0,2:0:0:0:
81,192,46572,2,0,B|62:197|54:210|54:210|101:224|139:198,1,115.199996484375,2|0,2:0|2:0,2:0:0:0:
188,15,46858,5,0,0:0:0:0:
188,49,46929,1,0,0:0:0:0:
197,82,47000,1,0,0:0:0:0:
215,112,47072,1,0,0:0:0:0:
235,139,47143,1,0,0:0:0:0:
251,170,47215,1,0,0:0:0:0:
255,204,47286,1,0,0:0:0:0:
249,238,47358,1,0,0:0:0:0:
230,265,47429,6,0,L|265:284,6,28.7999991210938,0|0|0|0|0|0|0,1:0|1:0|1:0|1:0|1:0|1:0|1:0,1:0:0:0:
136,180,47715,6,0,L|157:203,1,28.7999991210938,2|0,0:2|0:0,0:0:0:0:
112,206,47787,2,0,L|149:226,1,28.7999991210938
101,239,47858,2,0,L|137:243,1,28.7999991210938
104,275,47929,2,0,L|139:262,1,28.7999991210938
118,308,48001,6,0,B|57:308|17:364|17:364|45:300|4:217,1,230.39999296875,4|0,1:0|1:0,0:0:0:0:
136,180,48429,1,2,0:0:0:0:
217,360,48572,1,0,1:0:0:0:
208,247,48715,2,0,P|154:264|117:307,2,115.199996484375,2|0|0,0:0|1:0|0:0,0:0:0:0:
279,42,49144,6,0,B|319:82|316:142|316:142|344:121|340:82,1,172.799994726563,0|0,1:0|0:0,0:0:0:0:
349,8,49429,1,0,1:0:0:0:
95,82,49572,2,0,P|139:118|195:130,1,115.199996484375,2|0,0:0|1:0,0:0:0:0:
379,83,49858,6,0,B|375:131|316:141|316:141|340:115|340:87,1,153.6,2|0,0:0|0:0,0:0:0:0:
322,302,50287,6,0,B|354:285|354:285|213:260|213:260|238:287,1,216.000008239746,2|0,1:0|0:0,0:0:0:0:
270,358,50572,1,0,1:0:0:0:
338,237,50715,5,2,2:1:0:0:
289,229,50786,1,0,0:0:0:0:
241,222,50857,1,0,1:0:0:0:
341,161,51001,6,0,B|375:198|375:198|214:170|214:170|255:149,1,259.199992089844,2|0,2:1|0:0,0:0:0:0:
309,94,51287,1,0,0:0:0:0:
415,226,51429,5,0,1:0:0:0:
171,189,51572,1,0,0:0:0:0:
427,156,51715,6,0,P|426:191|414:225,2,72.0000027465821,2|0|0,1:0|0:0|0:0,0:0:0:0:
173,119,52001,2,0,P|163:153|170:188,2,72.0000027465821,2|0|0,1:0|0:0|0:0,0:0:0:0:
319,61,52287,6,0,B|322:79|309:93|309:93|300:67|275:37,1,86.3999973632813,4|0,1:2|0:0,0:0:0:0:
283,48,52572,6,0,L|421:18,1,115.199996484375,0|0,1:0|0:0,0:0:0:0:
512,92,52858,1,0,1:0:0:0:
485,0,53001,1,2,0:0:0:0:
455,197,53144,1,0,1:0:0:0:
325,133,53287,2,0,L|438:108,2,115.199996484375,0|0|0,2:0|1:0|2:0,2:0:0:0:
143,308,53715,6,0,P|100:271|100:215,1,115.199996484375,0|2,1:0|0:0,0:0:0:0:
290,209,54001,2,0,B|280:186|280:186|250:176,3,57.5999982421876,0|0|0|0,1:0|0:0|0:0|0:0,0:0:0:0:
372,206,54287,6,0,P|339:278|234:265,1,172.799994726563,0|0,1:0|0:0,0:0:0:0:
218,191,54572,6,0,P|252:144|316:138,1,115.2,0|0,1:0|0:0,0:0:0:0:
207,74,54858,6,0,B|290:208|290:208|218:190,1,230.4,2|0,1:0|0:0,0:0:0:0:
159,141,55144,1,0,1:0:0:0:
285,292,55287,5,2,2:1:0:0:
237,279,55358,1,0,0:0:0:0:
189,266,55429,1,0,1:1:0:0:
342,91,55572,6,0,B|439:248|439:248|367:230,1,259.199992089844,2|0,2:1|0:0,0:0:0:0:
308,181,55858,1,0,0:0:0:0:
488,23,56001,6,0,L|469:96,1,72.0000027465821,0|0,1:0|0:0,0:0:0:0:
470,30,56144,2,0,L|451:103,1,72.0000027465821,0|0,2:0|0:0,0:0:0:0:
181,83,56287,6,0,B|195:144|263:168|320:155|341:92|341:92|316:119|276:120,1,288.000010986329,8|0,1:2|1:0,0:0:0:0:
512,193,56715,6,0,P|459:253|354:212,1,192,8|0,2:0|0:0,0:0:0:0:
429,171,57144,6,0,B|457:353,1,172.799994726563,4|0,2:1|2:1,2:1:0:0:
483,323,57429,1,0,1:0:0:0:
219,268,57572,1,2,0:0:0:0:
219,268,57644,1,0,0:0:0:0:
219,268,57715,1,0,1:0:0:0:
335,349,57858,2,0,B|368:307|368:307|358:246,2,115.199996484375,2|0|0,0:0|1:0|0:0,0:0:0:0:
229,106,58287,6,0,B|268:74|268:74|231:215,1,172.799994726563,0|0,1:0|0:0,0:0:0:0:
219,268,58572,1,0,1:0:0:0:
160,41,58715,2,0,B|70:114,1,115.199996484375,2|0,2:0|1:0,0:0:0:0:
99,302,59001,6,0,B|119:227|119:227|56:278,1,153.6,2|0,0:0|0:0,0:0:0:0:
421,244,59429,6,0,B|474:245|480:203|429:176|371:205|400:219|345:254|285:221,1,216.000008239746,2|0,1:0|0:0,0:0:0:0:
227,206,59715,1,0,1:0:0:0:
333,49,59858,5,2,2:1:0:0:
332,98,59929,1,0,0:0:0:0:
330,146,60000,1,0,1:1:0:0:
120,118,60144,6,0,B|58:97|38:171|115:194|177:162|132:134|210:97|264:124,1,259.199992089844,2|0,2:1|0:0,0:0:0:0:
330,146,60429,1,0,2:0:0:0:
124,266,60572,5,0,1:0:0:0:
176,32,60715,1,0,0:0:0:0:
314,216,60858,6,0,L|336:117,2,72.0000027465821,2|0|0,1:0|2:0|2:0,2:0:0:0:
24,87,61144,2,0,L|2:186,2,72.0000027465821,2|0|0,1:0|2:0|2:0,2:0:0:0:
201,345,61429,6,0,P|171:352|134:374,1,57.5999982421876,0|2,1:0|0:0,0:0:0:0:
322,48,61715,6,0,P|335:83|361:112,1,62.3999971435548,0|0,1:1|0:1,0:1:0:0:
463,160,61858,1,0,1:1:0:0:
463,9,62001,1,0,1:1:0:0:
451,24,62072,1,0,0:1:0:0:
441,39,62144,6,0,L|354:157,1,124.79999428711,2|0,2:2|1:1,0:1:0:0:
370,180,62358,1,0,0:0:0:0:
353,160,62429,1,0,0:0:0:0:
324,151,62501,1,0,0:0:0:0:
289,157,62572,2,0,P|255:175|234:209,1,48,0|0,1:0|0:0,0:0:0:0:
139,159,62715,2,0,P|138:199|154:237,1,52.8000016113282,0|0,2:0|0:0,0:0:0:0:
90,375,62858,6,0,P|194:348|217:271,1,187.199991430664,0|0,1:0|0:0,0:0:0:0:
124,286,63144,2,0,L|55:293,1,62.3999971435548,0|0,1:0|0:0,0:0:0:0:
302,228,63287,5,2,0:0:0:0:
413,347,63429,2,0,B|326:322|326:322|302:228,1,187.199991430664,0|0,1:0|0:0,0:0:0:0:
310,197,63715,1,0,1:0:0:0:
336,165,63787,1,0,0:0:0:0:
384,149,63858,1,0,0:0:0:0:
436,163,63929,1,0,0:0:0:0:
492,221,64001,6,0,B|441:219|394:259|394:259|438:217|436:162,1,216.000008239746,2|0,1:0|0:0,0:0:0:0:
426,89,64287,1,0,1:0:0:0:
310,197,64429,5,2,0:1:0:0:
264,241,64501,1,0,0:0:0:0:
218,285,64572,1,0,1:0:0:0:
119,191,64715,6,0,B|178:213|245:157|245:157|196:228|218:285,1,273.599992694092,2|0,2:1|0:0,0:0:0:0:
139,272,65001,1,0,2:0:0:0:
136,30,65144,6,0,B|153:18|153:18|158:88,1,91.1999975646973,2|0,1:0|2:0,0:0:0:0:
119,191,65287,2,0,B|102:203|102:203|97:133,1,91.1999975646973,0|0,1:0|2:0,0:0:0:0:
245,157,65429,1,2,1:2:0:0:
245,157,65572,6,0,L|253:250,1,62.3999971435548,2|0,1:0|0:0,0:0:0:0:
243,362,65715,5,0,1:0:0:0:
229,345,65787,1,0,1:0:0:0:
201,362,65857,5,0,1:0:0:0:
203,342,65930,1,0,1:0:0:0:
165,344,66000,5,0,1:0:0:0:
180,330,66073,1,0,1:0:0:0:
140,313,66143,5,0,1:0:0:0:
162,312,66215,1,0,1:0:0:0:
139,272,66287,5,6,1:0:0:0:
240,192,66429,1,0,0:0:0:0:
249,186,66501,1,0,0:0:0:0:
258,180,66572,2,0,P|259:213|244:260,1,57.5999982421876,2|0,1:2|0:0,0:0:0:0:
60,354,66715,6,0,P|21:294|29:213,1,115.199996484375,2|0,0:1|1:0,0:0:0:0:
22,231,66929,1,0,0:0:0:0:
33,202,67001,1,2,0:0:0:0:
65,178,67072,1,0,0:0:0:0:
112,169,67144,1,2,1:2:0:0:
152,136,67215,1,0,0:0:0:0:
169,80,67287,1,2,0:0:0:0:
142,20,67358,1,0,0:0:0:0:
73,7,67429,6,0,B|112:60|179:54|179:54|130:21|121:-27,1,172.799994726563,2|0,1:0|0:0,0:0:0:0:
271,33,67715,2,0,P|273:69|264:99,1,57.5999982421876,2|0,1:2|0:0,0:0:0:0:
190,217,67858,1,2,0:1:0:0:
340,220,68001,6,0,L|408:230,1,48,0|0,1:0|0:0,0:0:0:0:
209,307,68144,2,0,L|141:317,1,48,2|0,2:2|0:0,0:0:0:0:
468,193,68287,5,0,1:0:0:0:
473,238,68357,1,2,0:0:0:0:
455,281,68429,2,0,L|445:349,1,48,2|2,2:0|0:0,0:0:0:0:
264,157,68572,5,2,1:0:0:0:
315,293,68715,1,0,0:0:0:0:
319,301,68787,1,0,0:0:0:0:
323,309,68858,2,0,L|315:251,1,57.5999982421876,2|0,1:2|0:0,0:0:0:0:
473,91,69001,6,0,P|423:64|366:64,1,115.199996484375,2|0,0:1|1:0,0:0:0:0:
384,153,69215,1,0,0:0:0:0:
395,169,69287,2,0,L|387:227,1,57.5999982421876,2|0,2:2|0:0,0:0:0:0:
275,138,69429,2,0,L|267:80,1,57.5999982421876,2|0,1:2|0:0,0:0:0:0:
200,232,69572,1,2,0:2:0:0:
130,242,69643,1,0,0:2:0:0:
62,255,69715,6,0,B|32:227|32:227|190:201,1,172.799994726563,2|0,1:1|0:1,0:1:0:0:
200,232,70001,1,2,1:2:0:0:
210,302,70072,1,0,2:2:0:0:
223,370,70144,1,2,0:1:0:0:
275,138,70287,5,0,1:0:0:0:
140,312,70429,1,0,1:0:0:0:
75,143,70572,1,2,1:2:0:0:
85,101,70644,1,2,0:0:0:0:
119,75,70715,2,0,P|156:71|196:88,1,57.5999982421876,2|2,0:0|0:0,0:0:0:0:
313,247,70858,5,2,1:0:0:0:
337,38,71001,1,2,1:2:0:0:
509,167,71144,1,2,1:2:0:0:
373,138,71287,1,2,1:1:0:0:
386,298,71429,6,0,B|343:333|343:333|284:326,1,115.199996484375,0|2,1:0|0:0,0:0:0:0:
265,317,71644,1,0,0:0:0:0:
241,298,71715,1,2,1:2:0:0:
229,258,71787,1,0,0:0:0:0:
237,208,71858,1,2,0:2:0:0:
280,168,71929,1,0,0:0:0:0:
354,171,72001,5,2,1:0:0:0:
337,38,72144,1,0,0:0:0:0:
334,46,72215,1,0,0:0:0:0:
331,54,72287,2,0,L|237:56,1,57.5999982421876,2|0,1:2|0:0,0:0:0:0:
102,86,72429,1,2,0:1:0:0:
154,184,72572,5,0,1:0:0:0:
121,195,72644,1,0,0:0:0:0:
86,194,72715,2,0,P|55:185|20:158,1,48,2|0,0:0|0:0,0:0:0:0:
188,76,72858,5,2,1:2:0:0:
187,118,72929,1,2,2:2:0:0:
186,160,73001,1,2,2:2:0:0:
185,202,73072,1,2,2:2:0:0:
186,273,73144,6,0,B|189:343|134:373|134:373|151:339|139:290,1,172.799994726563,2|0,1:1|0:1,0:1:0:0:
12,357,73429,2,0,P|35:339|63:332,1,57.5999982421876,2|0,1:2|0:0,0:0:0:0:
266,371,73572,1,2,0:1:0:0:
263,180,73715,5,0,1:0:0:0:
270,198,73787,1,0,0:0:0:0:
288,211,73858,1,2,0:0:0:0:
316,210,73929,1,0,0:0:0:0:
344,187,74001,1,2,1:2:0:0:
390,181,74072,1,0,0:0:0:0:
439,207,74144,1,2,0:0:0:0:
460,264,74215,1,0,0:0:0:0:
433,332,74287,6,0,B|452:359|490:361|490:361|445:316|460:264,1,172.799994726563,2|0,1:0|0:0,0:0:0:0:
464,76,74572,1,2,1:2:0:0:
406,113,74643,1,0,0:0:0:0:
390,181,74715,1,2,0:1:0:0:
356,370,74858,5,2,1:2:0:0:
263,180,75001,1,2,1:2:0:0:
373,276,75144,1,2,1:2:0:0:
189,342,75287,1,2,1:2:0:0:
246,86,75429,6,0,L|385:100,1,124.79999428711,6|2,1:0|2:2,0:0:0:0:
464,76,75644,1,0,2:0:0:0:
488,79,75715,2,0,P|479:53|443:15,1,62.3999971435548,10|0,1:2|0:0,0:0:0:0:
288,8,75858,1,2,2:1:0:0:
263,180,76001,5,0,1:0:0:0:
265,195,76072,1,0,0:0:0:0:
268,210,76143,1,2,0:2:0:0:
270,226,76215,1,0,0:0:0:0:
278,260,76287,6,0,B|241:250|241:250|195:264,1,76.8,10|0,1:2|0:0,0:0:0:0:
41,334,76429,2,0,B|78:344|78:344|124:330,1,76.8,2|0,2:2|0:0,0:0:0:0:
127,101,76572,6,0,B|71:77|71:77|-3:101,1,124.79999428711,2|2,1:0|0:0,0:0:0:0:
69,172,76787,1,0,0:0:0:0:
85,191,76858,2,0,L|77:258,1,62.3999971435548,8|0,1:2|0:0,0:0:0:0:
242,342,77001,1,2,0:1:0:0:
408,170,77144,6,0,L|360:174,1,48,0|0,1:2|0:0,0:0:0:0:
325,256,77287,2,2,L|277:259,1,48,2|0,0:0|0:0,0:0:0:0:
245,82,77429,5,8,1:2:0:0:
316,75,77500,1,2,0:0:0:0:
388,68,77571,1,2,0:0:0:0:
460,62,77643,1,2,0:0:0:0:
512,119,77715,6,0,P|463:153|459:231,1,124.79999428711,2|2,1:0|0:0,0:0:0:0:
491,295,77929,1,0,0:0:0:0:
475,317,78001,2,0,P|434:318|393:301,1,62.3999971435548,8|0,1:2|0:0,0:0:0:0:
324,171,78144,1,2,0:1:0:0:
233,298,78287,5,0,1:0:0:0:
236,312,78358,1,0,0:0:0:0:
239,327,78429,1,2,0:2:0:0:
242,342,78501,1,0,0:0:0:0:
249,373,78572,6,0,B|279:384|279:384|265:315,1,76.8,8|0,1:2|0:0,0:0:0:0:
171,212,78715,2,0,B|141:201|141:201|155:270,1,76.8,2|0,2:2|0:0,0:0:0:0:
246,10,78858,6,0,B|339:45|339:45|297:54,1,134.399995898438,2|0,1:0|0:0,0:0:0:0:
116,63,79072,1,0,2:0:0:0:
93,51,79144,2,0,L|105:117,1,67.1999979492188,10|0,1:2|0:0,0:0:0:0:
324,171,79287,1,2,2:1:0:0:
131,366,79429,5,2,1:2:0:0:
171,212,79572,1,2,1:2:0:0:
334,316,79715,5,10,1:2:0:0:
404,312,79786,1,2,0:0:0:0:
458,265,79857,1,2,0:0:0:0:
472,196,79929,1,2,0:0:0:0:
429,134,80001,5,2,1:0:0:0:
324,29,80144,1,0,1:2:0:0:
369,219,80287,1,8,1:2:0:0:
316,130,80429,1,2,1:1:0:0:
261,253,80572,5,0,1:0:0:0:
249,262,80643,1,0,0:0:0:0:
238,271,80714,1,2,0:2:0:0:
227,280,80786,1,0,0:0:0:0:
209,298,80858,6,0,B|231:295|254:301|254:301|242:281|227:280,1,81.6000015563965,8|0,1:2|0:0,0:0:0:0:
62,344,81001,2,0,B|39:346|16:340|16:340|28:360|43:361,1,81.6000015563965,2|0,2:2|0:0,0:0:0:0:
17,168,81144,6,0,B|45:204|47:252|47:252|72:222|59:186,1,144.000005493164,2|2,1:0|0:0,0:0:0:0:
133,82,81358,1,0,0:0:0:0:
113,69,81429,2,0,P|146:50|198:48,1,72.0000027465821,8|0,1:2|0:0,0:0:0:0:
399,138,81572,1,2,1:0:0:0:
292,251,81715,6,0,L|287:323,1,52.8000016113282,0|0,1:2|0:0,0:0:0:0:
180,220,81858,2,0,L|173:151,1,52.8000016113282,2|0,0:0|0:0,0:0:0:0:
310,29,82001,5,8,1:2:0:0:
304,103,82073,1,2,0:0:0:0:
298,177,82144,1,2,0:0:0:0:
292,251,82215,1,2,0:0:0:0:
286,329,82287,6,0,B|312:365|312:365|317:244,1,153.6,2|0,1:1|2:0,2:0:0:0:
471,359,82501,1,0,0:0:0:0:
485,376,82572,2,0,L|385:353,1,76.8,8|0,1:2|0:0,0:0:0:0:
506,170,82715,1,2,2:1:0:0:
362,248,82858,5,0,1:0:0:0:
346,250,82929,1,0,0:0:0:0:
331,252,83000,1,2,0:2:0:0:
316,255,83072,1,0,0:0:0:0:
279,274,83144,6,0,B|290:300|290:300|286:329|286:329|276:302|276:302|279:273,1,91.1999975646973,8|0,1:2|0:0,0:0:0:0:
385,70,83287,2,0,B|374:44|374:44|378:15|378:15|388:42|388:42|385:71,1,91.1999975646973,2|0,2:2|0:0,0:0:0:0:
162,146,83429,6,0,L|-13:205,1,163.200003112793,2|2,1:1|0:0,0:0:0:0:
51,71,83644,1,0,0:0:0:0:
59,94,83715,1,8,1:2:0:0:
76,268,83858,2,0,L|167:238,1,81.6000015563965,2|0,0:1|0:0,0:0:0:0:
385,70,84001,5,2,1:2:0:0:
349,264,84144,1,2,1:2:0:0:
253,43,84287,1,2,1:2:0:0:
511,86,84429,1,2,1:2:0:0:
186,279,84572,6,0,B|132:284|96:236|96:236|108:291|162:330|223:312|206:283|260:259|315:287|315:287|322:212|256:160|178:182|178:182|246:139|246:139|311:164|375:120|375:120|428:113|443:39|396:22|404:-4|404:-4|396:22|338:21|324:98|375:120|375:120|416:185|490:176|490:176|536:210|528:280|472:286|466:319|466:319|472:286|428:266|431:209|466:187,1,1526.4000023291,4|0,1:1|0:1,0:1:0:0:
369,348,89001,2,0,L|409:354,4,24,0|0|0|0|2,0:0|0:0|0:0|0:0|0:0,0:0:0:0:
418,44,93144,6,0,B|428:124|428:124|432:110|432:110|442:187,1,168
485,259,93715,6,0,L|402:271,1,52.8000016113282,4|0,1:1|2:2,0:0:0:0:
245,324,94001,2,0,L|298:332,1,52.8000016113282,0|0,0:0|2:2,0:0:0:0:
384,133,94287,6,0,L|372:210,1,52.8000016113282,0|0,0:0|2:0,0:0:0:0:
340,255,94429,1,0,0:0:0:0:
388,355,94572,2,0,L|390:328,4,26.4000008056641,0|0|0|0|0,1:0|2:0|2:0|2:0|2:0,2:0:0:0:
128,133,94858,6,0,L|140:210,1,52.8000016113282,0|0,0:0|2:0,0:0:0:0:
8,319,95144,2,0,L|20:242,1,52.8000016113282,0|0,0:0|2:0,0:0:0:0:
219,340,95429,6,0,L|158:355,1,52.8000016113282,0|0,0:0|2:0,0:0:0:0:
88,336,95572,1,0,1:0:0:0:
212,255,95715,2,0,L|259:242,4,26.4000008056641,0|0|0|0|0,1:0|2:0|2:0|2:0|2:0,0:0:0:0:
128,133,96001,6,0,L|76:119,1,52.8000016113282,0|0,0:0|2:0,0:0:0:0:
279,123,96287,2,0,L|330:109,1,52.8000016113282,0|0,0:0|2:0,0:0:0:0:
405,89,96430,1,0,1:0:0:0:
351,213,96572,6,0,L|356:256,4,31.1999985717774,0|0|0|0|0,1:0|2:0|2:0|2:0|2:0,2:0:0:0:
462,297,96858,2,0,L|457:340,4,31.1999985717774,0|0|0|0|0,1:0|2:0|2:0|2:0|2:0,2:0:0:0:
244,332,97144,6,0,L|343:352,1,62.3999971435548,0|0,0:0|2:0,0:0:0:0:
208,244,97429,6,0,L|264:255,1,55.2000010528565,0|0,0:0|2:0,0:0:0:0:
172,156,97715,6,0,L|226:166,1,48,0|0,0:0|2:0,0:0:0:0:
136,68,98001,6,0,L|95:61,1,40.8000007781983,2|0,0:3|2:0,0:0:0:0:
244,332,98287,6,0,L|343:352,1,62.3999971435548,4|0,1:0|2:0,0:0:0:0:
313,248,98429,2,0,L|412:228,1,62.3999971435548,0|0,0:0|2:0,0:0:0:0:
474,225,98572,6,0,P|471:267|459:291,1,62.3999971435548,0|0,1:0|2:0,0:0:0:0:
405,384,98715,2,0,P|394:354|393:323,1,62.3999971435548,0|0,1:0|2:0,0:0:0:0:
385,64,98858,6,0,P|386:32|392:2,1,62.3999971435548,0|0,0:0|2:0,0:0:0:0:
290,84,99001,2,0,P|275:56|258:30,1,62.3999971435548,0|0,0:0|2:0,0:0:0:0:
455,127,99144,6,0,P|474:90|510:68,1,62.3999971435548,0|0,0:0|2:0,0:0:0:0:
263,175,99287,2,0,P|230:150|188:144,1,62.3999971435548,0|0,0:0|2:0,0:0:0:0:
401,295,99429,6,0,L|425:380,1,67.1999979492188,4|0,0:3|2:0,0:0:0:0:
244,332,99572,2,0,L|268:247,1,67.1999979492188,0|0,0:0|2:0,0:0:0:0:
361,155,99715,2,0,L|379:219,1,67.1999979492188,0|0,0:0|2:0,0:0:0:0:
129,168,99858,6,0,P|128:122|148:79,1,67.1999979492188,4|0,0:3|2:0,0:0:0:0:
295,18,100001,2,0,P|296:64|276:107,1,67.1999979492188,0|0,0:0|2:0,0:0:0:0:
103,14,100144,2,0,P|149:13|192:33,1,67.1999979492188,0|0,0:0|2:0,0:0:0:0:
263,175,100287,6,0,L|259:210,1,36.0000013732911,4|0,0:3|2:0,0:0:0:0:
272,179,100358,2,0,L|268:214,1,36.0000013732911,2|0,2:0|2:0,0:0:0:0:
281,183,100429,2,0,L|277:218,1,36.0000013732911,2|0,2:0|2:0,0:0:0:0:
290,187,100501,2,0,L|286:222,1,36.0000013732911,2|0,2:0|2:0,0:0:0:0:
320,194,100572,6,0,B|434:170|434:170|409:205,1,153.6,0|0,1:0|2:0,2:0:0:0:
185,153,100858,2,0,B|55:181|55:181|110:212,1,172.799994726563,4|0,1:3|2:0,2:0:0:0:
334,88,101144,2,0,B|487:59|487:59|465:89,1,192,4|0,1:3|2:1,2:1:0:0:
434,172,101358,1,0,2:0:0:0:
434,172,101429,6,0,L|443:221,1,33.5999989746094,4|0,1:3|2:2,2:0:0:0:
409,151,101501,2,0,L|420:211,1,36.0000013732911,0|0,1:0|2:2,2:0:0:0:
384,130,101572,2,0,L|396:195,1,38.4,0|0,1:0|2:2,2:0:0:0:
359,109,101644,2,0,L|372:181,1,40.8000007781983,0|0,1:0|2:2,2:0:0:0:
334,88,101715,6,2,P|242:68|212:10,1,158.399995166016,0|0,2:0|2:0,0:0:0:0:
307,2,102572,6,0,P|250:107|152:93,1,182.399995129395,2|0,2:1|2:0,2:0:0:0:
7,340,102858,6,0,B|-23:295|6:214|81:227|81:227|94:281|47:323,1,244.80000466919,4|0,1:0|0:0,0:0:0:0:
163,202,103144,6,0,P|170:251|151:335,1,96,2|0,0:0|0:0,0:0:0:0:
262,273,103287,2,0,P|256:321|261:369,1,96,2|0,0:0|0:0,0:0:0:0:
223,126,103429,6,0,B|249:152|256:182|256:182|278:141|278:141|297:153|306:170|306:170|350:145|398:167,1,230.39999296875,8|2,2:0|3:2,0:0:0:0:
496,375,103715,6,0,B|519:382|519:382|523:330|474:294,1,115.199996484375,2|0,3:2|0:0,0:0:0:0:
381,246,103858,2,0,B|358:239|358:239|354:291|403:327,1,115.199996484375,2|0,3:2|0:0,0:0:0:0:
459,122,104001,6,0,B|456:67|456:67|449:56|449:56|447:0,1,124.79999428711,2|0,1:2|0:0,0:0:0:0:
368,38,104215,2,0,B|371:93|371:93|378:104|378:104|380:160,1,124.79999428711,2|0,3:2|0:0,0:0:0:0:
381,246,104429,5,0,1:0:0:0:
360,250,104501,1,2,1:2:0:0:
321,226,104572,6,8,B|287:195|239:219|239:219|240:302|313:328|368:295|368:295|413:267|452:300|452:300|395:298|351:355,1,460.8,8|0,0:0|0:0,0:0:0:0:
215,131,105144,6,0,P|159:173|149:242,1,144.000005493164,2|0,1:2|0:0,0:0:0:0:
50,250,105358,1,0,3:2:0:0:
70,258,105429,2,0,P|62:292|42:323,1,72.0000027465821,2|0,0:0|0:0,0:0:0:0:
265,284,105572,2,0,P|246:254|238:219,1,72.0000027465821,2|0,0:0|0:0,0:0:0:0:
296,33,105715,6,0,B|237:-8|152:4|135:76|135:76|159:49|195:38,1,259.199992089844,8|0,0:0|0:0,0:0:0:0:
215,131,106001,6,0,L|353:148,1,76.8,2|0,3:2|0:0,0:0:0:0:
115,195,106144,2,0,L|191:205,1,76.8,2|0,3:2|0:0,0:0:0:0:
351,300,106287,6,0,L|165:278,1,187.199991430664,2|0,1:2|2:2,0:0:0:0:
283,215,106572,1,2,3:2:0:0:
307,218,106643,1,0,3:2:0:0:
332,221,106714,1,0,3:2:0:0:
261,45,106858,6,0,P|184:38|131:93,1,158.400004833985,8|0,0:0|0:0,0:0:0:0:
115,195,107144,6,0,P|98:132|120:62,1,129.599996044922,2|0,3:2|0:0,0:0:0:0:
317,180,107429,6,0,B|332:219|332:219|230:151,1,163.200003112793,2|0,1:2|0:0,0:0:0:0:
247,259,107644,1,0,0:0:0:0:
248,259,107715,6,0,L|327:313,1,96,2|0,2:2|0:0,0:0:0:0:
194,319,107858,2,0,L|273:373,1,96,2|0,0:0|0:0,0:0:0:0:
461,195,108001,6,0,B|407:256|400:323|443:362|493:321|452:271,1,211.200006445313,8|0,0:0|0:0,0:0:0:0:
282,96,108287,6,0,B|264:94|255:80|255:80|298:67|333:95,1,115.199996484375,2|0,3:2|0:0,0:0:0:0:
248,259,108429,2,0,B|284:232|282:187|282:187|266:192|260:208,1,115.199996484375,2|0,3:2|0:0,0:0:0:0:
83,80,108572,6,0,B|80:121|56:146|56:146|87:170|85:218,1,153.6,2|0,1:2|2:0,0:0:0:0:
171,212,108787,2,0,B|174:171|197:145|197:145|166:121|169:74,1,153.6,2|0,3:2|0:0,0:0:0:0:
85,4,109001,2,0,L|162:0,1,76.8,2|0,1:2|0:2,0:0:0:0:
317,256,109144,6,0,B|311:308|311:308|290:269|290:269|318:213|318:213|294:165|294:165|323:93,1,259.199992089844,8|0,2:0|2:0,2:0:0:0:
393,240,109429,6,0,B|324:252|324:252|271:223|271:223|200:236,1,201.599993847656,2|0,3:2|0:0,0:0:0:0:
52,312,109715,5,2,1:2:0:0:
66,334,109787,2,0,L|177:357,1,81.6000015563965,0|0,3:2|0:0,0:0:0:0:
215,213,109929,5,2,3:2:0:0:
201,235,110001,2,0,L|90:258,1,81.6000015563965,0|0,3:2|0:0,0:0:0:0:
14,138,110144,2,0,L|126:161,1,81.6000015563965,2|0,3:2|0:0,0:0:0:0:
215,21,110287,6,0,P|171:101|257:27,1,273.599992694092,8|0,0:0|0:0,0:0:0:0:
346,0,110572,6,0,P|368:29|377:66,1,76.8,2|0,0:0|0:0,0:0:0:0:
325,207,110715,2,0,P|339:171|366:145,1,76.8,2|0,0:0|0:0,0:0:0:0:
506,132,110858,1,2,1:2:0:0:
506,132,111144,5,2,1:2:0:0:
504,159,111215,1,0,1:0:0:0:
502,186,111287,1,0,1:0:0:0:
300,320,111429,6,0,L|422:311,1,86.3999973632813,8|0,1:2|0:0,0:0:0:0:
488,285,111572,2,0,L|366:276,1,86.3999973632813,2|0,3:2|0:0,0:0:0:0:
239,221,111715,6,0,L|235:264,6,43.1999986816407,2|0|0|0|0|0|0,3:2|0:0|0:0|0:0|0:0|0:0|0:0,0:0:0:0:
223,360,112001,6,0,B|140:330|65:326|65:326|124:324|172:297,1,259.199992089844,6|0,1:2|2:0,2:0:0:0:
80,125,112287,6,0,L|89:210,1,86.3999973632813,2|0,0:0|0:0,0:0:0:0:
243,178,112429,2,0,L|235:264,1,86.3999973632813,2|0,0:0|0:0,0:0:0:0:
201,0,112572,5,8,1:2:0:0:
366,19,112715,2,0,B|384:0|384:0|308:19,1,105.600003222656,2|0,3:2|0:0,0:0:0:0:
177,96,112858,2,0,B|159:76|159:76|235:96,1,105.600003222656,2|0,3:2|0:0,0:0:0:0:
388,155,113001,2,0,B|406:135|406:135|330:155,1,105.600003222656,2|0,3:2|0:0,0:0:0:0:
150,196,113144,5,2,1:2:0:0:
271,248,113287,1,0,3:0:0:0:
257,265,113358,2,0,L|94:307,1,124.79999428711,0|0,3:2|0:0,0:0:0:0:
16,320,113572,5,2,1:2:0:0:
21,343,113644,1,0,1:0:0:0:
60,371,113715,6,0,B|30:250|30:250|6:231|6:231|-24:107|-24:107|54:118|54:118|77:209,1,432.000016479493,8|0,1:2|0:0,0:0:0:0:
73,41,114287,6,0,L|-63:22,1,81.6000015563965,2|0,1:2|0:0,0:0:0:0:
218,19,114429,5,0,0:0:0:0:
192,27,114501,2,0,L|165:135,1,81.6000015563965,0|0,3:0|0:0,0:0:0:0:
137,208,114644,5,0,0:0:0:0:
111,199,114716,2,0,L|84:91,1,81.6000015563965,0|0,3:0|0:0,0:0:0:0:
327,280,114858,6,0,B|151:292|151:292|227:236,1,259.199992089844,8|0,1:2|0:0,0:0:0:0:
403,229,115144,6,0,P|417:271|408:326,1,86.3999973632813,2|0,3:2|0:0,0:0:0:0:
503,372,115287,2,0,P|499:329|513:288,1,86.3999973632813,2|0,3:2|0:0,0:0:0:0:
511,151,115429,6,0,P|436:147|514:80,1,216.000008239746,2|0,1:2|0:0,0:0:0:0:
419,0,115715,1,0,3:0:0:0:
375,5,115787,1,0,3:0:0:0:
332,11,115858,1,0,3:0:0:0:
299,170,116001,6,0,B|328:197|328:197|296:127|318:73,1,158.400004833985,8|0,1:2|0:0,0:0:0:0:
231,30,116287,6,0,B|204:5|204:5|236:67|216:118,1,129.599996044922,2|0,3:2|0:0,0:0:0:0:
201,200,116572,6,0,B|256:214|299:170|299:170|329:197|329:197|374:151|457:185,1,244.80000466919,2|0,1:2|0:0,0:0:0:0:
394,267,116858,6,0,P|396:310|440:359,1,81.6000015563965,2|0,0:0|0:0,0:0:0:0:
485,232,117001,2,0,P|505:197|506:156,1,81.6000015563965,2|0,0:0|0:0,0:0:0:0:
159,147,117144,6,0,B|131:150|131:150|158:190|212:202,1,115.199996484375,8|0,1:2|0:0,0:0:0:0:
258,273,117287,2,0,B|261:300|261:300|301:273|313:219,1,115.199996484375,2|0,3:2|0:0,0:0:0:0:
391,176,117429,2,0,B|418:172|418:172|391:132|337:120,1,115.199996484375,2|0,3:2|0:0,0:0:0:0:
286,46,117572,2,0,B|282:18|282:18|242:45|230:99,1,115.199996484375,2|0,3:2|0:0,0:0:0:0:
274,162,117715,5,2,1:2:0:0:
144,238,117858,1,0,3:0:0:0:
141,257,117929,2,0,B|196:298|196:298|267:270,1,134.399995898438,0|0,3:0|0:0,0:0:0:0:
274,162,118144,5,0,1:0:0:0:
274,162,118215,1,2,2:0:0:0:
274,162,118287,2,0,B|241:213|257:274|257:274|210:227|225:176,1,216.000008239746,8|0,1:2|0:0,0:0:0:0:
375,237,118572,2,0,B|393:294|362:349|362:349|419:316|418:263,1,216.000008239746,2|0,3:2|0:0,0:0:0:0:
364,143,118858,5,2,1:2:0:0:
171,243,119001,5,0,3:0:0:0:
180,264,119072,2,0,L|322:276,1,76.8,0|0,3:0|0:0,0:0:0:0:
455,128,119215,5,0,3:0:0:0:
440,149,119287,2,0,L|298:137,1,76.8,0|0,3:0|0:0,0:0:0:0:
202,80,119429,6,0,B|233:16|233:16|230:185|230:185|260:131,1,302.399990771485,8|0,1:2|0:0,0:0:0:0:
148,144,119715,6,0,L|71:137,1,76.8,0|0,3:0|0:0,0:0:0:0:
314,66,119858,2,0,L|390:73,1,76.8,0|0,3:0|0:0,0:0:0:0:
142,4,120001,5,2,1:2:0:0:
14,10,120144,1,0,3:0:0:0:
9,21,120215,1,0,3:0:0:0:
5,33,120287,2,0,P|2:70|10:101,1,57.5999982421876,0|0,3:0|0:0,0:0:0:0:
72,194,120429,2,0,P|67:165|70:136,1,57.5999982421876,0|0,3:0|0:0,0:0:0:0:
103,70,120572,5,2,3:2:0:0:
189,148,120715,1,2,3:2:0:0:
284,138,120858,1,2,3:2:0:0:
314,66,121001,1,2,3:2:0:0:
211,250,121144,5,4,1:1:0:0:
431,323,121287,2,0,B|434:146|434:146|392:208,1,244.80000466919,0|0,1:2|0:0,0:0:0:0:
370,235,121572,1,0,1:0:0:0:
482,71,121715,6,0,P|438:58|377:78,1,91.1999975646973,8|0,1:2|0:0,0:0:0:0:
284,138,121858,2,0,P|239:147|196:134,1,91.1999975646973,2|0,3:2|0:0,0:0:0:0:
18,47,122001,6,0,L|29:169,1,91.1999975646973,2|0,3:2|0:2,0:2:0:0:
110,143,122144,2,0,L|102:234,1,91.1999975646973,2|0,3:2|0:2,0:2:0:0:
54,324,122287,6,0,L|117:319,1,62.3999971435548,2|0,1:2|0:0,0:0:0:0:
192,350,122429,2,0,B|218:311|271:304|271:304|220:302|177:265,1,187.199991430664,0|0,1:2|0:0,0:0:0:0:
117,319,122715,2,0,L|54:324,1,62.3999971435548,2|0,1:2|0:0,0:0:0:0:
283,137,122858,6,0,B|267:64|198:64|159:128|189:211|257:238|310:217|310:217|338:259|338:259|389:235|389:235|407:263|444:273,1,460.8,8|0,1:2|0:0,0:0:0:0:
417,65,123429,6,0,B|399:34|399:34|367:158,1,163.200003112793,2|0,1:2|0:0,0:0:0:0:
467,184,123644,1,2,3:2:0:0:
467,184,123715,2,0,L|493:85,1,81.6000015563965
303,58,123858,2,0,L|277:157,1,81.6000015563965,2|0,3:2|0:0,0:0:0:0:
160,291,124001,6,0,B|152:357|233:408|304:350|304:350|282:303|239:298,1,288,8|0,1:2|0:0,0:0:0:0:
77,223,124287,6,0,P|63:271|68:338,1,96,2|0,3:2|0:0,0:0:0:0:
21,139,124429,2,0,P|35:187|30:254,1,96,2|0,3:2|0:0,0:0:0:0:
189,97,124572,6,0,B|147:135|79:85|79:85|111:7|171:21,1,244.80000466919,2|0,1:2|0:0,0:0:0:0:
265,79,124858,1,0,3:0:0:0:
256,41,124930,1,0,3:0:0:0:
247,3,125001,1,2,3:2:0:0:
424,240,125144,6,0,B|387:165|440:121|440:121|473:169|443:213,1,216.000008239746,8|0,1:2|0:0,0:0:0:0:
428,226,125429,6,0,B|407:173|439:138|439:138|455:176|436:207,1,144,2|0,3:2|0:0,0:0:0:0:
478,310,125715,6,0,B|410:341|357:290|357:290|361:364|288:391,1,259.199992089844,2|0,1:2|0:0,0:0:0:0:
180,286,126001,6,0,P|227:285|277:310,1,86.3999973632813,2|0,1:2|0:0,0:0:0:0:
205,371,126144,2,0,P|158:372|108:347,1,86.3999973632813,2|0,2:2|0:0,0:0:0:0:
196,112,126287,1,8,1:2:0:0:
384,132,126429,6,0,L|355:40,1,96,2|0,3:2|0:0,0:0:0:0:
326,214,126572,2,0,L|297:122,1,96,2|0,3:2|0:0,0:0:0:0:
263,299,126715,2,0,L|234:207,1,96,2|0,3:2|0:0,0:0:0:0:
71,202,126858,6,0,P|101:195|132:196,1,62.3999971435548,2|0,1:2|0:0,0:0:0:0:
107,281,127001,2,0,B|78:315|8:318|-25:283|-25:283|30:239,1,187.199991430664,0|0,1:3|0:3,0:3:0:0:
71,202,127287,5,0,1:0:0:0:
71,202,127358,1,2,0:0:0:0:
71,202,127429,2,0,B|32:174|32:174|141:183|141:183|154:194|154:194|257:203,1,259.199992089844,8|0,1:2|0:0,0:0:0:0:
283,131,127715,6,0,B|189:123|189:123|174:111|174:111|68:102,1,201.599993847656,2|0,3:2|0:0,0:0:0:0:
241,53,128001,6,0,L|327:60,1,86.3999973632813,2|0,1:2|0:0,0:0:0:0:
325,209,128144,1,0,0:0:0:0:
325,209,128215,1,0,3:2:0:0:
325,209,128287,1,2,2:0:0:0:
450,271,128429,1,2,3:2:0:0:
452,126,128572,6,0,L|366:133,1,86.3999973632813,8|0,1:2|0:0,0:0:0:0:
327,60,128715,2,0,L|241:53,1,86.3999973632813,2|0,3:2|0:0,0:0:0:0:
110,0,128858,6,0,B|153:117|153:117|162:55,1,172.799994726563,2|0,3:2|0:0,0:0:0:0:
166,314,129144,6,0,B|165:237|105:189|105:189|157:217|201:190,1,244.80000466919,2|0,1:2|0:0,0:0:0:0:
264,126,129429,1,0,3:0:0:0:
286,159,129501,1,0,3:0:0:0:
292,200,129572,1,0,3:0:0:0:
434,283,129715,6,0,L|309:292,1,86.3999973632813,8|0,1:2|0:0,0:0:0:0:
258,324,129858,2,0,L|383:333,1,86.3999973632813,2|0,3:2|0:0,0:0:0:0:
511,255,130001,6,0,L|519:320,6,43.1999986816407,2|0|0|0|0|0|0,3:2|0:0|0:0|0:0|0:0|0:0|0:0,0:0:0:0:
493,152,130287,5,6,1:2:0:0:
434,283,130429,2,0,B|378:170|378:170|448:140|448:140|476:199,1,259.199992089844,0|0,1:0|0:0,0:0:0:0:
511,255,130715,1,0,1:0:0:0:
324,266,130858,6,0,P|284:287|257:323,1,91.1999975646973,8|0,1:2|0:0,0:0:0:0:
173,375,131001,2,0,P|174:329|157:287,1,91.1999975646973,2|0,3:2|0:0,0:0:0:0:
154,189,131144,6,0,P|192:212|237:218,1,91.1999975646973,2|0,3:2|0:0,0:0:0:0:
297,74,131287,2,0,P|258:50|213:44,1,91.1999975646973,2|0,3:2|0:0,0:0:0:0:
58,10,131429,6,0,L|61:72,1,62.3999971435548,2|0,1:2|0:0,0:0:0:0:
11,136,131572,2,0,B|63:93|63:93|181:115,1,187.199991430664,0|0,1:0|0:0,0:0:0:0:
154,189,131858,5,0,1:0:0:0:
133,193,131929,1,2,0:0:0:0:
91,177,132001,6,0,B|156:217|155:301|155:301|205:208|306:217|341:301|341:301|289:343|236:323,1,489.600009338379,10|0,1:2|0:0,0:0:0:0:
35,283,132572,6,0,P|18:320|22:361,1,81.6000015563965,2|0,1:2|0:0,0:0:0:0:
85,80,132715,5,0,0:0:0:0:
77,99,132787,2,0,P|74:139|90:176,1,81.6000015563965,2|0,3:2|0:0,0:0:0:0:
251,137,132929,5,0,0:0:0:0:
272,132,133001,2,0,P|319:141|380:185,1,81.6000015563965,2|0,3:2|0:0,0:0:0:0:
233,384,133144,6,0,B|278:320|286:242|286:242|284:300|316:337,1,244.80000466919,8|0,1:2|0:0,0:0:0:0:
402,348,133429,6,0,P|356:332|309:327,1,96,2|0,3:2|0:0,0:0:0:0:
506,245,133572,2,0,P|462:263|414:262,1,96,2|0,3:2|0:0,0:0:0:0:
389,80,133715,6,0,B|378:143|444:177|444:177|501:121|460:64,1,244.80000466919,2|0,1:2|0:0,0:0:0:0:
412,0,134001,1,0,3:0:0:0:
419,36,134073,1,0,3:0:0:0:
425,73,134145,1,0,3:0:0:0:
188,33,134287,6,0,B|297:51|297:51|191:86,1,216.000008239746,8|0,1:2|0:0,0:0:0:0:
121,151,134572,6,0,B|50:140|50:140|119:115,1,144,2|0,3:2|0:0,0:0:0:0:
205,157,134858,5,2,1:2:0:0:
115,235,135001,2,0,L|108:320,1,81.6000015563965,2|0,2:2|0:0,0:0:0:0:
272,321,135144,2,0,B|189:382|189:382|198:240,1,244.80000466919,2|0,3:2|0:0,0:0:0:0:
278,239,135429,2,0,L|401:243,1,81.6000015563965,8|0,1:2|0:0,0:0:0:0:
350,36,135572,6,0,P|371:78|375:126,1,96,2|0,3:2|0:0,0:0:0:0:
440,242,135715,2,0,P|450:177|488:130,1,96,2|0,3:2|0:0,0:0:0:0:
216,37,135858,2,0,P|256:62|282:102,1,96,2|0,3:2|0:0,0:0:0:0:
359,241,136001,6,0,L|278:239,1,81.6000015563965,2|0,1:2|0:0,0:0:0:0:
198,240,136144,2,0,B|189:382|189:382|272:321,1,244.80000466919,2|0,3:2|0:0,0:0:0:0:
278,239,136429,5,0,1:0:0:0:
278,239,136501,1,2,0:0:0:0:
278,239,136572,2,0,B|336:299|435:287|436:182|385:160|312:204,1,244.80000466919,8|0,1:2|0:0,0:0:0:0:
228,172,136858,2,0,B|186:98|224:7|325:35|333:90|270:148,1,244.80000466919,2|0,3:2|0:0,0:0:0:0:
198,240,137144,5,6,1:2:0:0:
44,159,137287,1,0,3:0:0:0:
46,168,137358,1,0,3:0:0:0:
48,177,137429,1,0,3:0:0:0:
128,98,137572,1,0,3:0:0:0:
2,259,137715,1,0,3:0:0:0:
123,209,137858,1,0,3:0:0:0:
118,320,138001,1,0,3:0:0:0:
118,320,138144,1,0,3:0:0:0:
247,250,138287,5,0,3:0:0:0:
218,230,138358,1,0,3:0:0:0:
185,228,138429,1,0,3:0:0:0:
157,210,138501,1,0,3:0:0:0:
123,209,138572,1,0,3:0:0:0:
346,147,138715,5,0,3:0:0:0:
387,155,138787,1,0,3:0:0:0:
418,125,138858,1,0,3:0:0:0:
460,134,138930,1,0,3:0:0:0:
491,105,139001,1,0,3:0:0:0:
382,0,139144,5,2,3:2:0:0:
454,251,139287,1,2,3:2:0:0:
200,187,139429,1,4,1:1:0:0:
256,192,139501,12,0,144001,0:0:0:0:
256,192,152001,12,0,153001,0:0:0:0:
61,160,153144,6,0,L|22:130,3,48
170,175,153429,2,0,L|214:156,1,48
100,266,153572,6,0,L|93:313,3,48
180,278,153858,2,0,L|173:325,3,48
84,262,154144,6,0,L|88:347,3,57.5999982421876
196,278,154429,2,0,L|170:359,3,57.5999982421876
58,264,154715,6,0,L|82:356,3,72.0000027465821
219,286,155001,2,0,L|170:367,3,72.0000027465821
153,204,155287,2,0,L|166:128,1,76.8
309,20,155429,5,0,0:0:0:0:
293,45,155501,1,0,0:0:0:0:
294,78,155572,1,0,0:0:0:0:
317,107,155644,1,0,0:0:0:0:
355,118,155715,1,0,0:0:0:0:
397,106,155787,1,0,0:0:0:0:
442,121,155858,1,0,0:0:0:0:
470,162,155929,1,0,0:0:0:0:
461,214,156001,1,0,0:0:0:0:
415,241,156072,1,0,0:0:0:0:
360,226,156144,1,0,0:0:0:0:
306,249,156215,1,0,0:0:0:0:
288,310,156287,1,0,0:0:0:0:
322,368,156358,1,0,0:0:0:0:
391,369,156429,1,0,0:0:0:0:
435,311,156501,1,0,0:0:0:0:
435,311,156715,6,0,P|389:295|349:307,1,76.8
362,300,157072,1,0,0:0:0:0:
362,300,157144,1,0,0:0:0:0:
405,164,157287,1,0,0:0:0:0:
478,318,157429,6,0,B|441:302|411:324|411:324|375:290|375:290|344:312|301:298,1,192,8|0,0:0|0:0,0:0:0:0:
238,126,157715,6,0,P|300:157|326:262,1,144.000005493164,6|0,1:0|0:0,0:0:0:0:
248,375,158001,1,0,1:0:0:0:
238,333,158072,1,0,0:0:0:0:
228,291,158144,2,0,L|212:216,1,57.5999982421876,2|0,2:1|0:0,0:0:0:0:
0,132,158287,5,0,1:0:0:0:
34,157,158358,1,0,0:0:0:0:
76,160,158429,1,2,0:0:0:0:
114,140,158501,1,0,0:0:0:0:
135,103,158572,2,0,L|147:159,2,57.5999982421876,2|0|2,1:0|0:0|0:0,0:0:0:0:
396,35,158858,5,0,1:0:0:0:
374,41,158929,1,0,0:0:0:0:
345,75,159001,5,2,0:0:0:0:
323,81,159072,1,0,0:0:0:0:
294,115,159144,6,0,L|225:128,2,57.5999982421876,2|0|2,1:0|0:0|0:0,0:0:0:0:
377,185,159429,5,2,1:0:0:0:
348,219,159501,2,0,L|210:245,1,115.199996484375,2|0,2:0|0:0,0:0:0:0:
231,355,159715,5,0,1:0:0:0:
273,347,159787,1,2,0:0:0:0:
316,339,159858,1,2,0:0:0:0:
359,331,159929,1,0,0:0:0:0:
402,323,160001,6,0,B|546:295|546:295|478:266,1,216.000008239746,2|0,1:1|0:0,0:0:0:0:
388,241,160287,2,0,L|377:185,1,57.5999982421876,0|0,1:0|0:0,0:0:0:0:
352,51,160429,1,2,2:1:0:0:
255,131,160572,6,0,L|182:124,1,57.5999982421876,0|0,1:0|0:0,0:0:0:0:
116,49,160715,2,0,L|189:42,1,57.5999982421876,2|0,0:0|0:0,0:0:0:0:
207,213,160858,1,2,1:0:0:0:
163,208,160929,1,0,0:0:0:0:
120,204,161000,1,2,0:0:0:0:
77,200,161072,1,0,0:0:0:0:
34,196,161144,6,0,L|24:265,2,57.5999982421876,0|0|2,1:0|0:0|0:0,0:0:0:0:
255,129,161429,2,0,L|252:245,1,115.199996484375,2|2,1:1|0:0,0:0:0:0:
478,196,161715,2,0,L|488:265,2,57.5999982421876,2|0|2,1:0|0:0|0:0,0:0:0:0:
367,320,162001,5,0,1:0:0:0:
363,298,162072,1,2,0:0:0:0:
360,275,162144,2,0,L|370:206,1,57.5999982421876,2|0,2:0|0:0,0:0:0:0:
248,360,162287,5,2,1:0:0:0:
168,256,162429,2,0,L|246:266,2,57.5999982421876,2|0|0,0:0|0:0|1:2,0:0:0:0:
1,313,162715,1,2,2:1:0:0:
36,290,162786,1,0,0:0:0:0:
79,289,162857,1,0,1:0:0:0:
114,314,162929,1,0,0:0:0:0:
130,352,163000,1,2,0:0:0:0:
198,124,163144,5,2,1:0:0:0:
182,162,163215,1,0,0:0:0:0:
147,187,163286,1,2,2:0:0:0:
104,186,163358,1,0,0:0:0:0:
69,163,163429,2,0,P|50:99|88:41,1,115.199996484375,2|2,1:2|0:0,0:0:0:0:
313,128,163715,6,0,L|181:123,1,115.199996484375,2|2,1:0|0:0,0:0:0:0:
435,6,164001,2,0,L|303:11,1,115.199996484375,2|2,1:0|0:0,0:0:0:0:
371,207,164287,1,2,1:0:0:0:
342,205,164358,1,2,0:0:0:0:
313,204,164429,2,0,L|235:202,1,57.5999982421876,2|0,0:0|0:0,0:0:0:0:
284,376,164572,6,0,P|277:316|318:277,1,115.199996484375,2|2,1:1|0:0,0:0:0:0:
341,280,164786,1,0,0:0:0:0:
370,282,164858,1,0,1:0:0:0:
512,111,165001,5,2,2:1:0:0:
506,162,165072,1,0,0:0:0:0:
501,214,165144,1,0,1:0:0:0:
496,265,165215,1,0,0:0:0:0:
491,317,165287,1,2,0:0:0:0:
284,376,165429,5,2,1:1:0:0:
278,325,165500,1,0,0:0:0:0:
273,273,165572,1,2,2:0:0:0:
268,222,165643,1,0,0:0:0:0:
263,170,165715,6,0,B|218:138|218:138|234:315,1,216.000008239746,2|0,1:0|0:0,0:0:0:0:
156,362,166001,2,0,L|148:261,1,57.5999982421876,2|0,1:0|0:0,0:0:0:0:
115,211,166144,1,2,0:1:0:0:
257,62,166287,2,0,B|171:32|180:94|88:67,1,172.799994726563,0|0,1:0|0:0,0:0:0:0:
22,26,166572,1,0,1:0:0:0:
56,63,166643,1,2,0:0:0:0:
64,114,166714,1,2,0:0:0:0:
44,161,166786,1,2,0:0:0:0:
2,189,166858,5,6,1:1:0:0:
157,183,167001,1,0,0:0:0:0:
113,376,167144,1,0,1:0:0:0:
103,334,167215,1,0,0:0:0:0:
93,292,167287,2,0,L|77:217,1,57.5999982421876,2|0,2:1|0:0,0:0:0:0:
150,90,167429,1,0,1:0:0:0:
241,223,167572,1,0,2:0:0:0:
234,265,167643,1,0,0:0:0:0:
228,308,167715,2,0,L|218:384,2,57.5999982421876,2|0|0,1:0|0:0|0:0,0:0:0:0:
320,40,168001,5,2,1:2:0:0:
343,46,168072,1,0,0:0:0:0:
333,93,168144,5,2,2:2:0:0:
356,99,168215,1,0,0:0:0:0:
346,146,168287,6,0,L|412:159,1,57.5999982421876,2|0,1:0|0:0,0:0:0:0:
512,200,168429,5,2,2:2:0:0:
489,206,168500,1,0,0:0:0:0:
499,253,168572,5,2,1:1:0:0:
476,259,168644,2,0,L|410:272,2,57.5999982421876,2|0|0,2:0|0:0|0:0,0:0:0:0:
349,236,168858,5,0,1:0:0:0:
341,278,168929,1,2,0:0:0:0:
356,318,169000,1,2,0:0:0:0:
390,344,169072,1,2,0:0:0:0:
432,347,169144,6,0,P|375:312|292:378,1,172.799994726563,2|0,1:1|0:0,0:0:0:0:
197,384,169429,2,0,L|181:304,1,57.5999982421876,0|0,1:0|0:0,0:0:0:0:
195,149,169572,1,2,2:1:0:0:
62,210,169715,5,0,1:0:0:0:
101,223,169786,1,0,0:0:0:0:
143,215,169858,1,2,0:0:0:0:
177,189,169929,1,0,0:0:0:0:
195,149,170001,2,0,L|179:69,1,57.5999982421876,2|0,1:0|0:0,0:0:0:0:
269,267,170144,2,0,L|253:347,1,57.5999982421876,2|0,2:0|0:0,0:0:0:0:
471,234,170287,5,2,1:2:0:0:
466,202,170358,2,0,P|494:230|501:270,2,57.5999982421876,2|0|0,0:2|0:3|0:3,0:3:0:0:
444,48,170572,5,2,1:1:0:0:
418,67,170644,2,0,P|427:28|459:1,2,57.5999982421876,2|0|0,0:2|0:3|0:3,0:3:0:0:
296,165,170857,5,2,1:1:0:0:
326,177,170929,2,0,P|287:187|248:173,2,57.5999982421876,2|0|0,0:2|0:3|0:3,0:3:0:0:
404,150,171144,5,0,1:0:0:0:
396,192,171215,1,2,0:0:0:0:
389,235,171286,1,2,0:0:0:0:
382,277,171358,1,2,0:0:0:0:
375,320,171429,6,0,L|365:379,1,57.5999982421876,2|0,1:0|0:0,0:0:0:0:
512,255,171572,1,2,0:0:0:0:
512,255,171644,1,0,0:0:0:0:
512,255,171715,1,0,1:0:0:0:
252,300,171858,6,0,L|242:241,1,57.5999982421876,2|0,2:1|0:0,0:0:0:0:
389,235,172001,1,0,1:0:0:0:
389,235,172073,1,0,0:0:0:0:
389,235,172144,1,2,2:0:0:0:
372,25,172287,5,2,1:0:0:0:
329,29,172358,1,0,0:0:0:0:
297,56,172429,1,2,0:0:0:0:
287,97,172501,1,0,0:0:0:0:
301,138,172572,2,0,P|362:165|428:112,1,115.199996484375,0|2,1:0|0:0,0:0:0:0:
94,80,172858,6,0,P|134:118|135:175,1,115.199996484375,2|2,1:0|0:0,0:0:0:0:
190,382,173144,2,0,P|203:327|251:298,1,115.199996484375,2|2,1:0|0:0,0:0:0:0:
403,149,173429,1,2,1:0:0:0:
363,164,173500,1,2,0:0:0:0:
321,155,173571,1,2,0:0:0:0:
292,124,173643,1,2,0:0:0:0:
285,81,173715,6,0,L|298:2,1,57.5999982421876,2|0,1:0|0:0,0:0:0:0:
512,37,173858,1,2,0:0:0:0:
512,37,173929,1,0,0:0:0:0:
512,37,174001,1,0,1:0:0:0:
412,205,174144,6,0,L|402:148,1,57.5999982421876,2|0,2:1|0:0,0:0:0:0:
198,172,174287,1,0,1:0:0:0:
198,172,174358,1,0,0:0:0:0:
198,172,174429,1,2,2:0:0:0:
361,384,174572,5,0,1:0:0:0:
433,377,174644,1,0,1:0:0:0:
479,321,174715,1,0,1:0:0:0:
470,249,174787,1,0,1:0:0:0:
412,205,174858,1,6,1:2:0:0:
165,357,175001,1,6,1:2:0:0:
198,172,175144,5,0,1:0:0:0:
386,294,175287,1,6,1:2:0:0:
386,294,175572,5,0,1:2:0:0:
397,70,175715,1,0,1:2:0:0:
198,172,175858,1,0,1:2:0:0:
274,275,176001,6,0,L|270:201,1,57.5999982421876
194,28,176287,5,4,1:0:0:0:
194,70,176358,1,0,0:0:0:0:
194,114,176429,2,0,L|199:190,1,57.5999982421876,2|0,0:1|0:0,0:0:0:0:
83,325,176572,5,0,1:0:0:0:
92,283,176643,1,0,0:0:0:0:
121,252,176714,1,2,0:0:0:0:
162,241,176786,1,0,0:0:0:0:
203,252,176858,2,0,L|208:328,2,57.5999982421876,2|0|2,1:1|0:0|0:0,0:0:0:0:
446,130,177144,5,0,1:3:0:0:
422,131,177215,1,0,0:3:0:0:
391,165,177287,5,2,0:2:0:0:
366,167,177358,1,0,0:3:0:0:
333,203,177429,6,0,L|263:207,2,57.5999982421876,2|0|2,1:1|0:3|0:2,0:3:0:0:
34,184,177715,5,2,1:1:0:0:
67,220,177787,2,0,L|136:215,1,57.5999982421876,2|0,2:2|0:3,0:3:0:0:
191,32,177929,1,0,0:0:0:0:
191,32,178001,1,0,1:0:0:0:
158,61,178072,1,2,0:0:0:0:
149,102,178143,1,2,0:0:0:0:
163,142,178215,1,2,0:0:0:0:
198,171,178287,6,0,P|236:93|169:25,1,172.799994726563,2|0,1:0|0:0,0:0:0:0:
282,0,178572,2,0,L|339:10,1,57.5999982421876,0|0,1:0|0:0,0:0:0:0:
512,0,178715,1,2,2:1:0:0:
447,208,178858,5,0,1:0:0:0:
405,190,178929,1,0,0:0:0:0:
381,155,179001,1,2,0:0:0:0:
376,113,179072,1,0,0:0:0:0:
393,75,179144,2,0,L|310:90,1,57.5999982421876,2|0,1:0|0:0,0:0:0:0:
461,126,179287,2,0,L|526:142,1,57.5999982421876,2|0,2:0|0:0,0:0:0:0:
327,292,179429,5,2,1:2:0:0:
366,315,179501,2,0,P|367:286|356:260,2,57.5999982421876,0|0|0,2:0|0:0|0:0,0:0:0:0:
259,230,179715,6,0,P|241:318|327:293,1,216.000008239746,2|0,1:0|0:0,0:0:0:0:
272,137,180001,5,2,1:0:0:0:
249,175,180072,2,0,P|247:203|258:229,1,57.5999982421876,2|0,2:0|0:0,0:0:0:0:
415,331,180215,1,0,0:0:0:0:
415,331,180287,1,0,1:0:0:0:
424,289,180358,1,2,0:0:0:0:
414,248,180430,1,2,0:0:0:0:
386,215,180501,1,2,0:0:0:0:
347,200,180572,6,0,L|424:165,1,57.5999982421876,2|0,1:0|0:0,0:0:0:0:
512,63,180715,1,2,0:0:0:0:
509,91,180787,1,0,0:0:0:0:
506,119,180858,1,0,1:0:0:0:
467,354,181001,6,0,L|390:319,1,57.5999982421876,2|0,2:1|0:0,0:0:0:0:
347,200,181144,1,0,1:0:0:0:
350,228,181216,1,0,0:0:0:0:
352,255,181287,1,2,2:0:0:0:
423,96,181429,5,2,1:0:0:0:
379,100,181500,1,0,0:0:0:0:
336,104,181572,1,2,0:0:0:0:
293,110,181643,1,0,0:0:0:0:
249,115,181715,2,0,B|220:99|220:99|236:224,1,144.000005493164,0|0,1:0|0:0,0:0:0:0:
270,327,182001,6,0,L|264:385,2,57.5999982421876,2|0|0,1:1|0:0|0:0,0:0:0:0:
130,164,182287,2,0,L|123:106,2,57.5999982421876,2|0|0,1:1|0:0|0:0,0:0:0:0:
9,272,182572,1,2,1:0:0:0:
6,301,182643,1,2,0:0:0:0:
3,330,182715,2,2,L|-3:389,1,57.5999982421876,0|2,2:2|0:0,0:0:0:0:
213,157,182858,5,2,1:0:0:0:
202,207,182930,1,0,0:0:0:0:
164,240,183002,1,2,0:0:0:0:
113,244,183073,1,0,0:0:0:0:
70,218,183144,1,0,1:0:0:0:
37,40,183287,5,2,2:1:0:0:
87,39,183358,1,0,0:0:0:0:
129,67,183429,1,0,1:0:0:0:
145,115,183501,1,0,0:0:0:0:
130,164,183572,1,2,2:2:0:0:
317,357,183715,5,2,1:0:0:0:
311,306,183786,1,0,0:0:0:0:
306,254,183857,1,2,0:0:0:0:
300,202,183929,1,0,0:0:0:0:
296,150,184001,6,0,B|255:186|255:186|268:305,1,172.799994726563,2|0,1:0|0:0,0:0:0:0:
359,366,184287,2,0,L|352:278,1,57.5999982421876,2|0,1:0|0:0,0:0:0:0:
512,225,184429,2,0,B|462:272|462:272|404:240,1,134.399995898438,2|0,2:1|1:0,0:0:0:0:
435,69,184715,1,0,0:0:0:0:
310,5,184858,1,0,1:0:0:0:
264,26,184929,1,2,0:0:0:0:
242,72,185001,1,2,0:0:0:0:
255,121,185072,1,2,0:0:0:0:
296,150,185144,6,0,L|106:144,1,134.399995898438,6|0,1:0|0:0,0:0:0:0:
85,145,185358,1,0,0:0:0:0:
85,145,185429,1,2,1:2:0:0:
83,195,185500,1,0,0:0:0:0:
80,245,185572,2,0,L|76:327,1,67.1999979492188,2|0,0:1|0:0,0:0:0:0:
328,362,185715,5,0,1:0:0:0:
282,382,185787,1,0,0:0:0:0:
234,371,185858,1,2,0:0:0:0:
203,332,185929,1,0,0:0:0:0:
202,283,186001,2,0,L|206:201,2,67.1999979492188,2|0|2,1:1|0:0|0:0,0:0:0:0:
434,179,186287,5,0,1:0:0:0:
411,170,186357,1,0,0:0:0:0:
409,208,186429,5,2,0:0:0:0:
433,202,186500,1,0,0:0:0:0:
395,189,186572,6,0,L|321:184,1,67.1999979492188,2|0,1:0|0:0,0:0:0:0:
236,57,186715,5,2,0:0:0:0:
239,82,186787,1,0,0:0:0:0:
216,71,186858,5,2,1:0:0:0:
258,68,186929,2,0,L|342:63,2,67.1999979492188,2|0|0,2:0|0:0|0:0,0:0:0:0:
152,0,187144,5,0,1:2:0:0:
120,38,187215,1,2,0:0:0:0:
114,88,187286,1,2,0:0:0:0:
135,133,187358,1,2,0:0:0:0:
177,160,187429,6,0,P|217:172|266:153,1,67.1999979492188,2|0,1:0|0:0,0:0:0:0:
337,135,187572,1,0,0:0:0:0:
448,271,187715,1,0,1:0:0:0:
456,220,187787,1,0,0:0:0:0:
464,170,187858,2,0,L|476:97,1,67.1999979492188,2|0,0:1|0:0,0:0:0:0:
177,160,188001,5,0,1:2:0:0:
145,198,188073,1,0,0:0:0:0:
139,248,188144,1,2,0:0:0:0:
160,293,188216,1,0,0:0:0:0:
202,320,188287,6,0,P|242:332|291:313,1,67.1999979492188,2|0,1:0|0:0,0:0:0:0:
362,295,188429,1,2,0:0:0:0:
257,148,188572,5,0,1:0:0:0:
242,184,188644,2,0,B|264:220|264:220|285:166,2,86.3999973632813,2|0|0,0:0|0:0|0:0,0:0:0:0:
195,42,188858,5,2,1:0:0:0:
171,11,188929,2,0,B|128:12|128:12|164:57,2,86.3999973632813,2|0|0,0:0|0:0|0:0,0:0:0:0:
317,41,189144,5,2,1:0:0:0:
356,36,189215,2,0,B|376:-1|376:-1|318:7,1,86.3999973632813,2|0,0:0|0:0,0:0:0:0:
257,148,189358,1,0,0:0:0:0:
257,148,189429,1,0,1:0:0:0:
262,198,189500,1,2,0:0:0:0:
268,248,189571,1,2,0:0:0:0:
273,298,189643,1,2,0:0:0:0:
279,348,189715,6,0,L|353:353,1,67.1999979492188,2|0,1:0|0:0,0:0:0:0:
503,248,189858,1,2,2:0:0:0:
507,281,189930,1,0,0:0:0:0:
512,315,190001,1,0,1:0:0:0:
511,131,190144,6,0,L|437:136,1,67.1999979492188,2|0,2:1|0:0,0:0:0:0:
252,5,190287,1,0,1:0:0:0:
301,11,190358,1,0,0:0:0:0:
340,43,190429,1,2,0:0:0:0:
356,90,190501,1,0,0:0:0:0:
346,139,190572,2,0,L|353:219,1,67.1999979492188,2|0,1:0|0:0,0:0:0:0:
192,329,190715,5,2,2:0:0:0:
197,295,190787,1,0,0:0:0:0:
201,262,190858,2,0,L|190:113,1,134.399995898438,0|2,1:0|0:0,0:0:0:0:
391,361,191144,6,0,L|476:374,2,67.1999979492188,2|0|2,1:0|0:0|2:0,0:0:0:0:
105,201,191429,2,0,L|20:214,2,67.1999979492188,2|0|2,1:0|0:0|2:0,0:0:0:0:
422,90,191715,2,0,L|507:103,2,67.1999979492188,2|0|2,1:0|0:0|2:0,0:0:0:0:
82,24,192001,6,0,L|92:112,1,67.1999979492188,2|0,1:0|0:0,0:0:0:0:
178,253,192144,1,2,0:0:0:0:
183,213,192215,1,0,0:0:0:0:
188,173,192287,1,0,1:0:0:0:
430,24,192429,6,0,L|420:112,1,67.1999979492188,2|0,2:1|0:0,0:0:0:0:
334,253,192572,1,0,1:0:0:0:
329,213,192643,1,0,0:0:0:0:
324,173,192714,1,2,0:0:0:0:
207,13,192858,5,0,1:2:0:0:
198,93,192929,1,0,1:2:0:0:
188,173,193000,1,0,1:2:0:0:
178,253,193072,1,0,1:2:0:0:
169,333,193144,1,6,1:2:0:0:
450,103,193287,1,6,1:2:0:0:
486,254,193429,5,0,1:2:0:0:
207,13,193572,1,6,1:2:0:0:
207,13,193858,1,2,1:2:0:0:
142,112,194001,5,0,1:0:0:0:
159,133,194073,1,2,0:0:0:0:
185,146,194144,1,2,0:0:0:0:
214,148,194216,1,2,0:0:0:0:
240,138,194287,6,0,P|189:100|135:115,1,115.199996484375,4|0,1:0|0:0,0:0:0:0:
33,270,194572,1,0,1:0:0:0:
31,162,194715,1,0,0:0:0:0:
128,316,194858,1,0,1:0:0:0:
164,218,195001,1,0,0:0:0:0:
232,369,195144,2,0,P|287:377|330:340,1,115.199996484375,0|0,1:0|0:0,0:0:0:0:
379,66,195429,6,0,B|400:50|383:4|336:37|329:91|352:136,1,153.6,4|0,1:2|0:0,0:0:0:0:
455,229,195715,1,0,1:0:0:0:
261,142,195858,6,0,P|278:191|342:222,1,115.199996484375,2|0,0:0|1:0,2:0:0:0:
488,130,196144,1,0,0:0:0:0:
216,259,196287,6,0,B|193:302|200:356|247:389|264:343|243:327,1,153.6,0|0,1:0|0:0,0:0:0:0:
114,48,196572,6,0,L|-20:66,1,115.199996484375,4|0,1:2|0:0,0:0:0:0:
165,154,196858,1,0,1:0:0:0:
210,36,197001,1,0,0:0:0:0:
321,208,197144,1,0,1:0:0:0:
295,107,197287,1,0,0:0:0:0:
216,259,197429,2,0,L|234:393,1,115.199996484375,0|0,1:0|0:0,0:0:0:0:
486,356,197715,6,0,B|442:390|378:367|378:367|401:356|422:315,1,153.6,4|0,1:2|0:0,0:0:0:0:
441,227,198001,1,0,1:0:0:0:
216,259,198144,6,0,B|259:293|323:270|323:270|300:259|279:218,1,153.6,2|0,2:0|1:0,0:0:0:0:
261,130,198429,1,0,0:0:0:0:
486,162,198572,6,0,B|442:196|378:173|378:173|401:162|422:121,1,153.6,0|0,1:0|2:0,0:0:0:0:
230,48,198858,6,0,P|287:45|330:80,1,115.199996484375,4|0,1:2|0:0,0:0:0:0:
127,156,199144,1,0,1:0:0:0:
151,22,199287,1,0,2:0:0:0:
47,203,199429,1,0,1:0:0:0:
23,69,199572,1,0,2:0:0:0:
174,246,199715,5,0,1:0:0:0:
190,287,199787,1,2,0:0:0:0:
155,316,199858,1,2,0:0:0:0:
117,292,199929,1,2,0:0:0:0:
128,249,200001,5,0,1:0:0:0:
343,231,200144,1,2,0:0:0:0:
284,383,200287,1,0,1:0:0:0:
238,191,200429,1,2,0:0:0:0:
452,105,200572,5,0,1:0:0:0:
444,221,200715,1,2,0:0:0:0:
300,95,200858,1,0,1:0:0:0:
334,253,201001,1,2,0:0:0:0:
128,160,201144,5,0,1:0:0:0:
264,188,201287,1,2,0:0:0:0:
153,334,201429,1,0,1:0:0:0:
164,67,201572,5,2,0:0:0:0:
238,191,201715,1,0,1:0:0:0:
46,214,201858,1,2,0:0:0:0:
251,10,202001,5,0,1:0:0:0:
217,187,202144,1,2,0:0:0:0:
11,50,202287,5,0,1:0:0:0:
317,84,202429,1,2,0:0:0:0:
92,95,202572,5,0,1:0:0:0:
236,39,202715,1,2,0:0:0:0:
195,230,202858,6,0,L|189:370,1,115.199996484375,0|2,1:0|0:0,0:0:0:0:
6,258,203144,2,0,L|10:373,1,115.199996484375,0|2,1:0|0:0,0:0:0:0:
286,184,203429,6,0,B|198:108|198:108|107:176,1,230.39999296875,4|0,1:2|1:0,0:0:0:0:
190,345,203858,1,0,0:0:0:0:
293,292,204001,1,0,1:0:0:0:
195,230,204144,1,0,0:0:0:0:
384,246,204287,2,0,L|518:232,1,115.199996484375,0|0,1:0|0:0,0:0:0:0:
450,42,204572,6,0,B|418:24|418:24|432:151,1,153.6,4|0,1:2|0:0,0:0:0:0:
451,339,204858,1,0,1:0:0:0:
269,257,205001,6,0,L|403:243,1,115.199996484375,2|0,2:0|1:0,0:0:0:0:
498,234,205287,1,0,0:0:0:0:
335,53,205429,6,0,B|303:35|303:35|317:162,1,153.6,0|0,1:0|0:0,0:0:0:0:
173,368,205715,6,0,B|189:312|189:312|145:257,1,115.199996484375,4|0,1:2|0:0,0:0:0:0:
13,121,206001,1,0,1:0:0:0:
50,247,206144,1,0,0:0:0:0:
143,89,206287,1,0,1:0:0:0:
118,192,206429,1,0,0:0:0:0:
32,20,206572,2,0,B|-3:64|-3:64|12:120,1,115.199996484375,0|0,1:0|0:0,0:0:0:0:
220,75,206858,6,0,B|144:89|144:89|196:149,1,153.6,4|0,1:2|0:0,0:0:0:0:
333,53,207144,1,0,1:0:0:0:
497,91,207287,6,0,B|522:18|522:18|444:33,1,153.6,2|0,0:0|1:0,0:0:0:0:
459,199,207572,1,0,0:0:0:0:
345,323,207715,6,0,B|395:381|395:381|421:306,1,153.6,0|0,1:0|0:0,0:0:0:0:
333,53,208001,6,0,L|356:188,1,115.199996484375,4|0,1:2|0:0,0:0:0:0:
193,146,208287,1,0,1:0:0:0:
271,235,208429,1,0,0:0:0:0:
158,382,208572,1,0,1:0:0:0:
257,325,208715,1,0,0:0:0:0:
63,225,208858,5,0,1:0:0:0:
57,267,208930,1,2,0:0:0:0:
97,287,209001,1,2,0:0:0:0:
128,255,209072,1,2,0:0:0:0:
108,215,209144,5,0,1:0:0:0:
39,348,209287,1,2,0:0:0:0:
30,156,209429,1,0,1:0:0:0:
200,244,209572,1,2,0:0:0:0:
335,101,209715,5,0,1:0:0:0:
149,142,209858,1,2,0:0:0:0:
316,124,210001,1,0,1:0:0:0:
190,69,210144,1,2,0:0:0:0:
258,316,210287,5,0,1:0:0:0:
275,197,210429,1,2,0:0:0:0:
469,231,210572,6,0,B|533:259|521:351|521:351|434:377|392:318,1,288,4|0,1:2|0:0,0:0:0:0:
363,244,210858,1,0,1:0:0:0:
431,95,211001,6,0,B|454:46|403:12|403:12|342:31|350:80,1,192,6|0,2:2|1:0,0:0:0:0:
469,231,211287,1,2,0:0:0:0:
275,197,211429,6,0,B|202:203|180:291|180:291|254:349|312:306,1,288,4|0,1:2|0:0,0:0:0:0:
363,244,211715,5,0,1:0:0:0:
372,186,211786,1,0,1:0:0:0:
382,128,211857,1,4,1:2:0:0:
392,71,211929,1,0,1:0:0:0:
403,13,212001,1,0,1:0:0:0:
270,33,212144,1,0,1:0:0:0:
467,114,212287,1,4,1:2:0:0:
275,197,212429,1,0,1:0:0:0:
473,334,212572,6,0,P|485:252|432:214,1,115.199996484375,4|0,1:0|0:0,0:0:0:0:
275,197,212858,1,0,1:0:0:0:
354,302,213001,1,0,0:0:0:0:
154,299,213144,1,0,1:0:0:0:
277,362,213287,1,0,0:0:0:0:
159,196,213429,2,0,P|134:246|154:299,1,115.199996484375,0|0,1:0|0:0,0:0:0:0:
47,30,213715,6,0,B|104:16|150:38|150:38|115:36|81:58,1,163.200003112793,4|0,1:2|0:0,0:0:0:0:
52,172,214001,1,0,1:0:0:0:
153,298,214144,6,0,P|178:248|158:195,1,115.199996484375,2|0,2:0|1:0,0:0:0:0:
53,148,214429,1,0,0:0:0:0:
253,104,214572,6,0,B|196:90|150:112|150:112|185:110|219:132,1,163.200003112793,0|0,1:0|0:0,0:0:0:0:
507,24,214858,6,0,L|493:153,1,115.199996484375,4|0,1:2|0:0,0:0:0:0:
512,326,215144,1,0,1:0:0:0:
461,221,215287,1,0,0:0:0:0:
352,384,215429,1,0,1:0:0:0:
362,267,215572,1,0,0:0:0:0:
212,208,215715,2,0,L|224:322,1,115.199996484375,0|0,1:2|0:0,0:0:0:0:
184,51,216001,6,0,B|147:53|147:53|163:21|163:21|317:5,1,163.200003112793,4|0,1:2|2:2,0:2:0:0:
341,4,216287,1,0,1:2:0:0:
126,168,216429,6,0,B|90:170|90:170|106:138|106:138|260:122,1,163.200003112793,2|0,0:2|1:2,0:2:0:0:
285,122,216715,1,0,0:2:0:0:
70,284,216858,6,0,B|34:288|34:288|50:256|50:256|204:240,1,163.200003112793,0|0,1:2|0:2,0:2:0:0:
360,230,217144,6,0,P|338:266|341:337,1,115.199996484375,4|0,1:2|0:0,0:0:0:0:
512,263,217429,1,0,1:0:0:0:
458,384,217572,1,0,0:0:0:0:
450,167,217715,1,0,1:0:0:0:
427,286,217858,1,0,0:0:0:0:
324,86,218001,5,0,1:0:0:0:
308,127,218073,1,2,0:0:0:0:
343,156,218144,1,2,0:0:0:0:
381,132,218215,1,2,0:0:0:0:
370,89,218287,5,0,1:0:0:0:
202,111,218429,1,2,0:0:0:0:
283,241,218572,1,0,1:0:0:0:
278,19,218715,1,2,0:0:0:0:
69,34,218858,5,0,1:0:0:0:
218,82,219001,1,2,0:0:0:0:
115,221,219144,1,0,1:0:0:0:
243,177,219287,1,2,0:0:0:0:
30,375,219429,5,0,1:0:0:0:
93,210,219572,1,2,0:0:0:0:
140,316,219715,1,0,1:0:0:0:
204,68,219858,5,2,2:0:0:0:
80,188,220001,1,0,1:0:0:0:
248,201,220144,1,2,0:0:0:0:
195,384,220287,5,0,1:0:0:0:
172,236,220429,1,2,2:0:0:0:
399,311,220572,5,0,1:0:0:0:
111,307,220715,1,2,0:0:0:0:
285,273,220858,5,0,1:0:0:0:
200,355,221001,1,2,0:0:0:0:
377,126,221144,6,0,B|402:178|402:178|366:235,1,115.199996484375,0|2,1:0|0:0,0:0:0:0:
197,226,221429,2,0,B|171:173|171:173|207:116,1,115.199996484375,0|2,1:0|0:0,0:0:0:0:
291,41,221715,6,0,L|286:175,1,134.399995898438,4|0,0:0|0:0,0:0:0:0:
76,167,222001,2,0,L|81:301,1,134.399995898438
331,265,222287,5,0,0:0:0:0:
235,343,222430,1,0,0:0:0:0:
285,175,222572,2,0,L|290:41,1,134.399995898438
428,287,222858,6,0,P|362:293|319:343,1,134.399995898438,4|0,0:2|0:0,0:0:0:0:
473,224,223144,1,0,0:0:0:0:
498,353,223287,1,0,0:0:0:0:
285,175,223429,5,0,0:0:0:0:
405,176,223572,1,0,0:0:0:0:
319,342,223715,2,0,P|384:335|427:286,1,134.399995898438,0|0,0:2|0:0,0:0:0:0:
491,37,224001,6,0,L|315:20,1,134.399995898438,4|0,0:2|0:0,0:0:0:0:
151,187,224287,2,0,L|284:174,1,134.399995898438,0|0,0:2|0:0,0:0:0:0:
92,115,224572,5,0,0:0:0:0:
106,268,224715,1,0,0:0:0:0:
284,174,224858,2,0,L|151:187,1,134.399995898438,0|0,0:2|0:0,0:0:0:0:
402,268,225144,5,4,0:2:0:0:
298,278,225286,1,0,0:0:0:0:
412,372,225429,1,0,0:2:0:0:
200,154,225572,5,0,0:0:0:0:
307,256,225715,1,0,0:0:0:0:
343,111,225858,1,0,0:0:0:0:
165,300,226001,6,0,P|213:346|284:343,1,134.399995898438
284,174,226287,5,4,0:2:0:0:
457,349,226429,5,0,0:0:0:0:
454,189,226572,1,0,0:0:0:0:
386,269,226715,1,0,0:0:0:0:
512,293,226858,1,0,0:0:0:0:
251,384,227001,5,4,0:2:0:0:
349,351,227144,1,0,0:0:0:0:
210,310,227287,1,0,0:2:0:0:
284,174,227429,5,4,0:2:0:0:
118,57,227572,5,0,1:0:0:0:
229,0,227715,1,0,1:0:0:0:
205,154,227858,1,0,1:0:0:0:
272,73,228001,1,0,1:0:0:0:
445,262,228144,5,4,0:2:0:0:
363,194,228287,1,0,0:0:0:0:
489,145,228429,1,0,0:0:0:0:
381,3,228572,5,4,0:2:0:0:
330,0,228643,1,0,0:0:0:0:
289,27,228714,1,0,0:0:0:0:
272,73,228786,1,0,0:0:0:0:
286,121,228857,1,0,0:0:0:0:
326,149,228930,1,0,0:0:0:0:
346,195,229001,1,0,0:0:0:0:
338,244,229073,1,0,0:0:0:0:
306,282,229144,1,0,0:0:0:0:
259,298,229216,1,0,0:0:0:0:
211,286,229287,1,0,0:0:0:0:
179,247,229358,1,0,0:0:0:0:
173,197,229429,5,0,0:0:0:0:
133,256,229500,1,0,0:0:0:0:
62,263,229571,1,0,0:0:0:0:
13,211,229643,1,0,0:0:0:0:
23,140,229715,6,0,L|41:119,1,24,0|0,1:0|0:0,0:0:0:0:
31,155,229787,2,0,L|51:122,1,24
46,168,229858,2,0,L|55:131,1,24
67,174,229929,2,0,L|64:134,1,24
91,173,230001,2,0,L|78:135,1,28.7999991210938
114,160,230072,2,0,L|84:117,1,28.7999991210938
130,136,230144,2,0,L|97:98,1,28.7999991210938
158,121,230215,2,0,L|130:77,1,28.7999991210938
193,121,230287,2,0,L|186:71,1,33.5999989746094
227,136,230358,2,0,L|239:80,1,33.5999989746094
249,170,230429,2,0,L|277:136,1,33.5999989746094
249,213,230501,2,0,L|289:194,1,33.5999989746094
228,252,230572,2,0,L|167:248,1,38.4
232,299,230644,2,0,L|182:317,1,38.4
259,338,230715,2,0,L|224:375,1,38.4
308,347,230787,2,0,L|304:387,1,38.4
356,324,230858,6,0,B|383:273|383:273|341:207,1,115.199996484375,4|0,1:0|0:0,0:0:0:0:
287,145,231144,1,0,0:0:0:0:
422,372,231287,6,0,B|476:270|476:270|396:147,1,230.39999296875,4|0,1:2|0:0,0:0:0:0:
352,224,231644,1,0,0:0:0:0:
368,208,231715,1,0,0:0:0:0:
381,181,231787,1,0,0:0:0:0:
385,145,231858,1,0,0:0:0:0:
374,105,231929,1,0,0:0:0:0:
339,74,232001,6,0,B|295:54|257:71|257:71|290:76|318:110,1,134.399995898438,4|0,1:0|0:0,0:0:0:0:
352,224,232287,1,0,0:0:0:0:
203,248,232429,6,0,B|268:177|351:223|351:223|300:222|257:276,1,249.599988574219,4|0,1:2|0:0,0:0:0:0:
97,305,232858,6,0,B|82:183|82:183|161:241,1,163.200003112793,2|0,2:1|0:0,0:0:0:0:
200,369,233144,5,4,1:0:0:0:
352,224,233287,2,0,P|288:206|221:230,1,115.199996484375,2|0,0:0|0:0,0:0:0:0:
97,305,233572,2,0,P|161:323|228:299,1,115.199996484375,4|0,1:2|0:0,0:0:0:0:
275,345,233787,1,0,0:0:0:0:
259,320,233858,1,0,0:0:0:0:
253,286,233930,1,0,0:0:0:0:
268,251,234001,1,0,0:0:0:0:
305,225,234073,1,0,0:0:0:0:
352,224,234144,2,0,P|363:265|360:309,1,57.5999982421876
473,152,234287,6,0,B|442:125|442:125|367:135,1,115.199996484375,4|2,1:0|0:0,0:0:0:0:
352,224,234572,1,0,0:0:0:0:
289,91,234715,6,0,B|311:56|311:56|386:47,1,115.199996484375,4|0,1:2|0:0,0:0:0:0:
498,34,235001,1,0,0:0:0:0:
448,270,235144,6,0,B|426:340|469:388|469:388|486:349|470:325,1,163.200003112793,2|0,2:1|0:0,0:0:0:0:
264,284,235429,5,4,1:0:0:0:
360,330,235572,1,2,0:0:0:0:
174,336,235715,1,8,1:2:0:0:
258,168,235858,2,0,L|264:305,1,115.199996484375,4|2,1:2|0:0,0:0:0:0:
288,19,236144,6,0,B|253:88|253:88|206:7,1,153.6,8|0,1:2|0:0,0:0:0:0:
258,168,236572,6,0,L|264:305,1,115.199996484375,4|2,1:0|0:0,0:0:0:0:
108,103,236858,1,8,1:2:0:0:
39,231,237001,2,0,B|109:280|109:280|181:230,1,172.799994726563,4|2,1:2|0:0,0:0:0:0:
181,230,237287,1,8,1:2:0:0:
108,33,237429,5,0,1:0:0:0:
109,69,237500,1,0,1:0:0:0:
108,103,237571,1,0,1:0:0:0:
108,138,237643,1,0,1:0:0:0:
107,172,237715,6,0,L|110:254,3,57.5999982421876,4|0|0|0,1:1|0:0|0:0|0:0,0:0:0:0:
83,321,238001,2,0,L|172:319,1,57.5999982421876,8|0,1:2|0:0,0:0:0:0:
211,142,238144,6,0,L|209:85,3,57.5999982421876,4|0|0|0,1:2|0:0|0:0|0:0,0:0:0:0:
185,234,238430,2,0,L|274:232,1,57.5999982421876,8|0,1:2|0:0,0:0:0:0:
386,180,238572,5,0,1:0:0:0:
386,166,238644,1,0,1:0:0:0:
385,152,238714,1,0,1:0:0:0:
385,137,238786,1,0,1:0:0:0:
384,123,238858,6,0,B|411:73|398:-13|398:-13|425:103|489:158|489:158|383:262|383:262|264:143,1,623.999971435548,4|0,1:0|0:0,0:0:0:0:
494,269,239715,6,0,B|445:313|445:313|443:324|443:324|385:375|385:375|326:325|326:325|323:314|323:314|240:234,1,307.2,2|0,1:0|3:2,0:0:0:0:
