osu file format v14

[General]
AudioFilename: 05 Fastest Crash.mp3
AudioLeadIn: 0
PreviewTime: 66279
Countdown: 0
SampleSet: Normal
StackLeniency: 0.2
Mode: 1
LetterboxInBreaks: 0
WidescreenStoryboard: 1

[Editor]
Bookmarks: 47994,61708,66279,139422,194279,203422,230851,239994
DistanceSpacing: 1.9
BeatDivisor: 2
GridSize: 32
TimelineZoom: 0.6999999

[Metadata]
Title:Fastest Crash
TitleUnicode:Fastest Crash
Artist:Camellia
ArtistUnicode:かめりあ
Creator:Nepuri
Version:Futsuu
Source:
Tags:Hardcore Speedcore かめるかめりあ Paroxysm c85 tasuke912 KamelCamellia Cametek
BeatmapID:1058366
BeatmapSetID:394025

[Difficulty]
HPDrainRate:6
CircleSize:2
OverallDifficulty:4
ApproachRate:0
SliderMultiplier:1.3
SliderTickRate:1

[Events]
//Background and Video events
0,0,"dje1vjb.jpg",0,0
//Break Periods
//Storyboard Layer 0 (Background)
//Storyboard Layer 1 (Fail)
//Storyboard Layer 2 (Pass)
//Storyboard Layer 3 (Foreground)
//Storyboard Sound Samples

[TimingPoints]
2279,285.714285714286,4,1,0,25,1,0
11422,-100,4,1,0,40,0,8
20565,-100,4,1,0,75,0,8
29708,-100,4,1,0,90,0,0
66279,-100,4,1,0,100,0,1
84564,-100,4,1,0,60,0,0
93708,-100,4,1,0,80,0,0
98279,-100,4,1,0,100,0,0
102850,-100,4,1,0,90,0,1
121136,-100,4,1,0,90,0,0
139422,-100,4,1,0,65,0,0
157137,-100,4,1,0,77,0,0
157279,-100,4,1,0,81,0,0
157422,-100,4,1,0,87,0,0
157707,-100,4,1,0,100,0,1
174850,-100,4,1,0,100,0,0
176279,-100,4,1,0,100,0,1
194279,-100,4,1,0,94,0,0
230279,-100,4,1,0,93,0,0
230422,-100,4,1,0,92,0,0
230565,-100,4,1,0,91,0,0
230851,-100,4,1,0,88,0,0

[HitObjects]
224,128,2279,5,0,0:0:0:0:
224,128,3422,1,0,0:0:0:0:
224,128,4565,1,0,0:0:0:0:
224,128,5708,1,0,0:0:0:0:
224,128,6851,1,0,0:0:0:0:
224,128,7994,1,0,0:0:0:0:
224,128,9137,1,0,0:0:0:0:
224,128,10279,1,8,0:0:0:0:
128,160,11422,1,8,0:0:0:0:
96,192,11851,1,0,0:0:0:0:
128,192,12565,1,8,0:0:0:0:
448,128,12994,1,8,0:0:0:0:
128,192,13708,1,8,0:0:0:0:
160,128,14137,1,0,0:0:0:0:
128,192,14851,1,8,0:0:0:0:
384,0,15279,1,8,0:0:0:0:
128,192,15994,1,8,0:0:0:0:
160,160,16422,1,0,0:0:0:0:
128,192,17137,1,8,0:0:0:0:
128,160,17565,1,8,0:0:0:0:
128,192,18279,1,8,0:0:0:0:
128,64,18708,1,0,0:0:0:0:
96,160,19422,1,8,0:0:0:0:
128,64,19851,1,8,0:0:0:0:
192,288,20565,5,12,0:0:0:0:
192,288,21708,1,4,0:0:0:0:
192,288,22851,1,12,0:0:0:0:
192,288,23994,1,4,0:0:0:0:
192,288,25137,1,12,0:0:0:0:
64,160,25564,1,12,0:0:0:0:
192,288,26279,1,12,0:0:0:0:
64,160,26707,1,12,0:0:0:0:
288,288,27137,1,8,0:0:0:0:
288,288,27279,1,8,0:0:0:0:
256,256,27422,1,12,0:0:0:0:
150,121,27850,1,12,0:0:0:0:
256,256,28279,1,0,0:0:0:0:
256,256,28422,1,0,0:0:0:0:
256,256,28565,1,4,0:0:0:0:
256,256,29708,1,12,0:0:0:0:
256,256,29994,1,0,0:0:0:0:
256,256,30279,1,8,0:0:0:0:
256,256,30422,1,0,0:0:0:0:
256,256,30565,1,0,0:0:0:0:
256,256,30851,1,8,0:0:0:0:
256,256,31422,1,0,0:0:0:0:
256,256,31708,1,0,0:0:0:0:
256,256,31994,1,8,0:0:0:0:
256,256,32565,1,8,0:0:0:0:
256,256,33137,1,0,0:0:0:0:
384,320,33279,1,0,0:0:0:0:
288,256,33422,1,0,0:0:0:0:
256,256,33708,1,0,0:0:0:0:
256,256,33994,1,8,0:0:0:0:
224,224,34279,1,0,0:0:0:0:
224,224,34851,1,0,0:0:0:0:
224,224,35137,1,8,0:0:0:0:
83,166,35279,1,0,0:0:0:0:
224,256,35422,1,0,0:0:0:0:
224,256,35994,1,0,0:0:0:0:
224,256,36565,1,0,0:0:0:0:
224,256,36851,1,8,0:0:0:0:
224,256,36994,1,8,0:0:0:0:
224,256,37137,1,0,0:0:0:0:
224,256,37422,1,0,0:0:0:0:
224,256,37708,1,0,0:0:0:0:
186,163,37850,1,0,0:0:0:0:
256,224,37994,1,8,0:0:0:0:
224,288,38279,1,0,0:0:0:0:
256,224,38851,1,12,0:0:0:0:
224,192,39137,5,8,0:0:0:0:
224,192,39422,1,0,0:0:0:0:
224,192,39565,1,0,0:0:0:0:
224,192,39708,1,8,0:0:0:0:
224,192,39994,1,0,0:0:0:0:
224,192,40565,1,0,0:0:0:0:
224,192,40851,1,8,0:0:0:0:
166,98,40993,1,0,0:0:0:0:
224,192,41137,1,0,0:0:0:0:
256,256,41708,1,0,0:0:0:0:
320,192,41994,1,8,0:0:0:0:
224,192,42279,1,0,0:0:0:0:
224,192,42422,1,0,0:0:0:0:
224,192,42565,1,0,0:0:0:0:
224,192,42851,1,0,0:0:0:0:
256,160,43137,1,8,0:0:0:0:
288,288,43422,1,12,0:0:0:0:
288,288,43994,1,0,0:0:0:0:
288,288,44279,1,0,0:0:0:0:
288,288,44565,1,12,0:0:0:0:
288,288,45137,1,0,0:0:0:0:
288,288,45422,1,8,0:0:0:0:
288,288,45708,1,12,0:0:0:0:
288,288,46279,1,8,0:0:0:0:
166,98,46421,1,0,0:0:0:0:
288,288,46565,1,8,0:0:0:0:
288,288,46851,1,12,0:0:0:0:
288,288,47422,1,8,0:0:0:0:
288,288,47708,1,8,0:0:0:0:
288,288,47851,1,8,0:0:0:0:
288,288,47994,1,12,0:0:0:0:
266,174,48564,1,0,0:0:0:0:
160,224,48707,1,0,0:0:0:0:
165,100,48850,1,0,0:0:0:0:
160,224,49137,1,8,0:0:0:0:
160,224,49708,1,0,0:0:0:0:
160,224,49994,1,8,0:0:0:0:
160,224,50279,1,8,0:0:0:0:
160,224,50851,1,0,0:0:0:0:
384,224,51137,1,8,0:0:0:0:
352,256,51422,1,0,0:0:0:0:
352,256,51565,1,0,0:0:0:0:
352,256,51708,1,8,0:0:0:0:
352,256,51994,1,8,0:0:0:0:
288,256,52565,1,0,0:0:0:0:
288,256,53137,1,8,0:0:0:0:
195,197,53421,1,0,0:0:0:0:
266,235,53564,1,0,0:0:0:0:
288,256,53708,1,0,0:0:0:0:
288,256,54279,1,0,0:0:0:0:
288,256,54565,1,8,0:0:0:0:
288,256,54851,1,8,0:0:0:0:
288,256,55422,1,0,0:0:0:0:
288,256,55708,1,8,0:0:0:0:
288,256,55994,1,0,0:0:0:0:
288,256,56137,1,0,0:0:0:0:
288,256,56279,1,8,0:0:0:0:
288,256,56565,1,8,0:0:0:0:
288,256,56851,1,0,0:0:0:0:
288,256,57137,1,12,0:0:0:0:
288,256,57708,1,8,0:0:0:0:
161,106,57993,1,0,0:0:0:0:
288,256,58279,1,8,0:0:0:0:
288,256,58851,1,8,0:0:0:0:
262,230,58993,1,0,0:0:0:0:
288,256,59137,1,8,0:0:0:0:
288,256,59422,1,8,0:0:0:0:
288,256,59994,1,8,0:0:0:0:
288,256,60279,1,0,0:0:0:0:
288,256,60565,1,0,0:0:0:0:
288,256,60708,1,0,0:0:0:0:
288,256,60851,1,8,0:0:0:0:
288,256,61137,1,8,0:0:0:0:
288,256,61708,1,0,0:0:0:0:
288,256,62279,1,8,0:0:0:0:
197,134,62564,1,0,0:0:0:0:
258,228,62707,1,0,0:0:0:0:
288,256,62851,1,0,0:0:0:0:
288,256,63422,1,0,0:0:0:0:
288,256,63708,1,8,0:0:0:0:
160,256,63994,1,8,0:0:0:0:
288,256,64565,1,8,0:0:0:0:
288,256,64851,1,0,0:0:0:0:
288,256,65137,1,8,0:0:0:0:
193,129,65421,1,0,0:0:0:0:
288,256,65708,1,8,0:0:0:0:
256,256,65851,1,8,0:0:0:0:
256,256,65994,1,0,0:0:0:0:
288,256,66279,1,12,0:0:0:0:
352,256,66851,1,0,0:0:0:0:
352,256,67137,1,0,0:0:0:0:
352,256,67279,1,0,0:0:0:0:
352,256,67422,1,8,0:0:0:0:
352,256,67708,1,0,0:0:0:0:
352,256,67994,1,8,0:0:0:0:
352,256,68279,1,0,0:0:0:0:
352,256,68565,1,8,0:0:0:0:
352,256,69137,1,0,0:0:0:0:
352,256,69422,1,0,0:0:0:0:
193,129,69564,1,0,0:0:0:0:
352,256,69708,1,8,0:0:0:0:
32,64,69993,1,0,0:0:0:0:
352,256,70279,1,8,0:0:0:0:
352,256,70422,1,8,0:0:0:0:
352,256,70565,1,8,0:0:0:0:
352,256,70851,1,8,0:0:0:0:
352,256,71137,1,8,0:0:0:0:
224,256,71422,1,0,0:0:0:0:
224,256,71994,1,8,0:0:0:0:
224,256,72279,1,0,0:0:0:0:
128,160,72565,1,8,0:0:0:0:
224,256,72851,1,8,0:0:0:0:
193,137,72993,1,0,0:0:0:0:
224,256,73137,1,8,0:0:0:0:
224,256,73708,1,0,0:0:0:0:
224,256,73994,1,0,0:0:0:0:
224,256,74279,1,8,0:0:0:0:
160,32,74564,1,0,0:0:0:0:
224,256,74851,1,8,0:0:0:0:
224,224,74994,1,8,0:0:0:0:
224,224,75137,1,8,0:0:0:0:
224,256,75422,1,12,0:0:0:0:
224,224,75994,1,0,0:0:0:0:
224,224,76279,1,0,0:0:0:0:
224,224,76422,1,0,0:0:0:0:
224,224,76565,1,8,0:0:0:0:
224,224,76851,1,0,0:0:0:0:
224,224,77137,1,8,0:0:0:0:
192,0,77421,1,0,0:0:0:0:
224,224,77708,1,8,0:0:0:0:
224,224,78279,1,0,0:0:0:0:
224,224,78565,1,8,0:0:0:0:
172,153,78707,1,0,0:0:0:0:
224,224,78851,1,8,0:0:0:0:
224,64,79136,1,0,0:0:0:0:
224,224,79422,1,8,0:0:0:0:
224,224,79565,1,8,0:0:0:0:
224,224,79708,1,8,0:0:0:0:
224,224,79994,1,8,0:0:0:0:
224,224,80279,1,8,0:0:0:0:
224,224,80565,1,0,0:0:0:0:
352,256,81137,1,8,0:0:0:0:
352,256,81422,1,0,0:0:0:0:
352,256,81565,1,0,0:0:0:0:
352,256,81708,1,0,0:0:0:0:
352,256,81994,1,0,0:0:0:0:
352,256,82279,1,8,0:0:0:0:
320,320,82851,1,0,0:0:0:0:
320,320,83137,1,0,0:0:0:0:
320,320,83279,1,0,0:0:0:0:
320,320,83422,1,8,0:0:0:0:
320,320,83708,1,0,0:0:0:0:
224,224,83994,1,8,0:0:0:0:
220,111,84136,1,8,0:0:0:0:
157,147,84279,1,8,0:0:0:0:
224,224,84565,1,12,0:0:0:0:
288,224,84993,1,0,0:0:0:0:
224,224,85708,1,8,0:0:0:0:
288,224,86136,1,8,0:0:0:0:
224,224,86851,1,8,0:0:0:0:
128,160,87279,1,0,0:0:0:0:
224,224,87994,1,8,0:0:0:0:
224,160,88421,1,8,0:0:0:0:
224,224,89137,1,8,0:0:0:0:
224,192,89564,1,0,0:0:0:0:
224,224,90279,1,8,0:0:0:0:
224,192,90707,1,8,0:0:0:0:
224,224,91422,1,8,0:0:0:0:
160,160,91850,1,0,0:0:0:0:
224,224,92565,1,8,0:0:0:0:
160,160,92993,1,8,0:0:0:0:
224,224,93708,1,12,0:0:0:0:
224,224,94279,1,8,0:0:0:0:
224,224,94851,1,8,0:0:0:0:
224,224,95137,1,8,0:0:0:0:
224,224,95422,1,8,0:0:0:0:
224,224,95994,1,8,0:0:0:0:
224,224,96565,1,8,0:0:0:0:
224,224,97137,1,8,0:0:0:0:
224,224,98279,1,8,0:0:0:0:
224,224,98851,1,8,0:0:0:0:
224,224,99422,1,8,0:0:0:0:
192,224,99851,1,8,0:0:0:0:
192,224,100279,1,8,0:0:0:0:
224,224,100565,1,0,0:0:0:0:
224,224,100851,1,0,0:0:0:0:
224,224,101137,1,0,0:0:0:0:
224,224,101422,1,0,0:0:0:0:
256,256,101708,5,12,0:0:0:0:
224,256,102851,1,12,0:0:0:0:
224,256,103422,1,8,0:0:0:0:
160,224,103707,1,0,0:0:0:0:
224,256,103994,1,0,0:0:0:0:
224,256,104279,1,8,0:0:0:0:
224,256,104565,1,8,0:0:0:0:
224,256,105137,1,0,0:0:0:0:
224,256,105422,1,8,0:0:0:0:
224,256,105708,1,8,0:0:0:0:
288,256,106279,1,0,0:0:0:0:
288,256,106565,1,8,0:0:0:0:
288,96,106707,1,0,0:0:0:0:
288,256,106851,1,0,0:0:0:0:
288,224,107422,1,0,0:0:0:0:
288,224,107994,1,8,0:0:0:0:
288,224,108565,1,0,0:0:0:0:
288,224,108851,1,8,0:0:0:0:
288,224,109137,1,8,0:0:0:0:
288,224,109708,1,0,0:0:0:0:
288,224,109994,1,8,0:0:0:0:
288,224,110279,1,8,0:0:0:0:
288,224,110851,1,0,0:0:0:0:
288,224,111137,1,8,0:0:0:0:
288,224,111279,1,0,0:0:0:0:
256,96,111422,1,8,0:0:0:0:
224,256,111708,1,8,0:0:0:0:
192,256,111994,1,12,0:0:0:0:
224,256,112565,1,8,0:0:0:0:
160,64,112850,1,0,0:0:0:0:
224,256,113137,1,0,0:0:0:0:
224,256,113422,1,8,0:0:0:0:
224,256,113708,1,8,0:0:0:0:
224,256,114279,1,0,0:0:0:0:
224,192,114565,1,8,0:0:0:0:
256,192,114851,1,8,0:0:0:0:
256,192,115422,1,0,0:0:0:0:
256,192,115708,1,8,0:0:0:0:
256,192,115851,1,0,0:0:0:0:
256,192,115994,1,8,0:0:0:0:
256,192,116279,1,0,0:0:0:0:
256,192,116565,1,0,0:0:0:0:
256,192,117137,1,8,0:0:0:0:
256,192,117708,1,0,0:0:0:0:
256,192,117994,1,8,0:0:0:0:
256,192,118279,1,8,0:0:0:0:
256,256,118851,1,0,0:0:0:0:
256,256,119137,1,8,0:0:0:0:
256,256,119422,1,8,0:0:0:0:
256,256,119994,1,0,0:0:0:0:
256,256,120279,1,8,0:0:0:0:
256,256,120422,1,8,0:0:0:0:
256,256,120565,1,0,0:0:0:0:
256,256,120851,1,0,0:0:0:0:
256,256,121137,1,12,0:0:0:0:
192,256,121708,1,8,0:0:0:0:
192,256,121994,1,0,0:0:0:0:
192,256,122279,1,0,0:0:0:0:
160,64,122564,1,8,0:0:0:0:
352,224,122851,1,8,0:0:0:0:
288,256,123137,1,8,0:0:0:0:
288,256,123422,1,0,0:0:0:0:
352,224,123994,1,8,0:0:0:0:
352,224,124565,1,8,0:0:0:0:
352,224,124851,1,8,0:0:0:0:
160,192,124994,1,0,0:0:0:0:
352,224,125137,1,8,0:0:0:0:
352,224,125422,1,0,0:0:0:0:
352,224,125708,1,0,0:0:0:0:
352,224,126279,1,8,0:0:0:0:
352,224,126851,1,0,0:0:0:0:
352,224,127137,1,8,0:0:0:0:
352,224,127422,1,8,0:0:0:0:
352,224,127994,1,0,0:0:0:0:
156,153,128136,1,0,0:0:0:0:
352,256,128279,1,8,0:0:0:0:
352,256,128565,1,8,0:0:0:0:
352,256,129137,1,0,0:0:0:0:
352,256,129422,1,8,0:0:0:0:
352,256,129565,1,0,0:0:0:0:
352,256,129708,1,8,0:0:0:0:
352,256,129994,1,0,0:0:0:0:
352,256,130279,1,12,0:0:0:0:
352,256,130851,1,8,0:0:0:0:
352,256,131422,1,0,0:0:0:0:
384,256,131708,1,8,0:0:0:0:
384,256,131994,1,8,0:0:0:0:
384,256,132565,1,0,0:0:0:0:
384,256,132851,1,8,0:0:0:0:
384,256,133137,1,8,0:0:0:0:
384,256,133708,1,0,0:0:0:0:
384,256,133994,1,8,0:0:0:0:
384,256,134137,1,8,0:0:0:0:
384,256,134279,1,0,0:0:0:0:
384,256,134565,1,0,0:0:0:0:
256,224,134851,1,0,0:0:0:0:
256,224,135422,1,8,0:0:0:0:
256,224,135994,1,0,0:0:0:0:
256,224,136279,1,8,0:0:0:0:
288,256,136565,1,8,0:0:0:0:
288,256,137137,1,0,0:0:0:0:
288,256,137422,1,8,0:0:0:0:
167,143,137564,1,0,0:0:0:0:
288,256,137708,1,8,0:0:0:0:
288,256,138279,1,8,0:0:0:0:
256,256,138422,1,8,0:0:0:0:
256,256,138565,1,0,0:0:0:0:
256,256,138851,1,8,0:0:0:0:
256,256,139137,1,0,0:0:0:0:
256,256,139422,1,12,0:0:0:0:
320,256,141708,1,8,0:0:0:0:
320,256,142851,1,8,0:0:0:0:
320,256,143994,1,8,0:0:0:0:
320,256,146279,1,8,0:0:0:0:
320,256,147422,1,8,0:0:0:0:
320,256,148565,1,8,0:0:0:0:
320,256,150851,1,8,0:0:0:0:
320,256,151994,1,8,0:0:0:0:
320,256,153137,1,8,0:0:0:0:
262,120,153707,5,0,0:0:0:0:
262,120,154279,1,0,0:0:0:0:
262,120,154850,1,0,0:0:0:0:
300,230,155136,1,0,0:0:0:0:
320,256,155422,1,0,0:0:0:0:
262,120,155993,1,0,0:0:0:0:
262,120,156279,1,0,0:0:0:0:
204,198,156421,1,0,0:0:0:0:
320,256,156565,1,0,0:0:0:0:
320,256,157137,1,0,0:0:0:0:
256,128,157279,1,0,0:0:0:0:
320,256,157422,1,8,0:0:0:0:
320,256,157708,1,12,0:0:0:0:
256,224,157994,1,8,0:0:0:0:
256,224,158279,1,0,0:0:0:0:
288,0,158565,1,8,0:0:0:0:
256,224,159137,1,8,0:0:0:0:
224,224,159422,1,8,0:0:0:0:
224,224,159708,1,0,0:0:0:0:
256,128,159851,1,0,0:0:0:0:
224,224,159994,1,8,0:0:0:0:
224,224,160565,1,0,0:0:0:0:
224,224,160851,1,8,0:0:0:0:
224,224,161137,1,0,0:0:0:0:
266,196,161279,1,0,0:0:0:0:
224,224,161422,1,8,0:0:0:0:
224,224,161708,1,0,0:0:0:0:
224,224,162279,1,8,0:0:0:0:
224,224,162565,1,8,0:0:0:0:
224,224,162708,1,0,0:0:0:0:
224,224,162851,1,0,0:0:0:0:
224,224,163137,1,8,0:0:0:0:
224,224,163708,1,0,0:0:0:0:
288,224,163994,1,8,0:0:0:0:
32,192,164279,1,0,0:0:0:0:
128,160,164565,1,8,0:0:0:0:
320,0,164851,1,0,0:0:0:0:
224,64,164994,1,8,0:0:0:0:
192,96,165422,1,0,0:0:0:0:
288,224,165708,1,8,0:0:0:0:
128,192,165994,1,0,0:0:0:0:
288,224,166279,1,8,0:0:0:0:
288,224,166565,1,0,0:0:0:0:
288,224,166708,1,0,0:0:0:0:
288,224,166851,1,8,0:0:0:0:
288,256,167422,1,0,0:0:0:0:
288,256,167708,1,8,0:0:0:0:
288,256,167994,1,0,0:0:0:0:
266,191,168136,1,0,0:0:0:0:
64,224,168279,5,8,0:0:0:0:
288,256,168565,1,8,0:0:0:0:
288,256,169137,1,0,0:0:0:0:
288,256,169422,1,8,0:0:0:0:
256,256,169565,1,0,0:0:0:0:
288,256,169708,1,8,0:0:0:0:
256,256,169994,1,8,0:0:0:0:
256,256,170565,1,0,0:0:0:0:
192,224,170851,1,8,0:0:0:0:
192,224,171137,1,0,0:0:0:0:
192,224,171279,1,0,0:0:0:0:
192,224,171422,1,8,0:0:0:0:
192,32,171708,1,8,0:0:0:0:
288,64,171994,1,0,0:0:0:0:
64,128,172279,1,8,0:0:0:0:
160,224,172851,1,8,0:0:0:0:
160,224,173137,1,8,0:0:0:0:
64,224,173422,1,0,0:0:0:0:
64,224,173708,1,8,0:0:0:0:
192,128,173994,1,0,0:0:0:0:
64,192,174137,1,0,0:0:0:0:
64,96,174565,1,8,0:0:0:0:
64,96,174708,1,8,0:0:0:0:
192,128,174851,1,0,0:0:0:0:
192,128,175994,1,0,0:0:0:0:
320,320,176279,1,12,0:0:0:0:
320,320,176564,1,0,0:0:0:0:
263,188,176707,1,0,0:0:0:0:
352,96,176850,1,8,0:0:0:0:
320,320,177422,1,8,0:0:0:0:
288,320,177707,1,8,0:0:0:0:
288,320,177993,1,0,0:0:0:0:
320,224,178136,1,0,0:0:0:0:
288,320,178279,1,8,0:0:0:0:
288,320,178850,1,0,0:0:0:0:
288,320,179136,1,8,0:0:0:0:
288,320,179422,1,0,0:0:0:0:
263,188,179564,1,0,0:0:0:0:
288,320,179707,1,8,0:0:0:0:
288,320,179993,1,0,0:0:0:0:
288,320,180564,1,8,0:0:0:0:
288,320,180850,1,8,0:0:0:0:
288,320,180993,1,0,0:0:0:0:
288,320,181136,1,0,0:0:0:0:
288,320,181422,1,8,0:0:0:0:
288,320,181993,1,0,0:0:0:0:
352,320,182279,1,8,0:0:0:0:
262,187,182421,1,0,0:0:0:0:
96,288,182564,1,0,0:0:0:0:
192,256,182850,1,8,0:0:0:0:
384,96,183136,1,0,0:0:0:0:
288,160,183279,1,8,0:0:0:0:
256,192,183707,1,0,0:0:0:0:
352,320,183993,1,8,0:0:0:0:
192,288,184279,1,0,0:0:0:0:
352,320,184564,1,8,0:0:0:0:
352,320,184850,1,0,0:0:0:0:
352,320,184993,1,0,0:0:0:0:
352,320,185136,1,8,0:0:0:0:
352,352,185707,1,0,0:0:0:0:
352,352,185993,1,8,0:0:0:0:
352,352,186279,1,0,0:0:0:0:
262,187,186421,1,0,0:0:0:0:
128,320,186564,5,8,0:0:0:0:
352,352,186850,1,8,0:0:0:0:
352,352,187422,1,0,0:0:0:0:
352,352,187707,1,8,0:0:0:0:
320,352,187850,1,0,0:0:0:0:
352,352,187993,1,8,0:0:0:0:
320,352,188279,1,8,0:0:0:0:
320,352,188850,1,0,0:0:0:0:
256,320,189136,1,8,0:0:0:0:
256,320,189422,1,0,0:0:0:0:
256,320,189564,1,0,0:0:0:0:
256,320,189707,1,8,0:0:0:0:
256,128,189993,1,8,0:0:0:0:
352,160,190279,1,0,0:0:0:0:
251,187,190421,1,0,0:0:0:0:
128,224,190564,1,8,0:0:0:0:
224,320,191136,1,8,0:0:0:0:
224,320,191422,1,8,0:0:0:0:
251,187,191564,1,0,0:0:0:0:
251,187,191707,1,0,0:0:0:0:
128,320,191993,1,8,0:0:0:0:
256,224,192279,5,0,0:0:0:0:
128,288,192422,1,0,0:0:0:0:
128,192,192850,5,8,0:0:0:0:
128,192,192993,1,8,0:0:0:0:
256,224,193136,1,0,0:0:0:0:
96,128,193994,1,0,0:0:0:0:
96,128,194137,1,0,0:0:0:0:
224,224,194279,5,12,0:0:0:0:
224,224,194851,1,0,0:0:0:0:
224,224,195422,1,8,0:0:0:0:
256,192,196279,1,8,0:0:0:0:
352,288,196565,1,0,0:0:0:0:
352,288,197137,1,0,0:0:0:0:
352,288,197708,1,8,0:0:0:0:
352,288,198565,1,8,0:0:0:0:
352,288,198851,1,8,0:0:0:0:
352,288,199422,1,0,0:0:0:0:
352,288,199708,1,8,0:0:0:0:
352,288,199994,1,8,0:0:0:0:
352,288,200565,1,0,0:0:0:0:
32,256,200851,1,8,0:0:0:0:
384,288,201422,1,8,0:0:0:0:
224,128,201708,1,0,0:0:0:0:
256,288,202279,1,8,0:0:0:0:
224,128,202565,1,0,0:0:0:0:
224,128,202708,1,0,0:0:0:0:
256,288,202851,1,8,0:0:0:0:
256,288,203137,1,0,0:0:0:0:
224,224,203422,1,8,0:0:0:0:
224,224,203994,1,0,0:0:0:0:
224,224,204565,1,8,0:0:0:0:
352,288,205422,1,8,0:0:0:0:
352,288,205708,1,0,0:0:0:0:
352,288,206280,1,0,0:0:0:0:
352,288,206851,1,8,0:0:0:0:
352,288,207708,1,8,0:0:0:0:
352,288,207994,1,8,0:0:0:0:
352,288,208565,1,0,0:0:0:0:
352,288,208851,1,8,0:0:0:0:
352,288,209137,1,8,0:0:0:0:
352,288,209708,1,0,0:0:0:0:
96,96,209994,1,8,0:0:0:0:
96,96,210565,1,8,0:0:0:0:
352,288,210851,1,8,0:0:0:0:
224,224,211422,1,0,0:0:0:0:
224,224,211708,1,8,0:0:0:0:
224,224,211851,1,8,0:0:0:0:
224,224,211994,1,8,0:0:0:0:
224,224,212279,1,8,0:0:0:0:
224,224,212565,1,12,0:0:0:0:
224,224,213137,1,0,0:0:0:0:
224,224,213708,1,8,0:0:0:0:
352,288,214565,1,8,0:0:0:0:
352,288,214851,1,0,0:0:0:0:
352,288,215421,1,0,0:0:0:0:
352,288,215994,1,8,0:0:0:0:
352,288,216851,1,8,0:0:0:0:
352,288,217137,1,8,0:0:0:0:
352,288,217708,1,0,0:0:0:0:
352,288,217994,1,8,0:0:0:0:
352,288,218280,1,8,0:0:0:0:
352,288,218851,1,0,0:0:0:0:
160,160,219137,1,8,0:0:0:0:
160,160,219708,1,8,0:0:0:0:
352,288,219994,1,0,0:0:0:0:
224,224,220565,1,8,0:0:0:0:
224,224,220851,1,0,0:0:0:0:
224,224,220994,1,0,0:0:0:0:
224,224,221137,1,8,0:0:0:0:
224,224,221421,1,0,0:0:0:0:
128,224,221708,1,8,0:0:0:0:
128,224,222279,1,8,0:0:0:0:
128,224,222851,1,8,0:0:0:0:
128,224,223708,1,8,0:0:0:0:
128,224,223994,1,8,0:0:0:0:
128,224,224565,1,8,0:0:0:0:
128,224,225137,1,8,0:0:0:0:
320,160,225708,5,8,0:0:0:0:
320,160,225994,1,8,0:0:0:0:
320,160,226279,1,8,0:0:0:0:
320,160,226565,1,0,0:0:0:0:
320,160,227137,1,0,0:0:0:0:
320,160,227422,1,8,0:0:0:0:
320,160,227708,1,0,0:0:0:0:
320,160,228279,1,0,0:0:0:0:
320,160,228565,1,8,0:0:0:0:
320,160,228851,1,0,0:0:0:0:
320,160,229422,1,0,0:0:0:0:
320,160,229708,1,8,0:0:0:0:
320,160,229994,1,0,0:0:0:0:
320,160,230279,1,8,0:0:0:0:
320,160,230422,1,8,0:0:0:0:
320,160,230565,1,8,0:0:0:0:
192,288,230851,5,12,0:0:0:0:
192,288,231994,1,4,0:0:0:0:
192,288,233136,1,12,0:0:0:0:
192,288,234280,1,4,0:0:0:0:
192,288,235421,1,12,0:0:0:0:
151,64,235850,1,12,0:0:0:0:
192,288,236565,1,12,0:0:0:0:
151,64,236993,1,12,0:0:0:0:
288,288,237421,1,8,0:0:0:0:
288,288,237565,1,8,0:0:0:0:
256,256,237708,5,12,0:0:0:0:
146,128,238136,1,12,0:0:0:0:
256,256,238565,1,0,0:0:0:0:
256,256,238708,1,0,0:0:0:0:
256,256,238850,1,4,0:0:0:0:
256,192,239993,12,0,249136,0:0:0:0:
