osu file format v14

[General]
AudioFilename: fastest crash.mp3
AudioLeadIn: 0
PreviewTime: 17622
Countdown: 0
SampleSet: None
StackLeniency: 0.2
Mode: 0
LetterboxInBreaks: 0
WidescreenStoryboard: 1

[Editor]
DistanceSpacing: 1.1
BeatDivisor: 4
GridSize: 4
TimelineZoom: 2.799999

[Metadata]
Title:Fastest Crash
TitleUnicode:Fastest Crash
Artist:Camellia
ArtistUnicode:Camellia
Creator:My Angel Hibiki
Version:for the collab thing except it died sorry guys.
Source:
Tags:
BeatmapID:1887461
BeatmapSetID:904168

[Difficulty]
HPDrainRate:5
CircleSize:4.2
OverallDifficulty:9.3
ApproachRate:9.6
SliderMultiplier:1.8
SliderTickRate:1

[Events]
//Background and Video events
0,0,"image.jpg",0,0
//Break Periods
//Storyboard Layer 0 (Background)
//Storyboard Layer 1 (Fail)
//Storyboard Layer 2 (Pass)
//Storyboard Layer 3 (Foreground)
//Storyboard Sound Samples

[TimingPoints]
480,285.714,4,3,0,40,1,0
480,-150.0000000015,4,3,0,40,0,0
17622,-56.2499999999297,4,3,0,40,0,0
21051,-45.000000000045,4,3,0,40,0,0
22194,-56.2499999999297,4,3,0,40,0,0
24479,-62.5,4,3,0,40,0,0
24765,-56.2499999999297,4,3,0,40,0,0
25051,-51.1363636362474,4,3,0,40,0,0
25337,-62.5,4,3,0,40,0,0
25622,-56.2499999999297,4,3,0,40,0,0
32342,-62.5,4,3,0,40,0,0
32908,-83.3333333333333,4,3,0,40,0,0
33622,-200,4,3,0,40,0,0
33908,-125,4,3,0,40,0,0
34194,-90.9090909090909,4,3,0,40,0,0
34479,-71.4285714285714,4,3,0,40,0,0
34765,-58.8235294117647,4,3,0,40,0,0
37051,-166.666666666667,4,3,0,40,0,0
37337,-58.8235294117647,4,3,0,40,0,0
42765,-90.9090909090909,4,3,0,40,0,0
43051,-71.4285714285714,4,3,0,40,0,0
43337,-58.8235294117647,4,3,0,40,0,0

[HitObjects]
315,45,17765,6,0,B|295:37|295:37|279:49|263:53|263:53|247:41|231:37|231:37|221:43|211:45|211:45|195:45|195:45|131:45|59:17|59:17|87:41|99:65,1,320,0|0,0:0|0:0,0:0:0:0:
99,69,18122,1,0,0:0:0:0:
107,85,18194,2,0,P|123:133|119:173,1,80,0|0,0:0|0:0,0:0:0:0:
43,269,18337,2,0,L|119:245,1,80,0|0,0:0|0:0,0:0:0:0:
211,137,18479,2,0,P|195:185|199:225,1,80,0|0,0:0|0:0,0:0:0:0:
263,321,18622,2,0,L|187:297,1,80,0|0,0:0|0:0,0:0:0:0:
39,137,18765,6,0,B|7:137|-25:117|-25:117|3:177|39:177,1,160,0|0,0:0|0:0,0:0:0:0:
279,197,19051,1,0,0:0:0:0:
279,197,19122,1,0,0:0:0:0:
279,197,19194,2,0,L|295:117,1,80,0|0,0:0|0:0,0:0:0:0:
512,0,19337,5,0,0:0:0:0:
428,20,19479,1,0,0:0:0:0:
428,20,19551,1,0,0:0:0:0:
428,20,19622,2,0,B|308:44|308:44|328:48|344:60,1,160,0|0,0:0|0:0,0:0:0:0:
408,278,19908,2,0,P|396:239|400:200,1,80,0|0,0:0|0:0,0:0:0:0:
476,100,20051,2,0,L|398:117,1,80,0|0,0:0|0:0,0:0:0:0:
252,229,20194,2,0,P|238:190|239:150,1,80,0|0,0:0|0:0,0:0:0:0:
309,44,20337,2,0,L|231:64,1,80,0|0,0:0|0:0,0:0:0:0:
52,140,20479,5,0,0:0:0:0:
102,190,20551,1,0,0:0:0:0:
119,123,20622,1,0,0:0:0:0:
52,256,20765,5,0,0:0:0:0:
52,291,20837,1,0,0:0:0:0:
81,273,20908,1,0,0:0:0:0:
52,372,21051,6,0,B|192:356|192:356|160:348|140:324,1,200,0|0,0:0|0:0,0:0:0:0:
52,140,21337,5,0,0:0:0:0:
102,190,21408,1,0,0:0:0:0:
156,236,21479,1,0,0:0:0:0:
356,236,21622,1,0,0:0:0:0:
209,49,21765,5,0,0:0:0:0:
223,103,21837,1,0,0:0:0:0:
238,156,21908,2,0,B|265:269|265:269|253:219|273:183,1,200,0|0,0:0|0:0,0:0:0:0:
307,53,22194,6,0,P|355:37|395:41,1,80,0|0,0:0|0:0,0:0:0:0:
491,117,22337,2,0,L|467:41,1,80,0|0,0:0|0:0,0:0:0:0:
238,156,22479,2,0,P|286:140|326:144,1,80,0|0,0:0|0:0,0:0:0:0:
422,220,22622,2,0,L|398:144,1,80,0|0,0:0|0:0,0:0:0:0:
292,218,22765,5,0,0:0:0:0:
270,293,22837,1,0,0:0:0:0:
348,274,22908,1,0,0:0:0:0:
130,326,23051,5,0,0:0:0:0:
159,377,23123,1,0,0:0:0:0:
189,325,23194,1,0,0:0:0:0:
99,376,23337,5,0,0:0:0:0:
51,86,23479,1,0,0:0:0:0:
51,86,23551,1,0,0:0:0:0:
51,86,23622,2,0,L|71:166,1,80,0|0,0:0|0:0,0:0:0:0:
93,236,23765,1,0,0:0:0:0:
446,232,23908,5,0,0:0:0:0:
156,184,24050,1,0,0:0:0:0:
156,184,24122,1,0,0:0:0:0:
156,184,24194,1,0,0:0:0:0:
296,248,24336,1,0,0:0:0:0:
436,32,24479,6,0,B|422:86|436:140|436:140|416:136|400:120,1,143.999995605469,0|0,0:0|0:0,0:0:0:0:
320,60,24765,6,0,B|305:117|320:174|320:174|298:170|281:153,1,160,0|0,0:0|0:0,0:0:0:0:
200,92,25051,6,0,B|183:154|200:217|200:217|176:213|158:194,1,176.000005371094,0|0,0:0|0:0,0:0:0:0:
90,120,25337,5,0,0:0:0:0:
92,152,25408,1,0,0:0:0:0:
84,183,25479,1,0,0:0:0:0:
66,210,25551,1,0,0:0:0:0:
42,235,25622,6,0,L|198:267,1,160,0|0,0:0|0:0,0:0:0:0:
447,319,25908,1,0,0:0:0:0:
90,120,26051,6,0,L|258:152,1,160,0|0,0:0|0:0,0:0:0:0:
413,183,26337,1,0,0:0:0:0:
133,0,26479,5,0,0:0:0:0:
383,48,26622,1,0,0:0:0:0:
90,120,26765,5,0,0:0:0:0:
355,60,26908,1,0,0:0:0:0:
123,126,27051,5,0,0:0:0:0:
392,186,27194,1,0,0:0:0:0:
84,256,27337,5,0,0:0:0:0:
357,197,27479,1,0,0:0:0:0:
159,132,27622,5,0,0:0:0:0:
123,126,27694,1,0,0:0:0:0:
90,120,27765,1,0,0:0:0:0:
57,111,27837,1,0,0:0:0:0:
29,104,27908,6,0,B|-1:172|37:238|37:238|43:221|58:212,1,160,0|0,0:0|0:0,0:0:0:0:
212,196,28194,1,0,0:0:0:0:
212,196,28265,1,0,0:0:0:0:
212,196,28337,2,0,L|296:220,1,80,0|0,0:0|0:0,0:0:0:0:
476,276,28479,5,0,0:0:0:0:
300,88,28622,1,0,0:0:0:0:
300,88,28694,1,0,0:0:0:0:
300,88,28765,2,0,B|324:156|392:176|392:176|372:184|356:208,1,160,0|0,0:0|0:0,0:0:0:0:
68,281,29051,6,0,L|156:257,1,80,0|0,0:0|0:0,0:0:0:0:
288,217,29194,2,0,P|248:197|200:197,1,80,0|0,0:0|0:0,0:0:0:0:
44,152,29337,2,0,P|84:172|132:172,1,80,0|0,0:0|0:0,0:0:0:0:
264,88,29479,2,0,L|176:112,1,80,0|0,0:0|0:0,0:0:0:0:
68,281,29622,5,0,0:0:0:0:
48,360,29694,1,0,0:0:0:0:
128,340,29765,1,0,0:0:0:0:
229,273,29908,5,0,0:0:0:0:
215,323,29980,1,0,0:0:0:0:
264,308,30051,1,0,0:0:0:0:
400,264,30194,6,0,B|432:300|432:336|432:336|432:300|464:264,1,160,0|0,0:0|0:0,0:0:0:0:
428,48,30479,1,0,0:0:0:0:
428,48,30551,1,0,0:0:0:0:
428,48,30622,2,0,L|428:144,1,80,0|0,0:0|0:0,0:0:0:0:
432,336,30765,5,0,0:0:0:0:
285,89,30908,1,0,0:0:0:0:
285,89,30980,1,0,0:0:0:0:
285,89,31051,2,0,L|333:172,1,80,0|0,0:0|0:0,0:0:0:0:
432,336,31194,5,0,0:0:0:0:
182,196,31337,2,0,P|136:164|124:120,1,80,0|0,0:0|0:0,0:0:0:0:
76,16,31479,2,0,P|110:34|131:68,1,80,0|0,0:0|0:0,0:0:0:0:
53,175,31622,2,0,P|42:138|52:99,1,80,0|0,0:0|0:0,0:0:0:0:
204,36,31764,2,0,P|215:73|205:112,1,80,0|0,0:0|0:0,0:0:0:0:
108,248,31908,5,0,0:0:0:0:
82,307,31979,1,0,0:0:0:0:
58,366,32050,1,0,0:0:0:0:
288,248,32194,5,0,0:0:0:0:
257,285,32265,1,0,0:0:0:0:
228,323,32336,1,0,0:0:0:0:
480,248,32479,6,0,L|316:304,1,144,0|0,0:0|0:0,0:0:0:0:
58,366,32765,1,0,0:0:0:0:
425,160,32908,6,0,L|293:204,1,107.999996704102,0|0,0:0|0:0,0:0:0:0:
108,248,33194,1,0,0:0:0:0:
368,64,33337,5,0,0:0:0:0:
154,117,33479,1,0,0:0:0:0:
44,32,33622,6,0,L|20:104,1,67.5,0|0,0:0|0:0,0:0:0:0:
44,32,33908,6,0,L|56:152,1,108,0|0,0:0|0:0,0:0:0:0:
44,32,34194,6,0,L|88:196,1,148.50000453186,0|0,0:0|0:0,0:0:0:0:
44,32,34479,6,0,L|124:248,1,188.999994232178,0|0,0:0|0:0,0:0:0:0:
44,32,34765,6,0,P|119:45|180:96,1,153.000002918243,0|0,0:0|0:0,0:0:0:0:
224,236,35051,1,0,0:0:0:0:
244,36,35194,6,0,P|287:99|294:177,1,153.000002918243,0|0,0:0|0:0,0:0:0:0:
226,306,35480,1,0,0:0:0:0:
448,100,35622,5,0,0:0:0:0:
416,124,35694,1,0,0:0:0:0:
428,84,35765,1,0,0:0:0:0:
440,124,35837,1,0,0:0:0:0:
408,100,35908,5,0,0:0:0:0:
228,368,36051,1,0,0:0:0:0:
408,100,36337,5,0,0:0:0:0:
80,128,36622,5,2,0:0:0:0:
364,156,36765,1,2,0:0:0:0:
40,192,36908,1,2,0:0:0:0:
408,100,37051,6,0,P|420:108|428:120,1,26.9999991760254,0|0,0:0|0:0,0:0:0:0:
400,268,37194,1,0,0:0:0:0:
400,268,37265,1,0,0:0:0:0:
400,268,37337,2,0,P|424:236|436:188,1,76.5000014591217,0|0,0:0|0:0,0:0:0:0:
476,36,37479,1,0,0:0:0:0:
256,192,37622,1,0,0:0:0:0:
84,68,37765,5,0,0:0:0:0:
84,68,37837,1,0,0:0:0:0:
84,68,37908,2,0,L|160:84,1,76.5000014591217,0|0,0:0|0:0,0:0:0:0:
256,104,38051,1,0,0:0:0:0:
40,264,38194,6,0,P|84:264|120:240,1,76.5000014591217,0|0,0:0|0:0,0:0:0:0:
256,192,38337,2,0,P|212:192|176:216,1,76.5000014591217,0|0,0:0|0:0,0:0:0:0:
36,112,38479,2,0,L|56:185,1,76.5000014591217,0|0,0:0|0:0,0:0:0:0:
256,344,38622,2,0,L|235:270,1,76.5000014591217,0|0,0:0|0:0,0:0:0:0:
164,60,38765,5,0,0:0:0:0:
120,52,38837,1,0,0:0:0:0:
80,44,38908,1,0,0:0:0:0:
344,16,39051,5,0,0:0:0:0:
368,8,39122,1,0,0:0:0:0:
392,0,39194,1,0,0:0:0:0:
256,40,39337,6,0,L|200:240,1,153.000002918243,0|0,0:0|0:0,0:0:0:0:
28,348,39622,1,0,0:0:0:0:
28,348,39694,1,0,0:0:0:0:
28,348,39765,2,0,L|116:336,1,76.5000014591217,0|0,0:0|0:0,0:0:0:0:
360,304,39908,5,0,0:0:0:0:
72,184,40051,1,0,0:0:0:0:
72,184,40123,1,0,0:0:0:0:
72,184,40194,2,0,L|154:217,1,76.5000014591217,0|0,0:0|0:0,0:0:0:0:
381,312,40337,5,0,0:0:0:0:
184,36,40479,2,0,L|238:106,1,76.5000014591217,0|0,0:0|0:0,0:0:0:0:
384,184,40622,2,0,L|329:113,1,76.5000014591217,0|0,0:0|0:0,0:0:0:0:
212,208,40765,2,0,L|282:153,1,76.5000014591217,0|0,0:0|0:0,0:0:0:0:
360,8,40908,2,0,L|289:62,1,76.5000014591217,0|0,0:0|0:0,0:0:0:0:
72,184,41051,5,0,0:0:0:0:
68,240,41122,1,0,0:0:0:0:
64,296,41194,1,0,0:0:0:0:
263,135,41337,5,0,0:0:0:0:
237,171,41408,1,0,0:0:0:0:
212,208,41480,1,0,0:0:0:0:
456,80,41622,5,0,0:0:0:0:
348,312,41765,1,0,0:0:0:0:
348,312,41837,1,0,0:0:0:0:
348,312,41908,2,0,L|348:232,1,76.5000014591217,0|0,0:0|0:0,0:0:0:0:
344,64,42051,1,0,0:0:0:0:
104,88,42194,5,0,0:0:0:0:
126,94,42265,1,0,0:0:0:0:
148,100,42336,1,0,0:0:0:0:
170,107,42408,1,0,0:0:0:0:
188,114,42479,2,0,B|194:154|163:182|163:182|192:208|192:208|167:237,1,153.000002918243
52,344,42765,6,0,L|200:324,1,148.50000453186
44,292,43051,6,0,L|232:320,1,188.999994232178
56,224,43337,6,0,L|268:316,1,229.500004377365
404,372,43622,1,0,0:0:0:0:
394,351,43693,1,0,0:0:0:0:
384,330,43764,1,0,0:0:0:0:
375,309,43836,1,0,0:0:0:0:
365,288,43907,5,0,0:0:0:0:
232,232,44051,1,0,0:0:0:0:
456,168,44194,1,0,0:0:0:0:
356,56,44337,5,0,0:0:0:0:
364,288,44479,1,0,0:0:0:0:
232,232,44622,1,0,0:0:0:0:
456,168,44765,5,0,0:0:0:0:
236,108,44908,1,0,0:0:0:0:
364,288,45051,5,0,0:0:0:0:
356,56,45194,1,0,0:0:0:0:
456,168,45337,5,0,0:0:0:0:
236,108,45480,1,0,0:0:0:0:
364,288,45623,5,0,0:0:0:0:
356,56,45766,1,0,0:0:0:0:
232,232,45908,5,0,0:0:0:0:
213,245,45979,1,0,0:0:0:0:
195,259,46050,1,0,0:0:0:0:
176,273,46122,1,0,0:0:0:0:
158,286,46193,5,0,0:0:0:0:
