osu file format v14

[General]
AudioFilename: farewell to today.mp3
AudioLeadIn: 0
PreviewTime: 90086
Countdown: 0
SampleSet: Soft
StackLeniency: 0.2
Mode: 0
LetterboxInBreaks: 0
WidescreenStoryboard: 1

[Editor]
Bookmarks: 24969,45263,56557,80557,158204,169498,231616,237263,242910,248557,249086,253851,255086,259851,265498
DistanceSpacing: 2.8
BeatDivisor: 4
GridSize: 4
TimelineZoom: 1.640422

[Metadata]
Title:farewell to today
TitleUnicode:farewell to today
Artist:Camellia
ArtistUnicode:かめりあ
Creator:Scaltinof
Version:Bye
Source:
Tags:sudden shower cametek kamel かめるかめりあ
BeatmapID:1609721
BeatmapSetID:765623

[Difficulty]
HPDrainRate:6
CircleSize:4.2
OverallDifficulty:8
ApproachRate:9.5
SliderMultiplier:2
SliderTickRate:1

[Events]
//Background and Video events
0,0,"BG.jpg",0,0
//Break Periods
2,182204,191003
//Storyboard Layer 0 (Background)
//Storyboard Layer 1 (Fail)
//Storyboard Layer 2 (Pass)
//Storyboard Layer 3 (Foreground)
//Storyboard Sound Samples

[TimingPoints]
87,352.941176470588,4,2,1,50,1,0
87,-125,4,2,1,50,0,0
2910,-83.3333333333333,4,2,1,50,0,0
3881,-83.3333333333333,4,2,1,5,0,0
3969,-83.3333333333333,4,2,1,50,0,0
4939,-83.3333333333333,4,2,1,5,0,0
5028,-125,4,2,1,50,0,0
5734,-125,4,2,1,50,0,0
8557,-83.3333333333333,4,2,1,50,0,0
9881,-83.3333333333333,4,2,1,5,0,0
9969,-83.3333333333333,4,2,1,50,0,0
10675,-125,4,2,1,50,0,0
11028,-125,4,2,1,50,0,0
11381,-111.111111111111,4,2,1,60,0,0
11645,-111.111111111111,4,2,1,5,0,0
11734,-111.111111111111,4,2,1,60,0,0
14204,-76.9230769230769,4,2,1,60,0,0
15175,-76.9230769230769,4,2,1,5,0,0
15263,-76.9230769230769,4,2,1,60,0,0
16234,-76.9230769230769,4,2,1,5,0,0
16322,-111.111111111111,4,2,1,60,0,0
17028,-111.111111111111,4,2,1,60,0,0
19939,-111.111111111111,4,2,1,30,0,0
20204,-111.111111111111,4,2,1,40,0,0
20557,-111.111111111111,4,2,1,50,0,0
20910,-111.111111111111,4,2,1,60,0,0
21263,-111.111111111111,4,2,1,70,0,0
21616,-111.111111111111,4,2,1,80,0,0
21792,-111.111111111111,4,2,1,5,0,0
21969,-125,4,2,1,60,0,0
22675,-100,4,2,1,70,0,0
42439,-83.3333333333333,4,2,1,75,0,0
44557,-62.5,4,2,1,80,0,0
44910,-50,4,2,1,90,0,0
45263,-166.666666666667,4,2,2,50,0,0
67851,-125,4,2,1,60,0,0
79145,-100,4,2,1,70,0,0
84792,-100,4,2,1,70,0,0
86204,-83.3333333333333,4,2,1,70,0,0
87616,-100,4,2,1,75,0,0
87969,-100,4,2,1,80,0,0
88322,-100,4,2,1,85,0,0
88675,-100,4,2,1,90,0,0
89028,-133.333333333333,4,2,1,45,0,0
89734,-50,4,2,1,90,0,0
90086,-100,4,2,1,70,0,0
90439,-55.5555555555556,4,2,1,80,0,1
90792,-66.6666666666667,4,2,1,80,0,0
92381,-50,4,2,1,80,0,0
92557,-66.6666666666667,4,2,1,80,0,0
95381,-50,4,2,1,80,0,0
96086,-43.4782608695652,4,2,1,90,0,1
96439,-66.6666666666667,4,2,1,80,0,0
98028,-50,4,2,1,80,0,0
98204,-66.6666666666667,4,2,1,80,0,0
99969,-100,4,2,1,80,0,0
100322,-80,4,2,1,80,0,0
101734,-55.5555555555556,4,2,1,80,0,1
102086,-66.6666666666667,4,2,1,80,0,0
103675,-50,4,2,1,80,0,0
103851,-66.6666666666667,4,2,1,80,0,0
106675,-50,4,2,1,80,0,0
107381,-43.4782608695652,4,2,1,90,0,1
107734,-66.6666666666667,4,2,1,80,0,0
109322,-50,4,2,1,80,0,0
109498,-66.6666666666667,4,2,1,80,0,0
110204,-40,4,2,1,80,0,0
111263,-100,4,2,1,80,0,0
111616,-125,4,2,1,80,0,0
111969,-125,4,2,1,5,0,0
112322,-125,4,2,1,60,0,0
113028,-55.5555555555556,4,2,1,80,0,1
113381,-66.6666666666667,4,2,1,80,0,0
114969,-50,4,2,1,80,0,0
115145,-66.6666666666667,4,2,1,80,0,0
117969,-50,4,2,1,80,0,0
118675,-43.4782608695652,4,2,1,90,0,1
119028,-66.6666666666667,4,2,1,80,0,0
120616,-50,4,2,1,80,0,0
120792,-66.6666666666667,4,2,1,80,0,0
122557,-100,4,2,1,80,0,0
122910,-80,4,2,1,80,0,0
124322,-133.333333333333,4,2,1,80,0,0
124675,-66.6666666666667,4,2,1,80,0,1
124719,-66.6666666666667,4,2,1,80,0,0
126263,-50,4,2,1,80,0,0
126439,-66.6666666666667,4,2,1,80,0,0
129263,-50,4,2,1,80,0,0
129969,-43.4782608695652,4,2,1,90,0,1
130322,-66.6666666666667,4,2,1,80,0,0
131910,-50,4,2,1,80,0,0
132086,-66.6666666666667,4,2,1,80,0,0
132792,-50,4,2,1,80,0,0
135086,-100,4,2,1,80,0,0
135616,-55.5555555555556,4,2,1,80,0,1
135969,-66.6666666666667,4,2,1,80,0,0
137557,-50,4,2,1,80,0,0
137734,-66.6666666666667,4,2,1,80,0,0
140557,-50,4,2,1,80,0,0
141263,-43.4782608695652,4,2,1,90,0,1
141616,-66.6666666666667,4,2,1,80,0,0
143204,-50,4,2,1,80,0,0
143381,-66.6666666666667,4,2,1,80,0,0
145145,-100,4,2,1,80,0,0
145498,-80,4,2,1,80,0,0
146910,-133.333333333333,4,2,1,80,0,0
147263,-66.6666666666667,4,2,1,80,0,1
147307,-66.6666666666667,4,2,1,80,0,0
148851,-50,4,2,1,80,0,0
149028,-66.6666666666667,4,2,1,80,0,0
151851,-50,4,2,1,80,0,0
152557,-43.4782608695652,4,2,1,90,0,1
152910,-66.6666666666667,4,2,1,80,0,0
154498,-50,4,2,1,80,0,0
154675,-66.6666666666667,4,2,1,80,0,0
155381,-50,4,2,1,80,0,0
158204,-166.666666666667,4,2,2,50,0,0
180086,-125,4,2,1,70,0,0
191557,-125,4,2,2,50,0,0
201086,-125,4,2,2,60,0,0
201616,-125,4,2,2,70,0,0
201969,-125,4,2,1,80,0,0
202145,-125,4,2,1,30,0,0
202675,-100,4,2,1,40,0,0
202851,-100,4,2,1,50,0,0
203028,-83.3333333333333,4,2,1,70,0,0
203204,-66.6666666666667,4,2,1,80,0,0
203381,-125,4,2,1,60,0,0
207881,-80,4,2,1,60,0,0
208498,-125,4,2,1,60,0,0
214675,-100,4,2,1,70,0,0
220322,-100,4,2,1,70,0,0
221734,-83.3333333333333,4,2,1,70,0,0
223145,-100,4,2,1,75,0,0
223498,-100,4,2,1,80,0,0
223851,-100,4,2,1,85,0,0
224204,-100,4,2,1,90,0,0
224557,-133.333333333333,4,2,1,45,0,0
225263,-50,4,2,1,90,0,0
225616,-100,4,2,1,70,0,0
225792,-50,4,2,2,70,0,0
225969,-66.6666666666667,4,2,1,80,0,1
245910,-66.6666666666667,4,2,1,80,0,1
246263,-66.6666666666667,4,2,1,80,0,1
246792,-66.6666666666667,4,2,1,30,0,1
247145,-200,4,2,1,40,0,1
247322,-142.857142857143,4,2,1,50,0,1
247498,-99.9999999999999,4,2,1,60,0,1
247675,-76.9230769230769,4,2,1,70,0,1
247851,-66.6666666666667,4,2,1,80,0,1
248557,-66.6666666666667,4,2,1,80,0,1
268322,-50,4,2,1,80,0,1
270792,-66.6666666666667,4,2,1,80,0,1
270969,-66.6666666666667,4,2,2,80,0,1
271145,-83.3333333333333,4,2,1,80,0,0
282439,-100,4,2,1,70,0,0
290910,-100,4,2,1,40,0,0
291263,-100,4,2,1,50,0,0
291616,-100,4,2,1,60,0,0
291969,-100,4,2,1,70,0,0
292498,-100,4,2,1,40,0,0
293028,-100,4,2,1,60,0,0
293734,-125,4,2,1,60,0,0
296557,-83.3333333333333,4,2,1,50,0,0
297528,-83.3333333333333,4,2,1,5,0,0
297616,-83.3333333333333,4,2,1,50,0,0
299381,-125,4,2,1,50,0,0
302204,-83.3333333333333,4,2,1,50,0,0
303528,-83.3333333333333,4,2,1,5,0,0
303616,-83.3333333333333,4,2,1,50,0,0
304675,-125,4,2,1,50,0,0
313498,-100,4,2,1,60,0,0
315616,-100,4,2,1,10,0,0
316322,-100,4,2,1,5,0,0

[Colours]
Combo1 : 113,198,234
Combo2 : 27,79,126

[HitObjects]
38,206,87,6,0,P|92:189|130:231,1,120,4|0,3:2|0:0,0:0:0:0:
148,321,439,2,0,L|160:241,1,80,8|0,0:1|0:0,0:0:0:0:
183,102,792,1,0,3:0:0:0:
262,113,969,1,0,0:0:0:0:
119,153,1145,2,0,L|131:233,1,80,8|0,0:1|0:0,0:0:0:0:
148,321,1410,1,0,0:0:0:0:
108,315,1498,5,0,3:0:0:0:
213,174,1675,1,0,0:0:0:0:
323,276,1851,2,0,L|243:288,1,80,8|0,0:1|0:0,0:0:0:0:
130,232,2204,1,0,3:0:0:0:
238,327,2381,2,0,L|244:288,1,40
298,189,2557,2,0,L|378:201,1,80,8|0,0:1|0:0,0:0:0:0:
470,328,2910,5,0,3:0:0:0:
458,319,2998,2,0,L|445:239,1,59.9999981689454,0|0,0:0|0:0,0:0:0:0:
365,209,3175,1,0,0:0:0:0:
377,200,3263,2,0,L|389:120,1,59.9999981689454,8|0,0:1|0:0,0:0:0:0:
496,51,3439,2,0,L|421:79,1,59.9999981689454,0|0,0:0|0:0,0:0:0:0:
351,57,3616,6,0,B|308:22|308:22|255:62|190:45,1,179.999994506836,0|0,3:0|0:0,0:0:0:0:
79,10,3969,1,8,0:1:0:0:
496,51,4322,5,0,3:0:0:0:
30,65,4675,2,0,P|53:135|100:78,1,179.999994506836,8|0,0:1|0:0,0:0:0:0:
170,43,5028,6,0,P|177:61|180:83,5,26.6666666666667,0|0|0|0|0|0,3:0|0:0|0:0|0:0|0:0|0:0,0:0:0:0:
222,155,5381,2,0,P|209:170|192:183,5,26.6666666666667,8|0|0|0|0|0,0:1|0:0|0:0|0:0|0:0|0:0,0:0:0:0:
173,265,5734,6,0,L|253:253,1,80,0|0,3:0|0:0,0:0:0:0:
41,238,6086,2,0,L|53:318,1,80,8|0,0:1|0:0,0:0:0:0:
192,351,6439,1,0,3:0:0:0:
111,381,6616,1,0,0:0:0:0:
13,255,6792,2,0,L|25:175,1,80,8|0,0:1|0:0,0:0:0:0:
80,78,7057,1,0,0:0:0:0:
40,84,7145,5,0,3:0:0:0:
116,228,7322,1,0,0:0:0:0:
210,140,7498,2,0,L|290:152,1,80,8|0,0:1|0:0,0:0:0:0:
308,155,7763,1,0,0:0:0:0:
308,155,7851,1,0,3:0:0:0:
384,299,8028,1,0,0:0:0:0:
478,211,8204,2,0,L|398:223,1,80,8|0,0:1|0:0,0:0:0:0:
305,368,8557,5,0,3:0:0:0:
296,356,8645,2,0,L|216:343,1,59.9999981689454,0|0,0:0|0:0,0:0:0:0:
104,375,8822,1,0,0:0:0:0:
116,384,8910,2,0,L|136:251,1,119.999996337891,8|0,0:1|0:0,0:0:0:0:
204,323,9263,6,0,L|217:333,4,14.9999995422363,0|0|0|0|0,3:0|0:0|0:0|0:0|0:0,0:0:0:0:
52,300,9439,2,0,L|36:305,4,14.9999995422363
184,204,9616,2,0,B|205:180|205:180|146:182|91:162|91:162|105:191,1,179.999994506836,8|0,0:1|0:0,0:0:0:0:
134,266,9969,5,0,3:0:0:0:
496,16,10322,1,8,0:1:0:0:
424,147,10675,6,0,P|411:150|398:152,5,26.6666666666667,0|0|0|0|0|0,3:0|0:0|0:0|0:0|0:0|0:0,0:0:0:0:
388,38,11028,6,0,L|394:77,1,40,8|0,0:1|0:0,0:0:0:0:
495,177,11204,2,0,L|489:216,1,40,0|0,3:0|0:0,0:0:0:0:
378,299,11381,6,0,P|366:237|303:231,1,134.999995880127,4|0,1:0|0:0,0:0:0:0:
210,295,11734,2,0,L|298:309,1,89.9999972534181,8|2,1:0|0:0,0:0:0:0:
402,378,12086,1,0,1:0:0:0:
303,230,12263,1,2,0:0:0:0:
197,384,12439,2,0,L|211:295,1,89.9999972534181,8|2,1:0|0:0,0:0:0:0:
228,209,12704,1,0,0:0:0:0:
183,216,12792,5,0,1:0:0:0:
201,89,12969,1,2,0:0:0:0:
39,129,13145,2,0,L|127:143,1,89.9999972534181,8|2,1:0|0:0,0:0:0:0:
255,161,13498,1,0,1:0:0:0:
120,98,13675,2,0,L|127:142,1,44.999998626709,2|0,0:0|0:0,0:0:0:0:
183,216,13851,2,0,L|94:230,1,89.9999972534181,8|2,1:0|0:0,0:0:0:0:
67,333,14204,5,0,1:0:0:0:
80,324,14292,2,0,L|90:259,1,64.9999970245363,0|2,0:0|0:0,0:0:0:0:
196,225,14469,1,0,0:0:0:0:
183,216,14557,2,0,L|170:136,1,64.9999970245363,8|0,1:0|0:0,0:0:0:0:
153,30,14734,2,0,L|228:58,1,64.9999970245363,2|0,0:0|0:0,0:0:0:0:
327,98,14910,6,0,B|279:138|279:138|317:205|290:265,1,194.999991073609,0|0,1:0|0:0,0:0:0:0:
240,368,15263,1,8,1:0:0:0:
153,30,15616,5,0,1:0:0:0:
294,309,15969,2,0,B|213:254|213:254|167:340,1,194.999991073609,8|0,1:0|0:0,0:0:0:0:
88,378,16322,6,0,P|82:364|78:349,5,29.9999990844727,0|0|0|0|0|0,3:0|0:0|0:0|0:0|0:0|0:0,0:0:0:0:
0,281,16675,2,0,P|12:265|29:252,5,29.9999990844727,8|0|0|0|0|0,0:1|0:0|0:0|0:0|0:0|0:0,0:0:0:0:
70,181,17028,6,0,L|158:195,1,89.9999972534181,0|2,1:0|0:0,0:0:0:0:
130,0,17381,2,0,L|144:88,1,89.9999972534181,8|2,1:0|0:0,0:0:0:0:
188,263,17734,1,0,1:0:0:0:
67,283,17910,1,2,0:0:0:0:
174,95,18086,2,0,L|159:183,1,89.9999972534181,8|2,1:0|0:0,0:0:0:0:
143,270,18351,1,0,0:0:0:0:
188,263,18439,5,0,1:0:0:0:
87,127,18616,1,2,0:0:0:0:
214,27,18792,2,0,L|313:41,1,89.9999972534181,8|2,1:0|0:0,0:1:0:0:
325,44,19057,1,0,0:0:0:0:
347,40,19145,5,0,1:0:0:0:
347,51,19234,1,0,0:0:0:0:
348,62,19322,1,2,0:0:0:0:
349,73,19410,1,0,0:0:0:0:
330,107,19498,6,0,P|331:130|337:152,1,44.999998626709,8|0,0:1|0:0,0:0:0:0:
466,272,19675,2,0,P|447:261|426:256,1,44.999998626709,2|0,1:0|0:0,0:0:0:0:
256,308,19851,5,4,0:1:0:0:
256,192,19939,12,0,21792,0:0:0:0:
256,192,21969,6,0,L|270:204,3,20,0|0|0|0,3:0|3:0|3:0|3:0,3:0:0:0:
210,127,22145,2,0,L|185:135,2,26.6666666666667,0|0|0,3:0|3:0|3:0,3:0:0:0:
289,121,22322,6,0,L|295:74,1,40,8|8,3:0|3:0,3:0:0:0:
184,217,22498,2,0,L|190:256,1,40,4|4,3:3|3:3,3:0:0:0:
393,332,22675,6,0,P|368:332|344:324,1,50,4|0,1:0|0:0,0:0:0:0:
367,174,22851,2,0,P|391:173|415:181,1,50,2|0,0:0|0:0,0:0:0:0:
478,267,23028,1,8,1:0:0:0:
453,263,23116,1,0,0:0:0:0:
428,259,23204,2,0,L|379:252,1,50,2|0,0:0|0:0,0:0:0:0:
277,368,23381,2,0,P|252:368|228:360,1,50,0|0,1:0|0:0,0:0:0:0:
266,102,23557,2,0,P|291:101|315:110,1,50,2|0,0:0|0:0,0:0:0:0:
264,290,23734,6,0,B|259:249|226:227|226:227|264:213|278:179,1,150,8|0,1:0|0:0,0:0:0:0:
379,252,24086,6,0,L|329:244,1,50,0|0,1:0|0:0,0:0:0:0:
203,147,24263,2,0,L|153:139,1,50,2|0,0:0|0:0,0:0:0:0:
59,236,24439,2,0,L|66:186,1,50,8|0,1:0|0:0,0:0:0:0:
164,60,24616,2,0,L|171:11,1,50,2|0,0:0|0:0,0:0:0:0:
25,99,24792,6,0,P|50:98|74:106,1,50,0|0,1:0|0:0,0:0:0:0:
177,268,24969,2,0,P|178:243|190:220,1,50,2|0,0:0|0:0,0:0:0:0:
256,64,25145,1,8,1:0:0:0:
335,268,25322,2,0,P|333:243|322:220,1,50,2|0,0:0|0:0,0:0:0:0:
487,99,25498,6,0,P|462:98|438:106,1,50,0|0,1:0|0:0,0:0:0:0:
415,245,25675,2,0,P|428:223|432:199,1,50,2|0,0:0|0:0,0:0:0:0:
332,60,25851,1,8,1:0:0:0:
328,85,25939,1,0,0:0:0:0:
324,109,26028,2,0,P|335:130|354:147,1,50,2|0,0:0|0:0,0:0:0:0:
501,172,26204,1,0,1:0:0:0:
512,220,26292,2,0,L|504:269,2,50,0|2|0,0:0|0:0|0:0,0:0:0:0:
411,19,26557,6,0,B|336:37|336:37|323:109,1,150,8|0,1:0|0:0,0:0:0:0:
395,244,26910,6,0,L|345:236,1,50,0|0,1:0|0:0,0:0:0:0:
117,244,27086,2,0,L|166:236,1,50,2|0,0:0|0:0,0:0:0:0:
333,312,27263,2,0,L|324:361,1,50,8|0,1:0|0:0,0:0:0:0:
188,361,27439,2,0,L|180:312,1,50,2|0,0:0|0:0,0:0:0:0:
281,180,27616,5,0,1:0:0:0:
281,180,27704,1,0,0:0:0:0:
281,180,27792,2,0,P|256:185|232:181,1,50,2|0,0:0|0:0,0:0:0:0:
142,76,27969,2,0,L|150:126,1,50,8|0,1:0|0:0,0:0:0:0:
364,126,28145,2,0,L|371:76,1,50,2|0,0:0|0:0,0:0:0:0:
381,0,28322,5,0,1:0:0:0:
257,227,28498,2,0,P|257:251|265:275,1,50,2|0,0:0|0:0,0:0:0:0:
378,357,28675,2,0,L|427:349,1,50,8|0,1:0|0:0,0:0:0:0:
511,235,28851,2,0,P|512:210|504:186,1,50,2|0,0:0|0:0,0:0:0:0:
335,239,29028,1,0,1:0:0:0:
360,235,29116,1,0,0:0:0:0:
385,231,29204,2,0,L|434:224,1,50,2|0,0:0|0:0,0:0:0:0:
230,90,29381,6,0,P|274:136|300:77,1,150,8|0,1:0|0:0,0:0:0:0:
160,46,29734,6,0,L|149:109,1,50,0|0,1:0|0:0,0:0:0:0:
256,212,29910,1,2,0:0:0:0:
232,208,29998,1,0,0:0:0:0:
207,204,30086,2,0,L|143:193,1,50,8|0,1:0|0:0,0:0:0:0:
80,60,30263,2,0,L|69:123,1,50,2|0,0:0|0:0,0:0:0:0:
221,284,30439,6,0,L|157:273,1,50,0|0,1:0|0:0,0:0:0:0:
0,74,30616,2,0,L|-10:137,1,50,2|0,0:0|0:0,0:0:0:0:
20,211,30792,2,0,L|69:203,1,50,8|0,1:0|0:0,0:0:0:0:
160,46,30969,2,0,L|209:53,1,50,2|0,0:0|0:0,0:0:0:0:
381,150,31145,6,0,P|398:167|408:190,1,50,0|0,1:0|0:0,0:0:0:0:
297,45,31322,2,0,P|304:20|319:1,1,50,2|0,0:0|0:0,0:0:0:0:
289,142,31498,1,8,1:0:0:0:
271,160,31586,1,0,0:0:0:0:
249,170,31675,2,0,P|224:176|200:173,1,50,2|0,0:0|0:0,0:0:0:0:
54,116,31851,1,0,1:0:0:0:
43,68,31939,2,0,L|50:18,2,50,0|2|0,0:0|0:0|0:0,0:0:0:0:
12,233,32204,6,0,B|76:228|97:181|97:181|76:193|55:194,1,150,8|0,1:0|0:0,0:0:0:0:
60,320,32557,6,0,L|123:330,1,50,0|0,1:0|0:0,0:0:0:0:
314,293,32734,2,0,L|303:356,1,50,2|0,0:0|0:0,0:0:0:0:
206,343,32910,2,0,L|198:293,1,50,8|0,1:0|0:0,0:0:0:0:
452,320,33086,2,0,L|388:330,1,50,2|0,0:0|0:0,0:0:0:0:
256,128,33263,5,0,1:0:0:0:
256,128,33351,1,0,0:0:0:0:
256,128,33439,2,0,L|256:178,1,50,2|0,0:0|0:0,0:0:0:0:
133,253,33616,2,0,P|149:234|171:222,1,50,8|0,1:0|0:0,0:0:0:0:
340,222,33792,2,0,P|362:234|379:253,1,50,2|0,0:0|0:0,0:0:0:0:
103,159,33969,5,12,1:2:0:0:
205,55,34145,1,2,0:0:0:0:
205,55,34234,1,8,0:2:0:0:
205,55,34322,1,8,1:0:0:0:
61,78,34498,1,10,0:0:0:0:
125,15,34675,1,0,1:2:0:0:
125,15,34763,2,0,L|55:5,1,50,8|0,0:0|0:0,0:0:0:0:
191,144,35028,5,8,1:0:0:0:
214,140,35116,1,0,0:0:0:0:
239,133,35204,1,2,0:0:0:0:
260,121,35292,1,0,0:0:0:0:
282,110,35381,5,8,1:2:0:0:
438,179,35557,1,2,0:0:0:0:
438,179,35645,1,8,0:0:0:0:
438,179,35734,1,8,1:0:0:0:
269,215,35910,1,10,0:0:0:0:
365,257,36086,1,0,1:2:0:0:
365,257,36175,2,0,L|375:320,1,50,8|2,0:0|0:0,0:0:0:0:
386,85,36439,5,8,1:0:0:0:
348,169,36616,1,2,0:0:0:0:
202,148,36792,5,8,1:2:0:0:
242,382,36969,1,2,0:0:0:0:
242,382,37057,1,8,0:0:0:0:
242,382,37145,1,8,1:0:0:0:
348,169,37322,1,10,0:0:0:0:
373,314,37498,1,0,1:2:0:0:
373,314,37586,2,0,L|436:304,1,50,8|2,0:0|0:0,0:0:0:0:
136,278,37851,5,8,1:0:0:0:
115,263,37939,1,0,0:0:0:0:
97,246,38028,1,2,0:0:0:0:
82,226,38116,1,0,0:0:0:0:
69,204,38204,5,8,1:2:0:0:
303,48,38381,1,2,0:0:0:0:
303,48,38469,1,8,0:0:0:0:
303,48,38557,1,8,1:0:0:0:
207,312,38734,1,10,0:0:0:0:
129,41,38910,1,0,1:2:0:0:
129,41,38998,2,0,L|119:104,1,50,8|2,0:0|0:0,0:0:0:0:
351,214,39263,6,0,P|348:190|336:168,1,50,8|0,1:0|0:0,0:0:0:0:
155,250,39439,2,0,P|150:225|155:201,1,50,2|0,0:0|0:0,0:0:0:0:
33,99,39616,6,0,P|56:142|51:191,1,100,8|2,1:2|0:0,0:0:0:0:
18,270,39881,1,8,0:0:0:0:
18,270,39969,1,8,1:0:0:0:
106,371,40145,1,10,0:0:0:0:
51,191,40322,6,0,P|76:148|121:128,1,100,8|2,1:2|0:0,0:0:0:0:
206,118,40586,1,8,0:0:0:0:
206,118,40675,1,8,1:0:0:0:
337,190,40851,1,10,0:0:0:0:
337,190,40939,1,8,0:0:0:0:
337,190,41028,6,0,P|293:214|244:209,1,100,8|2,1:2|0:0,0:0:0:0:
166,181,41292,1,8,0:0:0:0:
165,181,41381,1,8,1:0:0:0:
123,17,41557,1,10,0:0:0:0:
123,17,41645,1,8,0:0:0:0:
123,17,41734,6,0,P|167:41|216:36,1,100,8|2,1:2|0:0,0:0:0:0:
294,8,41998,1,8,0:0:0:0:
295,8,42086,1,8,1:0:0:0:
195,160,42263,6,0,L|190:127,2,25,10|8|8,0:0|0:0|0:0,0:0:0:0:
158,122,42439,6,0,L|166:181,1,59.9999981689454,8|0,1:2|0:0,0:0:0:0:
86,303,42616,2,0,L|138:261,1,59.9999981689454,10|0,0:0|0:0,0:0:0:0:
279,275,42792,2,0,L|216:250,1,59.9999981689454,8|0,1:2|0:0,0:0:0:0:
20,171,42969,1,10,0:0:0:0:
20,171,43057,1,8,0:0:0:0:
20,171,43145,6,0,L|75:192,1,59.9999981689454,8|0,1:2|0:0,0:0:0:0:
213,143,43322,2,0,L|166:180,1,59.9999981689454,10|0,0:0|0:0,0:0:0:0:
141,324,43498,1,8,1:2:0:0:
138,309,43586,1,8,0:0:0:0:
136,294,43675,2,0,L|104:299,1,29.9999990844727,10|8,0:0|0:0,0:0:0:0:
134,279,43763,2,0,L|102:284,1,29.9999990844727,8|8,0:0|0:0,0:0:0:0:
131,263,43851,5,12,1:2:0:0:
164,292,43939,1,8,0:0:0:0:
205,307,44028,1,10,0:0:0:0:
250,302,44116,1,8,0:0:0:0:
289,281,44204,1,8,0:0:0:0:
328,259,44292,1,8,0:0:0:0:
373,255,44381,1,10,0:0:0:0:
415,269,44469,1,8,0:0:0:0:
448,300,44557,6,0,L|434:378,1,80,8|8,0:0|0:0,0:0:0:0:
275,359,44734,2,0,L|288:280,1,80,8|8,0:0|0:0,0:0:0:0:
485,190,44910,6,0,L|386:173,1,100,8|8,0:3|0:0,0:0:0:0:
197,42,45086,2,0,L|180:140,1,100,4|8,1:3|0:0,0:0:0:0:
53,307,45263,5,4,1:0:0:0:
57,277,45792,1,2,0:0:0:0:
211,234,46322,2,0,L|179:228,2,29.9999990844727,0|0|0,0:0|0:0|0:0,0:0:0:0:
226,236,46586,1,0,0:0:0:0:
241,238,46675,5,2,0:0:0:0:
237,207,47204,1,2,0:0:0:0:
75,140,47557,2,0,L|106:135,1,29.9999990844727
176,157,47734,1,2,0:0:0:0:
187,146,47822,1,0,0:0:0:0:
199,137,47910,1,0,0:0:0:0:
213,132,47998,1,0,0:0:0:0:
228,129,48086,6,0,P|281:172|394:168,1,179.999994506836,2|2,0:0|0:0,0:0:0:0:
440,142,49145,1,0,0:0:0:0:
429,152,49234,1,0,0:0:0:0:
417,161,49322,1,0,0:0:0:0:
403,166,49410,1,0,0:0:0:0:
388,170,49498,6,0,P|335:127|222:131,1,179.999994506836,2|2,0:0|0:0,0:0:0:0:
408,319,50381,1,0,0:0:0:0:
410,304,50469,1,0,0:0:0:0:
412,289,50557,2,0,L|407:259,3,29.9999990844727,2|0|0|0,0:0|0:0|0:0|0:0,0:0:0:0:
426,317,50910,5,2,0:0:0:0:
422,347,51439,1,2,0:0:0:0:
248,235,51969,2,0,L|280:241,2,29.9999990844727,0|0|0,0:0|0:0|0:0,0:0:0:0:
233,233,52234,1,0,0:0:0:0:
218,231,52322,5,2,0:0:0:0:
222,262,52851,1,2,0:0:0:0:
91,347,53204,2,0,L|86:316,1,29.9999990844727,0|0,0:0|0:0,0:0:0:0:
108,246,53381,1,2,0:0:0:0:
97,235,53469,1,0,0:0:0:0:
88,223,53557,1,0,0:0:0:0:
83,209,53645,1,0,0:0:0:0:
80,194,53734,6,0,P|123:141|119:28,1,179.999994506836,2|2,0:0|0:0,0:0:0:0:
28,35,54792,1,0,0:0:0:0:
39,46,54881,1,0,0:0:0:0:
48,58,54969,1,0,0:0:0:0:
53,72,55057,1,0,0:0:0:0:
56,87,55145,5,2,0:0:0:0:
240,54,55410,1,0,0:0:0:0:
360,196,55675,1,2,0:0:0:0:
156,123,56028,2,0,L|150:154,1,29.9999990844727,0|0,0:0|0:0,0:0:0:0:
94,246,56204,1,2,0:0:0:0:
107,238,56292,1,0,0:0:0:0:
121,232,56381,1,0,0:0:0:0:
136,231,56469,1,0,0:0:0:0:
151,232,56557,5,2,0:0:0:0:
181,236,57086,1,2,0:0:0:0:
309,135,57616,2,0,L|303:167,2,29.9999990844727,2|0|0,0:0|0:0|0:0,0:0:0:0:
311,120,57881,1,0,0:0:0:0:
313,105,57969,5,2,0:0:0:0:
282,109,58498,1,2,0:0:0:0:
121,177,58851,2,0,L|152:182,1,29.9999990844727,2|0,0:0|0:0,0:0:0:0:
222,160,59028,1,2,0:0:0:0:
233,171,59116,1,0,0:0:0:0:
245,180,59204,1,0,0:0:0:0:
259,185,59292,1,0,0:0:0:0:
274,188,59381,6,0,P|327:145|440:149,1,179.999994506836,2|2,0:0|0:0,0:0:0:0:
326,216,60439,1,2,0:0:0:0:
315,205,60528,1,0,0:0:0:0:
303,196,60616,1,0,0:0:0:0:
289,191,60704,1,0,0:0:0:0:
274,188,60792,6,0,P|221:231|108:227,1,179.999994506836,2|2,0:0|0:0,0:0:0:0:
104,65,61675,1,2,0:0:0:0:
102,80,61763,1,2,0:0:0:0:
100,95,61851,2,0,L|105:125,3,29.9999990844727,2|2|2|2,0:0|0:0|0:0|0:0,0:0:0:0:
86,67,62204,5,2,0:0:0:0:
227,111,62734,1,2,0:0:0:0:
227,111,63263,2,0,L|195:105,2,29.9999990844727,2|2|2,0:0|0:0|0:0,0:0:0:0:
242,113,63528,1,2,0:0:0:0:
257,115,63616,5,2,0:0:0:0:
421,37,64145,1,2,0:0:0:0:
421,37,64498,2,0,L|426:68,1,29.9999990844727,2|2,0:0|0:0,0:0:0:0:
404,138,64675,1,2,0:0:0:0:
415,149,64763,1,2,0:0:0:0:
424,161,64851,1,2,0:0:0:0:
429,175,64939,1,2,0:0:0:0:
432,190,65028,6,0,P|389:243|393:356,1,179.999994506836,2|2,0:0|0:0,0:0:0:0:
484,349,66086,1,2,0:0:0:0:
473,338,66175,1,2,0:0:0:0:
464,326,66263,1,2,0:0:0:0:
459,312,66351,1,2,0:0:0:0:
456,297,66439,5,2,0:0:0:0:
272,330,66704,1,2,0:0:0:0:
152,188,66969,1,2,0:0:0:0:
356,261,67322,6,0,L|361:229,1,29.9999990844727,2|2,0:0|3:3,0:0:0:0:
418,138,67498,1,2,3:0:0:0:
405,146,67586,1,2,3:0:0:0:
391,152,67675,1,2,3:0:0:0:
376,153,67763,1,2,3:0:0:0:
360,150,67851,5,12,0:0:0:0:
298,296,68116,1,8,0:0:0:0:
151,233,68381,1,8,0:0:0:0:
214,87,68645,1,8,0:0:0:0:
360,150,69263,5,8,0:0:0:0:
298,296,69528,1,8,0:0:0:0:
151,233,69792,1,8,0:0:0:0:
214,87,70057,1,8,0:0:0:0:
221,125,70586,6,0,L|217:106,1,20,8|8,0:0|0:0,0:0:0:0:
214,87,70675,5,8,0:0:0:0:
151,233,70939,1,8,0:0:0:0:
298,296,71204,1,8,0:0:0:0:
360,150,71469,1,8,0:0:0:0:
214,87,72086,5,8,0:0:0:0:
151,233,72351,1,8,0:0:0:0:
298,296,72616,1,8,0:0:0:0:
360,150,72881,1,8,0:0:0:0:
214,87,73145,1,8,0:0:0:0:
305,47,73410,6,0,L|302:67,1,20,8|8,0:0|0:0,0:0:0:0:
299,88,73498,5,8,0:0:0:0:
359,235,73763,1,8,0:0:0:0:
212,294,74028,1,8,0:0:0:0:
152,147,74292,1,8,0:0:0:0:
299,88,74910,5,8,0:0:0:0:
359,235,75175,1,8,0:0:0:0:
212,294,75439,1,8,0:0:0:0:
152,147,75704,1,8,0:0:0:0:
147,187,76234,6,0,L|149:167,1,20,8|8,0:0|0:0,0:0:0:0:
152,147,76322,5,8,0:0:0:0:
212,294,76586,1,8,0:0:0:0:
359,235,76851,1,8,0:0:0:0:
299,88,77116,1,8,0:0:0:0:
152,147,77734,5,8,0:0:0:0:
212,294,77998,1,8,0:0:0:0:
359,235,78263,1,8,0:0:0:0:
299,88,78528,1,8,0:0:0:0:
152,147,78792,1,8,0:0:0:0:
218,47,79057,6,0,L|216:67,1,20,8|8,0:0|0:0,0:0:0:0:
214,87,79145,6,0,P|144:61|81:101,1,150,12|8,3:2|0:2,0:2:0:0:
50,164,79498,1,0,3:2:0:0:
216,274,79675,1,8,0:2:0:0:
116,372,79851,2,0,L|140:214,1,150,8|8,3:2|0:2,0:2:0:0:
152,147,80204,1,0,3:2:0:0:
305,247,80381,1,8,0:2:0:0:
301,271,80469,1,8,0:2:0:0:
297,296,80557,6,0,P|368:323|431:283,1,150,8|8,3:2|0:2,0:2:0:0:
462,220,80910,1,0,3:2:0:0:
296,110,81086,1,8,0:2:0:0:
396,12,81263,2,0,L|371:169,1,150,8|8,3:2|0:2,0:2:0:0:
359,238,81616,1,0,3:2:0:0:
212,128,81792,6,0,L|186:124,2,25,8|8|8,0:2|0:2|0:2,0:2:0:0:
296,110,81969,6,0,L|138:85,1,150,8|8,3:2|0:2,0:2:0:0:
70,73,82322,1,0,3:2:0:0:
153,201,82498,1,8,0:2:0:0:
258,34,82675,2,0,P|212:90|227:161,1,150,8|8,3:2|0:2,0:2:0:0:
283,221,83028,1,0,3:2:0:0:
167,282,83204,1,8,0:2:0:0:
191,278,83292,1,8,0:2:0:0:
216,274,83381,6,0,L|373:298,1,150,8|8,3:2|0:2,0:2:0:0:
442,311,83734,1,0,3:2:0:0:
359,183,83910,1,8,0:2:0:0:
253,349,84086,2,0,P|299:293|284:222,1,150,8|8,3:2|0:2,0:2:0:0:
228,162,84439,1,0,3:2:0:0:
429,137,84616,6,0,L|433:111,2,25,8|8|8,0:2|0:2|0:2,0:2:0:0:
474,225,84792,6,0,L|410:235,1,50,8|0,3:2|0:2,0:2:0:0:
452,321,84969,2,0,L|388:331,1,50,8|0,3:2|0:2,0:2:0:0:
337,247,85145,2,0,L|273:257,1,50,8|0,3:2|0:2,0:2:0:0:
315,343,85322,2,0,L|251:353,1,50,8|0,3:2|0:2,0:2:0:0:
200,269,85498,2,0,L|136:279,1,50,8|0,3:2|0:2,0:2:0:0:
178,365,85675,2,0,L|114:375,1,50,8|0,3:2|0:2,0:2:0:0:
37,287,85851,6,0,L|44:237,1,50,8|0,3:2|0:2,0:2:0:0:
0,39,86028,1,8,3:2:0:0:
0,39,86116,1,8,0:2:0:0:
0,39,86204,6,0,L|74:50,1,59.9999981689454,8|0,3:2|0:2,0:2:0:0:
25,151,86381,2,0,L|99:162,1,59.9999981689454,8|0,3:2|0:2,0:2:0:0:
160,64,86557,2,0,L|234:75,1,59.9999981689454,8|0,3:2|0:2,0:2:0:0:
185,176,86734,2,0,L|259:187,1,59.9999981689454,8|0,3:2|0:2,0:2:0:0:
320,90,86910,2,0,L|394:101,1,59.9999981689454,8|0,3:2|0:2,0:2:0:0:
345,202,87086,2,0,L|419:213,1,59.9999981689454,8|0,3:2|0:2,0:2:0:0:
512,63,87263,6,0,L|502:122,1,59.9999981689454,8|0,3:2|0:2,0:2:0:0:
499,297,87439,2,0,L|519:349,2,29.9999990844727,8|8|8,3:2|0:2|0:2,0:2:0:0:
491,206,87616,5,8,3:2:0:0:
483,242,87704,1,8,3:2:0:0:
468,276,87792,1,8,3:2:0:0:
445,306,87881,1,8,3:2:0:0:
416,329,87969,1,8,3:2:0:0:
382,345,88057,1,8,3:2:0:0:
345,352,88145,1,8,3:2:0:0:
308,351,88234,1,8,3:2:0:0:
272,341,88322,5,8,3:2:0:0:
283,292,88410,1,8,3:2:0:0:
273,244,88498,1,8,3:2:0:0:
242,205,88586,1,8,3:2:0:0:
197,184,88675,1,8,3:2:0:0:
152,162,88763,1,8,3:2:0:0:
121,123,88851,1,8,3:2:0:0:
110,75,88939,1,8,3:2:0:0:
122,27,89028,5,0,0:0:0:0:
157,62,89116,2,0,L|219:52,1,37.5000014305115,0|0,0:0|0:0,0:0:0:0:
284,41,89292,1,0,0:0:0:0:
318,75,89381,2,0,L|404:61,1,75.0000028610231,0|0,0:0|0:0,0:0:0:0:
502,185,89734,6,0,B|535:265|483:352|483:352|393:356|356:260,1,300
193,125,90086,5,8,0:3:0:0:
191,137,90175,1,8,0:3:0:0:
189,149,90263,1,8,0:3:0:0:
187,162,90351,1,4,0:3:0:0:
124,208,90439,6,0,B|175:246|175:246|253:218|253:218|284:54,1,269.999991760254,4|0,1:0|0:0,0:0:0:0:
127,53,90792,6,0,L|115:127,1,75.0000028610231,8|0,1:0|0:0,0:0:0:0:
334,217,90969,2,0,P|328:253|306:283,1,75.0000028610231
121,378,91145,1,0,1:0:0:0:
92,308,91234,2,0,B|90:245|124:208|124:208|81:251|46:248,1,150.000005722046
3,253,91498,6,0,B|24:238|24:238|46:248|46:248|68:234,1,75.0000028610231,8|0,1:0|0:0,0:0:0:0:
228,110,91675,2,0,B|206:123|206:123|206:148|206:148|185:161,1,75.0000028610231
202,350,91851,6,0,P|222:236|269:343,1,300.000011444092,0|8,1:0|1:0,0:0:0:0:
89,186,92381,6,0,L|257:143,1,100
414,119,92557,5,0,1:0:0:0:
426,193,92646,1,0,0:0:0:0:
359,227,92734,1,0,0:0:0:0:
306,174,92822,1,0,0:0:0:0:
341,106,92910,1,8,1:0:0:0:
462,270,93086,2,0,P|456:233|434:203,1,75.0000028610231,0|0,0:0|0:0,0:0:0:0:
271,70,93263,6,0,B|236:94|196:87|196:87|229:110|235:143,1,150.000005722046,0|0,1:0|0:0,0:0:0:0:
228,222,93528,1,0,0:0:0:0:
228,222,93616,2,0,P|192:211|164:186,1,75.0000028610231,8|0,1:0|0:0,0:0:0:0:
146,18,93792,2,0,P|179:2|216:6,1,75.0000028610231,0|0,0:0|0:0,0:0:0:0:
410,165,93969,5,0,1:0:0:0:
448,100,94057,2,0,B|464:65|464:65|464:28,2,75.0000028610231,0|0|0,0:0|0:0|0:0,0:0:0:0:
371,230,94322,5,8,1:0:0:0:
374,248,94410,1,0,0:0:0:0:
378,266,94498,1,0,0:0:0:0:
381,285,94586,1,0,0:0:0:0:
460,343,94675,6,0,L|384:311,1,75.0000028610231,0|0,1:0|0:0,0:0:0:0:
219,384,94851,2,0,L|288:330,1,75.0000028610231,0|0,0:0|0:0,0:0:0:0:
303,154,95028,1,8,1:0:0:0:
347,384,95204,1,0,0:0:0:0:
358,121,95381,6,0,P|293:218|306:90,1,300,0|0,1:0|0:0,0:0:0:0:
468,84,95734,2,0,B|339:19|307:148|179:84,1,300,8|0,1:0|0:0,0:0:0:0:
27,11,96086,6,0,B|38:107|132:165|132:165|84:177|64:221|64:221|92:266|79:319,1,345.000006580353,0|0,1:0|0:0,0:0:0:0:
51,364,96439,5,8,1:0:0:0:
215,174,96616,2,0,P|251:179|281:201,1,75.0000028610231
412,326,96792,1,0,1:0:0:0:
444,257,96881,2,0,B|479:204|528:194|528:194|468:204|442:181,1,150.000005722046
340,293,97145,6,0,B|344:266|344:266|365:256|365:256|369:231,1,75.0000028610231,8|0,1:0|0:0,0:0:0:0:
345,5,97322,2,0,B|340:31|340:31|319:41|319:41|315:66,1,75.0000028610231
143,169,97498,6,0,P|242:111|128:94,1,300.000011444092,0|8,1:0|1:0,0:0:0:0:
290,236,98028,6,0,L|122:279,1,100
0,222,98204,5,0,1:0:0:0:
67,188,98293,1,0,0:0:0:0:
120,241,98381,1,0,0:0:0:0:
85,309,98469,1,0,0:0:0:0:
12,296,98557,1,8,1:0:0:0:
171,337,98734,2,0,P|208:339|241:324,1,75.0000028610231,0|0,0:0|0:0,0:0:0:0:
441,225,98910,6,0,B|407:233|389:272|389:272|391:228|363:201,1,150.000005722046,0|0,1:0|0:0,0:0:0:0:
283,203,99175,1,0,0:0:0:0:
283,203,99263,2,0,P|289:166|311:136,1,75.0000028610231,8|0,1:0|0:0,0:0:0:0:
358,337,99439,2,0,P|382:308|389:272,1,75.0000028610231,0|0,0:0|0:0,0:0:0:0:
246,93,99616,5,0,1:0:0:0:
173,110,99704,2,0,B|135:118|135:118|99:110,2,75.0000028610231,0|0|0,0:0|0:0|0:0,0:0:0:0:
464,151,99969,6,0,B|467:110|438:80|438:80|400:91|386:127,1,150,8|0,1:0|0:0,0:0:0:0:
481,245,100322,6,0,P|450:250|426:270,1,62.5,4|0,1:0|3:0,3:0:0:0:
360,194,100498,2,0,P|349:223|354:253,1,62.5,0|0,3:2|3:0,3:0:0:0:
255,273,100675,2,0,P|274:296|304:307,1,62.5,0|0,3:0|3:0,3:0:0:0:
498,376,100851,2,0,P|478:352|448:341,1,62.5,0|0,3:2|3:0,3:0:0:0:
288,367,101028,6,0,L|304:306,1,62.5,0|0,3:0|3:0,3:0:0:0:
285,135,101204,2,0,L|268:195,1,62.5,0|0,3:2|3:0,3:0:0:0:
171,381,101381,2,0,L|187:320,1,62.5,0|0,3:0|3:0,3:0:0:0:
184,85,101557,2,0,L|167:145,1,62.5,0|0,3:2|3:0,3:0:0:0:
49,371,101734,6,0,B|24:288|24:288|75:224|75:224|119:250|119:250|169:242,1,269.999991760254,4|0,1:0|0:0,0:0:0:0:
260,308,102086,6,0,L|185:320,1,75.0000028610231,8|0,1:0|0:0,0:0:0:0:
18,172,102263,2,0,P|48:151|85:147,1,75.0000028610231,2|0,0:0|0:0,0:0:0:0:
279,192,102439,1,0,1:0:0:0:
291,117,102528,2,0,B|279:54|238:25|238:25|289:58|323:48,1,150.000005722046
401,58,102792,6,8,B|424:69|424:69|444:58|444:58|467:70,1,75.0000028610231,8|0,1:0|0:0,0:0:0:0:
437,252,102969,2,8,B|412:241|412:241|392:252|392:252|370:241,1,75.0000028610231,2|0,0:0|0:0,0:0:0:0:
218,145,103145,6,0,P|228:286|108:366,1,300.000011444092,0|8,1:0|1:0,0:0:0:0:
323,315,103675,6,0,L|226:290,1,100,2|0,0:0|0:0,0:0:0:0:
100,224,103851,5,0,1:0:0:0:
74,154,103939,1,0,0:0:0:0:
88,81,104028,1,2,0:0:0:0:
137,25,104116,1,0,0:0:0:0:
208,3,104204,1,8,1:0:0:0:
24,223,104381,2,0,P|33:187|58:159,1,75.0000028610231,2|0,0:0|0:0,0:0:0:0:
317,98,104557,6,0,B|286:68|286:27|286:27|269:64|238:76,1,150.000005722046,0|2,1:0|0:0,0:0:0:0:
161,95,104822,1,0,0:0:0:0:
161,95,104910,2,0,P|177:128|207:150,1,75.0000028610231,8|0,1:0|0:0,0:0:0:0:
316,175,105086,2,0,P|352:168|380:144,1,75.0000028610231,2|0,0:0|0:0,0:0:0:0:
247,224,105263,5,0,1:0:0:0:
228,296,105351,2,0,B|218:333|218:333|226:369,2,75.0000028610231,0|2|0,0:0|0:0|0:0,0:0:0:0:
455,122,105616,5,8,1:0:0:0:
458,140,105704,1,0,0:0:0:0:
462,158,105792,1,2,0:0:0:0:
465,177,105881,1,0,0:0:0:0:
401,233,105969,6,0,L|477:265,1,75.0000028610231,0|0,1:0|0:0,0:0:0:0:
432,38,106145,2,0,L|376:88,1,75.0000028610231,2|0,0:0|0:0,0:0:0:0:
273,179,106322,1,8,1:0:0:0:
486,146,106498,1,2,0:0:0:0:
205,128,106675,6,0,P|214:9|293:98,1,300,0|0,1:0|0:0,0:0:0:0:
103,26,107028,2,0,B|66:165|199:170|163:308,1,300,8|0,1:0|0:0,0:0:0:0:
17,352,107381,6,0,B|77:270|163:308|163:308|218:254|218:254|251:300|301:304,1,345.000006580353,0|0,1:0|0:0,0:0:0:0:
431,307,107734,5,8,1:0:0:0:
155,384,107910,2,0,P|191:379|221:357,1,75.0000028610231,2|0,0:0|0:0,0:0:0:0:
318,179,108086,1,0,1:0:0:0:
244,157,108175,2,0,B|193:118|186:69|186:69|192:129|168:154,1,150.000005722046
19,92,108439,6,0,B|25:118|25:118|47:127|47:127|51:152,1,75.0000028610231,8|0,1:0|0:0,0:0:0:0:
218,9,108616,2,0,B|212:35|212:35|191:44|191:44|186:68,1,75.0000028610231,2|0,0:0|0:0,0:0:0:0:
24,266,108792,6,0,P|165:277|244:155,1,300.000011444092,0|8,1:0|1:0,0:0:0:0:
409,21,109322,6,0,L|366:189,1,100,2|0,0:0|0:0,0:0:0:0:
292,275,109498,5,0,1:0:0:0:
218,262,109586,1,0,0:0:0:0:
162,214,109675,1,2,0:0:0:0:
139,143,109763,1,0,0:0:0:0:
155,71,109851,1,8,1:0:0:0:
24,266,110028,2,0,P|60:269|91:290,1,75.0000028610231,2|0,0:0|0:0,0:0:0:0:
210,384,110204,6,0,B|234:353|274:339|274:339|297:285|294:227|294:227|343:226|409:198|409:198|382:215|370:244,1,375,4|0,1:0|0:0,0:0:0:0:
447,271,110557,1,8,3:0:0:0:
75,37,110734,6,0,P|78:191|162:71,1,375,4|0,1:0|0:0,0:0:0:0:
95,113,111086,1,0,3:0:0:0:
171,91,111175,1,0,3:0:0:0:
247,69,111263,6,0,B|297:51|320:0|320:0|347:20|323:44,1,150,4|0,3:0|0:0,0:0:0:0:
154,168,111616,6,2,L|169:327,1,160,0|0,1:0|0:0,0:0:0:0:
444,178,112322,6,0,L|458:190,3,20,0|0|0|0,3:0|3:0|3:0|3:0,3:0:0:0:
398,113,112498,2,0,L|373:121,2,26.6666666666667,0|0|0,3:0|3:0|3:0,3:0:0:0:
477,107,112675,6,0,L|483:60,1,40,8|8,3:0|3:0,3:0:0:0:
293,128,112851,2,0,L|287:175,1,40,4|4,3:0|3:0,3:0:0:0:
351,216,113028,6,0,B|300:254|300:254|222:226|222:226|191:62,1,269.999991760254,4|0,1:0|0:0,0:0:0:0:
80,46,113381,6,0,L|92:120,1,75.0000028610231,8|0,1:0|0:0,0:0:0:0:
25,271,113557,2,0,P|54:249|91:243,1,75.0000028610231,2|0,0:0|0:0,0:0:0:0:
302,338,113734,1,0,1:0:0:0:
233,366,113822,2,0,B|176:337|157:290|157:290|177:348|157:378,1,150.000005722046
275,210,114086,6,0,B|272:236|272:236|249:245|249:245|247:270,1,75.0000028610231,8|0,1:0|0:0,0:0:0:0:
56,384,114263,2,0,B|58:358|58:358|81:348|81:348|84:324,1,75.0000028610231,2|0,0:0|0:0,0:0:0:0:
116,96,114439,6,0,P|173:195|190:81,1,300.000011444092,0|8,1:0|1:0,0:0:0:0:
378,57,114969,6,0,L|335:225,1,100,2|0,0:0|0:0,0:0:0:0:
316,341,115145,5,0,1:0:0:0:
351,273,115234,1,0,0:0:0:0:
298,220,115322,1,2,0:0:0:0:
231,254,115410,1,0,0:0:0:0:
243,328,115498,1,8,1:0:0:0:
222,146,115675,2,0,P|213:109|190:81,1,75.0000028610231,2|0,0:0|0:0,0:0:0:0:
3,5,115851,6,0,B|22:32|62:39|62:39|22:50|2:86,1,150.000005722046,0|2,1:0|0:0,0:0:0:0:
76,118,116116,1,0,0:0:0:0:
76,118,116204,2,0,P|106:139|142:145,1,75.0000028610231,8|0,1:0|0:0,0:0:0:0:
264,37,116381,2,0,P|294:15|330:9,1,75.0000028610231,2|0,0:0|0:0,0:0:0:0:
373,170,116557,5,0,1:0:0:0:
438,208,116645,2,0,B|473:224|473:224|510:224,2,75.0000028610231,0|2|0,0:0|0:0|0:0,0:0:0:0:
260,55,116910,5,8,1:0:0:0:
257,73,116998,1,0,0:0:0:0:
253,91,117086,1,2,0:0:0:0:
250,110,117175,1,0,0:0:0:0:
185,167,117263,6,0,L|261:199,1,75.0000028610231,0|0,1:0|0:0,0:0:0:0:
459,95,117439,2,0,L|413:155,1,75.0000028610231,2|0,0:0|0:0,0:0:0:0:
379,326,117616,1,8,1:0:0:0:
324,124,117792,1,2,0:0:0:0:
512,277,117969,6,0,B|444:312|367:281|367:281|316:346|239:349,1,300,0|0,1:0|0:0,0:0:0:0:
133,381,118322,2,0,P|237:323|168:182,1,300,8|0,1:0|0:0,0:0:0:0:
28,204,118675,6,0,B|-17:187|-17:187|23:251|23:251|7:317|7:317|102:275|102:275|151:282,1,345.000006580353,0|0,1:0|0:0,0:0:0:0:
271,315,119028,5,8,1:0:0:0:
306,69,119204,2,0,P|268:71|237:91,1,75.0000028610231,2|0,0:0|0:0,0:0:0:0:
171,214,119381,1,0,1:0:0:0:
244,235,119469,2,0,B|307:237|344:203|344:203|301:246|304:281,1,150.000005722046
152,140,119734,6,0,B|143:114|143:114|121:105|121:105|113:81,1,75.0000028610231,8|0,1:0|0:0,0:0:0:0:
116,267,119910,2,0,B|98:287|98:287|101:310|101:310|84:329,1,75.0000028610231,2|0,0:0|0:0,0:0:0:0:
317,235,120086,6,0,P|393:320|280:301,1,300.000011444092,0|8,1:0|1:0,0:0:0:0:
484,289,120616,6,0,L|441:121,1,100,2|0,0:0|0:0,0:0:0:0:
314,41,120792,5,0,1:0:0:0:
241,54,120880,1,0,0:0:0:0:
232,128,120968,1,2,0:0:0:0:
301,160,121056,1,0,0:0:0:0:
351,104,121145,1,10,1:0:0:0:
181,2,121322,2,0,P|164:34|164:71,1,75.0000028610231,2|0,0:0|0:0,0:0:0:0:
405,161,121498,6,0,B|431:138|429:95|429:95|448:135|485:146,1,150.000005722046,0|2,1:0|0:0,0:0:0:0:
494,223,121763,1,0,0:0:0:0:
494,223,121851,2,0,P|459:238|422:236,1,75.0000028610231,8|0,1:0|0:0,0:0:0:0:
380,34,122028,2,0,P|414:18|451:20,1,75.0000028610231,2|0,0:0|0:0,0:0:0:0:
345,231,122204,5,0,1:0:0:0:
279,192,122292,2,0,B|243:175|243:175|206:175,2,75.0000028610231,0|2|0,0:0|0:0|0:0,0:0:0:0:
391,384,122557,6,0,B|424:372|438:333|438:333|408:303|367:306,1,150,8|0,1:0|0:0,0:0:0:0:
178,351,122910,6,0,P|165:322|169:291,1,62.5,4|0,1:0|3:0,3:0:0:0:
68,276,123086,2,0,P|86:250|114:238,1,62.5,2|0,3:2|3:0,3:0:0:0:
76,144,123263,2,0,P|105:147|131:166,1,62.5,0|0,3:0|3:0,3:0:0:0:
297,294,123439,2,0,P|265:290|240:271,1,62.5,2|0,3:2|3:0,3:0:0:0:
217,82,123616,6,0,L|201:143,1,62.5,0|0,3:0|3:0,3:0:0:0:
0,155,123792,2,0,L|16:216,1,62.5,2|0,3:2|3:0,3:0:0:0:
257,212,123969,2,0,L|241:273,1,62.5,0|0,3:0|3:0,3:0:0:0:
68,276,124145,2,0,L|84:337,1,62.5,2|0,3:2|3:0,3:0:0:0:
190,337,124322,6,0,P|185:380|160:345,1,112.500004291535,0|0,1:0|0:0,0:0:0:0:
96,203,124675,6,0,L|171:215,1,75.0000028610231,12|0,1:2|0:0,0:0:0:0:
283,348,124851,2,0,P|313:327|350:323,1,75.0000028610231,10|0,0:0|0:0,0:0:0:0:
502,307,125028,1,8,1:2:0:0:
464,241,125116,2,0,B|414:202|364:208|364:208|424:198|442:168,1,150.000005722046,10|0,0:2|0:0,0:0:0:0:
479,63,125381,5,8,1:0:0:0:
490,118,125469,1,0,0:0:0:0:
435,129,125557,1,2,0:0:0:0:
424,74,125645,1,0,0:0:0:0:
413,19,125734,6,0,B|251:51,1,150.000005722046,8|2,1:2|0:0,0:0:0:0:
133,31,125998,1,8,0:0:0:0:
133,31,126086,1,8,1:0:0:0:
296,150,126263,6,0,L|198:129,1,100,10|0,0:0|0:0,0:0:0:0:
89,226,126439,5,8,1:2:0:0:
89,226,126528,2,0,B|123:209|123:209|162:218,1,75.0000028610231,8|2,0:0|0:0,0:0:0:0:
278,337,126704,1,0,0:0:0:0:
278,337,126792,1,8,1:0:0:0:
376,137,126969,2,0,P|374:174|356:206,1,75.0000028610231,2|0,0:0|0:0,0:0:0:0:
195,329,127145,6,0,B|164:299|164:258|164:258|147:295|116:307,1,150.000005722046,8|2,1:2|0:0,0:0:0:0:
26,275,127410,1,8,0:0:0:0:
26,275,127498,2,0,P|10:241|13:204,1,75.0000028610231,8|0,1:0|0:0,0:0:0:0:
78,145,127675,2,0,P|115:148|147:168,1,75.0000028610231,10|0,0:0|0:0,0:0:0:0:
246,261,127851,5,8,1:2:0:0:
318,244,127939,2,0,B|355:235|355:235|384:211,2,75.0000028610231,8|2|0,0:0|0:0|0:0,0:0:0:0:
158,113,128204,5,8,1:0:0:0:
147,168,128292,1,0,0:0:0:0:
202,179,128381,1,2,0:0:0:0:
213,124,128469,1,0,0:0:0:0:
224,69,128557,6,0,L|300:101,1,75.0000028610231,8|0,1:2|0:0,0:0:0:0:
470,28,128734,2,0,L|404:77,1,75.0000028610231,2|8,0:0|0:0,0:0:0:0:
383,261,128910,1,8,1:0:0:0:
340,8,129086,1,10,0:0:0:0:
347,315,129263,6,0,P|369:198|438:295,1,300,8|0,1:2|0:0,0:0:0:0:
288,279,129616,2,0,P|361:166|476:238,1,300,8|0,1:0|0:0,0:0:0:0:
230,172,129969,6,0,P|375:235|490:114,1,345.000006580353,8|8,1:2|0:0,0:0:0:0:
500,40,130322,1,8,1:0:0:0:
355,130,130498,2,0,P|335:99|304:79,1,75.0000028610231,10|0,0:0|0:0,0:0:0:0:
89,44,130675,1,8,1:2:0:0:
89,44,130939,5,8,0:0:0:0:
79,54,131028,2,0,B|84:80|84:80|105:90|105:90|109:114,1,75.0000028610231,8|0,1:0|0:0,0:0:0:0:
303,78,131204,2,0,B|299:54|299:54|315:38|315:38|312:12,1,75.0000028610231,10|8,0:0|0:0,0:0:0:0:
191,2,131381,6,0,B|216:149|216:149|185:218,1,225.000008583069,8|8,1:2|0:0,0:0:0:0:
153,286,131734,1,8,1:0:0:0:
321,319,131910,6,0,L|220:274,1,100,10|0,0:0|0:0,0:0:0:0:
87,215,132086,1,8,1:2:0:0:
87,215,132351,5,8,0:0:0:0:
77,205,132439,1,8,1:0:0:0:
109,33,132616,2,0,L|101:75,3,37.5000014305115,10|8|8|8,0:0|0:0|0:0|0:0,0:0:0:0:
44,119,132792,6,0,B|174:99|174:99|253:148,1,200,4|0,1:0|0:0,0:0:0:0:
344,199,133057,2,0,B|214:219|214:219|135:170,1,200,4|0,1:0|0:0,0:0:0:0:
395,106,133322,2,0,P|450:184|418:275,1,200,4|0,1:0|0:0,0:0:0:0:
179,352,133586,2,0,P|123:273|155:182,1,200,4|0,1:0|0:0,0:0:0:0:
252,29,133851,5,4,1:0:0:0:
196,37,133939,1,0,3:0:0:0:
204,92,134028,1,0,3:0:0:0:
260,84,134116,6,0,B|379:132|379:132|311:157,1,200,4|0,1:0|0:0,0:0:0:0:
343,318,134381,2,0,B|405:205|405:205|337:228,1,200,4|0,1:0|0:0,0:0:0:0:
161,255,134645,2,0,B|89:185|89:185|101:85,1,200,4|0,1:0|0:0,0:0:0:0:
28,69,134910,2,0,B|16:168,1,100,4|0,1:0|3:0,0:0:0:0:
3,276,135086,5,0,3:0:0:0:
52,275,135175,1,0,3:0:0:0:
100,259,135263,1,0,3:0:0:0:
141,231,135351,1,0,3:0:0:0:
172,192,135439,1,0,3:0:0:0:
191,146,135528,1,0,3:0:0:0:
196,97,135616,6,0,B|159:59|105:141|166:190|272:172|343:121,1,269.999991760254,4|0,1:0|0:0,0:0:0:0:
423,74,135969,6,0,L|435:0,1,75.0000028610231,8|0,1:0|0:0,0:0:0:0:
286,168,136145,2,0,P|291:204|313:234,1,75.0000028610231,2|0,0:0|0:0,0:0:0:0:
510,290,136322,1,0,1:0:0:0:
494,216,136410,2,0,B|396:251|396:251|443:267,1,150.000005722046,0|0,0:0|0:0,0:0:0:0:
342,312,136675,6,0,B|338:338|338:338|356:354|356:354|354:379,1,75.0000028610231,8|0,1:0|0:0,0:0:0:0:
365,171,136851,2,0,B|369:145|369:145|351:129|351:129|353:104,1,75.0000028610231,2|0,0:0|0:0,0:0:0:0:
245,319,137028,2,0,B|220:315|201:294|201:294|149:314|107:282,1,150.000005722046,0|2,1:0|0:0,0:0:0:0:
108,157,137292,1,0,0:0:0:0:
126,161,137381,2,0,P|152:187|162:222,1,75.0000028610231,8|0,1:0|0:0,0:0:0:0:
15,378,137557,6,0,L|41:212,1,100,2|0,0:0|0:0,0:0:0:0:
26,118,137734,2,0,P|52:144|87:154,1,75.0000028610231,0|0,1:0|0:0,0:0:0:0:
230,99,137910,1,2,0:0:0:0:
240,83,137998,2,0,P|254:49|251:13,1,75.0000028610231,2|8,0:0|1:0,0:0:0:0:
173,297,138263,6,2,L|162:223,1,75.0000028610231
152,34,138439,6,0,B|178:37|178:37|147:59|121:55|91:77|91:77|116:81,1,150.000005722046,0|2,1:0|0:0,0:0:0:0:
54,207,138704,1,0,0:0:0:0:
54,207,138792,2,0,P|66:242|93:268,1,75.0000028610231,8|0,1:0|0:0,0:0:0:0:
250,326,138969,2,0,P|256:289|278:259,1,75.0000028610231,2|0,0:0|0:0,0:0:0:0:
441,144,139145,5,0,1:0:0:0:
426,68,139234,2,0,B|413:30|413:30|388:4,2,75.0000028610231,0|2|0,0:0|0:0|0:0,0:0:0:0:
456,220,139498,5,8,1:0:0:0:
438,223,139586,1,0,0:0:0:0:
420,227,139675,1,2,0:0:0:0:
401,230,139763,1,0,0:0:0:0:
335,172,139851,6,0,L|253:204,1,75.0000028610231,0|0,1:0|0:0,0:0:0:0:
356,305,140028,2,0,L|267:299,1,75.0000028610231,2|0,0:0|0:0,0:0:0:0:
151,270,140204,1,8,1:0:0:0:
401,230,140381,1,2,0:0:0:0:
189,218,140557,6,0,P|88:279|202:310,1,300,0|0,1:0|0:0,0:0:0:0:
262,185,140910,2,0,P|151:129|18:227,1,300,8|0,1:0|0:0,0:0:0:0:
45,360,141263,6,0,B|-5:304|20:220|20:220|0:167|0:167|21:134|56:112|56:112|18:103|-8:56,1,345.000006580353,0|0,1:0|0:0,0:0:0:0:
75,33,141616,5,8,1:0:0:0:
124,275,141792,2,0,P|158:261|181:232,1,75.0000028610231,2|0,0:0|0:0,0:0:0:0:
219,4,141969,1,0,1:0:0:0:
148,20,142057,2,0,B|183:118|183:118|199:71,1,150.000005722046,0|0,0:0|0:0,0:0:0:0:
294,37,142322,6,0,B|281:58|281:58|290:80|290:80|277:103,1,75.0000028610231,8|0,1:0|0:0,0:0:0:0:
82,135,142498,2,0,B|96:155|96:155|90:179|90:179|107:199,1,75.0000028610231,2|0,0:0|0:0,0:0:0:0:
255,355,142675,2,0,B|286:314|266:262|266:262|286:244|291:218,1,150.000005722046,0|2,1:0|0:0,0:0:0:0:
407,178,142939,1,0,0:0:0:0:
409,159,143028,2,0,P|404:122|382:92,1,75.0000028610231,8|0,1:0|0:0,0:0:0:0:
192,202,143204,6,0,L|290:217,1,100,2|0,0:0|0:0,0:0:0:0:
437,248,143381,2,0,P|467:225|482:192,1,75.0000028610231,0|0,1:0|0:0,0:0:0:0:
365,17,143557,1,2,0:0:0:0:
383,16,143646,2,0,P|419:24|446:49,1,75.0000028610231,2|8,0:0|1:0,0:0:0:0:
208,276,143910,6,0,L|188:181,1,75.0000028610231,2|0,0:0|0:0,0:0:0:0:
191,23,144086,6,0,B|205:45|205:45|168:37|154:15|117:7|117:7|132:29,1,150.000005722046,0|2,1:0|0:0,0:0:0:0:
68,117,144351,1,0,0:0:0:0:
68,117,144439,2,0,P|98:137|135:141,1,75.0000028610231,8|0,1:0|0:0,0:0:0:0:
276,75,144616,2,0,P|253:104|220:120,1,75.0000028610231,2|0,0:0|0:0,0:0:0:0:
73,208,144792,5,0,1:0:0:0:
87,281,144881,2,0,B|98:318|98:318|123:345,2,75.0000028610231,0|2|0,0:0|0:0|0:0,0:0:0:0:
191,23,145145,6,0,B|205:45|205:45|141:70|87:27,1,150,8|0,1:0|0:0,0:0:0:0:
23,0,145498,6,0,P|14:29|23:59,1,62.5,4|0,1:2|3:0,3:0:0:0:
188,121,145675,2,0,P|166:99|136:91,1,62.5,2|0,3:2|3:0,3:0:0:0:
0,203,145851,2,0,P|29:195|51:173,1,62.5,0|0,3:0|3:0,3:0:0:0:
255,90,146028,2,0,P|264:120|256:150,1,62.5,2|0,3:2|3:0,3:0:0:0:
64,234,146204,6,0,L|50:171,1,62.5,0|0,3:2|3:0,3:0:0:0:
244,238,146381,2,0,L|240:300,1,62.5,2|0,3:2|3:0,3:0:0:0:
140,286,146557,2,0,L|152:224,1,62.5,0|0,3:0|3:0,3:0:0:0:
357,215,146734,2,0,L|329:271,1,62.5,2|0,3:2|3:0,3:0:0:0:
444,330,146910,6,0,P|439:287|414:322,1,112.500004291535,0|0,1:0|0:0,0:0:0:0:
331,353,147263,6,0,L|256:341,1,75.0000028610231,12|0,1:2|0:0,0:0:0:0:
432,206,147439,2,0,P|418:171|390:147,1,75.0000028610231,10|0,0:0|0:0,0:0:0:0:
223,65,147616,1,8,1:2:0:0:
234,138,147704,2,0,B|247:241|247:241|273:198,1,150.000005722046,8|0,0:0|0:0,0:0:0:0:
340,30,147969,5,8,1:0:0:0:
395,21,148057,1,0,0:0:0:0:
403,76,148145,1,2,0:0:0:0:
348,85,148234,1,0,0:0:0:0:
293,93,148322,6,0,B|145:111|145:111,1,150.000005722046,8|2,1:2|0:0,0:0:0:0:
32,124,148586,1,8,0:0:0:0:
32,124,148675,1,8,1:0:0:0:
156,11,148851,6,0,L|144:110,1,100,10|0,0:0|0:0,0:0:0:0:
101,259,149028,5,8,1:2:0:0:
101,259,149116,2,0,L|200:247,1,75.0000028610231,8|2,0:2|0:0,0:0:0:0:
325,233,149292,1,0,0:2:0:0:
325,233,149381,1,8,1:0:0:0:
266,368,149557,2,0,P|260:331|239:300,1,75.0000028610231,2|0,0:0|0:0,0:0:0:0:
0,265,149734,6,0,B|17:285|17:285|19:247|1:228|3:190|3:190|21:209,1,150.000005722046,8|2,1:2|0:0,0:0:0:0:
164,167,149998,1,8,0:0:0:0:
164,167,150086,2,0,P|126:164|93:180,1,75.0000028610231,8|0,1:0|0:2,0:2:0:0:
0,111,150263,2,0,P|37:113|70:97,1,75.0000028610231,10|0,0:0|0:0,0:0:0:0:
240,145,150439,5,8,1:2:0:0:
223,73,150528,2,0,B|214:36|214:36|190:7,2,75.0000028610231,8|2|0,0:2|0:0|0:0,0:0:0:0:
390,233,150792,5,8,1:0:0:0:
382,177,150881,1,0,0:0:0:0:
327,187,150969,1,2,0:0:0:0:
335,242,151057,1,0,0:0:0:0:
343,297,151145,6,0,L|355:383,1,75.0000028610231,8|0,1:2|0:0,0:0:0:0:
511,158,151322,2,0,L|407:172,1,75.0000028610231,2|8,0:0|0:0,0:0:0:0:
304,169,151498,1,8,1:0:0:0:
488,304,151675,1,10,0:2:0:0:
132,216,151851,6,0,P|151:333|224:240,1,300,8|0,1:2|0:0,0:0:0:0:
79,117,152204,2,0,P|174:222|305:169,1,300,8|0,1:0|0:0,0:0:0:0:
472,45,152557,6,0,B|392:37|337:98|337:98|289:34|218:45|218:45|220:74|202:99,1,345.000006580353,8|8,1:2|0:2,0:0:0:0:
140,49,152910,5,8,1:0:0:0:
94,193,153086,2,0,P|56:190|24:172,1,75.0000028610231,10|0,0:0|0:2,0:0:0:0:
6,8,153263,1,8,1:2:0:0:
29,284,153528,5,8,0:0:0:0:
37,295,153616,2,0,B|63:297|63:297|78:279|78:279|103:282,1,75.0000028610231,8|0,1:0|0:0,0:0:0:0:
208,206,153792,2,0,B|234:200|234:200|251:217|251:217|275:211,1,75.0000028610231,10|8,0:0|0:0,0:0:0:0:
355,363,153969,6,0,B|503:345|503:345|485:198,1,225.000008583069,8|8,1:2|0:0,0:0:0:0:
485,195,154322,1,8,1:0:0:0:
286,308,154498,6,0,B|138:290,1,100,10|0,0:0|0:0,0:0:0:0:
22,178,154675,1,8,1:2:0:0:
263,22,154939,5,8,0:0:0:0:
255,10,155028,1,8,1:0:0:0:
180,106,155204,2,0,L|174:143,2,37.5000014305115,10|8|8,0:0|0:0|0:0,0:0:0:0:
177,27,155381,6,0,B|213:85|213:85|193:215,1,200,4|0,1:0|0:0,0:0:0:0:
303,328,155645,2,0,B|266:269|266:269|286:139,1,200,4|0,1:0|0:0,0:0:0:0:
493,93,155910,2,0,P|414:37|323:70,1,200,4|0,1:0|0:0,0:0:0:0:
193,215,156175,2,0,P|271:160|362:192,1,200,4|0,1:0|0:0,0:0:0:0:
399,342,156439,5,4,1:0:0:0:
455,334,156528,1,0,3:0:0:0:
447,279,156616,1,0,3:0:0:0:
391,287,156704,6,0,B|291:295|291:295|212:234,1,200,4|0,1:0|0:0,0:0:0:0:
270,27,156969,2,0,B|327:110|327:110|314:208,1,200,4|0,1:0|0:0,0:0:0:0:
106,261,157234,2,0,B|149:170|149:170|241:133,1,200,4|0,1:0|0:0,0:0:0:0:
408,110,157498,2,0,B|396:209,1,100,4|0,1:0|3:0,0:0:0:0:
307,371,157675,5,0,3:0:0:0:
258,375,157763,1,0,3:0:0:0:
208,364,157851,1,0,3:0:0:0:
165,340,157939,1,0,3:0:0:0:
130,305,158028,1,0,3:0:0:0:
106,261,158116,1,0,3:0:0:0:
96,213,158204,5,4,1:0:0:0:
126,209,158734,1,2,0:0:0:0:
290,269,159263,2,0,L|296:301,2,29.9999990844727,0|0|0,0:0|0:0|0:0,0:0:0:0:
288,254,159528,1,0,0:0:0:0:
286,239,159616,5,2,0:0:0:0:
317,243,160145,1,2,0:0:0:0:
437,140,160498,2,0,L|406:135,1,29.9999990844727,0|0,0:0|0:0,0:0:0:0:
336,157,160675,1,2,0:0:0:0:
325,146,160763,1,0,0:0:0:0:
313,137,160851,1,0,0:0:0:0:
299,132,160939,1,0,0:0:0:0:
284,129,161028,6,0,P|231:172|118:168,1,179.999994506836,2|2,0:0|0:0,0:0:0:0:
72,142,162086,1,0,0:0:0:0:
83,152,162175,1,0,0:0:0:0:
95,161,162263,1,0,0:0:0:0:
109,166,162351,1,0,0:0:0:0:
124,170,162439,6,0,P|177:127|290:131,1,179.999994506836,2|2,0:0|0:0,0:0:0:0:
104,319,163322,1,0,0:0:0:0:
102,304,163410,1,0,0:0:0:0:
100,289,163498,2,0,L|105:259,3,29.9999990844727,2|0|0|0,0:0|0:0|0:0|0:0,0:0:0:0:
86,317,163851,5,2,0:0:0:0:
90,347,164381,1,2,0:0:0:0:
227,273,164910,2,0,L|195:279,2,29.9999990844727,0|0|0,0:0|0:0|0:0,0:0:0:0:
242,271,165175,1,0,0:0:0:0:
257,269,165263,5,2,0:0:0:0:
253,300,165792,1,2,0:0:0:0:
421,347,166145,2,0,L|426:316,1,29.9999990844727,0|0,0:0|0:0,0:0:0:0:
404,246,166322,1,2,0:0:0:0:
415,235,166410,1,0,0:0:0:0:
424,223,166498,1,0,0:0:0:0:
429,209,166586,1,0,0:0:0:0:
432,194,166675,6,0,P|389:141|393:28,1,179.999994506836,2|2,0:0|0:0,0:0:0:0:
484,35,167734,1,0,0:0:0:0:
473,46,167822,1,0,0:0:0:0:
464,58,167910,1,0,0:0:0:0:
459,72,167998,1,0,0:0:0:0:
456,87,168086,5,2,0:0:0:0:
272,54,168351,1,0,0:0:0:0:
152,196,168616,1,2,0:0:0:0:
356,123,168969,2,0,L|362:154,1,29.9999990844727,0|0,0:0|0:0,0:0:0:0:
418,246,169145,1,2,0:0:0:0:
405,238,169234,1,0,0:0:0:0:
391,232,169322,1,0,0:0:0:0:
376,231,169410,1,0,0:0:0:0:
361,232,169498,5,2,0:0:0:0:
331,236,170028,1,2,0:0:0:0:
203,135,170557,2,0,L|209:167,2,29.9999990844727,2|0|0,0:0|0:0|0:0,0:0:0:0:
201,120,170822,1,0,0:0:0:0:
199,105,170910,5,2,0:0:0:0:
230,109,171439,1,2,0:0:0:0:
391,177,171792,2,0,L|360:182,1,29.9999990844727,2|0,0:0|0:0,0:0:0:0:
290,160,171969,1,2,0:0:0:0:
279,171,172057,1,0,0:0:0:0:
267,180,172145,1,0,0:0:0:0:
253,185,172234,1,0,0:0:0:0:
238,188,172322,6,0,P|185:145|72:149,1,179.999994506836,2|2,0:0|0:0,0:0:0:0:
186,216,173381,1,2,0:0:0:0:
197,205,173469,1,0,0:0:0:0:
209,196,173557,1,0,0:0:0:0:
223,191,173645,1,0,0:0:0:0:
238,188,173734,6,0,P|291:231|404:227,1,179.999994506836,2|2,0:0|0:0,0:0:0:0:
408,65,174616,1,2,0:0:0:0:
410,80,174704,1,0,0:0:0:0:
412,95,174792,2,0,L|407:125,3,29.9999990844727,2|0|0|0,0:0|0:0|0:0|0:0,0:0:0:0:
426,67,175145,5,2,0:0:0:0:
285,111,175675,1,2,0:0:0:0:
285,111,176204,2,0,L|317:105,2,29.9999990844727,2|0|0,0:0|0:0|0:0,0:0:0:0:
270,113,176469,1,0,0:0:0:0:
255,115,176557,5,2,0:0:0:0:
91,37,177086,1,2,0:0:0:0:
91,37,177439,2,0,L|86:68,1,29.9999990844727,2|2,0:0|0:0,0:0:0:0:
108,138,177616,1,2,0:0:0:0:
97,149,177704,1,0,0:0:0:0:
88,161,177792,1,0,0:0:0:0:
83,175,177881,1,0,0:0:0:0:
80,190,177969,6,0,P|123:243|119:356,1,179.999994506836,2|2,0:0|0:0,0:0:0:0:
28,349,179028,1,2,0:0:0:0:
39,338,179116,1,0,0:0:0:0:
48,326,179204,1,2,0:0:0:0:
53,312,179292,1,0,0:0:0:0:
56,297,179381,5,2,0:0:0:0:
240,330,179645,1,2,0:0:0:0:
360,188,179910,1,2,0:0:0:0:
266,90,180086,6,0,L|254:76,3,20,0|0|0|0,3:0|3:0|3:0|3:0,3:0:0:0:
284,166,180263,2,0,L|276:191,2,26.6666666666667,0|0|0,3:0|3:0|3:0,3:0:0:0:
341,112,180439,6,0,L|388:106,1,40,8|8,3:0|3:0,3:0:0:0:
217,240,180616,2,0,L|178:246,1,40,4|4,3:0|3:0,3:0:0:0:
29,42,180792,5,4,0:0:0:0:
211,153,191557,6,0,L|220:96,1,40,2|0,0:0|0:0,0:0:0:0:
125,42,191734,1,2,0:0:0:0:
128,61,191822,1,0,0:0:0:0:
131,81,191910,1,0,0:0:0:0:
134,101,191998,1,0,0:0:0:0:
137,121,192086,5,2,0:0:0:0:
97,114,192616,1,2,0:0:0:0:
375,121,193145,1,2,0:0:0:0:
378,101,193234,1,0,0:0:0:0:
381,81,193322,1,0,0:0:0:0:
384,61,193410,1,0,0:0:0:0:
387,42,193498,5,2,0:0:0:0:
347,49,194028,1,2,0:0:0:0:
301,231,194381,2,0,L|291:287,1,40,2|0,0:0|0:0,0:0:0:0:
387,342,194557,1,2,0:0:0:0:
384,323,194645,1,0,0:0:0:0:
381,303,194734,1,0,0:0:0:0:
378,283,194822,1,0,0:0:0:0:
375,263,194910,5,2,0:0:0:0:
415,270,195439,1,2,0:0:0:0:
137,263,195969,1,2,0:0:0:0:
134,283,196057,1,2,0:0:0:0:
131,303,196145,1,2,0:0:0:0:
128,323,196234,1,2,0:0:0:0:
125,342,196322,5,2,0:0:0:0:
165,335,196851,1,2,0:0:0:0:
191,179,197204,2,0,L|127:189,1,40,2|0,0:0|0:0,0:0:0:0:
88,68,197381,1,2,0:0:0:0:
105,78,197469,1,0,0:0:0:0:
122,88,197557,1,2,0:0:0:0:
139,98,197645,1,0,0:0:0:0:
157,108,197734,5,2,0:0:0:0:
424,68,198263,1,2,0:0:0:0:
424,68,198792,1,2,0:0:0:0:
407,78,198881,1,0,0:0:0:0:
390,88,198969,1,2,0:0:0:0:
373,98,199057,1,0,0:0:0:0:
355,108,199145,5,2,0:0:0:0:
256,352,199675,1,2,0:0:0:0:
352,265,200028,2,0,L|345:304,1,40,2|0,0:0|0:0,0:0:0:0:
256,352,200204,1,2,0:0:0:0:
256,332,200292,1,0,0:0:0:0:
256,312,200381,1,2,0:0:0:0:
256,292,200469,1,0,0:0:0:0:
256,272,200557,6,0,L|256:208,5,40,2|0|0|0|0|0,0:0|0:0|0:0|0:0|0:0|0:0,0:0:0:0:
256,112,201086,2,0,L|256:152,5,40,2|0|0|0|0|0,0:0|0:0|0:0|0:0|0:0|0:0,0:0:0:0:
166,80,201616,6,0,L|160:119,1,40,2|2,3:0|3:0,0:0:0:0:
345,80,201792,2,0,L|352:119,1,40,2|2,3:0|3:0,0:0:0:0:
256,272,201969,5,0,1:0:0:0:
84,44,202145,2,0,L|90:83,1,40
33,201,202322,2,0,L|63:176,1,40,0|0,0:0|0:0,0:0:0:0:
159,152,202498,2,0,L|195:166,1,40,0|0,0:0|0:0,0:0:0:0:
349,219,202675,5,0,0:0:0:0:
354,189,202763,1,0,0:0:0:0:
360,150,202851,1,0,0:0:0:0:
368,100,202939,1,0,0:0:0:0:
362,28,203028,6,0,P|392:31|418:47,1,59.9999981689454
426,254,203204,2,0,P|403:283|371:302,1,75.0000028610231
151,233,203381,5,12,1:2:0:0:
213,87,203645,1,8,0:0:0:0:
360,150,203910,1,8,0:0:0:0:
297,296,204175,1,8,0:0:0:0:
151,233,204704,1,0,0:0:0:0:
151,233,204792,5,8,0:0:0:0:
213,87,204969,1,0,0:0:0:0:
213,87,205057,1,8,0:0:0:0:
360,150,205322,1,8,0:0:0:0:
297,296,205586,2,0,L|305:341,1,40,8|0,0:0|0:0,0:0:0:0:
290,258,206116,6,0,L|294:277,1,20,8|8,0:0|0:0,0:0:0:0:
297,296,206204,5,8,0:0:0:0:
360,150,206469,1,8,0:0:0:0:
213,87,206734,1,8,0:0:0:0:
151,233,206998,1,8,0:0:0:0:
297,296,207616,5,8,0:0:0:0:
360,150,207881,2,0,B|330:162|309:185|309:185|257:158|225:100,1,125,8|0,0:0|0:0,0:0:0:0:
213,87,208145,1,8,0:0:0:0:
151,233,208410,1,8,0:0:0:0:
151,233,208498,2,0,L|215:220,1,40,0|0,0:0|0:0,0:0:0:0:
297,296,208675,2,0,L|361:283,2,40,8|0|0,0:0|0:0|0:0,0:0:0:0:
206,336,208939,6,0,L|209:316,1,20,8|8,0:0|0:0,0:0:0:0:
212,295,209028,5,0,0:0:0:0:
152,148,209292,1,8,0:0:0:0:
299,89,209557,1,8,0:0:0:0:
359,236,209822,1,8,0:0:0:0:
212,295,210351,1,0,0:0:0:0:
212,295,210439,5,8,0:0:0:0:
152,148,210616,1,0,0:0:0:0:
152,148,210704,2,0,L|143:211,2,40,8|0|0,0:0|0:0|0:0,0:0:0:0:
299,89,210969,2,0,L|290:152,1,40,8|0,0:0|0:0,0:0:0:0:
359,236,211234,2,0,L|350:299,1,40,8|0,0:0|0:0,0:0:0:0:
365,197,211763,6,0,L|362:221,1,20,8|8,0:0|0:0,0:0:0:0:
359,236,211851,5,8,0:0:0:0:
299,89,212116,1,8,0:0:0:0:
152,148,212381,1,8,0:0:0:0:
212,295,212645,1,8,0:0:0:0:
359,236,213263,5,8,0:0:0:0:
299,89,213528,1,8,0:0:0:0:
152,148,213792,1,8,0:0:0:0:
212,295,214057,1,8,0:0:0:0:
359,236,214322,1,8,0:0:0:0:
293,336,214586,6,0,L|295:316,1,20,8|8,0:0|0:0,0:0:0:0:
298,297,214675,6,0,P|368:323|431:283,1,150,12|8,3:2|0:2,0:2:0:0:
462,220,215028,1,0,3:2:0:0:
296,110,215204,1,8,0:2:0:0:
396,12,215381,2,0,L|372:170,1,150,8|8,3:2|0:2,0:2:0:0:
359,238,215734,1,0,3:2:0:0:
207,137,215910,1,8,0:2:0:0:
211,113,215998,1,8,0:2:0:0:
215,88,216086,6,0,P|144:61|81:101,1,150,8|8,3:2|0:2,0:2:0:0:
50,164,216439,1,0,3:2:0:0:
216,274,216616,1,8,0:2:0:0:
116,372,216792,2,0,L|141:215,1,150,8|8,3:2|0:2,0:2:0:0:
153,146,217145,1,0,3:2:0:0:
300,256,217322,6,0,L|326:260,2,25,8|8|8,0:2|0:2|0:2,0:2:0:0:
216,274,217498,6,0,L|374:299,1,150,8|8,3:2|0:2,0:2:0:0:
442,311,217851,1,0,3:2:0:0:
359,183,218028,1,8,0:2:0:0:
254,350,218204,2,0,P|300:294|285:223,1,150,8|8,3:2|0:2,0:2:0:0:
229,163,218557,1,0,3:2:0:0:
345,102,218734,1,8,0:2:0:0:
321,106,218822,1,8,0:2:0:0:
296,110,218910,6,0,L|139:86,1,150,8|8,3:2|0:2,0:2:0:0:
70,73,219263,1,0,3:2:0:0:
153,201,219439,1,8,0:2:0:0:
259,35,219616,2,0,P|213:91|228:162,1,150,8|8,3:2|0:2,0:2:0:0:
284,222,219969,1,0,3:2:0:0:
98,295,220145,6,0,L|72:291,2,25,8|8|8,0:2|0:2|0:2,0:2:0:0:
168,371,220322,6,0,L|178:307,1,50,8|0,3:2|0:2,0:2:0:0:
82,341,220498,2,0,L|72:277,1,50,8|0,3:2|0:2,0:2:0:0:
190,234,220675,2,0,L|200:170,1,50,8|0,3:2|0:2,0:2:0:0:
60,204,220851,2,0,L|50:140,1,50,8|0,3:2|0:2,0:2:0:0:
212,97,221028,2,0,L|222:33,1,50,8|0,3:2|0:2,0:2:0:0:
38,67,221204,2,0,L|28:3,1,50,8|0,3:2|0:2,0:2:0:0:
148,191,221381,6,0,L|198:184,1,50,8|0,3:2|0:2,0:2:0:0:
346,0,221557,1,8,3:2:0:0:
346,0,221645,1,8,0:2:0:0:
346,0,221734,6,0,L|336:66,1,59.9999981689454,8|0,3:2|0:2,0:2:0:0:
446,38,221910,2,0,L|456:107,1,59.9999981689454,8|0,3:2|0:2,0:2:0:0:
323,143,222086,2,0,L|313:209,1,59.9999981689454,8|0,3:2|0:2,0:2:0:0:
469,181,222263,2,0,L|478:247,1,59.9999981689454,8|0,3:2|0:2,0:2:0:0:
300,287,222439,2,0,L|290:353,1,59.9999981689454,8|0,3:2|0:2,0:2:0:0:
492,325,222616,2,0,L|501:391,1,59.9999981689454,8|0,3:2|0:2,0:2:0:0:
382,135,222792,6,0,L|315:144,1,59.9999981689454,8|0,3:2|0:2,0:2:0:0:
180,311,222969,2,0,L|226:317,2,29.9999990844727,8|8|8,3:2|0:2|0:2,0:2:0:0:
21,206,223145,5,8,3:2:0:0:
29,242,223234,1,8,3:2:0:0:
44,276,223322,1,8,3:2:0:0:
67,306,223410,1,8,3:2:0:0:
96,329,223498,1,8,3:2:0:0:
130,345,223586,1,8,3:2:0:0:
167,352,223675,1,8,3:2:0:0:
204,351,223763,1,8,3:2:0:0:
240,341,223851,5,8,3:2:0:0:
229,292,223939,1,8,3:2:0:0:
239,244,224028,1,8,3:2:0:0:
270,205,224116,1,8,3:2:0:0:
315,184,224204,1,8,3:2:0:0:
360,162,224292,1,8,3:2:0:0:
391,123,224381,1,8,3:2:0:0:
402,75,224469,1,8,3:2:0:0:
390,27,224557,5,0,0:0:0:0:
355,62,224645,2,0,L|293:52,1,37.5000014305115,0|0,0:0|0:0,0:0:0:0:
228,41,224822,1,0,0:0:0:0:
194,75,224910,2,0,L|108:61,1,75.0000028610231,0|0,0:0|0:0,0:0:0:0:
10,185,225263,6,0,B|-23:265|29:352|29:352|119:356|156:260,1,300,0|0,0:0|0:0,0:0:0:0:
256,192,225616,6,0,L|256:224,1,25,8|0,0:1|0:0,0:0:0:0:
27,271,225792,2,0,P|27:221|44:174,1,100,4|0,0:0|0:0,0:0:0:0:
100,17,225969,5,4,1:0:0:0:
117,10,226057,1,0,0:0:0:0:
133,3,226145,2,0,P|159:28|171:63,1,75.0000028610231,2|0,0:0|0:0,0:0:0:0:
135,274,226322,2,0,P|127:237|137:201,1,75.0000028610231,8|0,1:0|0:0,0:0:0:0:
269,24,226498,1,2,0:0:0:0:
281,38,226586,1,0,0:0:0:0:
293,52,226675,6,0,P|277:85|248:108,1,75.0000028610231,0|0,1:0|0:0,0:0:0:0:
37,157,226851,1,2,0:0:0:0:
35,140,226939,2,0,P|67:121|104:121,1,75.0000028610231,0|8,0:0|1:0,0:0:0:0:
227,193,227116,2,0,P|258:214|295:219,2,75.0000028610231,0|2|0,0:0|0:0|0:0,0:0:0:0:
293,52,227381,5,0,1:0:0:0:
311,54,227469,2,0,L|325:127,1,75.0000028610231,0|2,0:0|0:0,0:0:0:0:
245,286,227645,1,0,0:0:0:0:
238,268,227734,2,0,L|294:218,1,75.0000028610231,8|0,1:0|0:0,0:0:0:0:
484,197,227910,1,2,0:0:0:0:
472,211,227998,1,0,0:0:0:0:
460,225,228086,6,0,L|388:200,1,75.0000028610231,0|0,1:0|0:0,0:0:0:0:
160,121,228263,2,0,L|232:146,1,75.0000028610231,2|0,0:0|0:0,0:0:0:0:
358,291,228439,1,8,1:0:0:0:
478,61,228616,2,0,L|421:110,1,75.0000028610231,2|0,0:0|0:0,0:0:0:0:
358,291,228792,5,0,1:0:0:0:
321,279,228881,1,0,0:0:0:0:
284,277,228969,1,2,0:0:0:0:
247,284,229057,1,0,0:0:0:0:
214,300,229145,2,0,P|182:320|164:352,1,75.0000028610231,8|0,1:0|0:0,0:0:0:0:
62,381,229322,1,2,0:0:0:0:
74,346,229410,1,0,0:0:0:0:
76,308,229498,6,0,P|73:270|55:238,1,75.0000028610231,0|0,1:0|0:0,0:0:0:0:
65,103,229675,1,2,0:0:0:0:
83,137,229763,1,0,0:0:0:0:
107,165,229851,1,8,1:0:0:0:
137,185,229939,2,0,P|170:201|207:200,2,75.0000028610231,0|2|0,0:0|0:0|0:0,0:0:0:0:
4,60,230204,5,0,1:0:0:0:
72,29,230292,2,0,L|146:40,1,75.0000028610231,0|2,0:0|0:0,0:0:0:0:
272,67,230469,1,0,0:0:0:0:
216,16,230557,2,0,L|142:4,2,75.0000028610231,8|0|2,1:0|0:0|0:0,0:0:0:0:
381,0,230822,1,0,0:0:0:0:
361,31,230910,6,0,P|348:65|352:102,1,75.0000028610231,0|0,1:0|0:0,0:0:0:0:
381,289,231086,2,0,P|393:254|389:217,1,75.0000028610231,2|0,0:0|0:0,0:0:0:0:
241,169,231263,2,0,P|276:182|313:178,1,75.0000028610231,8|0,1:0|0:0,0:0:0:0:
500,150,231439,2,0,P|465:137|428:141,1,75.0000028610231,2|0,0:0|0:0,0:0:0:0:
154,322,231616,5,0,1:0:0:0:
164,336,231704,1,0,0:0:0:0:
177,348,231792,2,0,P|213:353|248:342,1,75.0000028610231,2|0,0:0|0:0,0:0:0:0:
69,201,231969,2,0,P|35:216|14:246,1,75.0000028610231,8|0,1:0|0:0,0:0:0:0:
210,273,232145,1,2,0:0:0:0:
227,267,232234,1,0,0:0:0:0:
243,258,232322,6,0,P|259:224|259:187,1,75.0000028610231,0|0,1:0|0:0,0:0:0:0:
81,299,232498,1,2,0:0:0:0:
70,314,232586,2,0,P|74:350|96:379,1,75.0000028610231,0|8,0:0|1:0,0:0:0:0:
176,166,232763,2,0,P|150:139|115:128,2,75.0000028610231,0|2|0,0:0|0:0|0:0,0:0:0:0:
177,348,233028,5,0,1:0:0:0:
161,339,233116,2,0,L|150:264,1,75.0000028610231,0|2,0:0|0:0,0:0:0:0:
8,224,233292,1,0,0:0:0:0:
24,215,233381,2,0,L|34:140,1,75.0000028610231,8|0,1:0|0:0,0:0:0:0:
224,96,233557,1,2,0:0:0:0:
208,86,233645,1,0,0:0:0:0:
191,74,233734,6,0,L|180:1,1,75.0000028610231,0|0,1:0|0:0,0:0:0:0:
24,67,233910,2,0,L|34:141,1,75.0000028610231,2|0,0:0|0:0,0:0:0:0:
151,265,234086,1,8,1:0:0:0:
325,107,234263,2,0,L|295:175,1,75.0000028610231,2|0,0:0|0:0,0:0:0:0:
151,265,234439,5,0,1:0:0:0:
164,300,234528,1,0,0:0:0:0:
186,331,234616,1,2,0:0:0:0:
215,355,234704,1,0,0:0:0:0:
248,370,234792,2,0,P|283:382|319:376,1,75.0000028610231,8|0,1:0|0:0,0:0:0:0:
180,160,234969,1,2,0:0:0:0:
144,173,235057,1,0,0:0:0:0:
115,194,235145,6,0,P|86:218|73:253,1,75.0000028610231,0|0,1:0|0:0,0:0:0:0:
315,274,235322,1,2,0:0:0:0:
330,239,235410,1,0,0:0:0:0:
337,202,235498,1,8,1:0:0:0:
333,166,235586,2,0,P|325:128|302:100,2,75.0000028610231,0|2|0,0:0|0:0|0:0,0:0:0:0:
370,324,235851,5,0,1:0:0:0:
438,355,235939,2,0,L|512:344,2,75.0000028610231,0|2|0,0:0|0:0|0:0,0:0:0:0:
253,249,236204,2,0,L|242:323,1,75.0000028610231,8|0,1:0|0:0,0:0:0:0:
152,348,236381,2,0,L|141:274,1,75.0000028610231,2|0,0:0|0:0,0:0:0:0:
74,155,236557,5,0,1:0:0:0:
68,192,236645,1,0,0:0:0:0:
63,229,236734,1,2,0:0:0:0:
57,266,236822,1,0,0:0:0:0:
52,305,236910,2,0,L|41:379,1,75.0000028610231,8|0,1:0|0:0,0:0:0:0:
355,292,237086,2,0,L|344:218,1,75.0000028610231,2|0,0:0|0:0,0:0:0:0:
440,22,237263,5,4,1:0:0:0:
423,15,237351,1,0,0:0:0:0:
407,8,237439,2,0,P|396:42|404:78,1,75.0000028610231,2|0,0:0|0:0,0:0:0:0:
504,144,237616,2,0,P|467:145|435:163,1,75.0000028610231,8|0,1:0|0:0,0:0:0:0:
371,287,237792,1,2,0:0:0:0:
388,282,237881,1,0,0:0:0:0:
405,278,237969,6,0,P|392:244|365:218,1,75.0000028610231,0|0,1:0|0:0,0:0:0:0:
237,209,238145,1,2,0:0:0:0:
245,224,238234,2,0,P|273:201|289:168,1,75.0000028610231,0|8,0:0|1:0,0:0:0:0:
314,80,238410,2,0,P|277:77|246:56,2,75.0000028610231,0|2|0,0:0|0:0|0:0,0:0:0:0:
417,67,238675,5,0,1:0:0:0:
401,60,238763,2,0,L|385:157,1,75.0000028610231,0|2,0:0|0:0,0:0:0:0:
248,243,238939,1,0,0:0:0:0:
245,224,239028,2,0,L|225:103,1,75.0000028610231,8|0,1:0|0:0,0:0:0:0:
20,141,239204,1,2,0:0:0:0:
33,129,239292,1,0,0:0:0:0:
46,117,239381,6,0,L|90:205,1,75.0000028610231,0|0,1:0|0:0,0:0:0:0:
160,339,239557,2,0,L|185:219,1,75.0000028610231,2|0,0:0|0:0,0:0:0:0:
221,74,239734,1,8,1:0:0:0:
362,308,239910,2,0,L|300:201,1,75.0000028610231,2|0,0:0|0:0,0:0:0:0:
221,74,240086,5,0,1:0:0:0:
258,86,240175,1,0,0:0:0:0:
295,88,240263,1,2,0:0:0:0:
332,81,240351,1,0,0:0:0:0:
365,65,240439,2,0,P|397:45|415:13,1,75.0000028610231,8|0,1:0|0:0,0:0:0:0:
326,228,240616,1,2,0:0:0:0:
301,200,240704,1,0,0:0:0:0:
271,179,240792,6,0,P|237:161|200:161,1,75.0000028610231,0|0,1:0|0:0,0:0:0:0:
452,101,240969,1,2,0:0:0:0:
431,132,241057,1,0,0:0:0:0:
419,167,241145,1,8,1:0:0:0:
416,204,241234,2,0,P|417:241|436:273,2,75.0000028610231,0|2|0,0:0|0:0|0:0,0:0:0:0:
295,89,241498,5,0,1:0:0:0:
227,58,241586,2,0,L|153:69,1,75.0000028610231,0|2,0:0|0:0,0:0:0:0:
46,148,241763,1,0,0:0:0:0:
77,80,241851,2,0,L|66:6,2,75.0000028610231,8|0|2,1:0|0:0|0:0,0:0:0:0:
15,216,242116,1,0,0:0:0:0:
49,226,242204,6,0,P|80:243|102:272,1,75.0000028610231,0|0,1:0|0:0,0:0:0:0:
179,161,242381,2,0,P|197:191|201:228,1,75.0000028610231,2|0,0:0|0:0,0:0:0:0:
333,354,242557,2,0,P|313:322|310:285,1,75.0000028610231,8|0,1:0|0:0,0:0:0:0:
463,288,242734,2,0,P|430:270|409:239,1,75.0000028610231,2|0,0:0|0:0,0:0:0:0:
356,24,242910,5,0,1:0:0:0:
372,30,242998,1,0,0:0:0:0:
388,36,243086,2,0,P|389:72|373:105,1,75.0000028610231,2|0,0:0|0:0,0:0:0:0:
292,158,243263,2,0,P|255:166|219:157,1,75.0000028610231,8|0,1:0|0:0,0:0:0:0:
156,24,243439,1,2,0:0:0:0:
140,30,243528,1,0,0:0:0:0:
124,36,243616,6,0,P|122:72|138:105,1,75.0000028610231,0|0,1:0|0:0,0:0:0:0:
140,282,243792,1,2,0:0:0:0:
124,276,243881,2,0,P|122:239|138:206,1,75.0000028610231,0|8,0:0|1:0,0:0:0:0:
369,205,244057,2,0,P|386:238|385:276,2,75.0000028610231,0|2|0,0:0|0:0|0:0,0:0:0:0:
132,122,244322,5,0,1:0:0:0:
138,106,244410,2,0,L|232:121,1,75.0000028610231,0|2,0:0|0:0,0:0:0:0:
380,122,244586,1,0,0:0:0:0:
374,106,244675,2,0,L|279:121,1,75.0000028610231,8|0,1:0|0:0,0:0:0:0:
256,306,244851,1,2,0:0:0:0:
256,287,244939,1,0,0:0:0:0:
256,268,245028,6,0,L|256:172,1,75.0000028610231,0|0,1:0|0:0,0:0:0:0:
73,236,245204,2,0,L|167:251,1,75.0000028610231,2|0,0:0|0:0,0:0:0:0:
256,384,245381,1,8,1:0:0:0:
439,236,245557,2,0,L|344:251,1,75.0000028610231,2|0,0:0|0:0,0:0:0:0:
256,384,245734,5,4,1:0:0:0:
14,187,245910,2,0,P|-2:220|12:283,2,75.0000028610231,0|0|8,3:3|3:0|3:0,0:0:0:0:
498,187,246263,6,0,P|462:308|407:166,1,375.000014305115,6|0,1:2|0:0,0:0:0:0:
464,118,246792,5,8,3:3:0:0:
433,142,246881,1,0,3:0:0:0:
414,139,246969,1,2,3:2:0:0:
395,136,247057,1,0,3:0:0:0:
377,133,247145,6,0,L|369:85,1,25,0|0,3:0|3:0,0:0:0:0:
302,121,247322,6,0,L|294:73,1,34.9999989318848,0|0,3:2|3:0,0:0:0:0:
227,109,247498,6,0,L|215:38,1,50,8|0,3:0|3:0,0:0:0:0:
152,97,247675,6,0,L|136:2,1,64.9999970245363,0|0,3:2|3:0,0:0:0:0:
65,6,247851,6,0,L|70:43,3,37.5000014305115,0|0|0|0,3:0|3:0|3:0|3:0,3:0:0:0:
0,119,248028,2,0,L|49:113,2,50.0000019073487,0|0|0,3:0|3:0|3:0,3:0:0:0:
101,247,248204,6,0,L|89:172,1,75.0000028610231,8|8,3:0|3:0,3:0:0:0:
314,46,248381,2,0,L|302:120,1,75.0000028610231,4|0,3:0|3:0,3:0:0:0:
84,330,248557,6,0,P|162:255|275:275,1,225.000008583069,4|0,1:0|0:0,0:0:0:0:
389,376,248910,1,8,1:0:0:0:
494,87,249086,1,2,0:0:0:0:
494,87,249175,1,0,0:0:0:0:
494,87,249263,6,0,L|399:102,1,75.0000028610231,0|0,1:0|0:0,0:0:0:0:
322,200,249439,2,0,L|247:188,1,75.0000028610231,2|0,0:0|0:0,0:0:0:0:
48,107,249616,1,8,1:0:0:0:
57,163,249704,1,0,0:0:0:0:
66,218,249792,1,2,0:0:0:0:
75,274,249881,1,0,0:0:0:0:
84,330,249969,6,0,P|191:345|270:271,1,225.000008583069,0|0,1:0|0:0,0:0:0:0:
342,121,250322,1,8,1:0:0:0:
500,336,250498,1,2,0:0:0:0:
500,336,250586,1,0,0:0:0:0:
500,336,250675,6,0,L|484:241,1,75.0000028610231,0|0,1:0|0:0,0:0:0:0:
264,160,250851,1,2,0:0:0:0:
255,216,250939,1,0,0:0:0:0:
246,271,251028,2,0,L|230:365,1,75.0000028610231,8|0,1:0|0:0,0:0:0:0:
369,120,251204,2,0,P|406:114|439:93,1,75.0000028610231,2|0,0:0|0:0,0:0:0:0:
174,97,251381,6,0,B|136:84|117:51|117:51|131:139|88:197,1,225.000008583069,0|0,1:0|0:0,0:0:0:0:
31,319,251734,1,8,1:0:0:0:
313,203,251910,1,2,0:0:0:0:
313,203,251998,1,0,0:0:0:0:
313,203,252086,6,0,L|324:277,1,75.0000028610231,0|0,1:0|0:0,0:0:0:0:
103,271,252263,2,0,L|115:346,1,75.0000028610231,2|0,0:0|0:0,0:0:0:0:
272,350,252439,2,0,P|306:365|345:365,1,75.0000028610231,8|0,1:0|0:0,0:0:0:0:
365,130,252616,2,0,P|330:114|291:114,1,75.0000028610231,2|0,0:0|0:0,0:0:0:0:
89,194,252792,6,0,B|131:139|117:51|117:51|136:84|174:97,1,225.000008583069,0|0,1:0|0:0,0:0:0:0:
29,246,253145,1,8,1:0:0:0:
193,17,253322,1,2,0:0:0:0:
193,17,253410,1,0,0:0:0:0:
193,17,253498,6,0,P|225:34|249:63,1,75.0000028610231,0|0,1:0|0:0,0:0:0:0:
365,130,253675,2,0,L|350:203,1,75.0000028610231,2|0,0:0|0:0,0:0:0:0:
284,375,253851,5,8,1:0:0:0:
239,314,253939,1,0,0:0:0:0:
268,245,254028,1,2,0:0:0:0:
343,237,254116,1,0,0:0:0:0:
388,298,254204,6,0,B|422:271|418:228|418:228|392:35,1,225.000008583069,0|0,1:0|0:0,0:0:0:0:
486,0,254557,1,8,1:0:0:0:
290,67,254734,1,2,0:0:0:0:
290,67,254822,1,0,0:0:0:0:
290,67,254910,6,0,L|301:142,1,75.0000028610231,0|0,1:0|0:0,0:0:0:0:
507,164,255086,2,0,L|496:238,1,75.0000028610231,2|0,0:0|0:0,0:0:0:0:
282,343,255263,1,8,1:0:0:0:
274,287,255351,1,0,0:0:0:0:
266,231,255439,1,2,0:0:0:0:
259,175,255528,1,0,0:0:0:0:
252,119,255616,6,0,B|216:145|222:189|222:189|248:382,1,225.000008583069,0|0,1:0|0:0,0:0:0:0:
362,369,255969,1,8,1:0:0:0:
135,247,256145,1,2,0:0:0:0:
135,247,256234,1,0,0:0:0:0:
135,247,256322,6,0,L|124:172,1,75.0000028610231,0|0,1:0|0:0,0:0:0:0:
352,21,256498,1,2,0:0:0:0:
361,77,256586,1,0,0:0:0:0:
370,132,256675,2,0,P|362:168|339:200,1,75.0000028610231,8|0,1:0|0:0,0:0:0:0:
240,1,256851,2,0,P|203:8|171:31,1,75.0000028610231,2|0,0:0|0:0,0:0:0:0:
41,152,257028,6,0,B|138:82|155:188|253:119,1,225.000008583069,0|0,1:0|0:0,0:0:0:0:
362,11,257381,1,8,1:0:0:0:
464,230,257557,1,2,0:0:0:0:
464,230,257645,1,0,0:0:0:0:
464,230,257734,6,0,L|453:155,1,75.0000028610231,0|0,1:0|0:0,0:0:0:0:
187,64,257910,2,0,L|198:139,1,75.0000028610231,2|0,0:0|0:0,0:0:0:0:
281,344,258086,1,8,1:0:0:0:
237,308,258175,1,0,0:0:0:0:
185,288,258263,1,2,0:0:0:0:
129,285,258351,1,0,0:0:0:0:
76,303,258439,5,0,1:0:0:0:
57,300,258528,2,0,B|59:281|52:262|52:262|67:250|72:231,1,75.0000028610231,2|2,0:0|0:0,0:0:0:0:
13,107,258704,1,0,0:0:0:0:
25,92,258792,2,0,B|40:103|59:106|59:106|62:125|77:139,1,75.0000028610231,8|0,1:0|0:0,0:0:0:0:
153,189,258969,2,0,B|173:183|190:190|190:190|203:175|221:168,1,75.0000028610231,2|0,0:0|0:0,0:0:0:0:
356,69,259145,5,0,1:0:0:0:
378,80,259233,1,0,0:0:0:0:
402,85,259321,1,2,0:0:0:0:
427,84,259409,1,0,0:0:0:0:
478,23,259498,6,0,P|443:7|406:7,1,75.0000028610231,8|0,1:0|0:0,0:0:0:0:
327,205,259675,2,0,P|290:205|256:190,1,75.0000028610231,2|0,0:0|0:0,0:0:0:0:
85,37,259851,6,0,L|108:186,1,150.000005722046,8|2,1:2|0:0,0:0:0:0:
88,315,260116,1,8,0:0:0:0:
126,321,260204,2,0,L|223:336,1,75.0000028610231,8|0,1:0|0:0,0:0:0:0:
343,378,260381,2,0,L|324:259,1,75.0000028610231,10|0,0:0|0:0,0:0:0:0:
351,174,260557,5,0,1:2:0:0:
313,168,260645,2,0,L|215:152,2,75.0000028610231,8|2|0,0:0|0:0|0:0,0:0:0:0:
495,65,260910,1,8,1:0:0:0:
487,121,260998,1,0,0:0:0:0:
478,177,261086,1,2,0:0:0:0:
469,232,261175,1,0,0:0:0:0:
420,293,261263,6,0,B|447:362|447:362|493:304,1,150.000005722046,8|2,1:2|0:0,0:0:0:0:
386,133,261528,1,8,0:0:0:0:
364,164,261616,2,0,B|377:198|377:198|400:169,1,75.0000028610231,8|0,1:0|0:0,0:0:0:0:
495,65,261792,2,0,B|518:35|518:35|481:30,1,75.0000028610231,10|0,0:0|0:0,0:0:0:0:
344,2,261969,6,0,B|307:-3|307:-3|320:31,1,75.0000028610231,0|8,1:2|0:0,0:0:0:0:
181,146,262145,1,2,0:0:0:0:
125,137,262234,1,0,0:0:0:0:
69,128,262322,2,0,P|35:110|10:80,1,75.0000028610231,8|0,1:0|0:0,0:0:0:0:
221,251,262498,2,0,P|222:288|209:325,1,75.0000028610231,2|0,0:0|0:0,0:0:0:0:
252,58,262675,6,0,B|293:17|351:38|351:38|313:39|287:72,1,150.000005722046,8|2,1:2|0:0,0:0:0:0:
271,150,262939,1,8,0:0:0:0:
235,139,263028,2,0,P|201:121|176:91,1,75.0000028610231,8|0,1:0|0:0,0:0:0:0:
432,11,263204,2,0,P|433:49|419:86,1,75.0000028610231,10|0,0:0|0:0,0:0:0:0:
347,263,263381,5,0,1:2:0:0:
373,237,263469,2,0,P|408:221|447:221,2,75.0000028610231,8|2|0,0:0|0:0|0:0,0:0:0:0:
214,372,263734,2,0,P|180:354|155:324,1,75.0000028610231,8|0,1:0|0:0,0:0:0:0:
50,325,263910,2,0,P|48:286|62:249,1,75.0000028610231,2|0,0:0|0:0,0:0:0:0:
124,113,264086,6,0,B|131:153|104:183|104:183|138:206|140:244,1,150.000005722046,8|2,1:2|0:0,0:0:0:0:
214,79,264351,1,8,0:0:0:0:
182,59,264439,2,0,B|162:53|154:35|154:35|137:44|119:37,1,75.0000028610231,8|0,1:0|0:0,0:0:0:0:
29,163,264616,2,0,B|32:183|19:198|19:198|36:209|37:228,1,75.0000028610231,10|0,0:0|0:0,0:0:0:0:
140,322,264792,6,0,B|156:313|175:321|175:321|180:301|200:294,1,75.0000028610231,0|8,1:2|0:0,0:0:0:0:
275,195,264969,2,0,L|349:206,1,75.0000028610231,2|0,0:0|0:0,0:0:0:0:
440,383,265145,5,8,1:0:0:0:
370,356,265234,1,0,0:0:0:0:
359,282,265322,1,2,0:0:0:0:
418,235,265410,1,0,0:0:0:0:
477,188,265498,6,0,B|432:143|432:143|331:127,1,150.000005722046,8|2,1:2|0:0,2:0:0:0:
275,195,265763,1,8,0:0:0:0:
237,189,265851,2,0,L|162:177,1,75.0000028610231,8|0,1:0|0:0,0:0:0:0:
279,43,266028,2,0,L|267:117,1,75.0000028610231,10|0,0:0|0:0,0:0:0:0:
244,266,266204,5,8,1:2:0:0:
186,27,266381,1,2,0:0:0:0:
180,65,266469,1,8,0:0:0:0:
174,103,266557,2,0,L|162:177,1,75.0000028610231,8|0,1:0|0:0,0:0:0:0:
23,120,266734,1,10,0:0:0:0:
29,158,266822,1,8,0:0:0:0:
35,196,266910,6,0,B|80:241|80:241|181:257,1,150.000005722046,8|2,1:2|0:0,2:0:0:0:
237,189,267175,1,8,0:0:0:0:
275,195,267263,2,0,L|349:206,1,75.0000028610231,8|0,1:0|0:0,0:0:0:0:
233,341,267439,2,0,L|244:266,1,75.0000028610231,10|0,0:0|0:0,0:0:0:0:
268,118,267616,5,8,1:2:0:0:
326,357,267792,1,2,0:0:0:0:
332,319,267881,1,8,0:0:0:0:
338,281,267969,2,0,L|349:206,1,75.0000028610231,8|0,1:0|0:0,0:0:0:0:
488,80,268145,2,0,L|482:41,2,37.5000014305115,10|8|8,2:0|2:0|2:0,2:0:0:0:
399,25,268322,6,0,B|413:123|413:123|524:211,1,200,4|0,1:0|2:0,2:0:0:0:
463,356,268586,2,0,B|449:258|449:258|338:170,1,200,4|0,1:0|2:0,2:0:0:0:
172,161,268851,2,0,P|128:247|173:333,1,200,4|0,1:0|0:0,0:0:0:0:
339,333,269116,2,0,P|383:247|339:161,1,200,4|0,1:0|0:0,0:0:0:0:
279,25,269381,5,4,1:0:0:0:
223,33,269469,1,0,3:0:0:0:
167,42,269557,1,0,3:0:0:0:
113,25,269645,6,0,B|99:123|99:123|-12:211,1,200,4|0,1:0|0:0,0:0:0:0:
49,356,269910,2,0,B|63:258|63:258|174:170,1,200,4|0,1:0|2:0,2:0:0:0:
339,161,270175,2,0,P|383:247|339:333,1,200,4|0,1:0|0:0,0:0:0:0:
173,333,270439,2,0,P|128:247|172:161,1,200,4|0,1:0|0:0,0:0:0:0:
233,25,270704,1,0,3:0:0:0:
289,32,270792,6,0,P|325:42|371:79,1,75.0000028610231,4|0,3:2|3:0,0:0:0:0:
264,251,270969,2,0,P|253:215|262:156,1,75.0000028610231,4|0,3:2|3:0,0:0:0:0:
466,163,271145,6,0,P|446:185|419:197,1,59.9999981689454,4|0,1:0|0:0,0:0:0:0:
280,74,271322,2,0,P|309:79|333:97,1,59.9999981689454,2|0,0:0|0:0,0:0:0:0:
350,304,271498,1,8,1:0:0:0:
320,298,271586,1,0,0:0:0:0:
296,280,271675,2,0,P|285:251|289:222,1,59.9999981689454,2|0,0:0|0:0,0:0:0:0:
171,201,271851,1,0,1:0:0:0:
157,143,271939,2,0,L|166:84,2,59.9999981689454,0|2|0,0:0|0:0|0:0,0:0:0:0:
204,356,272204,6,0,P|184:279|142:350,1,179.999994506836,8|0,1:0|0:0,0:0:0:0:
33,351,272557,6,0,L|42:292,1,59.9999981689454,0|0,1:0|0:0,0:0:0:0:
171,201,272734,2,0,L|180:142,1,59.9999981689454,2|0,0:0|0:0,0:0:0:0:
106,46,272910,2,0,L|164:55,1,59.9999981689454,8|0,1:0|0:0,0:0:0:0:
256,184,273086,2,0,L|314:193,1,59.9999981689454,2|0,0:0|0:0,0:0:0:0:
495,132,273263,5,0,1:0:0:0:
504,175,273351,2,0,P|504:204|491:231,2,59.9999981689454,0|2|0,0:0|0:0|0:0,0:0:0:0:
406,46,273616,2,0,L|347:55,1,59.9999981689454,8|0,1:0|0:0,0:0:0:0:
256,184,273792,2,0,L|197:193,1,59.9999981689454,2|0,0:0|0:0,0:0:0:0:
34,30,273969,6,0,P|32:59|43:87,1,59.9999981689454,0|0,1:0|0:0,0:0:0:0:
212,116,274145,2,0,L|153:125,1,59.9999981689454,2|0,0:0|0:0,0:0:0:0:
101,283,274322,2,0,L|159:273,1,59.9999981689454,8|0,1:0|0:0,0:0:0:0:
279,369,274498,2,0,P|280:339|269:311,1,59.9999981689454,2|0,0:0|0:0,0:0:0:0:
119,206,274675,1,0,1:0:0:0:
60,216,274763,2,0,L|1:206,2,59.9999981689454,0|2|0,0:0|0:0|0:0,0:0:0:0:
205,355,275028,6,0,B|161:273|161:273|58:291,1,179.999994506836,8|0,1:0|0:0,0:0:0:0:
51,121,275381,6,0,L|109:130,1,59.9999981689454,0|0,1:0|0:0,0:0:0:0:
309,105,275557,2,0,L|318:46,1,59.9999981689454,2|0,0:0|0:0,0:0:0:0:
194,46,275734,2,0,L|203:105,1,59.9999981689454,8|0,1:0|0:0,0:0:0:0:
461,121,275910,2,0,L|402:130,1,59.9999981689454,2|0,0:0|0:0,0:0:0:0:
193,255,276086,6,0,P|183:228|184:198,1,59.9999981689454,0|0,1:0|0:0,0:0:0:0:
325,197,276263,2,0,P|326:226|315:255,1,59.9999981689454,2|0,0:0|0:0,0:0:0:0:
92,356,276439,2,0,P|119:344|149:346,1,59.9999981689454,8|0,1:0|0:0,0:0:0:0:
420,356,276616,2,0,P|392:344|362:346,1,59.9999981689454,2|0,0:0|0:0,0:0:0:0:
112,210,276792,6,0,P|111:180|124:153,1,59.9999981689454,0|0,1:0|0:0,0:0:0:0:
141,23,276969,1,2,0:0:0:0:
170,19,277057,1,0,0:0:0:0:
199,30,277145,2,0,P|216:53|222:83,1,59.9999981689454,8|0,1:0|0:0,0:0:0:0:
234,228,277322,2,0,P|205:219|184:198,1,59.9999981689454,2|0,0:0|0:0,0:0:0:0:
292,29,277498,1,0,1:0:0:0:
350,15,277586,2,0,L|408:24,2,59.9999981689454,0|2|0,0:0|0:0|0:0,0:0:0:0:
114,36,277851,6,0,B|57:71|45:133|45:133|72:106|118:108,1,179.999994506836,8|0,1:0|0:0,0:0:0:0:
249,122,278204,6,0,L|189:112,1,59.9999981689454,0|0,1:0|0:0,0:0:0:0:
27,252,278381,1,2,0:0:0:0:
31,223,278469,1,0,0:0:0:0:
36,193,278557,2,0,L|45:133,1,59.9999981689454,8|0,1:0|0:0,0:0:0:0:
266,201,278734,2,0,L|206:191,1,59.9999981689454,2|0,0:0|0:0,0:0:0:0:
93,330,278910,5,0,1:0:0:0:
98,300,278998,2,0,L|107:240,1,59.9999981689454,0|2,0:0|0:0,0:0:0:0:
280,290,279175,1,0,0:0:0:0:
275,260,279263,2,0,L|265:200,1,59.9999981689454,8|0,1:0|0:0,0:0:0:0:
121,165,279439,2,0,L|131:106,1,59.9999981689454,2|0,0:0|0:0,0:0:0:0:
370,4,279616,6,0,P|371:33|360:61,1,59.9999981689454,0|0,1:0|0:0,0:0:0:0:
213,106,279792,2,0,L|271:115,1,59.9999981689454,2|0,0:0|0:0,0:0:0:0:
427,245,279969,2,0,L|368:235,1,59.9999981689454,8|0,1:0|0:0,0:0:0:0:
270,347,280145,2,0,P|268:317|279:289,1,59.9999981689454,2|0,0:0|0:0,0:0:0:0:
451,161,280322,1,0,1:0:0:0:
490,206,280410,2,0,P|501:233|499:263,2,59.9999981689454,0|2|0,0:0|0:0|0:0,0:0:0:0:
298,20,280675,6,0,B|351:-18|415:3|415:3|429:41|397:83,1,179.999994506836,8|0,1:0|0:0,0:0:0:0:
363,207,281028,6,0,L|304:197,1,59.9999981689454,0|0,1:0|0:0,0:0:0:0:
149,207,281204,2,0,L|207:197,1,59.9999981689454,2|0,0:0|0:0,0:0:0:0:
256,336,281381,1,8,1:0:0:0:
256,336,281469,1,0,0:0:0:0:
256,336,281557,2,0,L|256:256,1,59.9999981689454,2|0,0:0|0:0,0:0:0:0:
182,61,281734,6,0,P|180:90|191:118,1,59.9999981689454,0|0,1:0|0:0,0:0:0:0:
320,118,281910,2,0,P|331:90|330:61,1,59.9999981689454,2|0,0:0|0:0,0:0:0:0:
48,89,282086,2,0,P|77:87|105:98,1,59.9999981689454,8|0,1:0|0:0,0:0:0:0:
464,89,282263,2,0,P|435:87|407:98,1,59.9999981689454,2|0,0:0|0:0,0:0:0:0:
119,332,282439,6,0,P|144:332|168:324,1,50,4|0,1:0|0:0,0:0:0:0:
145,174,282616,2,0,P|121:173|97:181,1,50,2|0,0:0|0:0,0:0:0:0:
34,267,282792,1,8,1:0:0:0:
59,263,282881,1,0,0:0:0:0:
84,259,282969,2,0,L|133:252,1,50,2|0,0:0|0:0,0:0:0:0:
235,368,283145,2,0,P|260:368|284:360,1,50,0|0,1:0|0:0,0:0:0:0:
246,102,283322,2,0,P|221:101|197:110,1,50,2|0,0:0|0:0,0:0:0:0:
248,290,283498,6,0,B|253:249|286:227|286:227|248:213|234:179,1,150,8|0,1:0|0:0,0:0:0:0:
133,252,283851,6,0,L|183:244,1,50,0|0,1:0|0:0,0:0:0:0:
309,147,284028,2,0,L|359:139,1,50,2|0,0:0|0:0,0:0:0:0:
453,236,284204,2,0,L|446:186,1,50,8|0,1:0|0:0,0:0:0:0:
348,60,284381,2,0,L|341:11,1,50,2|0,0:0|0:0,0:0:0:0:
487,99,284557,6,0,P|462:98|438:106,1,50,0|0,1:0|0:0,0:0:0:0:
335,268,284734,2,0,P|334:243|322:220,1,50,2|0,0:0|0:0,0:0:0:0:
256,64,284910,1,8,1:0:0:0:
177,268,285087,2,0,P|179:243|190:220,1,50,2|0,0:0|0:0,0:0:0:0:
25,99,285263,6,0,P|50:98|74:106,1,50,0|0,1:0|0:0,0:0:0:0:
97,245,285440,2,0,P|84:223|80:199,1,50,2|0,0:0|0:0,0:0:0:0:
180,60,285616,1,8,1:0:0:0:
184,85,285704,1,0,0:0:0:0:
188,109,285793,2,0,P|177:130|158:147,1,50,2|0,0:0|0:0,0:0:0:0:
11,172,285969,1,0,1:0:0:0:
0,220,286057,2,0,L|8:269,2,50,0|2|0,0:0|0:0|0:0,0:0:0:0:
101,19,286322,6,0,B|176:37|176:37|189:109,1,150,8|0,1:0|0:0,0:0:0:0:
117,244,286675,6,0,L|167:236,1,50,0|0,1:0|0:0,0:0:0:0:
395,244,286851,2,0,L|346:236,1,50,2|0,0:0|0:0,0:0:0:0:
179,312,287028,2,0,L|188:361,1,50,8|0,1:0|0:0,0:0:0:0:
324,361,287204,2,0,L|332:312,1,50,2|0,0:0|0:0,0:0:0:0:
231,188,287381,5,0,1:0:0:0:
231,188,287469,1,0,0:0:0:0:
231,188,287557,2,0,P|256:193|280:189,1,50,2|0,0:0|0:0,0:0:0:0:
380,75,287734,2,0,P|379:100|370:123,1,50,8|0,1:0|0:0,0:0:0:0:
143,124,287910,2,0,P|133:101|132:76,1,50,2|0,0:0|0:0,0:0:0:0:
131,0,288087,5,0,1:0:0:0:
255,227,288263,2,0,P|255:251|247:275,1,50,2|0,0:0|0:0,0:0:0:0:
134,357,288439,2,0,L|85:349,1,50,8|0,1:0|0:0,0:0:0:0:
1,235,288616,2,0,P|0:210|8:186,1,50,2|0,0:0|0:0,0:0:0:0:
177,239,288792,1,0,1:0:0:0:
127,231,288881,2,0,L|78:224,2,50,0|2|0,0:0|0:0|0:0,0:0:0:0:
282,90,289145,6,0,P|238:136|212:77,1,150,8|0,1:0|0:0,0:0:0:0:
352,46,289498,6,0,L|363:109,1,50,0|0,1:0|0:0,0:0:0:0:
256,212,289675,1,2,0:0:0:0:
280,208,289763,1,0,0:0:0:0:
305,204,289851,2,0,L|369:193,1,50,8|0,1:0|0:0,0:0:0:0:
432,60,290028,2,0,L|443:123,1,50,2|0,0:0|0:0,0:0:0:0:
291,284,290204,2,0,L|355:273,1,50,0|0,1:0|0:0,0:0:0:0:
512,74,290381,2,0,L|522:137,1,50,2|0,0:0|0:0,0:0:0:0:
492,211,290557,6,0,L|443:203,1,50,8|0,1:0|0:0,0:0:0:0:
352,46,290734,2,0,L|303:53,1,50,2|0,0:0|0:0,0:0:0:0:
103,190,290910,6,0,P|113:167|131:150,1,50,0|0,1:0|3:0,0:0:0:0:
93,69,291086,2,0,P|118:66|142:73,1,50,2|0,3:2|3:0,0:0:0:0:
311,173,291263,2,0,P|287:175|263:170,1,50,8|0,1:0|3:0,0:0:0:0:
213,241,291439,2,0,P|198:221|191:197,1,50,2|0,3:2|3:0,0:0:0:0:
192,1,291616,2,0,P|207:20|214:45,1,50,0|0,1:0|3:0,0:0:0:0:
302,52,291792,2,0,P|292:75|275:93,1,50,2|0,3:2|3:0,0:0:0:0:
28,167,291969,5,8,1:0:0:0:
22,130,292057,1,0,3:0:0:0:
16,93,292145,1,2,3:2:0:0:
10,56,292234,1,0,3:0:0:0:
5,19,292322,5,4,1:0:0:0:
52,316,292498,2,0,L|131:303,1,50,8|8,0:0|0:0,0:0:0:0:
164,233,292675,2,0,L|243:245,1,50,8|8,0:0|0:0,0:0:0:0:
280,357,292851,2,0,L|293:277,1,50,8|0,0:0|0:0,0:0:0:0:
432,206,293028,6,0,L|451:189,3,25,0|0|0|0,3:2|3:0|3:2|3:0,3:0:0:0:
379,266,293204,2,0,L|347:255,2,33.3333333333333,0|0|0,3:0|3:0|3:0,3:0:0:0:
457,280,293381,6,0,L|465:340,1,50,8|8,3:0|3:0,3:0:0:0:
364,172,293557,2,0,L|372:121,1,50,8|4,3:0|3:0,3:0:0:0:
507,19,293734,5,4,1:0:0:0:
148,321,294086,2,0,L|160:241,1,80,8|2,1:0|0:0,0:0:0:0:
183,102,294439,1,0,1:0:0:0:
262,113,294616,1,2,0:0:0:0:
119,153,294792,2,0,L|131:233,1,80,8|2,1:0|0:0,0:0:0:0:
148,321,295057,1,0,0:0:0:0:
108,315,295145,5,0,1:0:0:0:
213,174,295322,1,2,0:0:0:0:
323,276,295498,2,0,L|243:288,1,80,8|2,1:0|0:0,0:0:0:0:
130,232,295851,1,0,1:0:0:0:
237,327,296028,2,0,L|243:288,1,40,2|0,0:0|0:0,0:0:0:0:
298,189,296204,2,0,L|378:201,1,80,8|2,1:0|0:0,0:0:0:0:
470,328,296557,5,0,1:0:0:0:
458,319,296645,2,0,L|445:239,1,59.9999981689454,0|2,0:0|0:0,0:0:0:0:
365,209,296822,1,0,0:0:0:0:
377,200,296910,2,0,L|389:120,1,59.9999981689454,8|0,1:0|0:0,0:0:0:0:
496,51,297086,2,0,L|421:79,1,59.9999981689454,2|0,0:0|0:0,0:0:0:0:
351,57,297263,6,0,B|308:22|308:22|255:62|190:45,1,179.999994506836,0|0,1:0|0:0,0:0:0:0:
79,10,297616,1,8,1:0:0:0:
496,51,297969,5,0,1:0:0:0:
30,65,298322,2,0,P|53:158|100:78,2,239.999992675781,8|0|8,1:0|1:0|1:0,0:0:0:0:
173,265,299381,6,0,L|253:253,1,80,0|0,1:0|0:0,0:0:0:0:
41,238,299734,2,0,L|53:318,1,80,8|0,1:0|0:0,0:0:0:0:
192,351,300086,1,0,1:0:0:0:
111,381,300263,1,0,0:0:0:0:
13,255,300439,2,0,L|25:175,1,80,8|0,1:0|0:0,0:0:0:0:
80,78,300704,1,0,0:0:0:0:
40,84,300792,5,0,1:0:0:0:
116,228,300969,1,0,0:0:0:0:
210,140,301145,2,0,L|290:152,1,80,8|0,1:0|0:0,0:0:0:0:
308,155,301410,1,0,0:0:0:0:
308,155,301498,1,0,1:0:0:0:
384,299,301675,1,0,0:0:0:0:
478,211,301851,2,0,L|398:223,1,80,8|0,1:0|0:0,0:0:0:0:
305,368,302204,5,0,3:0:0:0:
296,356,302292,2,0,L|216:343,1,59.9999981689454,0|0,0:0|0:0,0:0:0:0:
104,375,302469,1,0,0:0:0:0:
116,384,302557,2,0,L|136:251,1,119.999996337891,8|0,1:0|0:0,0:0:0:0:
204,323,302910,6,0,L|217:333,4,14.9999995422363,0|0|0|0|0,3:0|0:0|0:0|0:0|0:0,0:0:0:0:
52,300,303086,2,0,L|36:305,4,14.9999995422363
184,204,303263,2,0,B|205:180|205:180|146:182|91:162|91:162|105:191,1,179.999994506836,8|0,1:1|0:0,0:0:0:0:
134,266,303616,5,0,3:0:0:0:
496,16,303969,1,8,1:0:0:0:
224,78,304322,5,0,1:0:0:0:
425,93,304498,1,0,0:0:0:0:
420,63,304586,1,0,0:0:0:0:
388,38,304675,6,0,L|394:77,1,40,8|0,0:1|0:0,0:0:0:0:
495,177,304851,2,0,L|489:216,1,40,0|0,3:0|0:0,0:0:0:0:
298,297,305028,5,12,1:2:0:0:
361,151,305292,1,8,0:0:0:0:
214,88,305557,1,8,0:0:0:0:
152,234,305822,1,8,0:0:0:0:
298,297,306439,5,8,0:0:0:0:
361,151,306704,1,8,0:0:0:0:
214,88,306969,1,8,0:0:0:0:
152,234,307234,1,8,0:0:0:0:
289,126,307763,6,8,L|293:107,1,20
298,87,307851,5,8,0:0:0:0:
361,233,308116,1,8,0:0:0:0:
214,296,308381,1,8,0:0:0:0:
152,150,308645,1,8,0:0:0:0:
298,87,309263,5,8,0:0:0:0:
361,233,309528,1,8,0:0:0:0:
214,296,309792,1,8,0:0:0:0:
152,150,310057,1,8,0:0:0:0:
298,87,310322,1,8,0:0:0:0:
218,47,310586,6,8,L|216:67,1,20
214,87,310675,5,8,0:0:0:0:
368,209,310939,1,8,0:0:0:0:
187,281,311204,1,8,0:0:0:0:
326,104,311381,5,8,0:0:0:0:
145,176,311645,1,8,0:0:0:0:
299,298,311910,1,8,0:0:0:0:
299,298,311998,1,8,0:0:0:0:
299,298,312086,5,8,0:0:0:0:
215,87,312351,1,8,0:0:0:0:
438,121,312616,1,8,0:0:0:0:
76,264,312792,5,8,0:0:0:0:
215,87,313057,1,8,0:0:0:0:
299,298,313322,2,0,L|317:290,2,20,8|8|8,0:0|0:0|0:0,0:0:0:0:
179,310,313498,6,0,L|185:261,1,50,8|0,0:0|0:0,0:0:0:0:
119,159,313675,2,0,L|158:191,1,50,8|0,0:0|0:0,0:0:0:0:
232,202,313851,2,0,L|277:183,1,50,8|0,0:0|0:0,0:0:0:0:
333,74,314028,1,8,0:0:0:0:
333,74,314116,1,8,0:0:0:0:
333,74,314204,6,0,L|327:123,1,50,8|0,0:0|0:0,0:0:0:0:
393,225,314381,2,0,L|355:194,1,50,8|0,0:0|0:0,0:0:0:0:
278,183,314557,1,8,0:0:0:0:
267,187,314645,1,8,0:0:0:0:
255,191,314734,2,0,L|232:202,3,25,8|8|8|8,0:0|0:0|0:0|0:0,0:0:0:0:
