osu file format v14

[General]
AudioFilename: FM_Synthesis_Experiment.mp3
AudioLeadIn: 0
PreviewTime: 280975
Countdown: 0
SampleSet: Normal
StackLeniency: 0.7
Mode: 3
LetterboxInBreaks: 0
SpecialStyle: 0
WidescreenStoryboard: 0

[Editor]
Bookmarks: 20175,24975,52175,64175,64975,77775,83775,88975,90575,96975,103375,108575,122575,141775,148175,154575,160975,166575,205775,218575,229175,231375,242575,250575,256975,258175,260175,263375,266575,269775,272975,276175,280975,282575,308175
DistanceSpacing: 1.5
BeatDivisor: 8
GridSize: 32
TimelineZoom: 1.599999

[Metadata]
Title:FM Synthesis Experiment
TitleUnicode:FM Synthesis Experiment
Artist:Camellia
ArtistUnicode:かめりあ
Creator:Umo-
Version:Execute
Source:osu!
Tags:cametek kamelcamellia かめるかめりあ heart of android fa featured artist electronic instrumental Hardcore Techno Trap Comiket C95 CTCD-018 masaya oya mappers' guild
BeatmapID:2365803
BeatmapSetID:1132659

[Difficulty]
HPDrainRate:8.5
CircleSize:7
OverallDifficulty:8.2
ApproachRate:5
SliderMultiplier:1.4
SliderTickRate:1

[Events]
//Background and Video events
0,0,"newbglol.jpg",0,0
//Break Periods
//Storyboard Layer 0 (Background)
//Storyboard Layer 1 (Fail)
//Storyboard Layer 2 (Pass)
//Storyboard Layer 3 (Foreground)
//Storyboard Layer 4 (Overlay)
//Storyboard Sound Samples

[TimingPoints]
989,400,4,1,1,10,1,0
20189,-100,4,1,1,20,0,0
24989,-100,4,1,1,40,0,0
77789,-100,4,1,1,40,0,1
88989,-100,4,1,1,40,0,0
90989,-100,4,1,1,40,0,1
96689,-100,4,1,1,40,0,0
96989,-100,4,1,1,40,0,1
103389,-100,4,1,1,40,0,0
142589,-100,4,1,1,40,0,1
144989,-100,4,1,1,40,0,0
146189,-100,4,1,1,40,0,1
147589,-100,4,1,1,40,0,0
148589,-100,4,1,1,40,0,1
153789,-100,4,1,1,40,0,0
155789,-100,4,1,1,40,0,1
157789,-100,4,1,1,40,0,0
158989,-100,4,1,1,40,0,1
160389,-100,4,1,1,40,0,0
161389,-100,4,1,1,40,0,1
166589,-100,4,1,1,40,0,0
172189,-100,4,1,1,20,0,0
199389,-100,4,1,1,40,0,0
256989,-100,4,1,1,40,0,1
259789,-100,4,1,1,40,0,0
263389,-100,4,1,1,40,0,1
268989,-100,4,1,1,40,0,0
269789,-100,4,1,1,40,0,1
272589,-100,4,1,1,40,0,0
276189,-100,4,1,1,40,0,1
280989,-100,4,1,1,40,0,0
282589,-100,4,1,1,40,0,1
288689,-100,4,1,1,40,0,0
289189,-100,4,1,1,40,0,1
293789,-100,4,1,1,40,0,0
295989,-100,4,1,1,40,0,1
307389,-100,4,1,1,40,0,0

[HitObjects]
256,192,989,128,0,1089:0:0:0:0:
182,192,1089,128,0,1189:0:0:0:0:
329,192,1189,128,0,1289:0:0:0:0:
109,192,1289,128,0,1389:0:0:0:0:
402,192,1389,128,0,1489:0:0:0:0:
182,192,1489,128,0,1589:0:0:0:0:
329,192,1589,128,0,1689:0:0:0:0:
36,192,1689,128,0,1789:0:0:0:0:
475,192,1789,128,0,1889:0:0:0:0:
109,192,1889,128,0,1989:0:0:0:0:
402,192,1989,128,0,2089:0:0:0:0:
182,192,2089,128,0,2189:0:0:0:0:
329,192,2189,128,0,2289:0:0:0:0:
182,192,2289,128,0,2389:0:0:0:0:
402,192,2389,128,0,2489:0:0:0:0:
256,192,2489,128,0,2589:0:0:0:0:
475,192,2589,128,0,2689:0:0:0:0:
329,192,2689,128,0,2789:0:0:0:0:
109,192,2789,128,0,2889:0:0:0:0:
256,192,2889,128,0,2989:0:0:0:0:
182,192,2989,128,0,3089:0:0:0:0:
329,192,3089,128,0,3189:0:0:0:0:
182,192,3189,128,0,3289:0:0:0:0:
36,192,3289,128,0,3389:0:0:0:0:
475,192,3389,128,0,3489:0:0:0:0:
109,192,3489,128,0,3589:0:0:0:0:
402,192,3589,128,0,3689:0:0:0:0:
182,192,3689,128,0,3789:0:0:0:0:
329,192,3789,128,0,3889:0:0:0:0:
182,192,3889,128,0,3989:0:0:0:0:
402,192,3989,128,0,4089:0:0:0:0:
256,192,4089,128,0,4189:0:0:0:0:
475,192,4189,128,0,4289:0:0:0:0:
329,192,4289,128,0,4389:0:0:0:0:
109,192,4389,128,0,4489:0:0:0:0:
256,192,4489,128,0,4589:0:0:0:0:
182,192,4589,128,0,4689:0:0:0:0:
329,192,4689,128,0,4789:0:0:0:0:
182,192,4789,128,0,4889:0:0:0:0:
402,192,4889,128,0,4989:0:0:0:0:
256,192,4989,128,0,5089:0:0:0:0:
475,192,5089,128,0,5189:0:0:0:0:
329,192,5189,128,0,5289:0:0:0:0:
402,192,5289,128,0,5389:0:0:0:0:
256,192,5389,128,0,5489:0:0:0:0:
329,192,5489,128,0,5589:0:0:0:0:
109,192,5589,128,0,5689:0:0:0:0:
256,192,5689,128,0,5789:0:0:0:0:
182,192,5789,128,0,5889:0:0:0:0:
329,192,5889,128,0,5989:0:0:0:0:
256,192,5989,128,0,6089:0:0:0:0:
402,192,6089,128,0,6189:0:0:0:0:
329,192,6189,128,0,6289:0:0:0:0:
475,192,6289,128,0,6389:0:0:0:0:
402,192,6389,128,0,6489:0:0:0:0:
36,192,6489,128,0,6589:0:0:0:0:
475,192,6589,128,0,6689:0:0:0:0:
182,192,6689,128,0,6789:0:0:0:0:
329,192,6789,128,0,6889:0:0:0:0:
256,192,6889,128,0,6989:0:0:0:0:
475,192,6989,128,0,7089:0:0:0:0:
109,192,7089,128,0,7189:0:0:0:0:
402,192,7189,128,0,7289:0:0:0:0:
182,192,7289,128,0,7389:0:0:0:0:
475,192,7389,128,0,7489:0:0:0:0:
256,192,7489,128,0,7589:0:0:0:0:
329,192,7589,128,0,7689:0:0:0:0:
109,192,7689,128,0,7789:0:0:0:0:
402,192,7789,128,0,7889:0:0:0:0:
256,192,7889,128,0,7989:0:0:0:0:
475,192,7989,128,0,8089:0:0:0:0:
329,192,8089,128,0,8189:0:0:0:0:
36,192,8189,128,0,8289:0:0:0:0:
182,192,8289,128,0,8389:0:0:0:0:
329,192,8389,128,0,8489:0:0:0:0:
475,192,8489,128,0,8589:0:0:0:0:
182,192,8589,128,0,8689:0:0:0:0:
402,192,8689,128,0,8789:0:0:0:0:
109,192,8789,128,0,8889:0:0:0:0:
329,192,8889,128,0,8989:0:0:0:0:
36,192,8989,128,0,9089:0:0:0:0:
475,192,9089,128,0,9189:0:0:0:0:
182,192,9189,128,0,9289:0:0:0:0:
402,192,9289,128,0,9389:0:0:0:0:
109,192,9389,128,0,9489:0:0:0:0:
256,192,9489,128,0,9589:0:0:0:0:
36,192,9589,128,0,9689:0:0:0:0:
475,192,9689,128,0,9789:0:0:0:0:
109,192,9789,128,0,9889:0:0:0:0:
402,192,9889,128,0,9989:0:0:0:0:
182,192,9989,128,0,10089:0:0:0:0:
329,192,10089,128,0,10189:0:0:0:0:
109,192,10189,128,0,10289:0:0:0:0:
402,192,10289,128,0,10389:0:0:0:0:
36,192,10389,128,0,10489:0:0:0:0:
256,192,10489,128,0,10589:0:0:0:0:
109,192,10589,128,0,10689:0:0:0:0:
329,192,10689,128,0,10789:0:0:0:0:
182,192,10789,128,0,10889:0:0:0:0:
402,192,10889,128,0,10989:0:0:0:0:
256,192,10989,128,0,11089:0:0:0:0:
475,192,11089,128,0,11189:0:0:0:0:
182,192,11189,128,0,11289:0:0:0:0:
329,192,11289,128,0,11389:0:0:0:0:
36,192,11389,128,0,11489:0:0:0:0:
402,192,11489,128,0,11589:0:0:0:0:
182,192,11589,128,0,11689:0:0:0:0:
329,192,11689,128,0,11789:0:0:0:0:
109,192,11789,128,0,11889:0:0:0:0:
475,192,11889,128,0,11989:0:0:0:0:
182,192,11989,128,0,12089:0:0:0:0:
402,192,12089,128,0,12189:0:0:0:0:
256,192,12189,128,0,12289:0:0:0:0:
329,192,12289,128,0,12389:0:0:0:0:
182,192,12389,128,0,12489:0:0:0:0:
402,192,12489,128,0,12589:0:0:0:0:
256,192,12589,128,0,12689:0:0:0:0:
475,192,12689,128,0,12789:0:0:0:0:
36,192,12789,128,0,12889:0:0:0:0:
402,192,12889,128,0,12989:0:0:0:0:
256,192,12989,128,0,13089:0:0:0:0:
109,192,13089,128,0,13189:0:0:0:0:
329,192,13189,128,0,13289:0:0:0:0:
182,192,13289,128,0,13389:0:0:0:0:
402,192,13389,128,0,13489:0:0:0:0:
109,192,13489,128,0,13589:0:0:0:0:
329,192,13589,128,0,13689:0:0:0:0:
182,192,13689,128,0,13789:0:0:0:0:
475,192,13789,128,0,13889:0:0:0:0:
256,192,13889,128,0,13989:0:0:0:0:
402,192,13989,128,0,14089:0:0:0:0:
329,192,14089,128,0,14189:0:0:0:0:
182,192,14189,128,0,14289:0:0:0:0:
475,192,14289,128,0,14389:0:0:0:0:
329,192,14389,128,0,14489:0:0:0:0:
36,192,14489,128,0,14589:0:0:0:0:
182,192,14589,128,0,14689:0:0:0:0:
402,192,14689,128,0,14789:0:0:0:0:
109,192,14789,128,0,14889:0:0:0:0:
329,192,14889,128,0,14989:0:0:0:0:
36,192,14989,128,0,15089:0:0:0:0:
182,192,15089,128,0,15189:0:0:0:0:
402,192,15189,128,0,15289:0:0:0:0:
109,192,15289,128,0,15389:0:0:0:0:
329,192,15389,128,0,15489:0:0:0:0:
36,192,15489,128,0,15589:0:0:0:0:
402,192,15589,128,0,15689:0:0:0:0:
256,192,15689,128,0,15789:0:0:0:0:
329,192,15789,128,0,15889:0:0:0:0:
36,192,15889,128,0,15989:0:0:0:0:
475,192,15989,128,0,16089:0:0:0:0:
109,192,16089,128,0,16189:0:0:0:0:
329,192,16189,128,0,16289:0:0:0:0:
36,192,16289,128,0,16389:0:0:0:0:
256,192,16389,128,0,16489:0:0:0:0:
109,192,16489,128,0,16589:0:0:0:0:
329,192,16589,128,0,16689:0:0:0:0:
182,192,16689,128,0,16789:0:0:0:0:
402,192,16789,128,0,16889:0:0:0:0:
36,192,16889,128,0,16989:0:0:0:0:
329,192,16989,128,0,17089:0:0:0:0:
182,192,17089,128,0,17189:0:0:0:0:
475,192,17189,128,0,17289:0:0:0:0:
256,192,17289,128,0,17389:0:0:0:0:
402,192,17389,128,0,17489:0:0:0:0:
109,192,17489,128,0,17589:0:0:0:0:
329,192,17589,128,0,17789:0:0:0:0:
36,192,17689,128,0,17789:0:0:0:0:
475,192,17789,128,0,17889:0:0:0:0:
182,192,17889,128,0,18089:0:0:0:0:
329,192,17989,128,0,18089:0:0:0:0:
109,192,18089,128,0,18289:0:0:0:0:
402,192,18189,128,0,18289:0:0:0:0:
36,192,18289,128,0,18489:0:0:0:0:
329,192,18389,128,0,18489:0:0:0:0:
182,192,18489,128,0,18689:0:0:0:0:
402,192,18589,128,0,18689:0:0:0:0:
109,192,18689,128,0,18789:0:0:0:0:
329,192,18789,128,0,18889:0:0:0:0:
182,192,18889,128,0,18989:0:0:0:0:
402,192,18989,128,0,19089:0:0:0:0:
36,192,19089,128,0,19189:0:0:0:0:
256,192,19189,128,0,19389:0:0:0:0:
402,192,19289,128,0,19389:0:0:0:0:
109,192,19389,128,0,19489:0:0:0:0:
329,192,19489,128,0,19689:0:0:0:0:
182,192,19589,128,0,19689:0:0:0:0:
36,192,19689,128,0,19889:0:0:0:0:
402,192,19789,128,0,19889:0:0:0:0:
182,192,19889,128,0,20089:0:0:0:0:
329,192,19989,128,0,20089:0:0:0:0:
256,192,20089,128,0,20289:0:0:0:0:
402,192,20189,128,0,20289:0:0:0:0:
109,192,20289,128,0,20389:0:0:0:0:
329,192,20389,128,0,20489:0:0:0:0:
182,192,20489,128,0,20589:0:0:0:0:
475,192,20589,128,0,20689:0:0:0:0:
256,192,20689,128,0,20789:0:0:0:0:
36,192,20789,128,0,20989:0:0:0:0:
329,192,20889,128,0,20989:0:0:0:0:
182,192,20989,128,0,21089:0:0:0:0:
402,192,21089,128,0,21289:0:0:0:0:
256,192,21189,128,0,21289:0:0:0:0:
109,192,21289,128,0,21489:0:0:0:0:
329,192,21389,128,0,21489:0:0:0:0:
402,192,21489,128,0,21689:0:0:0:0:
182,192,21589,128,0,21689:0:0:0:0:
256,192,21689,128,0,21889:0:0:0:0:
329,192,21789,128,0,21889:0:0:0:0:
109,192,21889,128,0,21989:0:0:0:0:
402,192,21989,128,0,22089:0:0:0:0:
182,192,22089,128,0,22189:0:0:0:0:
329,192,22189,128,0,22289:0:0:0:0:
36,192,22289,128,0,22389:0:0:0:0:
182,192,22389,128,0,22489:0:0:0:0:
402,192,22489,128,0,22689:0:0:0:0:
256,192,22589,128,0,22689:0:0:0:0:
109,192,22689,128,0,22889:0:0:0:0:
329,192,22789,128,0,22889:0:0:0:0:
256,192,22889,128,0,23089:0:0:0:0:
182,192,22989,128,0,23089:0:0:0:0:
475,192,23089,128,0,23289:0:0:0:0:
329,192,23189,128,0,23289:0:0:0:0:
182,192,23289,128,0,23489:0:0:0:0:
402,192,23389,128,0,23489:0:0:0:0:
329,192,23489,128,0,23589:0:0:0:0:
109,192,23589,128,0,23689:0:0:0:0:
182,192,23689,128,0,23789:0:0:0:0:
475,192,23789,128,0,23889:0:0:0:0:
329,192,23889,128,0,23989:0:0:0:0:
36,192,23989,128,0,24089:0:0:0:0:
109,192,24089,128,0,24289:0:0:0:0:
329,192,24189,128,0,24289:0:0:0:0:
256,192,24289,128,0,24489:0:0:0:0:
402,192,24389,128,0,24489:0:0:0:0:
109,192,24489,128,0,24589:0:0:0:0:
475,192,24589,1,0,0:0:0:0:
402,192,24639,1,0,0:0:0:0:
329,192,24689,1,0,0:0:0:0:
36,192,24739,1,0,0:0:0:0:
109,192,24789,1,0,0:0:0:0:
182,192,24839,1,0,0:0:0:0:
256,192,24889,1,0,0:0:0:0:
36,192,24939,1,0,0:0:0:0:
475,192,24989,128,0,25189:0:0:0:0:
329,192,24989,128,0,25089:0:0:0:0:
109,192,24989,1,0,0:0:0:0:
182,192,24989,128,0,25089:0:0:0:0:
182,192,25189,128,0,25289:0:0:0:0:
36,192,25189,128,0,25389:0:0:0:0:
329,192,25289,128,0,25389:0:0:0:0:
256,192,25389,128,0,25589:0:0:0:0:
182,192,25589,1,0,0:0:0:0:
329,192,25655,1,0,0:0:0:0:
182,192,25722,1,0,0:0:0:0:
329,192,25789,1,0,0:0:0:0:
402,192,25789,1,0,0:0:0:0:
475,192,25922,128,0,26589:0:0:0:0:
36,192,25922,1,0,0:0:0:0:
256,192,25922,1,0,0:0:0:0:
36,192,26055,1,0,0:0:0:0:
256,192,26055,1,0,0:0:0:0:
109,192,26189,1,0,0:0:0:0:
329,192,26189,1,0,0:0:0:0:
109,192,26322,1,0,0:0:0:0:
329,192,26322,1,0,0:0:0:0:
182,192,26455,1,0,0:0:0:0:
402,192,26455,1,0,0:0:0:0:
36,192,26589,5,0,0:0:0:0:
256,192,26589,1,0,0:0:0:0:
329,192,26589,1,0,0:0:0:0:
402,192,26589,1,0,0:0:0:0:
109,192,26689,128,0,26789:0:0:0:0:
182,192,26789,128,0,26889:0:0:0:0:
329,192,26889,128,0,26989:0:0:0:0:
402,192,26989,1,0,0:0:0:0:
109,192,27089,1,0,0:0:0:0:
402,192,27189,128,0,27239:0:0:0:0:
109,192,27289,1,0,0:0:0:0:
402,192,27389,1,0,0:0:0:0:
109,192,27489,128,0,27539:0:0:0:0:
329,192,27589,1,0,0:0:0:0:
182,192,27689,1,0,0:0:0:0:
329,192,27789,128,0,27839:0:0:0:0:
182,192,27889,1,0,0:0:0:0:
329,192,27989,1,0,0:0:0:0:
256,192,28089,1,0,0:0:0:0:
182,192,28189,1,0,0:0:0:0:
475,192,28189,128,0,28239:0:0:0:0:
109,192,28289,1,0,0:0:0:0:
36,192,28389,1,0,0:0:0:0:
256,192,28489,128,0,28539:0:0:0:0:
329,192,28589,1,0,0:0:0:0:
402,192,28689,1,0,0:0:0:0:
182,192,28789,128,0,28839:0:0:0:0:
256,192,28889,1,0,0:0:0:0:
329,192,28989,1,0,0:0:0:0:
182,192,29089,128,0,29139:0:0:0:0:
402,192,29189,1,0,0:0:0:0:
329,192,29289,1,0,0:0:0:0:
109,192,29389,128,0,29439:0:0:0:0:
182,192,29489,1,0,0:0:0:0:
475,192,29589,1,0,0:0:0:0:
109,192,29689,1,0,0:0:0:0:
329,192,29789,1,0,0:0:0:0:
182,192,29789,128,0,29839:0:0:0:0:
402,192,29889,1,0,0:0:0:0:
475,192,29989,1,0,0:0:0:0:
256,192,30089,128,0,30139:0:0:0:0:
402,192,30189,1,0,0:0:0:0:
109,192,30289,1,0,0:0:0:0:
402,192,30389,128,0,30439:0:0:0:0:
109,192,30489,1,0,0:0:0:0:
402,192,30589,1,0,0:0:0:0:
109,192,30689,128,0,30739:0:0:0:0:
329,192,30789,1,0,0:0:0:0:
182,192,30889,1,0,0:0:0:0:
329,192,30989,128,0,31039:0:0:0:0:
182,192,31089,1,0,0:0:0:0:
329,192,31189,1,0,0:0:0:0:
256,192,31289,1,0,0:0:0:0:
402,192,31389,1,0,0:0:0:0:
182,192,31389,128,0,31439:0:0:0:0:
109,192,31489,1,0,0:0:0:0:
36,192,31589,1,0,0:0:0:0:
475,192,31689,128,0,31739:0:0:0:0:
329,192,31789,1,0,0:0:0:0:
109,192,31889,1,0,0:0:0:0:
402,192,31989,128,0,32039:0:0:0:0:
329,192,32089,1,0,0:0:0:0:
256,192,32189,1,0,0:0:0:0:
402,192,32289,128,0,32339:0:0:0:0:
475,192,32389,1,0,0:0:0:0:
36,192,32489,1,0,0:0:0:0:
182,192,32589,128,0,32639:0:0:0:0:
402,192,32689,1,0,0:0:0:0:
475,192,32789,1,0,0:0:0:0:
329,192,32889,1,0,0:0:0:0:
402,192,32989,1,0,0:0:0:0:
182,192,32989,128,0,33039:0:0:0:0:
109,192,33089,1,0,0:0:0:0:
329,192,33189,1,0,0:0:0:0:
109,192,33289,128,0,33339:0:0:0:0:
402,192,33389,1,0,0:0:0:0:
182,192,33489,1,0,0:0:0:0:
402,192,33589,128,0,33639:0:0:0:0:
182,192,33689,1,0,0:0:0:0:
402,192,33789,1,0,0:0:0:0:
182,192,33889,128,0,33939:0:0:0:0:
329,192,33989,1,0,0:0:0:0:
109,192,34089,1,0,0:0:0:0:
329,192,34189,128,0,34239:0:0:0:0:
109,192,34289,1,0,0:0:0:0:
329,192,34389,1,0,0:0:0:0:
109,192,34489,1,0,0:0:0:0:
475,192,34589,1,0,0:0:0:0:
329,192,34589,128,0,34639:0:0:0:0:
256,192,34689,1,0,0:0:0:0:
182,192,34789,1,0,0:0:0:0:
109,192,34889,128,0,34939:0:0:0:0:
36,192,34989,1,0,0:0:0:0:
256,192,35089,1,0,0:0:0:0:
182,192,35189,128,0,35239:0:0:0:0:
109,192,35289,1,0,0:0:0:0:
36,192,35389,1,0,0:0:0:0:
182,192,35489,128,0,35539:0:0:0:0:
329,192,35589,1,0,0:0:0:0:
475,192,35689,1,0,0:0:0:0:
256,192,35789,128,0,35839:0:0:0:0:
402,192,35889,1,0,0:0:0:0:
109,192,35989,1,0,0:0:0:0:
182,192,36089,1,0,0:0:0:0:
109,192,36189,1,0,0:0:0:0:
402,192,36189,128,0,36239:0:0:0:0:
256,192,36289,1,0,0:0:0:0:
329,192,36389,1,0,0:0:0:0:
109,192,36489,128,0,36539:0:0:0:0:
402,192,36589,1,0,0:0:0:0:
182,192,36689,1,0,0:0:0:0:
402,192,36789,128,0,36839:0:0:0:0:
182,192,36889,1,0,0:0:0:0:
402,192,36989,1,0,0:0:0:0:
182,192,37089,128,0,37139:0:0:0:0:
329,192,37189,1,0,0:0:0:0:
109,192,37289,1,0,0:0:0:0:
329,192,37389,128,0,37439:0:0:0:0:
109,192,37489,1,0,0:0:0:0:
329,192,37589,1,0,0:0:0:0:
109,192,37689,1,0,0:0:0:0:
475,192,37789,1,0,0:0:0:0:
329,192,37789,128,0,37839:0:0:0:0:
256,192,37889,1,0,0:0:0:0:
182,192,37989,1,0,0:0:0:0:
109,192,38089,128,0,38139:0:0:0:0:
402,192,38189,1,0,0:0:0:0:
182,192,38289,1,0,0:0:0:0:
402,192,38389,128,0,38439:0:0:0:0:
182,192,38489,1,0,0:0:0:0:
402,192,38589,1,0,0:0:0:0:
182,192,38689,128,0,38739:0:0:0:0:
329,192,38789,1,0,0:0:0:0:
109,192,38889,1,0,0:0:0:0:
329,192,38989,128,0,39039:0:0:0:0:
109,192,39089,1,0,0:0:0:0:
329,192,39189,1,0,0:0:0:0:
109,192,39289,1,0,0:0:0:0:
329,192,39389,1,0,0:0:0:0:
402,192,39389,1,0,0:0:0:0:
475,192,39389,1,0,0:0:0:0:
36,192,39389,1,0,0:0:0:0:
475,192,39589,128,0,39689:0:0:0:0:
256,192,39689,1,0,0:0:0:0:
36,192,39789,1,0,0:0:0:0:
182,192,39889,1,0,0:0:0:0:
475,192,39989,128,0,40089:0:0:0:0:
36,192,39989,1,0,0:0:0:0:
182,192,40089,1,0,0:0:0:0:
36,192,40189,1,0,0:0:0:0:
182,192,40289,1,0,0:0:0:0:
475,192,40389,128,0,40489:0:0:0:0:
36,192,40389,1,0,0:0:0:0:
182,192,40489,1,0,0:0:0:0:
329,192,40589,1,0,0:0:0:0:
109,192,40689,1,0,0:0:0:0:
475,192,40789,128,0,40889:0:0:0:0:
329,192,40789,1,0,0:0:0:0:
109,192,40889,1,0,0:0:0:0:
329,192,40989,1,0,0:0:0:0:
36,192,40989,1,0,0:0:0:0:
256,192,41089,1,0,0:0:0:0:
475,192,41189,128,0,41289:0:0:0:0:
182,192,41189,1,0,0:0:0:0:
329,192,41289,1,0,0:0:0:0:
256,192,41389,1,0,0:0:0:0:
402,192,41489,1,0,0:0:0:0:
475,192,41589,128,0,41689:0:0:0:0:
182,192,41589,1,0,0:0:0:0:
256,192,41689,1,0,0:0:0:0:
329,192,41789,1,0,0:0:0:0:
182,192,41889,1,0,0:0:0:0:
475,192,41989,128,0,42089:0:0:0:0:
109,192,41989,1,0,0:0:0:0:
36,192,42089,1,0,0:0:0:0:
256,192,42189,1,0,0:0:0:0:
109,192,42289,1,0,0:0:0:0:
475,192,42389,128,0,42489:0:0:0:0:
256,192,42389,1,0,0:0:0:0:
182,192,42455,1,0,0:0:0:0:
109,192,42522,1,0,0:0:0:0:
36,192,42589,1,0,0:0:0:0:
402,192,42589,1,0,0:0:0:0:
256,192,42689,1,0,0:0:0:0:
36,192,42789,1,0,0:0:0:0:
475,192,42789,128,0,42889:0:0:0:0:
182,192,42889,1,0,0:0:0:0:
36,192,42989,1,0,0:0:0:0:
182,192,43089,1,0,0:0:0:0:
36,192,43189,1,0,0:0:0:0:
475,192,43189,128,0,43289:0:0:0:0:
182,192,43289,1,0,0:0:0:0:
36,192,43389,1,0,0:0:0:0:
182,192,43489,1,0,0:0:0:0:
329,192,43589,1,0,0:0:0:0:
475,192,43589,128,0,43689:0:0:0:0:
109,192,43689,1,0,0:0:0:0:
329,192,43789,1,0,0:0:0:0:
109,192,43889,1,0,0:0:0:0:
329,192,43989,1,0,0:0:0:0:
475,192,43989,128,0,44089:0:0:0:0:
256,192,44089,1,0,0:0:0:0:
182,192,44189,1,0,0:0:0:0:
36,192,44189,1,0,0:0:0:0:
256,192,44289,1,0,0:0:0:0:
475,192,44389,128,0,44489:0:0:0:0:
109,192,44389,1,0,0:0:0:0:
182,192,44489,1,0,0:0:0:0:
256,192,44589,1,0,0:0:0:0:
182,192,44689,1,0,0:0:0:0:
475,192,44789,128,0,44889:0:0:0:0:
109,192,44789,1,0,0:0:0:0:
402,192,44889,1,0,0:0:0:0:
36,192,44989,1,0,0:0:0:0:
182,192,45089,1,0,0:0:0:0:
475,192,45189,128,0,45289:0:0:0:0:
256,192,45189,1,0,0:0:0:0:
109,192,45289,1,0,0:0:0:0:
402,192,45389,1,0,0:0:0:0:
329,192,45489,1,0,0:0:0:0:
475,192,45589,128,0,45689:0:0:0:0:
256,192,45589,1,0,0:0:0:0:
109,192,45655,1,0,0:0:0:0:
182,192,45722,1,0,0:0:0:0:
36,192,45789,1,0,0:0:0:0:
329,192,45789,1,0,0:0:0:0:
182,192,45889,1,0,0:0:0:0:
475,192,45989,128,0,46089:0:0:0:0:
109,192,45989,1,0,0:0:0:0:
256,192,46089,1,0,0:0:0:0:
182,192,46189,1,0,0:0:0:0:
329,192,46289,1,0,0:0:0:0:
475,192,46389,128,0,46489:0:0:0:0:
182,192,46389,1,0,0:0:0:0:
329,192,46489,1,0,0:0:0:0:
182,192,46589,1,0,0:0:0:0:
329,192,46689,1,0,0:0:0:0:
475,192,46789,128,0,46889:0:0:0:0:
182,192,46789,1,0,0:0:0:0:
329,192,46889,1,0,0:0:0:0:
256,192,46989,1,0,0:0:0:0:
36,192,47089,1,0,0:0:0:0:
475,192,47189,128,0,47289:0:0:0:0:
256,192,47189,1,0,0:0:0:0:
36,192,47289,1,0,0:0:0:0:
256,192,47389,1,0,0:0:0:0:
109,192,47389,1,0,0:0:0:0:
329,192,47489,1,0,0:0:0:0:
475,192,47589,128,0,47689:0:0:0:0:
36,192,47589,1,0,0:0:0:0:
109,192,47689,1,0,0:0:0:0:
402,192,47789,1,0,0:0:0:0:
329,192,47889,1,0,0:0:0:0:
475,192,47989,128,0,48089:0:0:0:0:
109,192,47989,1,0,0:0:0:0:
182,192,48089,1,0,0:0:0:0:
256,192,48189,1,0,0:0:0:0:
182,192,48289,1,0,0:0:0:0:
475,192,48389,128,0,48489:0:0:0:0:
109,192,48389,1,0,0:0:0:0:
402,192,48489,1,0,0:0:0:0:
329,192,48589,1,0,0:0:0:0:
109,192,48689,1,0,0:0:0:0:
475,192,48789,128,0,48889:0:0:0:0:
182,192,48789,1,0,0:0:0:0:
256,192,48855,1,0,0:0:0:0:
329,192,48922,1,0,0:0:0:0:
109,192,48989,1,0,0:0:0:0:
402,192,48989,1,0,0:0:0:0:
182,192,49089,1,0,0:0:0:0:
475,192,49189,128,0,49289:0:0:0:0:
109,192,49289,1,0,0:0:0:0:
182,192,49389,1,0,0:0:0:0:
329,192,49489,1,0,0:0:0:0:
475,192,49589,128,0,49689:0:0:0:0:
182,192,49589,1,0,0:0:0:0:
329,192,49689,1,0,0:0:0:0:
182,192,49789,1,0,0:0:0:0:
329,192,49889,1,0,0:0:0:0:
475,192,49989,128,0,50089:0:0:0:0:
182,192,49989,1,0,0:0:0:0:
329,192,50089,1,0,0:0:0:0:
256,192,50189,1,0,0:0:0:0:
36,192,50289,1,0,0:0:0:0:
475,192,50389,128,0,50489:0:0:0:0:
256,192,50389,1,0,0:0:0:0:
36,192,50489,1,0,0:0:0:0:
256,192,50589,128,0,51389:0:0:0:0:
329,192,50689,1,0,0:0:0:0:
475,192,50789,128,0,50889:0:0:0:0:
109,192,50789,1,0,0:0:0:0:
36,192,50889,1,0,0:0:0:0:
329,192,50989,1,0,0:0:0:0:
109,192,51089,1,0,0:0:0:0:
475,192,51189,128,0,51289:0:0:0:0:
402,192,51189,1,0,0:0:0:0:
182,192,51289,1,0,0:0:0:0:
36,192,51389,128,0,52189:0:0:0:0:
329,192,51489,1,0,0:0:0:0:
475,192,51589,128,0,51689:0:0:0:0:
256,192,51589,1,0,0:0:0:0:
109,192,51689,1,0,0:0:0:0:
329,192,51789,128,0,51839:0:0:0:0:
329,192,51889,128,0,51939:0:0:0:0:
182,192,51989,1,0,0:0:0:0:
329,192,52055,1,0,0:0:0:0:
182,192,52122,1,0,0:0:0:0:
109,192,52189,1,0,0:0:0:0:
329,192,52189,1,0,0:0:0:0:
256,192,52189,1,0,0:0:0:0:
402,192,52189,1,0,0:0:0:0:
475,192,52189,1,0,0:0:0:0:
329,192,52589,1,0,0:0:0:0:
182,192,52689,1,0,0:0:0:0:
329,192,52789,1,0,0:0:0:0:
182,192,52889,1,0,0:0:0:0:
329,192,52989,1,0,0:0:0:0:
182,192,53089,1,0,0:0:0:0:
329,192,53189,1,0,0:0:0:0:
182,192,53289,1,0,0:0:0:0:
402,192,53389,1,0,0:0:0:0:
109,192,53489,1,0,0:0:0:0:
402,192,53589,1,0,0:0:0:0:
109,192,53689,1,0,0:0:0:0:
329,192,54189,1,0,0:0:0:0:
256,192,54289,128,0,54389:0:0:0:0:
182,192,54389,128,0,54489:0:0:0:0:
329,192,54589,128,0,54689:0:0:0:0:
256,192,54689,128,0,54789:0:0:0:0:
402,192,54889,128,0,54989:0:0:0:0:
329,192,54989,128,0,55089:0:0:0:0:
402,192,55089,1,0,0:0:0:0:
475,192,55089,1,0,0:0:0:0:
256,192,55089,1,0,0:0:0:0:
109,192,55089,1,0,0:0:0:0:
36,192,55089,1,0,0:0:0:0:
182,192,55189,1,0,0:0:0:0:
329,192,55289,1,0,0:0:0:0:
36,192,55389,1,0,0:0:0:0:
109,192,55389,1,0,0:0:0:0:
256,192,55389,1,0,0:0:0:0:
402,192,55389,1,0,0:0:0:0:
475,192,55389,1,0,0:0:0:0:
182,192,55489,1,0,0:0:0:0:
475,192,55589,1,0,0:0:0:0:
402,192,55589,1,0,0:0:0:0:
256,192,55589,1,0,0:0:0:0:
109,192,55589,1,0,0:0:0:0:
36,192,55589,1,0,0:0:0:0:
329,192,55689,1,0,0:0:0:0:
182,192,55789,1,0,0:0:0:0:
402,192,55889,1,0,0:0:0:0:
182,192,55989,1,0,0:0:0:0:
402,192,56089,1,0,0:0:0:0:
182,192,56189,1,0,0:0:0:0:
402,192,56289,1,0,0:0:0:0:
182,192,56389,1,0,0:0:0:0:
402,192,56489,1,0,0:0:0:0:
109,192,56589,1,0,0:0:0:0:
329,192,56689,1,0,0:0:0:0:
36,192,56789,1,0,0:0:0:0:
256,192,56889,1,0,0:0:0:0:
109,192,56989,1,0,0:0:0:0:
256,192,57089,1,0,0:0:0:0:
402,192,57089,1,0,0:0:0:0:
475,192,57089,1,0,0:0:0:0:
182,192,57089,1,0,0:0:0:0:
36,192,57089,1,0,0:0:0:0:
329,192,57189,1,0,0:0:0:0:
256,192,57289,1,0,0:0:0:0:
36,192,57389,1,0,0:0:0:0:
109,192,57389,1,0,0:0:0:0:
182,192,57389,1,0,0:0:0:0:
402,192,57389,1,0,0:0:0:0:
475,192,57389,1,0,0:0:0:0:
256,192,57489,1,0,0:0:0:0:
329,192,57589,1,0,0:0:0:0:
36,192,57689,1,0,0:0:0:0:
182,192,57689,1,0,0:0:0:0:
256,192,57689,1,0,0:0:0:0:
402,192,57689,1,0,0:0:0:0:
475,192,57689,1,0,0:0:0:0:
329,192,57789,1,0,0:0:0:0:
256,192,57889,1,0,0:0:0:0:
182,192,57989,1,0,0:0:0:0:
402,192,57989,1,0,0:0:0:0:
475,192,57989,1,0,0:0:0:0:
109,192,57989,1,0,0:0:0:0:
36,192,57989,1,0,0:0:0:0:
329,192,58089,1,0,0:0:0:0:
36,192,58189,1,0,0:0:0:0:
109,192,58222,1,0,0:0:0:0:
182,192,58255,1,0,0:0:0:0:
475,192,58289,1,0,0:0:0:0:
402,192,58322,1,0,0:0:0:0:
329,192,58355,1,0,0:0:0:0:
256,192,58389,128,0,58589:0:0:0:0:
109,192,58589,1,0,0:0:0:0:
36,192,58589,1,0,0:0:0:0:
402,192,58589,1,0,0:0:0:0:
475,192,58589,1,0,0:0:0:0:
329,192,58589,1,0,0:0:0:0:
182,192,58689,1,0,0:0:0:0:
402,192,58789,1,0,0:0:0:0:
109,192,58889,1,0,0:0:0:0:
475,192,58989,1,0,0:0:0:0:
36,192,59089,1,0,0:0:0:0:
475,192,59189,1,0,0:0:0:0:
36,192,59289,1,0,0:0:0:0:
475,192,59389,1,0,0:0:0:0:
36,192,59489,1,0,0:0:0:0:
475,192,59589,1,0,0:0:0:0:
36,192,59689,1,0,0:0:0:0:
402,192,59789,1,0,0:0:0:0:
329,192,59889,1,0,0:0:0:0:
109,192,59989,1,0,0:0:0:0:
182,192,60089,1,0,0:0:0:0:
256,192,60189,1,0,0:0:0:0:
109,192,60289,1,0,0:0:0:0:
402,192,60389,1,0,0:0:0:0:
182,192,60489,1,0,0:0:0:0:
329,192,60589,1,0,0:0:0:0:
256,192,60689,128,0,60789:0:0:0:0:
182,192,60789,128,0,60889:0:0:0:0:
329,192,60989,128,0,61089:0:0:0:0:
256,192,61089,128,0,61189:0:0:0:0:
402,192,61289,128,0,61389:0:0:0:0:
329,192,61389,128,0,61489:0:0:0:0:
402,192,61489,1,0,0:0:0:0:
475,192,61489,1,0,0:0:0:0:
182,192,61489,1,0,0:0:0:0:
109,192,61489,1,0,0:0:0:0:
36,192,61489,1,0,0:0:0:0:
256,192,61589,1,0,0:0:0:0:
329,192,61689,1,0,0:0:0:0:
36,192,61789,1,0,0:0:0:0:
109,192,61789,1,0,0:0:0:0:
182,192,61789,1,0,0:0:0:0:
402,192,61789,1,0,0:0:0:0:
475,192,61789,1,0,0:0:0:0:
256,192,61889,1,0,0:0:0:0:
329,192,61989,1,0,0:0:0:0:
402,192,61989,1,0,0:0:0:0:
475,192,61989,1,0,0:0:0:0:
109,192,61989,1,0,0:0:0:0:
36,192,61989,1,0,0:0:0:0:
256,192,62089,1,0,0:0:0:0:
182,192,62189,1,0,0:0:0:0:
36,192,62289,1,0,0:0:0:0:
109,192,62289,1,0,0:0:0:0:
329,192,62289,1,0,0:0:0:0:
402,192,62289,1,0,0:0:0:0:
475,192,62289,1,0,0:0:0:0:
256,192,62389,1,0,0:0:0:0:
402,192,62489,1,0,0:0:0:0:
475,192,62489,1,0,0:0:0:0:
109,192,62489,1,0,0:0:0:0:
36,192,62489,1,0,0:0:0:0:
182,192,62489,1,0,0:0:0:0:
329,192,62589,1,0,0:0:0:0:
182,192,62689,1,0,0:0:0:0:
329,192,62789,1,0,0:0:0:0:
256,192,62889,1,0,0:0:0:0:
182,192,62989,1,0,0:0:0:0:
329,192,63089,1,0,0:0:0:0:
109,192,63389,1,0,0:0:0:0:
182,192,63489,1,0,0:0:0:0:
256,192,63589,1,0,0:0:0:0:
475,192,63689,1,0,0:0:0:0:
402,192,63789,1,0,0:0:0:0:
329,192,63889,1,0,0:0:0:0:
109,192,63989,1,0,0:0:0:0:
182,192,64089,1,0,0:0:0:0:
256,192,64189,128,0,64589:0:0:0:0:
402,192,64289,1,0,0:0:0:0:
475,192,64289,1,0,0:0:0:0:
109,192,64389,1,0,0:0:0:0:
36,192,64389,1,0,0:0:0:0:
402,192,64489,1,0,0:0:0:0:
475,192,64489,1,0,0:0:0:0:
36,192,64589,1,0,0:0:0:0:
182,192,64589,1,0,0:0:0:0:
182,192,64689,1,0,0:0:0:0:
36,192,64689,1,0,0:0:0:0:
475,192,64789,1,0,0:0:0:0:
329,192,64789,1,0,0:0:0:0:
475,192,64889,1,0,0:0:0:0:
329,192,64889,1,0,0:0:0:0:
36,192,64989,1,0,0:0:0:0:
109,192,64989,1,0,0:0:0:0:
182,192,64989,1,0,0:0:0:0:
256,192,64989,1,0,0:0:0:0:
475,192,64989,1,0,0:0:0:0:
36,192,65189,1,0,0:0:0:0:
109,192,65189,1,0,0:0:0:0:
182,192,65189,1,0,0:0:0:0:
475,192,65189,1,0,0:0:0:0:
402,192,65189,1,0,0:0:0:0:
329,192,65289,1,0,0:0:0:0:
256,192,65289,1,0,0:0:0:0:
182,192,65389,1,0,0:0:0:0:
329,192,65489,1,0,0:0:0:0:
402,192,65489,1,0,0:0:0:0:
109,192,65489,1,0,0:0:0:0:
36,192,65489,1,0,0:0:0:0:
475,192,65489,1,0,0:0:0:0:
256,192,65589,1,0,0:0:0:0:
182,192,65589,1,0,0:0:0:0:
329,192,65689,1,0,0:0:0:0:
402,192,65789,1,0,0:0:0:0:
475,192,65789,1,0,0:0:0:0:
182,192,65789,1,0,0:0:0:0:
109,192,65789,1,0,0:0:0:0:
36,192,65789,1,0,0:0:0:0:
256,192,65889,1,0,0:0:0:0:
329,192,65889,1,0,0:0:0:0:
475,192,65989,1,0,0:0:0:0:
402,192,66089,1,0,0:0:0:0:
182,192,66089,1,0,0:0:0:0:
36,192,66089,1,0,0:0:0:0:
329,192,66089,1,0,0:0:0:0:
256,192,66089,1,0,0:0:0:0:
475,192,66189,1,0,0:0:0:0:
109,192,66189,1,0,0:0:0:0:
402,192,66389,1,0,0:0:0:0:
329,192,66389,1,0,0:0:0:0:
256,192,66439,1,0,0:0:0:0:
182,192,66439,1,0,0:0:0:0:
109,192,66489,1,0,0:0:0:0:
36,192,66489,1,0,0:0:0:0:
402,192,66539,1,0,0:0:0:0:
475,192,66539,1,0,0:0:0:0:
329,192,66589,1,0,0:0:0:0:
256,192,66589,1,0,0:0:0:0:
182,192,66589,1,0,0:0:0:0:
36,192,66789,1,0,0:0:0:0:
109,192,66789,1,0,0:0:0:0:
182,192,66789,1,0,0:0:0:0:
329,192,66789,1,0,0:0:0:0:
402,192,66789,1,0,0:0:0:0:
475,192,66889,1,0,0:0:0:0:
256,192,66889,1,0,0:0:0:0:
329,192,66989,1,0,0:0:0:0:
402,192,67089,1,0,0:0:0:0:
475,192,67089,1,0,0:0:0:0:
109,192,67089,1,0,0:0:0:0:
36,192,67089,1,0,0:0:0:0:
256,192,67089,1,0,0:0:0:0:
182,192,67189,1,0,0:0:0:0:
329,192,67189,1,0,0:0:0:0:
256,192,67289,1,0,0:0:0:0:
36,192,67389,1,0,0:0:0:0:
109,192,67389,1,0,0:0:0:0:
182,192,67389,1,0,0:0:0:0:
402,192,67389,1,0,0:0:0:0:
475,192,67389,1,0,0:0:0:0:
329,192,67489,1,0,0:0:0:0:
256,192,67489,1,0,0:0:0:0:
182,192,67589,1,0,0:0:0:0:
36,192,67689,1,0,0:0:0:0:
109,192,67689,1,0,0:0:0:0:
402,192,67689,1,0,0:0:0:0:
329,192,67689,1,0,0:0:0:0:
475,192,67689,1,0,0:0:0:0:
182,192,67789,128,0,68089:0:0:0:0:
256,192,67789,128,0,68089:0:0:0:0:
475,192,67889,128,0,68089:0:0:0:0:
36,192,67889,128,0,68089:0:0:0:0:
329,192,67889,128,0,68089:0:0:0:0:
36,192,68189,1,0,0:0:0:0:
182,192,68189,1,0,0:0:0:0:
256,192,68189,1,0,0:0:0:0:
329,192,68189,1,0,0:0:0:0:
475,192,68189,1,0,0:0:0:0:
256,192,68389,1,0,0:0:0:0:
109,192,68389,1,0,0:0:0:0:
36,192,68389,1,0,0:0:0:0:
402,192,68389,1,0,0:0:0:0:
475,192,68389,1,0,0:0:0:0:
329,192,68489,1,0,0:0:0:0:
182,192,68489,1,0,0:0:0:0:
256,192,68589,1,0,0:0:0:0:
329,192,68689,1,0,0:0:0:0:
402,192,68689,1,0,0:0:0:0:
475,192,68689,1,0,0:0:0:0:
109,192,68689,1,0,0:0:0:0:
36,192,68689,1,0,0:0:0:0:
182,192,68789,1,0,0:0:0:0:
256,192,68789,1,0,0:0:0:0:
329,192,68889,1,0,0:0:0:0:
402,192,68989,1,0,0:0:0:0:
475,192,68989,1,0,0:0:0:0:
182,192,68989,1,0,0:0:0:0:
109,192,68989,1,0,0:0:0:0:
36,192,68989,1,0,0:0:0:0:
256,192,69089,1,0,0:0:0:0:
329,192,69089,1,0,0:0:0:0:
36,192,69189,1,0,0:0:0:0:
109,192,69289,1,0,0:0:0:0:
182,192,69289,1,0,0:0:0:0:
329,192,69289,1,0,0:0:0:0:
402,192,69289,1,0,0:0:0:0:
475,192,69289,1,0,0:0:0:0:
256,192,69389,1,0,0:0:0:0:
36,192,69389,1,0,0:0:0:0:
475,192,69489,1,0,0:0:0:0:
109,192,69589,1,0,0:0:0:0:
182,192,69589,1,0,0:0:0:0:
256,192,69639,1,0,0:0:0:0:
329,192,69639,1,0,0:0:0:0:
402,192,69689,1,0,0:0:0:0:
475,192,69689,1,0,0:0:0:0:
36,192,69739,1,0,0:0:0:0:
109,192,69739,1,0,0:0:0:0:
182,192,69789,1,0,0:0:0:0:
256,192,69789,1,0,0:0:0:0:
329,192,69789,1,0,0:0:0:0:
402,192,69989,1,0,0:0:0:0:
475,192,69989,1,0,0:0:0:0:
182,192,69989,1,0,0:0:0:0:
109,192,69989,1,0,0:0:0:0:
329,192,69989,1,0,0:0:0:0:
256,192,70089,1,0,0:0:0:0:
36,192,70089,1,0,0:0:0:0:
329,192,70189,1,0,0:0:0:0:
402,192,70289,1,0,0:0:0:0:
475,192,70289,1,0,0:0:0:0:
182,192,70289,1,0,0:0:0:0:
109,192,70289,1,0,0:0:0:0:
36,192,70289,1,0,0:0:0:0:
256,192,70389,1,0,0:0:0:0:
329,192,70389,1,0,0:0:0:0:
402,192,70489,1,0,0:0:0:0:
475,192,70589,1,0,0:0:0:0:
329,192,70589,1,0,0:0:0:0:
182,192,70589,1,0,0:0:0:0:
109,192,70589,1,0,0:0:0:0:
36,192,70589,1,0,0:0:0:0:
256,192,70689,1,0,0:0:0:0:
402,192,70689,1,0,0:0:0:0:
182,192,70789,128,0,70989:0:0:0:0:
109,192,70789,128,0,70989:0:0:0:0:
36,192,70889,128,0,70989:0:0:0:0:
329,192,70989,128,0,71039:0:0:0:0:
402,192,70989,128,0,71039:0:0:0:0:
475,192,70989,128,0,71039:0:0:0:0:
329,192,71139,128,0,71189:0:0:0:0:
402,192,71139,128,0,71189:0:0:0:0:
475,192,71139,128,0,71189:0:0:0:0:
475,192,71289,128,0,71339:0:0:0:0:
402,192,71289,128,0,71339:0:0:0:0:
329,192,71289,128,0,71339:0:0:0:0:
36,192,71389,1,0,0:0:0:0:
109,192,71389,1,0,0:0:0:0:
182,192,71422,1,0,0:0:0:0:
256,192,71455,1,0,0:0:0:0:
475,192,71489,1,0,0:0:0:0:
402,192,71522,1,0,0:0:0:0:
329,192,71555,1,0,0:0:0:0:
182,192,71589,1,0,0:0:0:0:
109,192,71589,1,0,0:0:0:0:
36,192,71589,1,0,0:0:0:0:
329,192,71689,1,0,0:0:0:0:
256,192,71689,1,0,0:0:0:0:
402,192,71789,1,0,0:0:0:0:
475,192,71789,1,0,0:0:0:0:
182,192,71789,1,0,0:0:0:0:
182,192,71889,1,0,0:0:0:0:
402,192,71889,1,0,0:0:0:0:
475,192,71889,1,0,0:0:0:0:
36,192,71989,1,0,0:0:0:0:
109,192,71989,1,0,0:0:0:0:
402,192,72089,1,0,0:0:0:0:
475,192,72089,1,0,0:0:0:0:
182,192,72189,1,0,0:0:0:0:
256,192,72189,1,0,0:0:0:0:
109,192,72189,1,0,0:0:0:0:
182,192,72289,1,0,0:0:0:0:
109,192,72289,1,0,0:0:0:0:
256,192,72289,1,0,0:0:0:0:
329,192,72389,1,0,0:0:0:0:
402,192,72389,1,0,0:0:0:0:
475,192,72489,1,0,0:0:0:0:
36,192,72489,1,0,0:0:0:0:
329,192,72589,1,0,0:0:0:0:
182,192,72589,1,0,0:0:0:0:
109,192,72589,1,0,0:0:0:0:
329,192,72689,1,0,0:0:0:0:
109,192,72689,1,0,0:0:0:0:
182,192,72689,1,0,0:0:0:0:
475,192,72789,1,0,0:0:0:0:
256,192,72789,1,0,0:0:0:0:
36,192,72889,1,0,0:0:0:0:
402,192,72889,1,0,0:0:0:0:
109,192,72989,1,0,0:0:0:0:
182,192,72989,1,0,0:0:0:0:
256,192,73022,1,0,0:0:0:0:
329,192,73055,1,0,0:0:0:0:
402,192,73089,1,0,0:0:0:0:
36,192,73122,1,0,0:0:0:0:
109,192,73155,1,0,0:0:0:0:
182,192,73189,1,0,0:0:0:0:
475,192,73189,1,0,0:0:0:0:
256,192,73189,1,0,0:0:0:0:
402,192,73289,1,0,0:0:0:0:
329,192,73289,1,0,0:0:0:0:
36,192,73389,1,0,0:0:0:0:
475,192,73389,1,0,0:0:0:0:
109,192,73389,1,0,0:0:0:0:
36,192,73489,1,0,0:0:0:0:
109,192,73489,1,0,0:0:0:0:
475,192,73489,1,0,0:0:0:0:
256,192,73589,1,0,0:0:0:0:
182,192,73589,1,0,0:0:0:0:
475,192,73689,1,0,0:0:0:0:
402,192,73689,1,0,0:0:0:0:
109,192,73789,1,0,0:0:0:0:
329,192,73789,1,0,0:0:0:0:
36,192,73789,1,0,0:0:0:0:
329,192,73889,1,0,0:0:0:0:
109,192,73889,1,0,0:0:0:0:
36,192,73889,1,0,0:0:0:0:
182,192,73989,1,0,0:0:0:0:
402,192,73989,1,0,0:0:0:0:
475,192,74089,1,0,0:0:0:0:
256,192,74089,1,0,0:0:0:0:
402,192,74189,1,0,0:0:0:0:
109,192,74189,1,0,0:0:0:0:
329,192,74189,1,0,0:0:0:0:
109,192,74289,1,0,0:0:0:0:
402,192,74289,1,0,0:0:0:0:
329,192,74289,1,0,0:0:0:0:
256,192,74389,1,0,0:0:0:0:
182,192,74389,1,0,0:0:0:0:
36,192,74489,1,0,0:0:0:0:
109,192,74489,1,0,0:0:0:0:
402,192,74589,1,0,0:0:0:0:
475,192,74589,1,0,0:0:0:0:
329,192,74622,1,0,0:0:0:0:
256,192,74655,1,0,0:0:0:0:
182,192,74689,1,0,0:0:0:0:
109,192,74722,1,0,0:0:0:0:
36,192,74755,1,0,0:0:0:0:
475,192,74789,1,0,0:0:0:0:
402,192,74789,1,0,0:0:0:0:
256,192,74839,1,0,0:0:0:0:
329,192,74839,1,0,0:0:0:0:
182,192,74889,1,0,0:0:0:0:
109,192,74889,1,0,0:0:0:0:
36,192,74939,1,0,0:0:0:0:
475,192,74939,1,0,0:0:0:0:
402,192,74989,1,0,0:0:0:0:
329,192,74989,1,0,0:0:0:0:
256,192,75039,1,0,0:0:0:0:
182,192,75039,1,0,0:0:0:0:
36,192,75089,1,0,0:0:0:0:
109,192,75089,1,0,0:0:0:0:
475,192,75139,1,0,0:0:0:0:
402,192,75139,1,0,0:0:0:0:
256,192,75189,1,0,0:0:0:0:
329,192,75189,1,0,0:0:0:0:
182,192,75239,1,0,0:0:0:0:
109,192,75239,1,0,0:0:0:0:
36,192,75289,1,0,0:0:0:0:
475,192,75289,1,0,0:0:0:0:
402,192,75339,1,0,0:0:0:0:
329,192,75339,1,0,0:0:0:0:
182,192,75389,1,0,0:0:0:0:
256,192,75389,1,0,0:0:0:0:
109,192,75422,1,0,0:0:0:0:
36,192,75455,1,0,0:0:0:0:
329,192,75489,1,0,0:0:0:0:
402,192,75522,1,0,0:0:0:0:
475,192,75555,1,0,0:0:0:0:
36,192,75589,1,0,0:0:0:0:
109,192,75589,1,0,0:0:0:0:
256,192,75639,1,0,0:0:0:0:
182,192,75639,1,0,0:0:0:0:
402,192,75689,1,0,0:0:0:0:
329,192,75689,1,0,0:0:0:0:
36,192,75739,1,0,0:0:0:0:
475,192,75739,1,0,0:0:0:0:
109,192,75789,1,0,0:0:0:0:
182,192,75789,1,0,0:0:0:0:
256,192,75839,1,0,0:0:0:0:
329,192,75839,1,0,0:0:0:0:
475,192,75889,1,0,0:0:0:0:
402,192,75889,1,0,0:0:0:0:
36,192,75939,1,0,0:0:0:0:
109,192,75939,1,0,0:0:0:0:
182,192,75989,1,0,0:0:0:0:
256,192,75989,1,0,0:0:0:0:
329,192,76039,1,0,0:0:0:0:
402,192,76039,1,0,0:0:0:0:
36,192,76089,1,0,0:0:0:0:
475,192,76089,1,0,0:0:0:0:
109,192,76139,1,0,0:0:0:0:
182,192,76139,1,0,0:0:0:0:
329,192,76189,1,0,0:0:0:0:
256,192,76189,1,0,0:0:0:0:
402,192,76222,1,0,0:0:0:0:
475,192,76255,1,0,0:0:0:0:
36,192,76289,1,0,0:0:0:0:
109,192,76322,1,0,0:0:0:0:
182,192,76355,1,0,0:0:0:0:
256,192,76389,1,0,0:0:0:0:
475,192,76422,1,0,0:0:0:0:
402,192,76455,1,0,0:0:0:0:
329,192,76489,1,0,0:0:0:0:
256,192,76522,1,0,0:0:0:0:
36,192,76555,1,0,0:0:0:0:
109,192,76589,1,0,0:0:0:0:
182,192,76622,1,0,0:0:0:0:
256,192,76655,1,0,0:0:0:0:
475,192,76689,1,0,0:0:0:0:
402,192,76722,1,0,0:0:0:0:
329,192,76755,1,0,0:0:0:0:
36,192,76789,1,0,0:0:0:0:
109,192,76822,1,0,0:0:0:0:
182,192,76855,1,0,0:0:0:0:
475,192,76889,1,0,0:0:0:0:
402,192,76922,1,0,0:0:0:0:
329,192,76955,1,0,0:0:0:0:
182,192,76989,128,0,77089:0:0:0:0:
36,192,76989,128,0,77189:0:0:0:0:
109,192,77089,128,0,77289:0:0:0:0:
256,192,77089,128,0,77189:0:0:0:0:
182,192,77189,128,0,77389:0:0:0:0:
329,192,77189,128,0,77289:0:0:0:0:
402,192,77289,128,0,77389:0:0:0:0:
256,192,77289,128,0,77389:0:0:0:0:
36,192,77389,1,0,0:0:0:0:
109,192,77439,1,0,0:0:0:0:
182,192,77489,1,0,0:0:0:0:
475,192,77539,1,0,0:0:0:0:
329,192,77589,1,0,0:0:0:0:
36,192,77639,1,0,0:0:0:0:
182,192,77689,1,0,0:0:0:0:
256,192,77739,1,0,0:0:0:0:
109,192,77789,5,0,0:0:0:0:
36,192,77789,1,0,0:0:0:0:
329,192,77789,1,0,0:0:0:0:
402,192,77789,1,0,0:0:0:0:
475,192,77789,1,0,0:0:0:0:
182,192,77889,1,0,0:0:0:0:
256,192,77939,1,0,0:0:0:0:
109,192,77989,1,0,0:0:0:0:
329,192,77989,1,0,0:0:0:0:
402,192,77989,1,0,0:0:0:0:
182,192,78089,1,0,0:0:0:0:
256,192,78189,1,0,0:0:0:0:
109,192,78189,1,0,0:0:0:0:
36,192,78189,1,0,0:0:0:0:
402,192,78189,1,0,0:0:0:0:
475,192,78189,1,0,0:0:0:0:
329,192,78289,1,0,0:0:0:0:
256,192,78339,1,0,0:0:0:0:
182,192,78389,1,0,0:0:0:0:
109,192,78389,1,0,0:0:0:0:
402,192,78389,1,0,0:0:0:0:
329,192,78489,1,0,0:0:0:0:
36,192,78589,1,0,0:0:0:0:
109,192,78589,1,0,0:0:0:0:
256,192,78589,1,0,0:0:0:0:
402,192,78589,1,0,0:0:0:0:
475,192,78589,1,0,0:0:0:0:
329,192,78689,1,0,0:0:0:0:
256,192,78739,1,0,0:0:0:0:
109,192,78789,1,0,0:0:0:0:
402,192,78789,1,0,0:0:0:0:
182,192,78789,1,0,0:0:0:0:
329,192,78889,1,0,0:0:0:0:
36,192,78989,1,0,0:0:0:0:
109,192,78989,1,0,0:0:0:0:
256,192,78989,1,0,0:0:0:0:
402,192,78989,1,0,0:0:0:0:
475,192,78989,1,0,0:0:0:0:
329,192,79089,1,0,0:0:0:0:
182,192,79089,1,0,0:0:0:0:
256,192,79189,1,0,0:0:0:0:
109,192,79189,1,0,0:0:0:0:
402,192,79189,1,0,0:0:0:0:
329,192,79289,1,0,0:0:0:0:
182,192,79289,1,0,0:0:0:0:
36,192,79389,128,0,79689:0:0:0:0:
109,192,79389,128,0,79689:0:0:0:0:
475,192,79389,128,0,79689:0:0:0:0:
402,192,79389,128,0,79689:0:0:0:0:
182,192,79489,128,0,79689:0:0:0:0:
256,192,79589,128,0,79689:0:0:0:0:
329,192,79689,128,0,79789:0:0:0:0:
402,192,79789,1,0,0:0:0:0:
475,192,79789,1,0,0:0:0:0:
256,192,79789,1,0,0:0:0:0:
109,192,79789,1,0,0:0:0:0:
36,192,79789,1,0,0:0:0:0:
182,192,79889,1,0,0:0:0:0:
256,192,79939,1,0,0:0:0:0:
329,192,79989,1,0,0:0:0:0:
402,192,79989,1,0,0:0:0:0:
36,192,79989,1,0,0:0:0:0:
182,192,80089,1,0,0:0:0:0:
402,192,80189,1,0,0:0:0:0:
256,192,80189,1,0,0:0:0:0:
109,192,80189,1,0,0:0:0:0:
36,192,80189,1,0,0:0:0:0:
475,192,80189,1,0,0:0:0:0:
182,192,80289,1,0,0:0:0:0:
256,192,80339,1,0,0:0:0:0:
329,192,80389,1,0,0:0:0:0:
36,192,80389,1,0,0:0:0:0:
402,192,80389,1,0,0:0:0:0:
182,192,80489,1,0,0:0:0:0:
36,192,80589,1,0,0:0:0:0:
256,192,80589,1,0,0:0:0:0:
475,192,80589,1,0,0:0:0:0:
402,192,80589,1,0,0:0:0:0:
109,192,80589,1,0,0:0:0:0:
329,192,80689,1,0,0:0:0:0:
182,192,80689,1,0,0:0:0:0:
36,192,80789,1,0,0:0:0:0:
475,192,80789,1,0,0:0:0:0:
256,192,80789,1,0,0:0:0:0:
109,192,80889,1,0,0:0:0:0:
402,192,80889,1,0,0:0:0:0:
36,192,80989,1,0,0:0:0:0:
182,192,80989,1,0,0:0:0:0:
329,192,80989,1,0,0:0:0:0:
475,192,80989,1,0,0:0:0:0:
256,192,80989,1,0,0:0:0:0:
109,192,81089,1,0,0:0:0:0:
256,192,81139,1,0,0:0:0:0:
329,192,81189,1,0,0:0:0:0:
475,192,81189,1,0,0:0:0:0:
36,192,81189,1,0,0:0:0:0:
109,192,81289,1,0,0:0:0:0:
256,192,81389,1,0,0:0:0:0:
182,192,81389,1,0,0:0:0:0:
329,192,81389,1,0,0:0:0:0:
475,192,81389,1,0,0:0:0:0:
36,192,81389,1,0,0:0:0:0:
402,192,81489,1,0,0:0:0:0:
256,192,81539,1,0,0:0:0:0:
109,192,81589,1,0,0:0:0:0:
36,192,81589,1,0,0:0:0:0:
182,192,81589,1,0,0:0:0:0:
402,192,81689,1,0,0:0:0:0:
329,192,81789,1,0,0:0:0:0:
256,192,81789,1,0,0:0:0:0:
182,192,81789,1,0,0:0:0:0:
36,192,81789,1,0,0:0:0:0:
475,192,81789,1,0,0:0:0:0:
402,192,81889,1,0,0:0:0:0:
256,192,81939,1,0,0:0:0:0:
36,192,81989,1,0,0:0:0:0:
182,192,81989,1,0,0:0:0:0:
109,192,81989,1,0,0:0:0:0:
402,192,82089,1,0,0:0:0:0:
329,192,82189,1,0,0:0:0:0:
256,192,82189,1,0,0:0:0:0:
182,192,82189,1,0,0:0:0:0:
475,192,82189,1,0,0:0:0:0:
36,192,82189,1,0,0:0:0:0:
402,192,82289,1,0,0:0:0:0:
109,192,82289,1,0,0:0:0:0:
182,192,82389,1,0,0:0:0:0:
256,192,82389,1,0,0:0:0:0:
329,192,82389,1,0,0:0:0:0:
402,192,82489,1,0,0:0:0:0:
109,192,82489,1,0,0:0:0:0:
36,192,82589,128,0,82889:0:0:0:0:
475,192,82589,128,0,82889:0:0:0:0:
182,192,82589,128,0,82889:0:0:0:0:
256,192,82689,128,0,82889:0:0:0:0:
329,192,82789,128,0,82889:0:0:0:0:
402,192,82889,128,0,82989:0:0:0:0:
329,192,82989,1,0,0:0:0:0:
475,192,82989,1,0,0:0:0:0:
182,192,82989,128,0,83089:0:0:0:0:
36,192,82989,128,0,83089:0:0:0:0:
402,192,83089,1,0,0:0:0:0:
36,192,83189,128,0,83289:0:0:0:0:
182,192,83189,128,0,83289:0:0:0:0:
329,192,83189,1,0,0:0:0:0:
256,192,83289,1,0,0:0:0:0:
329,192,83389,128,0,83489:0:0:0:0:
475,192,83389,128,0,83489:0:0:0:0:
182,192,83389,1,0,0:0:0:0:
36,192,83389,1,0,0:0:0:0:
109,192,83489,1,0,0:0:0:0:
475,192,83589,128,0,83689:0:0:0:0:
329,192,83589,128,0,83689:0:0:0:0:
182,192,83589,1,0,0:0:0:0:
256,192,83689,1,0,0:0:0:0:
36,192,83789,128,0,83939:0:0:0:0:
109,192,83839,128,0,83989:0:0:0:0:
182,192,83889,128,0,84039:0:0:0:0:
475,192,83939,128,0,84089:0:0:0:0:
402,192,83989,128,0,84139:0:0:0:0:
329,192,84039,128,0,84139:0:0:0:0:
256,192,84089,128,0,84189:0:0:0:0:
182,192,84139,128,0,84189:0:0:0:0:
109,192,84189,5,0,0:0:0:0:
36,192,84189,1,0,0:0:0:0:
329,192,84189,1,0,0:0:0:0:
475,192,84189,1,0,0:0:0:0:
402,192,84189,1,0,0:0:0:0:
182,192,84289,1,0,0:0:0:0:
256,192,84339,1,0,0:0:0:0:
402,192,84389,1,0,0:0:0:0:
329,192,84389,1,0,0:0:0:0:
109,192,84389,1,0,0:0:0:0:
182,192,84489,1,0,0:0:0:0:
256,192,84589,1,0,0:0:0:0:
402,192,84589,1,0,0:0:0:0:
475,192,84589,1,0,0:0:0:0:
109,192,84589,1,0,0:0:0:0:
36,192,84589,1,0,0:0:0:0:
329,192,84689,1,0,0:0:0:0:
256,192,84739,1,0,0:0:0:0:
182,192,84789,1,0,0:0:0:0:
109,192,84789,1,0,0:0:0:0:
402,192,84789,1,0,0:0:0:0:
329,192,84889,1,0,0:0:0:0:
475,192,84989,1,0,0:0:0:0:
402,192,84989,1,0,0:0:0:0:
256,192,84989,1,0,0:0:0:0:
109,192,84989,1,0,0:0:0:0:
36,192,84989,1,0,0:0:0:0:
329,192,85089,1,0,0:0:0:0:
256,192,85139,1,0,0:0:0:0:
109,192,85189,1,0,0:0:0:0:
402,192,85189,1,0,0:0:0:0:
182,192,85189,1,0,0:0:0:0:
329,192,85289,1,0,0:0:0:0:
475,192,85389,1,0,0:0:0:0:
402,192,85389,1,0,0:0:0:0:
256,192,85389,1,0,0:0:0:0:
109,192,85389,1,0,0:0:0:0:
36,192,85389,1,0,0:0:0:0:
182,192,85489,1,0,0:0:0:0:
329,192,85489,1,0,0:0:0:0:
256,192,85589,1,0,0:0:0:0:
402,192,85589,1,0,0:0:0:0:
109,192,85589,1,0,0:0:0:0:
182,192,85689,1,0,0:0:0:0:
329,192,85689,1,0,0:0:0:0:
36,192,85789,128,0,85989:0:0:0:0:
109,192,85789,128,0,85989:0:0:0:0:
402,192,85789,128,0,85989:0:0:0:0:
475,192,85789,128,0,85989:0:0:0:0:
256,192,85789,1,0,0:0:0:0:
182,192,85889,128,0,86089:0:0:0:0:
329,192,85889,128,0,86089:0:0:0:0:
256,192,85989,128,0,86089:0:0:0:0:
402,192,86089,128,0,86189:0:0:0:0:
109,192,86089,128,0,86189:0:0:0:0:
36,192,86189,1,0,0:0:0:0:
256,192,86189,1,0,0:0:0:0:
329,192,86189,1,0,0:0:0:0:
182,192,86189,1,0,0:0:0:0:
475,192,86189,1,0,0:0:0:0:
109,192,86289,1,0,0:0:0:0:
256,192,86339,1,0,0:0:0:0:
475,192,86389,1,0,0:0:0:0:
329,192,86389,1,0,0:0:0:0:
402,192,86389,1,0,0:0:0:0:
109,192,86489,1,0,0:0:0:0:
182,192,86589,1,0,0:0:0:0:
256,192,86589,1,0,0:0:0:0:
329,192,86589,1,0,0:0:0:0:
475,192,86589,1,0,0:0:0:0:
36,192,86589,1,0,0:0:0:0:
109,192,86689,1,0,0:0:0:0:
256,192,86739,1,0,0:0:0:0:
475,192,86789,1,0,0:0:0:0:
329,192,86789,1,0,0:0:0:0:
402,192,86789,1,0,0:0:0:0:
109,192,86889,1,0,0:0:0:0:
36,192,86989,1,0,0:0:0:0:
182,192,86989,1,0,0:0:0:0:
256,192,86989,1,0,0:0:0:0:
329,192,86989,1,0,0:0:0:0:
475,192,86989,1,0,0:0:0:0:
402,192,87089,1,0,0:0:0:0:
109,192,87089,1,0,0:0:0:0:
36,192,87189,1,0,0:0:0:0:
475,192,87189,1,0,0:0:0:0:
256,192,87189,1,0,0:0:0:0:
182,192,87255,1,0,0:0:0:0:
329,192,87255,1,0,0:0:0:0:
475,192,87389,128,0,87455:0:0:0:0:
402,192,87389,128,0,87455:0:0:0:0:
109,192,87389,128,0,87455:0:0:0:0:
36,192,87389,128,0,87455:0:0:0:0:
182,192,87455,1,0,0:0:0:0:
256,192,87522,1,0,0:0:0:0:
402,192,87589,128,0,87689:0:0:0:0:
109,192,87589,128,0,87689:0:0:0:0:
475,192,87589,128,0,87689:0:0:0:0:
36,192,87589,128,0,87689:0:0:0:0:
329,192,87689,1,0,0:0:0:0:
256,192,87739,1,0,0:0:0:0:
182,192,87789,1,0,0:0:0:0:
109,192,87789,1,0,0:0:0:0:
36,192,87789,1,0,0:0:0:0:
402,192,87789,1,0,0:0:0:0:
475,192,87789,1,0,0:0:0:0:
329,192,87922,1,0,0:0:0:0:
402,192,87922,1,0,0:0:0:0:
256,192,87989,1,0,0:0:0:0:
182,192,88055,1,0,0:0:0:0:
109,192,88055,1,0,0:0:0:0:
36,192,88189,1,0,0:0:0:0:
256,192,88189,1,0,0:0:0:0:
329,192,88189,1,0,0:0:0:0:
402,192,88189,1,0,0:0:0:0:
475,192,88189,1,0,0:0:0:0:
182,192,88322,1,0,0:0:0:0:
329,192,88389,1,0,0:0:0:0:
475,192,88389,1,0,0:0:0:0:
402,192,88389,1,0,0:0:0:0:
182,192,88489,1,0,0:0:0:0:
109,192,88489,1,0,0:0:0:0:
36,192,88489,1,0,0:0:0:0:
329,192,88539,1,0,0:0:0:0:
402,192,88539,1,0,0:0:0:0:
475,192,88539,1,0,0:0:0:0:
182,192,88589,1,0,0:0:0:0:
109,192,88589,1,0,0:0:0:0:
36,192,88589,1,0,0:0:0:0:
256,192,88689,1,0,0:0:0:0:
36,192,88789,1,0,0:0:0:0:
182,192,88839,1,0,0:0:0:0:
329,192,88889,1,0,0:0:0:0:
475,192,88939,1,0,0:0:0:0:
109,192,88989,128,0,89089:0:0:0:0:
182,192,88989,128,0,89089:0:0:0:0:
36,192,88989,128,0,89089:0:0:0:0:
182,192,89189,128,0,89289:0:0:0:0:
256,192,89189,128,0,89289:0:0:0:0:
109,192,89189,128,0,89289:0:0:0:0:
329,192,89389,128,0,89489:0:0:0:0:
256,192,89389,128,0,89489:0:0:0:0:
182,192,89389,128,0,89489:0:0:0:0:
256,192,89589,128,0,89689:0:0:0:0:
329,192,89589,128,0,89689:0:0:0:0:
402,192,89589,128,0,89689:0:0:0:0:
36,192,89589,1,0,0:0:0:0:
182,192,89689,1,0,0:0:0:0:
402,192,89789,128,0,90189:0:0:0:0:
475,192,89789,128,0,90189:0:0:0:0:
329,192,89789,128,0,89889:0:0:0:0:
109,192,89789,1,0,0:0:0:0:
256,192,89889,1,0,0:0:0:0:
182,192,89989,1,0,0:0:0:0:
36,192,89989,128,0,90189:0:0:0:0:
109,192,89989,128,0,90189:0:0:0:0:
329,192,90089,1,0,0:0:0:0:
256,192,90189,1,0,0:0:0:0:
329,192,90289,128,0,90489:0:0:0:0:
402,192,90289,128,0,90489:0:0:0:0:
182,192,90289,128,0,90489:0:0:0:0:
109,192,90289,128,0,90489:0:0:0:0:
109,192,90589,1,0,0:0:0:0:
182,192,90589,1,0,0:0:0:0:
329,192,90589,1,0,0:0:0:0:
402,192,90589,1,0,0:0:0:0:
402,192,90689,1,0,0:0:0:0:
475,192,90689,1,0,0:0:0:0:
109,192,90689,1,0,0:0:0:0:
36,192,90689,1,0,0:0:0:0:
329,192,90789,1,0,0:0:0:0:
182,192,90789,1,0,0:0:0:0:
402,192,90889,1,0,0:0:0:0:
109,192,90889,1,0,0:0:0:0:
36,192,90889,1,0,0:0:0:0:
475,192,90889,1,0,0:0:0:0:
109,192,90989,1,0,0:0:0:0:
402,192,90989,1,0,0:0:0:0:
36,192,90989,1,0,0:0:0:0:
475,192,90989,1,0,0:0:0:0:
329,192,90989,1,0,0:0:0:0:
182,192,91089,1,0,0:0:0:0:
329,192,91139,1,0,0:0:0:0:
475,192,91189,1,0,0:0:0:0:
109,192,91189,1,0,0:0:0:0:
36,192,91189,1,0,0:0:0:0:
256,192,91289,1,0,0:0:0:0:
109,192,91389,1,0,0:0:0:0:
36,192,91389,1,0,0:0:0:0:
402,192,91389,1,0,0:0:0:0:
475,192,91389,1,0,0:0:0:0:
329,192,91389,1,0,0:0:0:0:
182,192,91489,1,0,0:0:0:0:
329,192,91539,1,0,0:0:0:0:
475,192,91589,1,0,0:0:0:0:
109,192,91589,1,0,0:0:0:0:
36,192,91589,1,0,0:0:0:0:
256,192,91689,1,0,0:0:0:0:
109,192,91789,1,0,0:0:0:0:
36,192,91789,1,0,0:0:0:0:
402,192,91789,1,0,0:0:0:0:
475,192,91789,1,0,0:0:0:0:
329,192,91789,1,0,0:0:0:0:
182,192,91889,1,0,0:0:0:0:
256,192,91889,1,0,0:0:0:0:
329,192,91989,1,0,0:0:0:0:
402,192,91989,1,0,0:0:0:0:
109,192,91989,1,0,0:0:0:0:
182,192,92089,1,0,0:0:0:0:
256,192,92089,1,0,0:0:0:0:
109,192,92189,128,0,92489:0:0:0:0:
402,192,92189,128,0,92489:0:0:0:0:
36,192,92189,128,0,92489:0:0:0:0:
475,192,92189,128,0,92489:0:0:0:0:
329,192,92289,128,0,92489:0:0:0:0:
256,192,92389,128,0,92489:0:0:0:0:
182,192,92489,128,0,92589:0:0:0:0:
36,192,92589,1,0,0:0:0:0:
109,192,92589,1,0,0:0:0:0:
329,192,92589,1,0,0:0:0:0:
402,192,92589,1,0,0:0:0:0:
475,192,92589,1,0,0:0:0:0:
182,192,92689,1,0,0:0:0:0:
329,192,92739,1,0,0:0:0:0:
475,192,92789,1,0,0:0:0:0:
109,192,92789,1,0,0:0:0:0:
36,192,92789,1,0,0:0:0:0:
256,192,92889,1,0,0:0:0:0:
36,192,92989,1,0,0:0:0:0:
109,192,92989,1,0,0:0:0:0:
329,192,92989,1,0,0:0:0:0:
402,192,92989,1,0,0:0:0:0:
475,192,92989,1,0,0:0:0:0:
182,192,93089,1,0,0:0:0:0:
329,192,93139,1,0,0:0:0:0:
109,192,93189,1,0,0:0:0:0:
475,192,93189,1,0,0:0:0:0:
36,192,93189,1,0,0:0:0:0:
256,192,93289,1,0,0:0:0:0:
36,192,93389,1,0,0:0:0:0:
109,192,93389,1,0,0:0:0:0:
329,192,93389,1,0,0:0:0:0:
402,192,93389,1,0,0:0:0:0:
475,192,93389,1,0,0:0:0:0:
182,192,93489,1,0,0:0:0:0:
256,192,93489,1,0,0:0:0:0:
402,192,93589,128,0,93689:0:0:0:0:
109,192,93589,128,0,93689:0:0:0:0:
36,192,93589,128,0,93689:0:0:0:0:
475,192,93589,128,0,93689:0:0:0:0:
36,192,93789,1,0,0:0:0:0:
109,192,93789,1,0,0:0:0:0:
182,192,93789,1,0,0:0:0:0:
402,192,93789,1,0,0:0:0:0:
475,192,93789,1,0,0:0:0:0:
329,192,93889,1,0,0:0:0:0:
256,192,93939,1,0,0:0:0:0:
36,192,93989,1,0,0:0:0:0:
402,192,93989,1,0,0:0:0:0:
475,192,93989,1,0,0:0:0:0:
182,192,94089,1,0,0:0:0:0:
109,192,94189,1,0,0:0:0:0:
36,192,94189,1,0,0:0:0:0:
329,192,94189,1,0,0:0:0:0:
402,192,94189,1,0,0:0:0:0:
475,192,94189,1,0,0:0:0:0:
182,192,94289,1,0,0:0:0:0:
256,192,94339,1,0,0:0:0:0:
475,192,94389,1,0,0:0:0:0:
402,192,94389,1,0,0:0:0:0:
36,192,94389,1,0,0:0:0:0:
256,192,94489,1,0,0:0:0:0:
109,192,94589,1,0,0:0:0:0:
36,192,94589,1,0,0:0:0:0:
329,192,94589,1,0,0:0:0:0:
402,192,94589,1,0,0:0:0:0:
475,192,94589,1,0,0:0:0:0:
182,192,94689,1,0,0:0:0:0:
256,192,94739,1,0,0:0:0:0:
475,192,94789,1,0,0:0:0:0:
402,192,94789,1,0,0:0:0:0:
36,192,94789,1,0,0:0:0:0:
256,192,94889,1,0,0:0:0:0:
402,192,94989,1,0,0:0:0:0:
329,192,94989,1,0,0:0:0:0:
36,192,94989,1,0,0:0:0:0:
109,192,94989,1,0,0:0:0:0:
475,192,94989,1,0,0:0:0:0:
182,192,95089,1,0,0:0:0:0:
256,192,95089,1,0,0:0:0:0:
329,192,95189,1,0,0:0:0:0:
475,192,95189,1,0,0:0:0:0:
36,192,95189,1,0,0:0:0:0:
109,192,95289,1,0,0:0:0:0:
402,192,95289,1,0,0:0:0:0:
182,192,95389,128,0,95489:0:0:0:0:
329,192,95389,128,0,95489:0:0:0:0:
256,192,95389,128,0,95489:0:0:0:0:
36,192,95389,128,0,95489:0:0:0:0:
475,192,95389,128,0,95489:0:0:0:0:
36,192,95589,128,0,95689:0:0:0:0:
109,192,95589,128,0,95689:0:0:0:0:
256,192,95589,128,0,95689:0:0:0:0:
402,192,95589,128,0,95689:0:0:0:0:
475,192,95589,128,0,95689:0:0:0:0:
329,192,95689,128,0,95789:0:0:0:0:
182,192,95689,128,0,95789:0:0:0:0:
109,192,95789,1,0,0:0:0:0:
36,192,95789,1,0,0:0:0:0:
256,192,95789,1,0,0:0:0:0:
402,192,95789,128,0,95839:0:0:0:0:
475,192,95789,128,0,95839:0:0:0:0:
402,192,95889,128,0,95939:0:0:0:0:
475,192,95889,128,0,95939:0:0:0:0:
329,192,95989,1,0,0:0:0:0:
182,192,95989,1,0,0:0:0:0:
256,192,96089,1,0,0:0:0:0:
402,192,96089,1,0,0:0:0:0:
475,192,96089,1,0,0:0:0:0:
109,192,96089,128,0,96139:0:0:0:0:
36,192,96089,128,0,96139:0:0:0:0:
36,192,96189,128,0,96239:0:0:0:0:
109,192,96189,128,0,96239:0:0:0:0:
329,192,96289,1,0,0:0:0:0:
182,192,96289,1,0,0:0:0:0:
36,192,96389,1,0,0:0:0:0:
109,192,96389,1,0,0:0:0:0:
256,192,96389,1,0,0:0:0:0:
402,192,96389,128,0,96439:0:0:0:0:
475,192,96389,128,0,96439:0:0:0:0:
402,192,96489,128,0,96539:0:0:0:0:
475,192,96489,128,0,96539:0:0:0:0:
36,192,96589,128,0,96739:0:0:0:0:
109,192,96639,128,0,96789:0:0:0:0:
182,192,96689,128,0,96839:0:0:0:0:
475,192,96739,128,0,96889:0:0:0:0:
402,192,96789,128,0,96939:0:0:0:0:
329,192,96839,128,0,96939:0:0:0:0:
256,192,96889,128,0,96989:0:0:0:0:
182,192,96939,128,0,96989:0:0:0:0:
36,192,96989,1,0,0:0:0:0:
109,192,96989,1,0,0:0:0:0:
329,192,96989,1,0,0:0:0:0:
402,192,96989,1,0,0:0:0:0:
475,192,96989,1,0,0:0:0:0:
256,192,97089,1,0,0:0:0:0:
182,192,97089,1,0,0:0:0:0:
109,192,97139,1,0,0:0:0:0:
329,192,97139,1,0,0:0:0:0:
402,192,97189,1,0,0:0:0:0:
36,192,97189,1,0,0:0:0:0:
475,192,97289,1,0,0:0:0:0:
182,192,97289,1,0,0:0:0:0:
329,192,97489,1,0,0:0:0:0:
109,192,97489,1,0,0:0:0:0:
182,192,97539,1,0,0:0:0:0:
402,192,97539,1,0,0:0:0:0:
256,192,97589,1,0,0:0:0:0:
475,192,97589,1,0,0:0:0:0:
329,192,97689,1,0,0:0:0:0:
36,192,97689,1,0,0:0:0:0:
109,192,97789,1,0,0:0:0:0:
402,192,97789,1,0,0:0:0:0:
182,192,97789,1,0,0:0:0:0:
256,192,97889,1,0,0:0:0:0:
329,192,97889,1,0,0:0:0:0:
36,192,97889,1,0,0:0:0:0:
182,192,97939,1,0,0:0:0:0:
475,192,97939,1,0,0:0:0:0:
402,192,97989,1,0,0:0:0:0:
109,192,97989,1,0,0:0:0:0:
329,192,98089,1,0,0:0:0:0:
36,192,98089,1,0,0:0:0:0:
109,192,98189,1,0,0:0:0:0:
182,192,98189,1,0,0:0:0:0:
402,192,98189,1,0,0:0:0:0:
475,192,98189,1,0,0:0:0:0:
256,192,98189,1,0,0:0:0:0:
329,192,98289,1,0,0:0:0:0:
36,192,98289,1,0,0:0:0:0:
182,192,98389,1,0,0:0:0:0:
402,192,98389,1,0,0:0:0:0:
256,192,98489,1,0,0:0:0:0:
329,192,98489,1,0,0:0:0:0:
475,192,98489,1,0,0:0:0:0:
36,192,98489,1,0,0:0:0:0:
109,192,98489,1,0,0:0:0:0:
475,192,98722,1,0,0:0:0:0:
36,192,98722,1,0,0:0:0:0:
329,192,98789,1,0,0:0:0:0:
402,192,98789,1,0,0:0:0:0:
182,192,98789,1,0,0:0:0:0:
109,192,98789,1,0,0:0:0:0:
256,192,98789,1,0,0:0:0:0:
475,192,98889,1,0,0:0:0:0:
36,192,98889,1,0,0:0:0:0:
329,192,98989,1,0,0:0:0:0:
182,192,98989,1,0,0:0:0:0:
402,192,99089,1,0,0:0:0:0:
475,192,99089,1,0,0:0:0:0:
109,192,99089,1,0,0:0:0:0:
36,192,99089,1,0,0:0:0:0:
256,192,99089,1,0,0:0:0:0:
329,192,99189,1,0,0:0:0:0:
182,192,99189,1,0,0:0:0:0:
402,192,99289,1,0,0:0:0:0:
475,192,99289,1,0,0:0:0:0:
109,192,99289,1,0,0:0:0:0:
36,192,99289,1,0,0:0:0:0:
182,192,99389,1,0,0:0:0:0:
329,192,99389,1,0,0:0:0:0:
256,192,99389,1,0,0:0:0:0:
475,192,99489,1,0,0:0:0:0:
36,192,99489,1,0,0:0:0:0:
109,192,99539,1,0,0:0:0:0:
402,192,99539,1,0,0:0:0:0:
329,192,99589,1,0,0:0:0:0:
182,192,99589,1,0,0:0:0:0:
475,192,99689,1,0,0:0:0:0:
36,192,99689,1,0,0:0:0:0:
329,192,99789,1,0,0:0:0:0:
182,192,99789,1,0,0:0:0:0:
402,192,99889,1,0,0:0:0:0:
109,192,99889,1,0,0:0:0:0:
256,192,99989,1,0,0:0:0:0:
36,192,99989,1,0,0:0:0:0:
402,192,100089,1,0,0:0:0:0:
182,192,100089,1,0,0:0:0:0:
256,192,100189,1,0,0:0:0:0:
109,192,100189,1,0,0:0:0:0:
36,192,100189,1,0,0:0:0:0:
475,192,100189,1,0,0:0:0:0:
402,192,100255,1,0,0:0:0:0:
182,192,100255,1,0,0:0:0:0:
109,192,100322,1,0,0:0:0:0:
329,192,100322,1,0,0:0:0:0:
256,192,100389,1,0,0:0:0:0:
36,192,100389,1,0,0:0:0:0:
109,192,100489,1,0,0:0:0:0:
475,192,100489,1,0,0:0:0:0:
182,192,100522,1,0,0:0:0:0:
329,192,100589,1,0,0:0:0:0:
402,192,100589,1,0,0:0:0:0:
182,192,100689,1,0,0:0:0:0:
109,192,100689,1,0,0:0:0:0:
256,192,100722,1,0,0:0:0:0:
36,192,100789,1,0,0:0:0:0:
475,192,100789,1,0,0:0:0:0:
329,192,100855,1,0,0:0:0:0:
256,192,100889,1,0,0:0:0:0:
182,192,100889,1,0,0:0:0:0:
475,192,100989,1,0,0:0:0:0:
36,192,100989,1,0,0:0:0:0:
109,192,100989,1,0,0:0:0:0:
402,192,101089,1,0,0:0:0:0:
329,192,101089,1,0,0:0:0:0:
256,192,101089,1,0,0:0:0:0:
182,192,101089,1,0,0:0:0:0:
475,192,101189,1,0,0:0:0:0:
36,192,101189,1,0,0:0:0:0:
109,192,101255,1,0,0:0:0:0:
402,192,101255,1,0,0:0:0:0:
475,192,101389,1,0,0:0:0:0:
329,192,101389,1,0,0:0:0:0:
182,192,101389,1,0,0:0:0:0:
36,192,101389,1,0,0:0:0:0:
256,192,101389,1,0,0:0:0:0:
402,192,101522,1,0,0:0:0:0:
109,192,101522,1,0,0:0:0:0:
182,192,101589,1,0,0:0:0:0:
329,192,101589,1,0,0:0:0:0:
109,192,101689,1,0,0:0:0:0:
475,192,101689,1,0,0:0:0:0:
36,192,101689,1,0,0:0:0:0:
402,192,101689,1,0,0:0:0:0:
329,192,101789,1,0,0:0:0:0:
182,192,101789,1,0,0:0:0:0:
109,192,101922,1,0,0:0:0:0:
36,192,101922,1,0,0:0:0:0:
329,192,101989,1,0,0:0:0:0:
402,192,101989,1,0,0:0:0:0:
475,192,101989,1,0,0:0:0:0:
256,192,101989,1,0,0:0:0:0:
182,192,101989,1,0,0:0:0:0:
36,192,102089,1,0,0:0:0:0:
109,192,102089,1,0,0:0:0:0:
402,192,102189,1,0,0:0:0:0:
329,192,102189,1,0,0:0:0:0:
256,192,102289,1,0,0:0:0:0:
182,192,102289,1,0,0:0:0:0:
475,192,102289,1,0,0:0:0:0:
109,192,102289,1,0,0:0:0:0:
36,192,102289,1,0,0:0:0:0:
402,192,102439,1,0,0:0:0:0:
329,192,102439,1,0,0:0:0:0:
109,192,102489,1,0,0:0:0:0:
36,192,102489,1,0,0:0:0:0:
182,192,102489,1,0,0:0:0:0:
475,192,102489,1,0,0:0:0:0:
329,192,102589,1,0,0:0:0:0:
402,192,102589,1,0,0:0:0:0:
256,192,102589,1,0,0:0:0:0:
475,192,102689,1,0,0:0:0:0:
36,192,102689,1,0,0:0:0:0:
109,192,102789,1,0,0:0:0:0:
402,192,102789,1,0,0:0:0:0:
329,192,102889,1,0,0:0:0:0:
182,192,102889,1,0,0:0:0:0:
36,192,102989,1,0,0:0:0:0:
475,192,102989,1,0,0:0:0:0:
109,192,103039,1,0,0:0:0:0:
182,192,103089,1,0,0:0:0:0:
329,192,103089,1,0,0:0:0:0:
402,192,103139,1,0,0:0:0:0:
475,192,103189,1,0,0:0:0:0:
109,192,103189,1,0,0:0:0:0:
182,192,103239,1,0,0:0:0:0:
256,192,103289,1,0,0:0:0:0:
329,192,103339,1,0,0:0:0:0:
402,192,103389,1,0,0:0:0:0:
182,192,103389,1,0,0:0:0:0:
475,192,103389,1,0,0:0:0:0:
36,192,103389,128,0,103589:0:0:0:0:
109,192,103389,128,0,103589:0:0:0:0:
329,192,103489,1,0,0:0:0:0:
402,192,103589,1,0,0:0:0:0:
475,192,103589,1,0,0:0:0:0:
182,192,103589,1,0,0:0:0:0:
109,192,103689,1,0,0:0:0:0:
36,192,103789,1,0,0:0:0:0:
329,192,103789,1,0,0:0:0:0:
256,192,103789,1,0,0:0:0:0:
402,192,103789,1,0,0:0:0:0:
475,192,103789,1,0,0:0:0:0:
182,192,103889,1,0,0:0:0:0:
109,192,103989,1,0,0:0:0:0:
329,192,103989,1,0,0:0:0:0:
402,192,103989,1,0,0:0:0:0:
329,192,104089,1,0,0:0:0:0:
402,192,104089,1,0,0:0:0:0:
475,192,104189,1,0,0:0:0:0:
256,192,104189,1,0,0:0:0:0:
182,192,104189,1,0,0:0:0:0:
109,192,104189,1,0,0:0:0:0:
36,192,104189,1,0,0:0:0:0:
329,192,104289,1,0,0:0:0:0:
402,192,104389,1,0,0:0:0:0:
475,192,104389,1,0,0:0:0:0:
109,192,104389,1,0,0:0:0:0:
182,192,104489,1,0,0:0:0:0:
256,192,104589,1,0,0:0:0:0:
329,192,104589,1,0,0:0:0:0:
36,192,104589,1,0,0:0:0:0:
109,192,104589,1,0,0:0:0:0:
475,192,104589,1,0,0:0:0:0:
402,192,104689,1,0,0:0:0:0:
182,192,104789,1,0,0:0:0:0:
109,192,104789,1,0,0:0:0:0:
36,192,104789,1,0,0:0:0:0:
256,192,104889,1,0,0:0:0:0:
329,192,104989,1,0,0:0:0:0:
402,192,104989,1,0,0:0:0:0:
475,192,104989,1,0,0:0:0:0:
109,192,104989,1,0,0:0:0:0:
36,192,104989,1,0,0:0:0:0:
256,192,105089,1,0,0:0:0:0:
182,192,105189,1,0,0:0:0:0:
329,192,105189,1,0,0:0:0:0:
475,192,105189,1,0,0:0:0:0:
109,192,105289,1,0,0:0:0:0:
36,192,105389,1,0,0:0:0:0:
256,192,105389,1,0,0:0:0:0:
329,192,105389,1,0,0:0:0:0:
402,192,105389,1,0,0:0:0:0:
475,192,105389,1,0,0:0:0:0:
182,192,105489,1,0,0:0:0:0:
109,192,105589,128,0,105689:0:0:0:0:
36,192,105589,128,0,105689:0:0:0:0:
329,192,105589,1,0,0:0:0:0:
256,192,105689,1,0,0:0:0:0:
402,192,105789,128,0,105839:0:0:0:0:
475,192,105789,128,0,105839:0:0:0:0:
182,192,105789,1,0,0:0:0:0:
109,192,105789,1,0,0:0:0:0:
36,192,105789,1,0,0:0:0:0:
402,192,105889,128,0,105939:0:0:0:0:
475,192,105889,128,0,105939:0:0:0:0:
256,192,105989,1,0,0:0:0:0:
109,192,105989,1,0,0:0:0:0:
36,192,105989,1,0,0:0:0:0:
329,192,106089,128,0,106189:0:0:0:0:
182,192,106089,128,0,106189:0:0:0:0:
402,192,106189,1,0,0:0:0:0:
475,192,106189,1,0,0:0:0:0:
256,192,106189,1,0,0:0:0:0:
109,192,106189,1,0,0:0:0:0:
36,192,106189,1,0,0:0:0:0:
329,192,106289,1,0,0:0:0:0:
182,192,106389,1,0,0:0:0:0:
402,192,106389,128,0,106489:0:0:0:0:
475,192,106389,128,0,106489:0:0:0:0:
109,192,106489,1,0,0:0:0:0:
36,192,106589,1,0,0:0:0:0:
329,192,106589,1,0,0:0:0:0:
256,192,106589,1,0,0:0:0:0:
402,192,106589,128,0,106789:0:0:0:0:
475,192,106589,128,0,106789:0:0:0:0:
182,192,106689,1,0,0:0:0:0:
109,192,106789,1,0,0:0:0:0:
36,192,106789,1,0,0:0:0:0:
329,192,106789,1,0,0:0:0:0:
256,192,106889,1,0,0:0:0:0:
182,192,106989,1,0,0:0:0:0:
109,192,106989,1,0,0:0:0:0:
402,192,106989,1,0,0:0:0:0:
475,192,106989,1,0,0:0:0:0:
36,192,106989,1,0,0:0:0:0:
329,192,107089,1,0,0:0:0:0:
182,192,107189,1,0,0:0:0:0:
109,192,107189,1,0,0:0:0:0:
256,192,107189,1,0,0:0:0:0:
182,192,107289,1,0,0:0:0:0:
109,192,107289,1,0,0:0:0:0:
329,192,107389,1,0,0:0:0:0:
402,192,107389,1,0,0:0:0:0:
475,192,107389,1,0,0:0:0:0:
256,192,107389,1,0,0:0:0:0:
36,192,107389,1,0,0:0:0:0:
182,192,107489,1,0,0:0:0:0:
109,192,107589,1,0,0:0:0:0:
329,192,107589,1,0,0:0:0:0:
402,192,107589,1,0,0:0:0:0:
256,192,107689,1,0,0:0:0:0:
182,192,107789,1,0,0:0:0:0:
109,192,107789,1,0,0:0:0:0:
36,192,107789,1,0,0:0:0:0:
402,192,107789,1,0,0:0:0:0:
475,192,107789,1,0,0:0:0:0:
329,192,107889,1,0,0:0:0:0:
256,192,107989,1,0,0:0:0:0:
182,192,107989,1,0,0:0:0:0:
36,192,107989,1,0,0:0:0:0:
329,192,108089,1,0,0:0:0:0:
402,192,108189,1,0,0:0:0:0:
475,192,108189,1,0,0:0:0:0:
182,192,108189,1,0,0:0:0:0:
109,192,108189,1,0,0:0:0:0:
36,192,108189,1,0,0:0:0:0:
256,192,108289,1,0,0:0:0:0:
329,192,108389,1,0,0:0:0:0:
402,192,108389,1,0,0:0:0:0:
475,192,108389,1,0,0:0:0:0:
256,192,108489,1,0,0:0:0:0:
402,192,108589,1,0,0:0:0:0:
109,192,108589,1,0,0:0:0:0:
36,192,108589,1,0,0:0:0:0:
475,192,108589,1,0,0:0:0:0:
329,192,108639,1,0,0:0:0:0:
182,192,108689,1,0,0:0:0:0:
475,192,108689,1,0,0:0:0:0:
402,192,108739,1,0,0:0:0:0:
36,192,108789,1,0,0:0:0:0:
329,192,108789,1,0,0:0:0:0:
256,192,108789,1,0,0:0:0:0:
475,192,108889,1,0,0:0:0:0:
182,192,108889,1,0,0:0:0:0:
36,192,108989,1,0,0:0:0:0:
109,192,108989,1,0,0:0:0:0:
329,192,108989,1,0,0:0:0:0:
402,192,108989,1,0,0:0:0:0:
109,192,109089,1,0,0:0:0:0:
36,192,109089,1,0,0:0:0:0:
329,192,109089,1,0,0:0:0:0:
402,192,109089,1,0,0:0:0:0:
182,192,109189,1,0,0:0:0:0:
256,192,109189,1,0,0:0:0:0:
475,192,109189,1,0,0:0:0:0:
36,192,109289,1,0,0:0:0:0:
109,192,109289,1,0,0:0:0:0:
329,192,109289,1,0,0:0:0:0:
402,192,109289,1,0,0:0:0:0:
329,192,109389,1,0,0:0:0:0:
182,192,109389,1,0,0:0:0:0:
402,192,109389,1,0,0:0:0:0:
182,192,109589,1,0,0:0:0:0:
109,192,109589,1,0,0:0:0:0:
36,192,109589,1,0,0:0:0:0:
329,192,109639,1,0,0:0:0:0:
402,192,109639,1,0,0:0:0:0:
475,192,109639,1,0,0:0:0:0:
182,192,109689,1,0,0:0:0:0:
109,192,109689,1,0,0:0:0:0:
36,192,109689,1,0,0:0:0:0:
329,192,109739,1,0,0:0:0:0:
402,192,109739,1,0,0:0:0:0:
475,192,109739,1,0,0:0:0:0:
182,192,109789,1,0,0:0:0:0:
36,192,109789,128,0,109989:0:0:0:0:
109,192,109789,128,0,109989:0:0:0:0:
256,192,109789,128,0,109989:0:0:0:0:
329,192,109989,128,0,110089:0:0:0:0:
475,192,109989,128,0,110089:0:0:0:0:
36,192,110089,1,0,0:0:0:0:
109,192,110089,1,0,0:0:0:0:
182,192,110089,1,0,0:0:0:0:
256,192,110089,1,0,0:0:0:0:
329,192,110189,1,0,0:0:0:0:
402,192,110289,1,0,0:0:0:0:
36,192,110389,1,0,0:0:0:0:
109,192,110389,1,0,0:0:0:0:
182,192,110389,1,0,0:0:0:0:
256,192,110389,1,0,0:0:0:0:
329,192,110489,1,0,0:0:0:0:
402,192,110489,1,0,0:0:0:0:
475,192,110589,1,0,0:0:0:0:
109,192,110689,1,0,0:0:0:0:
182,192,110689,1,0,0:0:0:0:
329,192,110689,1,0,0:0:0:0:
402,192,110689,1,0,0:0:0:0:
36,192,110789,1,0,0:0:0:0:
256,192,110889,1,0,0:0:0:0:
182,192,110989,1,0,0:0:0:0:
109,192,110989,1,0,0:0:0:0:
329,192,110989,1,0,0:0:0:0:
402,192,110989,1,0,0:0:0:0:
36,192,111089,1,0,0:0:0:0:
109,192,111189,1,0,0:0:0:0:
402,192,111189,1,0,0:0:0:0:
329,192,111189,1,0,0:0:0:0:
475,192,111189,1,0,0:0:0:0:
256,192,111289,1,0,0:0:0:0:
402,192,111389,1,0,0:0:0:0:
475,192,111389,1,0,0:0:0:0:
109,192,111389,1,0,0:0:0:0:
36,192,111389,1,0,0:0:0:0:
256,192,111589,1,0,0:0:0:0:
402,192,111689,1,0,0:0:0:0:
475,192,111689,1,0,0:0:0:0:
109,192,111689,1,0,0:0:0:0:
36,192,111689,1,0,0:0:0:0:
182,192,111789,1,0,0:0:0:0:
329,192,111889,1,0,0:0:0:0:
109,192,111989,1,0,0:0:0:0:
36,192,111989,1,0,0:0:0:0:
402,192,111989,1,0,0:0:0:0:
475,192,111989,1,0,0:0:0:0:
182,192,112089,1,0,0:0:0:0:
329,192,112089,1,0,0:0:0:0:
256,192,112189,1,0,0:0:0:0:
475,192,112289,1,0,0:0:0:0:
329,192,112289,1,0,0:0:0:0:
182,192,112289,1,0,0:0:0:0:
36,192,112289,1,0,0:0:0:0:
109,192,112389,1,0,0:0:0:0:
256,192,112489,1,0,0:0:0:0:
329,192,112589,1,0,0:0:0:0:
475,192,112589,1,0,0:0:0:0:
182,192,112589,1,0,0:0:0:0:
36,192,112589,1,0,0:0:0:0:
256,192,112689,1,0,0:0:0:0:
402,192,112789,1,0,0:0:0:0:
475,192,112789,1,0,0:0:0:0:
109,192,112789,1,0,0:0:0:0:
36,192,112789,1,0,0:0:0:0:
256,192,112855,1,0,0:0:0:0:
329,192,112922,1,0,0:0:0:0:
475,192,112989,1,0,0:0:0:0:
182,192,112989,1,0,0:0:0:0:
36,192,112989,128,0,113189:0:0:0:0:
109,192,112989,128,0,113189:0:0:0:0:
329,192,113189,1,0,0:0:0:0:
109,192,113289,1,0,0:0:0:0:
36,192,113289,1,0,0:0:0:0:
182,192,113289,1,0,0:0:0:0:
475,192,113289,1,0,0:0:0:0:
256,192,113389,1,0,0:0:0:0:
329,192,113489,1,0,0:0:0:0:
475,192,113589,1,0,0:0:0:0:
182,192,113589,1,0,0:0:0:0:
109,192,113589,1,0,0:0:0:0:
36,192,113589,1,0,0:0:0:0:
402,192,113689,1,0,0:0:0:0:
256,192,113689,1,0,0:0:0:0:
329,192,113789,1,0,0:0:0:0:
109,192,113889,1,0,0:0:0:0:
182,192,113889,1,0,0:0:0:0:
36,192,113889,1,0,0:0:0:0:
256,192,113889,1,0,0:0:0:0:
256,192,113989,1,0,0:0:0:0:
475,192,113989,1,0,0:0:0:0:
402,192,113989,1,0,0:0:0:0:
329,192,113989,1,0,0:0:0:0:
36,192,114089,1,0,0:0:0:0:
109,192,114089,1,0,0:0:0:0:
182,192,114139,1,0,0:0:0:0:
256,192,114139,1,0,0:0:0:0:
329,192,114189,1,0,0:0:0:0:
402,192,114189,1,0,0:0:0:0:
475,192,114189,1,0,0:0:0:0:
256,192,114289,1,0,0:0:0:0:
36,192,114389,1,0,0:0:0:0:
475,192,114389,1,0,0:0:0:0:
109,192,114439,1,0,0:0:0:0:
402,192,114439,1,0,0:0:0:0:
182,192,114489,1,0,0:0:0:0:
329,192,114489,1,0,0:0:0:0:
256,192,114539,1,0,0:0:0:0:
36,192,114589,128,0,114689:0:0:0:0:
475,192,114589,128,0,114689:0:0:0:0:
109,192,114589,128,0,114689:0:0:0:0:
109,192,114789,128,0,114889:0:0:0:0:
256,192,114789,128,0,114889:0:0:0:0:
329,192,114789,128,0,114889:0:0:0:0:
182,192,114989,128,0,115089:0:0:0:0:
329,192,114989,128,0,115089:0:0:0:0:
402,192,114989,128,0,115089:0:0:0:0:
402,192,115189,128,0,115289:0:0:0:0:
36,192,115189,1,0,0:0:0:0:
256,192,115189,128,0,115289:0:0:0:0:
475,192,115189,128,0,115289:0:0:0:0:
182,192,115289,1,0,0:0:0:0:
329,192,115389,128,0,115489:0:0:0:0:
109,192,115389,1,0,0:0:0:0:
402,192,115389,128,0,115789:0:0:0:0:
475,192,115389,128,0,115789:0:0:0:0:
256,192,115489,1,0,0:0:0:0:
109,192,115589,128,0,115789:0:0:0:0:
36,192,115589,128,0,115789:0:0:0:0:
182,192,115589,1,0,0:0:0:0:
329,192,115689,1,0,0:0:0:0:
256,192,115789,1,0,0:0:0:0:
329,192,115889,128,0,116089:0:0:0:0:
402,192,115889,128,0,116089:0:0:0:0:
182,192,115889,128,0,116089:0:0:0:0:
109,192,115889,128,0,116089:0:0:0:0:
402,192,116189,1,0,0:0:0:0:
109,192,116189,1,0,0:0:0:0:
329,192,116189,128,0,116389:0:0:0:0:
182,192,116189,128,0,116389:0:0:0:0:
256,192,116389,128,0,116589:0:0:0:0:
402,192,116589,1,0,0:0:0:0:
475,192,116589,1,0,0:0:0:0:
182,192,116589,1,0,0:0:0:0:
36,192,116589,128,0,116789:0:0:0:0:
109,192,116589,128,0,116789:0:0:0:0:
256,192,116689,1,0,0:0:0:0:
329,192,116789,1,0,0:0:0:0:
402,192,116789,1,0,0:0:0:0:
475,192,116789,1,0,0:0:0:0:
256,192,116889,1,0,0:0:0:0:
182,192,116989,1,0,0:0:0:0:
109,192,116989,1,0,0:0:0:0:
36,192,116989,1,0,0:0:0:0:
402,192,116989,1,0,0:0:0:0:
475,192,116989,1,0,0:0:0:0:
329,192,117089,1,0,0:0:0:0:
256,192,117189,1,0,0:0:0:0:
182,192,117189,1,0,0:0:0:0:
36,192,117189,1,0,0:0:0:0:
36,192,117289,1,0,0:0:0:0:
182,192,117289,1,0,0:0:0:0:
256,192,117389,1,0,0:0:0:0:
329,192,117389,1,0,0:0:0:0:
402,192,117389,1,0,0:0:0:0:
475,192,117389,1,0,0:0:0:0:
109,192,117389,1,0,0:0:0:0:
182,192,117489,1,0,0:0:0:0:
329,192,117589,1,0,0:0:0:0:
402,192,117589,1,0,0:0:0:0:
475,192,117589,1,0,0:0:0:0:
256,192,117689,1,0,0:0:0:0:
182,192,117789,1,0,0:0:0:0:
109,192,117789,1,0,0:0:0:0:
36,192,117789,1,0,0:0:0:0:
402,192,117789,1,0,0:0:0:0:
475,192,117789,1,0,0:0:0:0:
329,192,117889,1,0,0:0:0:0:
256,192,117989,1,0,0:0:0:0:
182,192,117989,1,0,0:0:0:0:
109,192,117989,1,0,0:0:0:0:
329,192,118089,1,0,0:0:0:0:
402,192,118189,1,0,0:0:0:0:
475,192,118189,1,0,0:0:0:0:
256,192,118189,1,0,0:0:0:0:
109,192,118189,1,0,0:0:0:0:
36,192,118189,1,0,0:0:0:0:
182,192,118289,1,0,0:0:0:0:
329,192,118389,128,0,118489:0:0:0:0:
475,192,118389,128,0,118489:0:0:0:0:
256,192,118389,1,0,0:0:0:0:
109,192,118489,1,0,0:0:0:0:
182,192,118589,128,0,118639:0:0:0:0:
36,192,118589,128,0,118639:0:0:0:0:
402,192,118589,1,0,0:0:0:0:
329,192,118589,1,0,0:0:0:0:
475,192,118589,1,0,0:0:0:0:
36,192,118689,128,0,118739:0:0:0:0:
182,192,118689,128,0,118739:0:0:0:0:
329,192,118789,1,0,0:0:0:0:
402,192,118789,1,0,0:0:0:0:
475,192,118789,1,0,0:0:0:0:
256,192,118889,128,0,118989:0:0:0:0:
109,192,118889,128,0,118989:0:0:0:0:
182,192,118989,1,0,0:0:0:0:
36,192,118989,1,0,0:0:0:0:
329,192,118989,1,0,0:0:0:0:
402,192,118989,1,0,0:0:0:0:
475,192,118989,1,0,0:0:0:0:
256,192,119089,1,0,0:0:0:0:
329,192,119189,128,0,119289:0:0:0:0:
475,192,119189,128,0,119289:0:0:0:0:
109,192,119189,1,0,0:0:0:0:
182,192,119289,1,0,0:0:0:0:
329,192,119389,1,0,0:0:0:0:
109,192,119389,1,0,0:0:0:0:
36,192,119389,1,0,0:0:0:0:
402,192,119389,128,0,119589:0:0:0:0:
475,192,119389,128,0,119589:0:0:0:0:
256,192,119489,1,0,0:0:0:0:
182,192,119589,1,0,0:0:0:0:
109,192,119589,1,0,0:0:0:0:
36,192,119589,1,0,0:0:0:0:
256,192,119689,1,0,0:0:0:0:
475,192,119789,1,0,0:0:0:0:
402,192,119789,1,0,0:0:0:0:
329,192,119789,1,0,0:0:0:0:
109,192,119789,1,0,0:0:0:0:
36,192,119789,1,0,0:0:0:0:
182,192,119889,1,0,0:0:0:0:
329,192,119989,1,0,0:0:0:0:
475,192,119989,1,0,0:0:0:0:
256,192,119989,1,0,0:0:0:0:
329,192,120089,1,0,0:0:0:0:
475,192,120089,1,0,0:0:0:0:
256,192,120189,1,0,0:0:0:0:
182,192,120189,1,0,0:0:0:0:
109,192,120189,1,0,0:0:0:0:
36,192,120189,1,0,0:0:0:0:
402,192,120189,1,0,0:0:0:0:
329,192,120289,1,0,0:0:0:0:
36,192,120389,1,0,0:0:0:0:
256,192,120389,1,0,0:0:0:0:
475,192,120389,1,0,0:0:0:0:
182,192,120489,1,0,0:0:0:0:
109,192,120589,1,0,0:0:0:0:
36,192,120589,1,0,0:0:0:0:
329,192,120589,1,0,0:0:0:0:
402,192,120589,1,0,0:0:0:0:
475,192,120589,1,0,0:0:0:0:
256,192,120689,1,0,0:0:0:0:
182,192,120789,1,0,0:0:0:0:
109,192,120789,1,0,0:0:0:0:
329,192,120789,1,0,0:0:0:0:
402,192,120889,1,0,0:0:0:0:
475,192,120989,1,0,0:0:0:0:
256,192,120989,1,0,0:0:0:0:
182,192,120989,1,0,0:0:0:0:
109,192,120989,1,0,0:0:0:0:
36,192,120989,1,0,0:0:0:0:
329,192,121089,1,0,0:0:0:0:
402,192,121189,1,0,0:0:0:0:
475,192,121189,1,0,0:0:0:0:
256,192,121189,1,0,0:0:0:0:
182,192,121189,1,0,0:0:0:0:
36,192,121189,1,0,0:0:0:0:
329,192,121289,1,0,0:0:0:0:
402,192,121389,1,0,0:0:0:0:
36,192,121389,1,0,0:0:0:0:
109,192,121389,1,0,0:0:0:0:
182,192,121439,1,0,0:0:0:0:
475,192,121439,1,0,0:0:0:0:
329,192,121489,1,0,0:0:0:0:
256,192,121489,1,0,0:0:0:0:
402,192,121539,1,0,0:0:0:0:
109,192,121589,1,0,0:0:0:0:
182,192,121589,1,0,0:0:0:0:
256,192,121589,1,0,0:0:0:0:
475,192,121589,1,0,0:0:0:0:
36,192,121589,1,0,0:0:0:0:
329,192,121789,1,0,0:0:0:0:
402,192,121789,1,0,0:0:0:0:
475,192,121789,1,0,0:0:0:0:
182,192,121839,1,0,0:0:0:0:
109,192,121839,1,0,0:0:0:0:
36,192,121839,1,0,0:0:0:0:
329,192,121889,1,0,0:0:0:0:
402,192,121889,1,0,0:0:0:0:
475,192,121889,1,0,0:0:0:0:
182,192,121939,1,0,0:0:0:0:
109,192,121939,1,0,0:0:0:0:
36,192,121939,1,0,0:0:0:0:
329,192,121989,1,0,0:0:0:0:
402,192,121989,1,0,0:0:0:0:
475,192,121989,1,0,0:0:0:0:
256,192,121989,1,0,0:0:0:0:
182,192,122189,1,0,0:0:0:0:
109,192,122189,1,0,0:0:0:0:
36,192,122189,1,0,0:0:0:0:
329,192,122189,1,0,0:0:0:0:
475,192,122189,1,0,0:0:0:0:
256,192,122389,128,0,122589:0:0:0:0:
36,192,122589,1,0,0:0:0:0:
109,192,122589,1,0,0:0:0:0:
182,192,122589,1,0,0:0:0:0:
329,192,122589,1,0,0:0:0:0:
475,192,122589,1,0,0:0:0:0:
402,192,122589,1,0,0:0:0:0:
256,192,123389,128,0,123489:0:0:0:0:
36,192,123389,128,0,123489:0:0:0:0:
475,192,123389,128,0,123489:0:0:0:0:
329,192,123489,1,0,0:0:0:0:
182,192,123489,1,0,0:0:0:0:
402,192,123489,1,0,0:0:0:0:
109,192,123489,1,0,0:0:0:0:
475,192,123589,128,0,123689:0:0:0:0:
36,192,123589,128,0,123689:0:0:0:0:
109,192,123689,128,0,123789:0:0:0:0:
402,192,123689,128,0,123789:0:0:0:0:
329,192,123789,128,0,123889:0:0:0:0:
256,192,123789,128,0,123889:0:0:0:0:
182,192,123789,128,0,123889:0:0:0:0:
36,192,123789,128,0,123889:0:0:0:0:
475,192,123789,128,0,123889:0:0:0:0:
475,192,123989,1,0,0:0:0:0:
36,192,123989,1,0,0:0:0:0:
109,192,124089,1,0,0:0:0:0:
329,192,124089,1,0,0:0:0:0:
402,192,124089,1,0,0:0:0:0:
182,192,124089,1,0,0:0:0:0:
402,192,124389,1,0,0:0:0:0:
475,192,124389,1,0,0:0:0:0:
109,192,124389,1,0,0:0:0:0:
36,192,124389,1,0,0:0:0:0:
329,192,124489,1,0,0:0:0:0:
182,192,124489,1,0,0:0:0:0:
256,192,124489,1,0,0:0:0:0:
402,192,124689,1,0,0:0:0:0:
475,192,124689,1,0,0:0:0:0:
36,192,124689,1,0,0:0:0:0:
182,192,124689,1,0,0:0:0:0:
109,192,124789,1,0,0:0:0:0:
256,192,124789,1,0,0:0:0:0:
329,192,124789,1,0,0:0:0:0:
475,192,124889,1,0,0:0:0:0:
402,192,124889,1,0,0:0:0:0:
182,192,124889,1,0,0:0:0:0:
36,192,124889,1,0,0:0:0:0:
329,192,124989,128,0,125089:0:0:0:0:
256,192,124989,128,0,125089:0:0:0:0:
109,192,124989,128,0,125089:0:0:0:0:
182,192,125089,1,0,0:0:0:0:
402,192,125089,1,0,0:0:0:0:
475,192,125089,1,0,0:0:0:0:
36,192,125089,1,0,0:0:0:0:
109,192,125189,1,0,0:0:0:0:
256,192,125189,1,0,0:0:0:0:
329,192,125189,1,0,0:0:0:0:
182,192,125289,1,0,0:0:0:0:
402,192,125389,1,0,0:0:0:0:
475,192,125389,1,0,0:0:0:0:
109,192,125389,1,0,0:0:0:0:
36,192,125389,1,0,0:0:0:0:
329,192,125489,1,0,0:0:0:0:
256,192,125589,1,0,0:0:0:0:
182,192,125589,1,0,0:0:0:0:
475,192,125589,1,0,0:0:0:0:
36,192,125589,1,0,0:0:0:0:
402,192,125655,1,0,0:0:0:0:
329,192,125722,1,0,0:0:0:0:
36,192,125789,1,0,0:0:0:0:
256,192,125789,1,0,0:0:0:0:
109,192,125789,1,0,0:0:0:0:
402,192,125789,1,0,0:0:0:0:
475,192,125789,1,0,0:0:0:0:
256,192,125989,1,0,0:0:0:0:
329,192,126089,1,0,0:0:0:0:
402,192,126089,1,0,0:0:0:0:
182,192,126089,1,0,0:0:0:0:
109,192,126089,1,0,0:0:0:0:
475,192,126189,1,0,0:0:0:0:
182,192,126289,1,0,0:0:0:0:
329,192,126389,1,0,0:0:0:0:
402,192,126389,1,0,0:0:0:0:
109,192,126389,1,0,0:0:0:0:
36,192,126389,1,0,0:0:0:0:
256,192,126489,1,0,0:0:0:0:
109,192,126589,128,0,126689:0:0:0:0:
475,192,126589,128,0,126689:0:0:0:0:
36,192,126589,128,0,126689:0:0:0:0:
329,192,126689,1,0,0:0:0:0:
182,192,126689,1,0,0:0:0:0:
256,192,126689,1,0,0:0:0:0:
402,192,126689,1,0,0:0:0:0:
475,192,126789,1,0,0:0:0:0:
109,192,126789,1,0,0:0:0:0:
36,192,126789,1,0,0:0:0:0:
402,192,126889,1,0,0:0:0:0:
329,192,126989,1,0,0:0:0:0:
256,192,126989,1,0,0:0:0:0:
182,192,126989,1,0,0:0:0:0:
109,192,126989,1,0,0:0:0:0:
36,192,126989,1,0,0:0:0:0:
36,192,127289,1,0,0:0:0:0:
109,192,127289,1,0,0:0:0:0:
329,192,127289,1,0,0:0:0:0:
402,192,127289,1,0,0:0:0:0:
182,192,127389,1,0,0:0:0:0:
256,192,127439,1,0,0:0:0:0:
329,192,127489,1,0,0:0:0:0:
475,192,127489,1,0,0:0:0:0:
402,192,127489,1,0,0:0:0:0:
182,192,127589,1,0,0:0:0:0:
36,192,127589,1,0,0:0:0:0:
109,192,127589,1,0,0:0:0:0:
256,192,127589,1,0,0:0:0:0:
329,192,127689,1,0,0:0:0:0:
402,192,127789,1,0,0:0:0:0:
475,192,127889,1,0,0:0:0:0:
109,192,127889,1,0,0:0:0:0:
36,192,127889,1,0,0:0:0:0:
329,192,127889,1,0,0:0:0:0:
182,192,127989,1,0,0:0:0:0:
402,192,127989,1,0,0:0:0:0:
256,192,127989,1,0,0:0:0:0:
109,192,128089,1,0,0:0:0:0:
475,192,128089,1,0,0:0:0:0:
36,192,128089,1,0,0:0:0:0:
329,192,128089,1,0,0:0:0:0:
182,192,128189,128,0,128289:0:0:0:0:
256,192,128189,128,0,128289:0:0:0:0:
402,192,128189,128,0,128289:0:0:0:0:
475,192,128289,1,0,0:0:0:0:
36,192,128289,1,0,0:0:0:0:
109,192,128389,1,0,0:0:0:0:
256,192,128489,1,0,0:0:0:0:
36,192,128589,1,0,0:0:0:0:
109,192,128622,1,0,0:0:0:0:
182,192,128655,1,0,0:0:0:0:
475,192,128689,1,0,0:0:0:0:
402,192,128722,1,0,0:0:0:0:
329,192,128755,1,0,0:0:0:0:
256,192,128789,1,0,0:0:0:0:
36,192,128822,1,0,0:0:0:0:
109,192,128855,1,0,0:0:0:0:
182,192,128889,1,0,0:0:0:0:
256,192,128922,1,0,0:0:0:0:
329,192,128955,1,0,0:0:0:0:
36,192,128989,128,0,129189:0:0:0:0:
475,192,128989,128,0,129189:0:0:0:0:
329,192,129189,128,0,129389:0:0:0:0:
182,192,129189,128,0,129389:0:0:0:0:
475,192,129389,128,0,129589:0:0:0:0:
36,192,129389,128,0,129589:0:0:0:0:
402,192,129589,128,0,129789:0:0:0:0:
109,192,129589,128,0,129789:0:0:0:0:
329,192,129689,1,0,0:0:0:0:
475,192,129789,128,0,129989:0:0:0:0:
36,192,129789,128,0,129989:0:0:0:0:
256,192,129889,1,0,0:0:0:0:
182,192,129989,128,0,130189:0:0:0:0:
329,192,129989,128,0,130189:0:0:0:0:
256,192,130089,1,0,0:0:0:0:
402,192,130189,128,0,130389:0:0:0:0:
109,192,130189,128,0,130389:0:0:0:0:
329,192,130289,1,0,0:0:0:0:
36,192,130389,128,0,130589:0:0:0:0:
475,192,130389,128,0,130589:0:0:0:0:
182,192,130489,1,0,0:0:0:0:
256,192,130589,1,0,0:0:0:0:
329,192,131189,128,0,131289:0:0:0:0:
256,192,131289,128,0,131389:0:0:0:0:
475,192,131389,128,0,131489:0:0:0:0:
329,192,131489,128,0,131689:0:0:0:0:
402,192,131689,128,0,131789:0:0:0:0:
475,192,131789,128,0,131889:0:0:0:0:
256,192,131889,128,0,131989:0:0:0:0:
36,192,131989,128,0,132039:0:0:0:0:
182,192,132039,128,0,132089:0:0:0:0:
329,192,132089,128,0,132139:0:0:0:0:
475,192,132139,128,0,132189:0:0:0:0:
475,192,132589,128,0,132789:0:0:0:0:
182,192,132689,128,0,132789:0:0:0:0:
109,192,132789,128,0,132889:0:0:0:0:
256,192,132889,128,0,132989:0:0:0:0:
36,192,132989,128,0,133089:0:0:0:0:
109,192,133089,128,0,133189:0:0:0:0:
256,192,133189,128,0,133289:0:0:0:0:
182,192,133289,128,0,133389:0:0:0:0:
109,192,133389,128,0,133489:0:0:0:0:
256,192,133489,128,0,133589:0:0:0:0:
402,192,133589,128,0,133689:0:0:0:0:
475,192,133689,128,0,133789:0:0:0:0:
329,192,133789,128,0,133989:0:0:0:0:
256,192,133989,1,0,0:0:0:0:
36,192,133989,1,0,0:0:0:0:
109,192,134039,1,0,0:0:0:0:
329,192,134039,1,0,0:0:0:0:
182,192,134089,1,0,0:0:0:0:
402,192,134089,1,0,0:0:0:0:
256,192,134139,1,0,0:0:0:0:
475,192,134139,1,0,0:0:0:0:
329,192,134189,128,0,134239:0:0:0:0:
36,192,134189,128,0,134239:0:0:0:0:
36,192,134289,128,0,134339:0:0:0:0:
329,192,134289,128,0,134339:0:0:0:0:
256,192,134389,128,0,134589:0:0:0:0:
475,192,134389,128,0,134589:0:0:0:0:
329,192,134589,128,0,134689:0:0:0:0:
36,192,134589,128,0,134689:0:0:0:0:
109,192,134689,128,0,134889:0:0:0:0:
402,192,134689,128,0,134889:0:0:0:0:
182,192,134889,128,0,134989:0:0:0:0:
256,192,134989,128,0,135189:0:0:0:0:
475,192,134989,128,0,135189:0:0:0:0:
329,192,135189,128,0,135289:0:0:0:0:
402,192,135289,128,0,135389:0:0:0:0:
36,192,135389,1,0,0:0:0:0:
109,192,135389,1,0,0:0:0:0:
182,192,135422,1,0,0:0:0:0:
256,192,135455,1,0,0:0:0:0:
475,192,135489,1,0,0:0:0:0:
402,192,135489,1,0,0:0:0:0:
329,192,135522,1,0,0:0:0:0:
256,192,135555,1,0,0:0:0:0:
182,192,135589,1,0,0:0:0:0:
109,192,135589,1,0,0:0:0:0:
36,192,135589,1,0,0:0:0:0:
109,192,135689,1,0,0:0:0:0:
36,192,135689,1,0,0:0:0:0:
182,192,135689,1,0,0:0:0:0:
402,192,135789,1,0,0:0:0:0:
329,192,135789,1,0,0:0:0:0:
256,192,135789,1,0,0:0:0:0:
475,192,135789,1,0,0:0:0:0:
329,192,135889,1,0,0:0:0:0:
402,192,135889,1,0,0:0:0:0:
475,192,135889,1,0,0:0:0:0:
36,192,135989,1,0,0:0:0:0:
109,192,135989,1,0,0:0:0:0:
182,192,135989,1,0,0:0:0:0:
36,192,136089,1,0,0:0:0:0:
109,192,136089,1,0,0:0:0:0:
182,192,136089,1,0,0:0:0:0:
329,192,136189,1,0,0:0:0:0:
402,192,136189,1,0,0:0:0:0:
475,192,136189,1,0,0:0:0:0:
256,192,136189,1,0,0:0:0:0:
329,192,136289,1,0,0:0:0:0:
402,192,136289,1,0,0:0:0:0:
475,192,136289,1,0,0:0:0:0:
256,192,136389,1,0,0:0:0:0:
182,192,136389,1,0,0:0:0:0:
109,192,136389,1,0,0:0:0:0:
109,192,136489,1,0,0:0:0:0:
182,192,136489,1,0,0:0:0:0:
256,192,136489,1,0,0:0:0:0:
329,192,136589,1,0,0:0:0:0:
402,192,136589,1,0,0:0:0:0:
475,192,136589,1,0,0:0:0:0:
36,192,136589,1,0,0:0:0:0:
475,192,136689,1,0,0:0:0:0:
329,192,136689,1,0,0:0:0:0:
402,192,136689,1,0,0:0:0:0:
182,192,136789,1,0,0:0:0:0:
109,192,136789,1,0,0:0:0:0:
36,192,136789,1,0,0:0:0:0:
36,192,136889,1,0,0:0:0:0:
109,192,136889,1,0,0:0:0:0:
182,192,136889,1,0,0:0:0:0:
475,192,136989,1,0,0:0:0:0:
402,192,136989,1,0,0:0:0:0:
329,192,137022,1,0,0:0:0:0:
256,192,137055,1,0,0:0:0:0:
36,192,137089,1,0,0:0:0:0:
109,192,137089,1,0,0:0:0:0:
182,192,137122,1,0,0:0:0:0:
256,192,137155,1,0,0:0:0:0:
475,192,137189,1,0,0:0:0:0:
402,192,137189,1,0,0:0:0:0:
329,192,137189,1,0,0:0:0:0:
329,192,137289,1,0,0:0:0:0:
402,192,137289,1,0,0:0:0:0:
475,192,137289,1,0,0:0:0:0:
182,192,137389,1,0,0:0:0:0:
36,192,137389,1,0,0:0:0:0:
109,192,137389,1,0,0:0:0:0:
256,192,137389,1,0,0:0:0:0:
36,192,137489,1,0,0:0:0:0:
109,192,137489,1,0,0:0:0:0:
182,192,137489,1,0,0:0:0:0:
256,192,137589,1,0,0:0:0:0:
402,192,137589,1,0,0:0:0:0:
475,192,137589,1,0,0:0:0:0:
402,192,137689,1,0,0:0:0:0:
475,192,137689,1,0,0:0:0:0:
256,192,137689,1,0,0:0:0:0:
329,192,137789,1,0,0:0:0:0:
109,192,137789,1,0,0:0:0:0:
182,192,137789,1,0,0:0:0:0:
36,192,137789,1,0,0:0:0:0:
329,192,137889,1,0,0:0:0:0:
109,192,137889,1,0,0:0:0:0:
36,192,137889,1,0,0:0:0:0:
475,192,137989,1,0,0:0:0:0:
402,192,137989,1,0,0:0:0:0:
182,192,137989,1,0,0:0:0:0:
182,192,138089,1,0,0:0:0:0:
402,192,138089,1,0,0:0:0:0:
475,192,138089,1,0,0:0:0:0:
256,192,138189,1,0,0:0:0:0:
329,192,138189,1,0,0:0:0:0:
109,192,138189,1,0,0:0:0:0:
36,192,138189,1,0,0:0:0:0:
329,192,138289,1,0,0:0:0:0:
109,192,138289,1,0,0:0:0:0:
36,192,138289,1,0,0:0:0:0:
475,192,138389,1,0,0:0:0:0:
402,192,138389,1,0,0:0:0:0:
256,192,138389,1,0,0:0:0:0:
256,192,138489,1,0,0:0:0:0:
402,192,138489,1,0,0:0:0:0:
475,192,138489,1,0,0:0:0:0:
36,192,138589,1,0,0:0:0:0:
109,192,138589,1,0,0:0:0:0:
182,192,138622,1,0,0:0:0:0:
256,192,138655,1,0,0:0:0:0:
329,192,138689,1,0,0:0:0:0:
402,192,138722,1,0,0:0:0:0:
475,192,138755,1,0,0:0:0:0:
36,192,138789,1,0,0:0:0:0:
109,192,138822,1,0,0:0:0:0:
182,192,138855,1,0,0:0:0:0:
256,192,138889,1,0,0:0:0:0:
329,192,138922,1,0,0:0:0:0:
402,192,138955,1,0,0:0:0:0:
36,192,138989,1,0,0:0:0:0:
109,192,138989,1,0,0:0:0:0:
475,192,138989,1,0,0:0:0:0:
182,192,139039,1,0,0:0:0:0:
256,192,139089,1,0,0:0:0:0:
329,192,139089,1,0,0:0:0:0:
402,192,139139,1,0,0:0:0:0:
36,192,139189,1,0,0:0:0:0:
475,192,139189,1,0,0:0:0:0:
109,192,139239,1,0,0:0:0:0:
182,192,139289,1,0,0:0:0:0:
329,192,139289,1,0,0:0:0:0:
402,192,139339,1,0,0:0:0:0:
475,192,139389,1,0,0:0:0:0:
36,192,139389,1,0,0:0:0:0:
109,192,139422,1,0,0:0:0:0:
182,192,139455,1,0,0:0:0:0:
256,192,139489,1,0,0:0:0:0:
475,192,139522,1,0,0:0:0:0:
402,192,139555,1,0,0:0:0:0:
329,192,139589,1,0,0:0:0:0:
36,192,139639,1,0,0:0:0:0:
109,192,139689,1,0,0:0:0:0:
182,192,139739,1,0,0:0:0:0:
475,192,139789,1,0,0:0:0:0:
402,192,139822,1,0,0:0:0:0:
329,192,139855,1,0,0:0:0:0:
36,192,139889,1,0,0:0:0:0:
109,192,139922,1,0,0:0:0:0:
182,192,139955,1,0,0:0:0:0:
256,192,139989,1,0,0:0:0:0:
329,192,140022,1,0,0:0:0:0:
475,192,140055,1,0,0:0:0:0:
402,192,140089,1,0,0:0:0:0:
329,192,140122,1,0,0:0:0:0:
256,192,140155,1,0,0:0:0:0:
36,192,140189,128,0,140989:0:0:0:0:
109,192,140189,128,0,140989:0:0:0:0:
182,192,140189,128,0,140989:0:0:0:0:
329,192,140289,128,0,140989:0:0:0:0:
475,192,140389,128,0,140989:0:0:0:0:
402,192,140989,128,0,141189:0:0:0:0:
256,192,140989,128,0,141089:0:0:0:0:
329,192,141089,128,0,141289:0:0:0:0:
182,192,141089,128,0,141189:0:0:0:0:
256,192,141189,128,0,141389:0:0:0:0:
109,192,141189,128,0,141289:0:0:0:0:
182,192,141289,128,0,141389:0:0:0:0:
36,192,141289,128,0,141389:0:0:0:0:
475,192,141389,1,0,0:0:0:0:
329,192,141439,1,0,0:0:0:0:
182,192,141489,1,0,0:0:0:0:
36,192,141539,1,0,0:0:0:0:
109,192,141589,1,0,0:0:0:0:
182,192,141639,1,0,0:0:0:0:
402,192,141689,1,0,0:0:0:0:
329,192,141739,1,0,0:0:0:0:
256,192,141789,1,0,0:0:0:0:
109,192,141789,1,0,0:0:0:0:
475,192,141789,1,0,0:0:0:0:
182,192,141789,1,0,0:0:0:0:
36,192,141889,1,0,0:0:0:0:
402,192,141989,1,0,0:0:0:0:
256,192,141989,1,0,0:0:0:0:
109,192,141989,1,0,0:0:0:0:
329,192,142089,1,0,0:0:0:0:
402,192,142189,1,0,0:0:0:0:
475,192,142189,1,0,0:0:0:0:
36,192,142189,1,0,0:0:0:0:
109,192,142239,1,0,0:0:0:0:
182,192,142289,1,0,0:0:0:0:
329,192,142289,1,0,0:0:0:0:
402,192,142339,1,0,0:0:0:0:
475,192,142389,1,0,0:0:0:0:
256,192,142389,1,0,0:0:0:0:
182,192,142439,1,0,0:0:0:0:
109,192,142489,1,0,0:0:0:0:
329,192,142489,1,0,0:0:0:0:
402,192,142539,1,0,0:0:0:0:
475,192,142589,1,0,0:0:0:0:
182,192,142589,1,0,0:0:0:0:
109,192,142589,1,0,0:0:0:0:
36,192,142589,1,0,0:0:0:0:
256,192,142689,1,0,0:0:0:0:
329,192,142689,1,0,0:0:0:0:
402,192,142689,1,0,0:0:0:0:
182,192,142739,1,0,0:0:0:0:
36,192,142789,1,0,0:0:0:0:
109,192,142789,1,0,0:0:0:0:
36,192,142889,1,0,0:0:0:0:
109,192,142889,1,0,0:0:0:0:
475,192,142989,1,0,0:0:0:0:
256,192,142989,1,0,0:0:0:0:
402,192,142989,1,0,0:0:0:0:
182,192,143089,1,0,0:0:0:0:
329,192,143089,1,0,0:0:0:0:
182,192,143189,1,0,0:0:0:0:
329,192,143189,1,0,0:0:0:0:
402,192,143289,1,0,0:0:0:0:
256,192,143289,1,0,0:0:0:0:
475,192,143289,1,0,0:0:0:0:
36,192,143389,1,0,0:0:0:0:
182,192,143389,1,0,0:0:0:0:
329,192,143489,1,0,0:0:0:0:
475,192,143489,1,0,0:0:0:0:
475,192,143589,1,0,0:0:0:0:
329,192,143589,1,0,0:0:0:0:
182,192,143589,1,0,0:0:0:0:
109,192,143689,1,0,0:0:0:0:
256,192,143689,1,0,0:0:0:0:
182,192,143789,1,0,0:0:0:0:
36,192,143789,1,0,0:0:0:0:
475,192,143789,1,0,0:0:0:0:
329,192,143889,1,0,0:0:0:0:
402,192,143889,1,0,0:0:0:0:
256,192,143939,1,0,0:0:0:0:
109,192,143989,1,0,0:0:0:0:
36,192,143989,1,0,0:0:0:0:
182,192,144039,1,0,0:0:0:0:
256,192,144089,1,0,0:0:0:0:
475,192,144089,1,0,0:0:0:0:
402,192,144139,1,0,0:0:0:0:
329,192,144189,1,0,0:0:0:0:
182,192,144189,1,0,0:0:0:0:
109,192,144189,1,0,0:0:0:0:
36,192,144189,1,0,0:0:0:0:
402,192,144289,1,0,0:0:0:0:
329,192,144339,1,0,0:0:0:0:
182,192,144389,1,0,0:0:0:0:
256,192,144389,128,0,144589:0:0:0:0:
36,192,144589,128,0,144789:0:0:0:0:
109,192,144689,128,0,144889:0:0:0:0:
402,192,144689,1,0,0:0:0:0:
475,192,144689,1,0,0:0:0:0:
329,192,144689,1,0,0:0:0:0:
256,192,144789,128,0,144989:0:0:0:0:
182,192,144789,128,0,144989:0:0:0:0:
329,192,144889,128,0,144989:0:0:0:0:
36,192,144989,1,0,0:0:0:0:
109,192,144989,1,0,0:0:0:0:
402,192,144989,1,0,0:0:0:0:
475,192,144989,1,0,0:0:0:0:
402,192,145189,128,0,145289:0:0:0:0:
109,192,145189,128,0,145289:0:0:0:0:
109,192,145389,128,0,145589:0:0:0:0:
402,192,145389,128,0,145589:0:0:0:0:
109,192,145789,1,0,0:0:0:0:
182,192,145789,1,0,0:0:0:0:
329,192,145789,1,0,0:0:0:0:
402,192,145789,1,0,0:0:0:0:
256,192,145889,1,0,0:0:0:0:
475,192,145889,1,0,0:0:0:0:
182,192,145939,1,0,0:0:0:0:
109,192,145989,1,0,0:0:0:0:
36,192,145989,1,0,0:0:0:0:
182,192,146089,1,0,0:0:0:0:
256,192,146089,1,0,0:0:0:0:
475,192,146189,1,0,0:0:0:0:
329,192,146189,1,0,0:0:0:0:
402,192,146189,1,0,0:0:0:0:
109,192,146289,1,0,0:0:0:0:
182,192,146289,1,0,0:0:0:0:
109,192,146389,1,0,0:0:0:0:
182,192,146389,1,0,0:0:0:0:
475,192,146489,1,0,0:0:0:0:
329,192,146489,1,0,0:0:0:0:
402,192,146489,1,0,0:0:0:0:
256,192,146539,1,0,0:0:0:0:
182,192,146589,1,0,0:0:0:0:
109,192,146589,1,0,0:0:0:0:
402,192,146689,1,0,0:0:0:0:
475,192,146689,1,0,0:0:0:0:
36,192,146789,1,0,0:0:0:0:
182,192,146789,1,0,0:0:0:0:
109,192,146789,1,0,0:0:0:0:
109,192,146889,1,0,0:0:0:0:
36,192,146889,1,0,0:0:0:0:
329,192,146989,1,0,0:0:0:0:
475,192,146989,1,0,0:0:0:0:
402,192,146989,1,0,0:0:0:0:
36,192,147089,1,0,0:0:0:0:
109,192,147089,1,0,0:0:0:0:
256,192,147139,1,0,0:0:0:0:
182,192,147189,1,0,0:0:0:0:
109,192,147239,1,0,0:0:0:0:
329,192,147289,1,0,0:0:0:0:
475,192,147289,1,0,0:0:0:0:
182,192,147339,1,0,0:0:0:0:
109,192,147389,1,0,0:0:0:0:
36,192,147389,1,0,0:0:0:0:
329,192,147389,1,0,0:0:0:0:
475,192,147389,1,0,0:0:0:0:
256,192,147489,1,0,0:0:0:0:
182,192,147539,1,0,0:0:0:0:
329,192,147589,128,0,148089:0:0:0:0:
475,192,147589,128,0,148089:0:0:0:0:
109,192,147589,1,0,0:0:0:0:
36,192,147989,1,0,0:0:0:0:
109,192,148039,1,0,0:0:0:0:
182,192,148089,1,0,0:0:0:0:
256,192,148139,1,0,0:0:0:0:
36,192,148189,1,0,0:0:0:0:
109,192,148189,1,0,0:0:0:0:
402,192,148189,1,0,0:0:0:0:
475,192,148189,1,0,0:0:0:0:
329,192,148189,1,0,0:0:0:0:
182,192,148289,1,0,0:0:0:0:
475,192,148389,1,0,0:0:0:0:
402,192,148489,1,0,0:0:0:0:
329,192,148489,1,0,0:0:0:0:
256,192,148489,1,0,0:0:0:0:
36,192,148589,128,0,148689:0:0:0:0:
109,192,148589,128,0,148689:0:0:0:0:
329,192,148689,1,0,0:0:0:0:
256,192,148789,1,0,0:0:0:0:
109,192,148789,128,0,148889:0:0:0:0:
402,192,148789,128,0,148889:0:0:0:0:
329,192,148889,1,0,0:0:0:0:
182,192,148889,1,0,0:0:0:0:
402,192,148989,128,0,149089:0:0:0:0:
475,192,148989,128,0,149089:0:0:0:0:
182,192,149089,1,0,0:0:0:0:
256,192,149089,1,0,0:0:0:0:
329,192,149089,1,0,0:0:0:0:
36,192,149189,128,0,149289:0:0:0:0:
109,192,149189,128,0,149289:0:0:0:0:
329,192,149289,1,0,0:0:0:0:
256,192,149389,1,0,0:0:0:0:
402,192,149389,128,0,149489:0:0:0:0:
109,192,149389,128,0,149489:0:0:0:0:
329,192,149489,128,0,149589:0:0:0:0:
182,192,149489,128,0,149589:0:0:0:0:
402,192,149589,128,0,149689:0:0:0:0:
475,192,149589,128,0,149689:0:0:0:0:
256,192,149589,1,0,0:0:0:0:
109,192,149689,1,0,0:0:0:0:
36,192,149789,128,0,149889:0:0:0:0:
182,192,149789,128,0,149889:0:0:0:0:
329,192,149789,1,0,0:0:0:0:
329,192,149989,128,0,150089:0:0:0:0:
475,192,149989,128,0,150089:0:0:0:0:
256,192,150089,1,0,0:0:0:0:
402,192,150089,1,0,0:0:0:0:
109,192,150089,1,0,0:0:0:0:
182,192,150189,128,0,150289:0:0:0:0:
36,192,150189,128,0,150289:0:0:0:0:
329,192,150289,1,0,0:0:0:0:
109,192,150389,128,0,150489:0:0:0:0:
256,192,150389,128,0,150489:0:0:0:0:
402,192,150389,1,0,0:0:0:0:
402,192,150489,1,0,0:0:0:0:
475,192,150489,1,0,0:0:0:0:
182,192,150589,128,0,150789:0:0:0:0:
36,192,150589,128,0,150689:0:0:0:0:
329,192,150689,1,0,0:0:0:0:
402,192,150689,1,0,0:0:0:0:
475,192,150689,1,0,0:0:0:0:
256,192,150789,128,0,150889:0:0:0:0:
109,192,150789,128,0,150889:0:0:0:0:
475,192,150889,1,0,0:0:0:0:
36,192,150989,1,0,0:0:0:0:
402,192,150989,128,0,151089:0:0:0:0:
109,192,150989,128,0,151089:0:0:0:0:
182,192,151089,128,0,151189:0:0:0:0:
329,192,151089,128,0,151189:0:0:0:0:
256,192,151189,128,0,151289:0:0:0:0:
475,192,151189,1,0,0:0:0:0:
36,192,151189,1,0,0:0:0:0:
402,192,151255,1,0,0:0:0:0:
329,192,151322,1,0,0:0:0:0:
402,192,151389,128,0,151589:0:0:0:0:
475,192,151389,128,0,151589:0:0:0:0:
256,192,151389,128,0,151589:0:0:0:0:
109,192,151389,128,0,151589:0:0:0:0:
36,192,151389,128,0,151589:0:0:0:0:
329,192,151589,128,0,151689:0:0:0:0:
182,192,151589,128,0,151689:0:0:0:0:
109,192,151689,1,0,0:0:0:0:
402,192,151689,1,0,0:0:0:0:
256,192,151689,1,0,0:0:0:0:
475,192,151789,128,0,151889:0:0:0:0:
402,192,151789,128,0,151889:0:0:0:0:
182,192,151889,1,0,0:0:0:0:
256,192,151989,1,0,0:0:0:0:
109,192,151989,128,0,152089:0:0:0:0:
402,192,151989,128,0,152089:0:0:0:0:
329,192,152089,1,0,0:0:0:0:
182,192,152089,1,0,0:0:0:0:
109,192,152189,128,0,152289:0:0:0:0:
36,192,152189,128,0,152289:0:0:0:0:
329,192,152289,1,0,0:0:0:0:
256,192,152289,1,0,0:0:0:0:
182,192,152289,1,0,0:0:0:0:
475,192,152389,128,0,152489:0:0:0:0:
402,192,152389,128,0,152489:0:0:0:0:
182,192,152489,1,0,0:0:0:0:
475,192,152589,1,0,0:0:0:0:
109,192,152589,128,0,152689:0:0:0:0:
402,192,152589,128,0,152689:0:0:0:0:
182,192,152689,128,0,152789:0:0:0:0:
329,192,152689,128,0,152789:0:0:0:0:
109,192,152789,128,0,152889:0:0:0:0:
36,192,152789,128,0,152889:0:0:0:0:
256,192,152789,1,0,0:0:0:0:
402,192,152889,1,0,0:0:0:0:
475,192,152989,128,0,153089:0:0:0:0:
329,192,152989,128,0,153089:0:0:0:0:
182,192,152989,1,0,0:0:0:0:
36,192,152989,1,0,0:0:0:0:
402,192,153089,1,0,0:0:0:0:
182,192,153189,128,0,153289:0:0:0:0:
36,192,153189,128,0,153289:0:0:0:0:
109,192,153289,1,0,0:0:0:0:
256,192,153289,1,0,0:0:0:0:
329,192,153289,1,0,0:0:0:0:
402,192,153389,128,0,153489:0:0:0:0:
475,192,153389,128,0,153489:0:0:0:0:
329,192,153489,1,0,0:0:0:0:
109,192,153489,1,0,0:0:0:0:
36,192,153489,1,0,0:0:0:0:
182,192,153489,1,0,0:0:0:0:
36,192,153589,1,0,0:0:0:0:
109,192,153589,1,0,0:0:0:0:
256,192,153589,1,0,0:0:0:0:
475,192,153689,1,0,0:0:0:0:
402,192,153689,1,0,0:0:0:0:
256,192,153689,1,0,0:0:0:0:
329,192,153689,1,0,0:0:0:0:
182,192,153789,128,0,154489:0:0:0:0:
402,192,153789,128,0,154489:0:0:0:0:
475,192,153789,128,0,154489:0:0:0:0:
109,192,154189,128,0,154489:0:0:0:0:
182,192,154589,1,0,0:0:0:0:
109,192,154589,1,0,0:0:0:0:
36,192,154589,1,0,0:0:0:0:
402,192,154589,1,0,0:0:0:0:
475,192,154589,1,0,0:0:0:0:
256,192,154589,1,0,0:0:0:0:
329,192,154789,128,0,154889:0:0:0:0:
182,192,154789,128,0,154889:0:0:0:0:
329,192,154989,1,0,0:0:0:0:
182,192,154989,1,0,0:0:0:0:
256,192,154989,1,0,0:0:0:0:
475,192,154989,1,0,0:0:0:0:
36,192,154989,1,0,0:0:0:0:
402,192,155189,128,0,155289:0:0:0:0:
109,192,155189,128,0,155289:0:0:0:0:
182,192,155389,1,0,0:0:0:0:
475,192,155389,1,0,0:0:0:0:
109,192,155389,1,0,0:0:0:0:
36,192,155389,1,0,0:0:0:0:
329,192,155489,1,0,0:0:0:0:
402,192,155489,1,0,0:0:0:0:
256,192,155539,1,0,0:0:0:0:
182,192,155589,1,0,0:0:0:0:
109,192,155589,1,0,0:0:0:0:
329,192,155689,1,0,0:0:0:0:
402,192,155689,1,0,0:0:0:0:
329,192,155789,1,0,0:0:0:0:
402,192,155789,1,0,0:0:0:0:
36,192,155789,1,0,0:0:0:0:
109,192,155789,1,0,0:0:0:0:
182,192,155889,1,0,0:0:0:0:
256,192,155889,1,0,0:0:0:0:
256,192,155989,1,0,0:0:0:0:
182,192,155989,1,0,0:0:0:0:
329,192,156089,1,0,0:0:0:0:
402,192,156089,1,0,0:0:0:0:
36,192,156089,1,0,0:0:0:0:
109,192,156189,1,0,0:0:0:0:
256,192,156289,1,0,0:0:0:0:
475,192,156289,1,0,0:0:0:0:
402,192,156389,1,0,0:0:0:0:
109,192,156389,1,0,0:0:0:0:
36,192,156389,1,0,0:0:0:0:
329,192,156489,1,0,0:0:0:0:
182,192,156489,1,0,0:0:0:0:
402,192,156589,1,0,0:0:0:0:
475,192,156589,1,0,0:0:0:0:
36,192,156589,1,0,0:0:0:0:
329,192,156689,1,0,0:0:0:0:
109,192,156689,1,0,0:0:0:0:
256,192,156739,1,0,0:0:0:0:
182,192,156789,1,0,0:0:0:0:
475,192,156789,1,0,0:0:0:0:
402,192,156839,1,0,0:0:0:0:
329,192,156889,1,0,0:0:0:0:
256,192,156889,1,0,0:0:0:0:
182,192,156939,1,0,0:0:0:0:
109,192,156989,1,0,0:0:0:0:
36,192,156989,1,0,0:0:0:0:
402,192,156989,1,0,0:0:0:0:
475,192,156989,1,0,0:0:0:0:
256,192,157089,1,0,0:0:0:0:
329,192,157139,1,0,0:0:0:0:
402,192,157189,1,0,0:0:0:0:
109,192,157189,128,0,157389:0:0:0:0:
36,192,157389,128,0,157589:0:0:0:0:
475,192,157489,1,0,0:0:0:0:
402,192,157489,1,0,0:0:0:0:
109,192,157489,128,0,157689:0:0:0:0:
329,192,157489,1,0,0:0:0:0:
256,192,157589,128,0,157789:0:0:0:0:
182,192,157589,128,0,157789:0:0:0:0:
329,192,157689,128,0,157789:0:0:0:0:
475,192,157789,1,0,0:0:0:0:
109,192,157789,1,0,0:0:0:0:
36,192,157789,1,0,0:0:0:0:
402,192,157789,1,0,0:0:0:0:
109,192,157989,128,0,158089:0:0:0:0:
182,192,157989,128,0,158089:0:0:0:0:
329,192,157989,128,0,158089:0:0:0:0:
402,192,157989,128,0,158089:0:0:0:0:
329,192,158189,128,0,158389:0:0:0:0:
402,192,158189,128,0,158389:0:0:0:0:
182,192,158189,128,0,158389:0:0:0:0:
109,192,158189,128,0,158389:0:0:0:0:
109,192,158589,1,0,0:0:0:0:
182,192,158589,1,0,0:0:0:0:
329,192,158589,1,0,0:0:0:0:
402,192,158589,1,0,0:0:0:0:
475,192,158689,128,0,158789:0:0:0:0:
402,192,158739,1,0,0:0:0:0:
256,192,158789,128,0,158889:0:0:0:0:
329,192,158789,1,0,0:0:0:0:
36,192,158889,128,0,158989:0:0:0:0:
109,192,158889,1,0,0:0:0:0:
402,192,158989,1,0,0:0:0:0:
329,192,158989,1,0,0:0:0:0:
475,192,158989,1,0,0:0:0:0:
256,192,158989,1,0,0:0:0:0:
109,192,159089,1,0,0:0:0:0:
182,192,159089,1,0,0:0:0:0:
182,192,159189,1,0,0:0:0:0:
109,192,159189,1,0,0:0:0:0:
475,192,159289,1,0,0:0:0:0:
329,192,159289,1,0,0:0:0:0:
402,192,159289,1,0,0:0:0:0:
256,192,159339,1,0,0:0:0:0:
182,192,159389,1,0,0:0:0:0:
109,192,159389,1,0,0:0:0:0:
402,192,159489,1,0,0:0:0:0:
329,192,159489,1,0,0:0:0:0:
36,192,159589,1,0,0:0:0:0:
475,192,159589,1,0,0:0:0:0:
109,192,159589,1,0,0:0:0:0:
109,192,159689,1,0,0:0:0:0:
36,192,159689,1,0,0:0:0:0:
475,192,159789,1,0,0:0:0:0:
182,192,159789,1,0,0:0:0:0:
256,192,159789,1,0,0:0:0:0:
402,192,159889,1,0,0:0:0:0:
329,192,159889,1,0,0:0:0:0:
256,192,159939,1,0,0:0:0:0:
182,192,159989,1,0,0:0:0:0:
109,192,160039,1,0,0:0:0:0:
329,192,160089,1,0,0:0:0:0:
475,192,160089,1,0,0:0:0:0:
182,192,160139,1,0,0:0:0:0:
109,192,160189,1,0,0:0:0:0:
36,192,160189,1,0,0:0:0:0:
329,192,160189,1,0,0:0:0:0:
475,192,160189,1,0,0:0:0:0:
256,192,160289,1,0,0:0:0:0:
182,192,160339,1,0,0:0:0:0:
329,192,160389,128,0,160889:0:0:0:0:
475,192,160389,128,0,160889:0:0:0:0:
109,192,160389,1,0,0:0:0:0:
36,192,160789,1,0,0:0:0:0:
109,192,160839,1,0,0:0:0:0:
182,192,160889,1,0,0:0:0:0:
256,192,160939,1,0,0:0:0:0:
36,192,160989,1,0,0:0:0:0:
109,192,160989,1,0,0:0:0:0:
402,192,160989,1,0,0:0:0:0:
475,192,160989,1,0,0:0:0:0:
329,192,160989,1,0,0:0:0:0:
182,192,161089,1,0,0:0:0:0:
36,192,161189,1,0,0:0:0:0:
109,192,161289,1,0,0:0:0:0:
182,192,161289,1,0,0:0:0:0:
256,192,161289,1,0,0:0:0:0:
329,192,161289,1,0,0:0:0:0:
475,192,161389,128,0,161489:0:0:0:0:
402,192,161389,128,0,161489:0:0:0:0:
182,192,161489,1,0,0:0:0:0:
36,192,161589,1,0,0:0:0:0:
475,192,161589,1,0,0:0:0:0:
256,192,161589,1,0,0:0:0:0:
109,192,161589,128,0,161689:0:0:0:0:
402,192,161589,128,0,161689:0:0:0:0:
329,192,161689,1,0,0:0:0:0:
182,192,161689,1,0,0:0:0:0:
109,192,161789,128,0,161889:0:0:0:0:
36,192,161789,128,0,161889:0:0:0:0:
329,192,161889,1,0,0:0:0:0:
256,192,161889,1,0,0:0:0:0:
182,192,161889,1,0,0:0:0:0:
475,192,161889,1,0,0:0:0:0:
36,192,161989,128,0,162089:0:0:0:0:
402,192,161989,128,0,162089:0:0:0:0:
182,192,162089,1,0,0:0:0:0:
36,192,162189,1,0,0:0:0:0:
256,192,162189,1,0,0:0:0:0:
475,192,162189,1,0,0:0:0:0:
109,192,162189,128,0,162289:0:0:0:0:
402,192,162189,128,0,162289:0:0:0:0:
182,192,162289,128,0,162389:0:0:0:0:
329,192,162289,128,0,162389:0:0:0:0:
475,192,162389,128,0,162489:0:0:0:0:
36,192,162389,128,0,162489:0:0:0:0:
256,192,162389,1,0,0:0:0:0:
109,192,162489,1,0,0:0:0:0:
402,192,162589,128,0,162689:0:0:0:0:
329,192,162589,128,0,162689:0:0:0:0:
256,192,162589,1,0,0:0:0:0:
182,192,162589,1,0,0:0:0:0:
36,192,162589,1,0,0:0:0:0:
182,192,162789,128,0,162889:0:0:0:0:
36,192,162789,128,0,162889:0:0:0:0:
256,192,162889,1,0,0:0:0:0:
109,192,162889,1,0,0:0:0:0:
402,192,162889,1,0,0:0:0:0:
475,192,162889,1,0,0:0:0:0:
329,192,162989,128,0,163089:0:0:0:0:
182,192,162989,128,0,163089:0:0:0:0:
256,192,163089,1,0,0:0:0:0:
36,192,163189,1,0,0:0:0:0:
182,192,163189,1,0,0:0:0:0:
109,192,163189,1,0,0:0:0:0:
475,192,163189,128,0,163289:0:0:0:0:
329,192,163189,128,0,163289:0:0:0:0:
109,192,163289,1,0,0:0:0:0:
36,192,163289,1,0,0:0:0:0:
329,192,163389,128,0,163589:0:0:0:0:
256,192,163389,128,0,163489:0:0:0:0:
182,192,163489,1,0,0:0:0:0:
109,192,163489,1,0,0:0:0:0:
36,192,163489,1,0,0:0:0:0:
475,192,163489,1,0,0:0:0:0:
256,192,163589,128,0,163689:0:0:0:0:
402,192,163589,128,0,163689:0:0:0:0:
256,192,163789,1,0,0:0:0:0:
475,192,163789,1,0,0:0:0:0:
36,192,163789,1,0,0:0:0:0:
109,192,163789,128,0,163889:0:0:0:0:
402,192,163789,128,0,163889:0:0:0:0:
329,192,163889,128,0,163989:0:0:0:0:
182,192,163889,128,0,163989:0:0:0:0:
256,192,163989,128,0,164089:0:0:0:0:
36,192,163989,1,0,0:0:0:0:
475,192,163989,1,0,0:0:0:0:
402,192,164055,1,0,0:0:0:0:
329,192,164122,1,0,0:0:0:0:
475,192,164189,1,0,0:0:0:0:
402,192,164189,1,0,0:0:0:0:
109,192,164189,1,0,0:0:0:0:
36,192,164189,1,0,0:0:0:0:
256,192,164189,1,0,0:0:0:0:
36,192,164289,1,0,0:0:0:0:
109,192,164289,1,0,0:0:0:0:
402,192,164289,1,0,0:0:0:0:
475,192,164289,1,0,0:0:0:0:
256,192,164289,1,0,0:0:0:0:
182,192,164389,128,0,164489:0:0:0:0:
329,192,164389,128,0,164489:0:0:0:0:
402,192,164489,1,0,0:0:0:0:
475,192,164489,1,0,0:0:0:0:
109,192,164489,1,0,0:0:0:0:
36,192,164489,1,0,0:0:0:0:
256,192,164589,128,0,164689:0:0:0:0:
329,192,164689,1,0,0:0:0:0:
182,192,164689,1,0,0:0:0:0:
402,192,164689,1,0,0:0:0:0:
475,192,164689,1,0,0:0:0:0:
109,192,164689,1,0,0:0:0:0:
475,192,164789,1,0,0:0:0:0:
402,192,164789,1,0,0:0:0:0:
182,192,164789,1,0,0:0:0:0:
329,192,164789,1,0,0:0:0:0:
109,192,164789,1,0,0:0:0:0:
329,192,164889,1,0,0:0:0:0:
475,192,164889,1,0,0:0:0:0:
402,192,164889,1,0,0:0:0:0:
182,192,164889,1,0,0:0:0:0:
109,192,164889,1,0,0:0:0:0:
256,192,164989,128,0,165089:0:0:0:0:
329,192,165089,1,0,0:0:0:0:
109,192,165089,1,0,0:0:0:0:
402,192,165089,1,0,0:0:0:0:
36,192,165089,1,0,0:0:0:0:
475,192,165089,1,0,0:0:0:0:
182,192,165189,128,0,165289:0:0:0:0:
329,192,165289,1,0,0:0:0:0:
402,192,165289,1,0,0:0:0:0:
109,192,165289,1,0,0:0:0:0:
36,192,165289,1,0,0:0:0:0:
182,192,165389,1,0,0:0:0:0:
475,192,165389,1,0,0:0:0:0:
256,192,165389,128,0,165489:0:0:0:0:
402,192,165489,1,0,0:0:0:0:
329,192,165489,1,0,0:0:0:0:
109,192,165489,1,0,0:0:0:0:
36,192,165489,1,0,0:0:0:0:
256,192,165589,1,0,0:0:0:0:
182,192,165589,1,0,0:0:0:0:
475,192,165589,128,0,165689:0:0:0:0:
329,192,165689,1,0,0:0:0:0:
402,192,165689,1,0,0:0:0:0:
109,192,165689,1,0,0:0:0:0:
36,192,165689,1,0,0:0:0:0:
256,192,165789,128,0,165889:0:0:0:0:
36,192,165889,1,0,0:0:0:0:
109,192,165889,1,0,0:0:0:0:
329,192,165889,1,0,0:0:0:0:
402,192,165889,1,0,0:0:0:0:
182,192,165889,1,0,0:0:0:0:
329,192,165989,1,0,0:0:0:0:
109,192,165989,1,0,0:0:0:0:
36,192,165989,1,0,0:0:0:0:
402,192,165989,1,0,0:0:0:0:
182,192,165989,1,0,0:0:0:0:
109,192,166089,1,0,0:0:0:0:
36,192,166089,1,0,0:0:0:0:
329,192,166089,1,0,0:0:0:0:
402,192,166089,1,0,0:0:0:0:
182,192,166089,1,0,0:0:0:0:
109,192,166189,1,0,0:0:0:0:
402,192,166189,1,0,0:0:0:0:
329,192,166189,1,0,0:0:0:0:
36,192,166189,1,0,0:0:0:0:
182,192,166189,1,0,0:0:0:0:
256,192,166289,128,0,166389:0:0:0:0:
475,192,166389,1,0,0:0:0:0:
182,192,166389,1,0,0:0:0:0:
36,192,166389,1,0,0:0:0:0:
329,192,166389,1,0,0:0:0:0:
256,192,166489,128,0,166589:0:0:0:0:
475,192,166589,128,0,167289:0:0:0:0:
36,192,166589,128,0,167289:0:0:0:0:
402,192,166589,128,0,166889:0:0:0:0:
109,192,166589,128,0,167289:0:0:0:0:
329,192,166689,128,0,166989:0:0:0:0:
256,192,166789,128,0,167089:0:0:0:0:
182,192,166889,128,0,167189:0:0:0:0:
402,192,166989,128,0,167289:0:0:0:0:
329,192,167089,128,0,167289:0:0:0:0:
256,192,167189,128,0,167289:0:0:0:0:
182,192,167289,1,0,0:0:0:0:
36,192,167389,1,0,0:0:0:0:
182,192,167389,1,0,0:0:0:0:
256,192,167389,1,0,0:0:0:0:
329,192,167389,1,0,0:0:0:0:
475,192,167389,1,0,0:0:0:0:
402,192,167389,1,0,0:0:0:0:
109,192,167389,1,0,0:0:0:0:
256,192,167689,1,0,0:0:0:0:
109,192,167789,1,0,0:0:0:0:
402,192,167889,1,0,0:0:0:0:
109,192,167989,1,0,0:0:0:0:
402,192,168089,1,0,0:0:0:0:
109,192,168189,1,0,0:0:0:0:
402,192,168289,1,0,0:0:0:0:
182,192,168389,1,0,0:0:0:0:
329,192,168489,1,0,0:0:0:0:
182,192,168589,1,0,0:0:0:0:
329,192,168689,1,0,0:0:0:0:
182,192,168789,1,0,0:0:0:0:
329,192,168889,1,0,0:0:0:0:
402,192,168989,1,0,0:0:0:0:
475,192,169089,1,0,0:0:0:0:
329,192,169189,1,0,0:0:0:0:
256,192,169289,1,0,0:0:0:0:
182,192,169389,1,0,0:0:0:0:
109,192,169489,1,0,0:0:0:0:
329,192,169589,1,0,0:0:0:0:
256,192,169689,1,0,0:0:0:0:
182,192,169789,1,0,0:0:0:0:
329,192,169889,1,0,0:0:0:0:
109,192,169989,1,0,0:0:0:0:
182,192,170089,1,0,0:0:0:0:
402,192,170189,1,0,0:0:0:0:
329,192,170289,1,0,0:0:0:0:
36,192,170389,1,0,0:0:0:0:
402,192,170489,1,0,0:0:0:0:
182,192,170589,1,0,0:0:0:0:
109,192,170689,1,0,0:0:0:0:
36,192,170789,1,0,0:0:0:0:
256,192,170889,1,0,0:0:0:0:
109,192,170989,1,0,0:0:0:0:
402,192,171089,1,0,0:0:0:0:
109,192,171189,1,0,0:0:0:0:
402,192,171289,1,0,0:0:0:0:
109,192,171389,1,0,0:0:0:0:
402,192,171489,1,0,0:0:0:0:
182,192,171589,1,0,0:0:0:0:
329,192,171689,1,0,0:0:0:0:
182,192,171789,1,0,0:0:0:0:
329,192,171889,1,0,0:0:0:0:
182,192,171989,1,0,0:0:0:0:
329,192,172089,1,0,0:0:0:0:
256,192,172189,1,0,0:0:0:0:
182,192,172289,1,0,0:0:0:0:
475,192,172389,1,0,0:0:0:0:
36,192,172489,1,0,0:0:0:0:
182,192,172589,1,0,0:0:0:0:
402,192,172689,1,0,0:0:0:0:
109,192,172789,1,0,0:0:0:0:
182,192,172889,1,0,0:0:0:0:
256,192,172989,1,0,0:0:0:0:
109,192,173089,1,0,0:0:0:0:
36,192,173189,1,0,0:0:0:0:
475,192,173289,1,0,0:0:0:0:
329,192,173389,1,0,0:0:0:0:
109,192,173489,1,0,0:0:0:0:
36,192,173589,1,0,0:0:0:0:
182,192,173689,1,0,0:0:0:0:
109,192,173789,1,0,0:0:0:0:
402,192,173889,1,0,0:0:0:0:
182,192,173989,1,0,0:0:0:0:
402,192,174089,1,0,0:0:0:0:
109,192,174189,1,0,0:0:0:0:
329,192,174289,1,0,0:0:0:0:
109,192,174389,1,0,0:0:0:0:
329,192,174489,1,0,0:0:0:0:
109,192,174589,1,0,0:0:0:0:
329,192,174689,1,0,0:0:0:0:
182,192,174789,1,0,0:0:0:0:
402,192,174889,1,0,0:0:0:0:
182,192,174989,1,0,0:0:0:0:
402,192,175089,1,0,0:0:0:0:
182,192,175189,1,0,0:0:0:0:
402,192,175289,1,0,0:0:0:0:
256,192,175389,1,0,0:0:0:0:
182,192,175489,1,0,0:0:0:0:
329,192,175589,1,0,0:0:0:0:
402,192,175689,1,0,0:0:0:0:
475,192,175789,1,0,0:0:0:0:
256,192,175889,1,0,0:0:0:0:
329,192,175989,1,0,0:0:0:0:
402,192,176089,1,0,0:0:0:0:
475,192,176189,1,0,0:0:0:0:
329,192,176289,1,0,0:0:0:0:
182,192,176389,1,0,0:0:0:0:
36,192,176489,1,0,0:0:0:0:
182,192,176589,1,0,0:0:0:0:
329,192,176689,1,0,0:0:0:0:
475,192,176789,1,0,0:0:0:0:
329,192,176889,1,0,0:0:0:0:
109,192,176989,1,0,0:0:0:0:
402,192,177089,1,0,0:0:0:0:
256,192,177189,1,0,0:0:0:0:
402,192,177289,1,0,0:0:0:0:
109,192,177389,1,0,0:0:0:0:
329,192,177489,1,0,0:0:0:0:
109,192,177589,1,0,0:0:0:0:
329,192,177689,1,0,0:0:0:0:
109,192,177789,1,0,0:0:0:0:
329,192,177889,1,0,0:0:0:0:
182,192,177989,1,0,0:0:0:0:
402,192,178089,1,0,0:0:0:0:
182,192,178189,1,0,0:0:0:0:
402,192,178289,1,0,0:0:0:0:
182,192,178389,1,0,0:0:0:0:
402,192,178489,1,0,0:0:0:0:
256,192,178589,1,0,0:0:0:0:
182,192,178689,1,0,0:0:0:0:
329,192,178789,1,0,0:0:0:0:
109,192,178889,1,0,0:0:0:0:
36,192,178989,1,0,0:0:0:0:
329,192,179089,1,0,0:0:0:0:
182,192,179189,1,0,0:0:0:0:
36,192,179289,1,0,0:0:0:0:
256,192,179389,1,0,0:0:0:0:
182,192,179489,1,0,0:0:0:0:
402,192,179589,1,0,0:0:0:0:
329,192,179689,1,0,0:0:0:0:
256,192,179789,1,0,0:0:0:0:
182,192,179889,1,0,0:0:0:0:
475,192,179989,1,0,0:0:0:0:
329,192,180089,1,0,0:0:0:0:
36,192,180189,1,0,0:0:0:0:
182,192,180289,1,0,0:0:0:0:
256,192,180389,1,0,0:0:0:0:
109,192,180489,1,0,0:0:0:0:
329,192,180589,1,0,0:0:0:0:
475,192,180689,1,0,0:0:0:0:
329,192,180789,1,0,0:0:0:0:
475,192,180889,1,0,0:0:0:0:
329,192,180989,1,0,0:0:0:0:
475,192,181089,1,0,0:0:0:0:
256,192,181189,1,0,0:0:0:0:
402,192,181289,1,0,0:0:0:0:
256,192,181389,1,0,0:0:0:0:
402,192,181489,1,0,0:0:0:0:
256,192,181589,1,0,0:0:0:0:
402,192,181689,1,0,0:0:0:0:
329,192,181789,1,0,0:0:0:0:
256,192,181889,1,0,0:0:0:0:
182,192,181989,1,0,0:0:0:0:
109,192,182089,1,0,0:0:0:0:
475,192,182189,1,0,0:0:0:0:
256,192,182289,1,0,0:0:0:0:
329,192,182389,1,0,0:0:0:0:
182,192,182489,1,0,0:0:0:0:
109,192,182589,1,0,0:0:0:0:
36,192,182689,1,0,0:0:0:0:
475,192,182789,1,0,0:0:0:0:
402,192,182889,1,0,0:0:0:0:
329,192,182989,1,0,0:0:0:0:
182,192,183089,1,0,0:0:0:0:
256,192,183189,1,0,0:0:0:0:
109,192,183289,1,0,0:0:0:0:
402,192,183389,1,0,0:0:0:0:
475,192,183489,1,0,0:0:0:0:
402,192,183589,1,0,0:0:0:0:
329,192,183689,1,0,0:0:0:0:
182,192,183789,1,0,0:0:0:0:
36,192,183889,1,0,0:0:0:0:
182,192,183989,1,0,0:0:0:0:
36,192,184089,1,0,0:0:0:0:
182,192,184189,1,0,0:0:0:0:
36,192,184289,1,0,0:0:0:0:
256,192,184389,1,0,0:0:0:0:
109,192,184489,1,0,0:0:0:0:
256,192,184589,1,0,0:0:0:0:
109,192,184689,1,0,0:0:0:0:
256,192,184789,1,0,0:0:0:0:
109,192,184889,1,0,0:0:0:0:
329,192,184989,1,0,0:0:0:0:
402,192,185089,1,0,0:0:0:0:
475,192,185189,1,0,0:0:0:0:
182,192,185289,1,0,0:0:0:0:
256,192,185389,1,0,0:0:0:0:
402,192,185489,1,0,0:0:0:0:
329,192,185589,1,0,0:0:0:0:
256,192,185689,1,0,0:0:0:0:
182,192,185789,1,0,0:0:0:0:
329,192,185889,1,0,0:0:0:0:
402,192,185989,1,0,0:0:0:0:
109,192,186089,1,0,0:0:0:0:
329,192,186189,1,0,0:0:0:0:
182,192,186289,1,0,0:0:0:0:
402,192,186389,1,0,0:0:0:0:
256,192,186489,1,0,0:0:0:0:
475,192,186589,1,0,0:0:0:0:
329,192,186689,1,0,0:0:0:0:
256,192,186789,1,0,0:0:0:0:
182,192,186889,1,0,0:0:0:0:
402,192,186989,1,0,0:0:0:0:
109,192,187089,1,0,0:0:0:0:
402,192,187189,1,0,0:0:0:0:
109,192,187289,1,0,0:0:0:0:
402,192,187389,1,0,0:0:0:0:
109,192,187489,1,0,0:0:0:0:
329,192,187589,1,0,0:0:0:0:
36,192,187689,1,0,0:0:0:0:
329,192,187789,1,0,0:0:0:0:
36,192,187889,1,0,0:0:0:0:
329,192,187989,1,0,0:0:0:0:
36,192,188089,1,0,0:0:0:0:
109,192,188189,1,0,0:0:0:0:
256,192,188289,1,0,0:0:0:0:
182,192,188389,1,0,0:0:0:0:
329,192,188489,1,0,0:0:0:0:
402,192,188589,1,0,0:0:0:0:
475,192,188689,1,0,0:0:0:0:
256,192,188789,1,0,0:0:0:0:
182,192,188889,1,0,0:0:0:0:
329,192,188989,1,0,0:0:0:0:
109,192,189089,1,0,0:0:0:0:
402,192,189189,1,0,0:0:0:0:
182,192,189289,1,0,0:0:0:0:
475,192,189389,1,0,0:0:0:0:
36,192,189489,1,0,0:0:0:0:
256,192,189589,1,0,0:0:0:0:
109,192,189689,1,0,0:0:0:0:
182,192,189789,1,0,0:0:0:0:
256,192,189889,1,0,0:0:0:0:
329,192,189989,1,0,0:0:0:0:
402,192,190089,1,0,0:0:0:0:
475,192,190189,1,0,0:0:0:0:
36,192,190289,1,0,0:0:0:0:
475,192,190389,1,0,0:0:0:0:
36,192,190489,1,0,0:0:0:0:
475,192,190589,1,0,0:0:0:0:
36,192,190689,1,0,0:0:0:0:
402,192,190789,1,0,0:0:0:0:
109,192,190889,1,0,0:0:0:0:
402,192,190989,1,0,0:0:0:0:
109,192,191089,1,0,0:0:0:0:
402,192,191189,1,0,0:0:0:0:
109,192,191289,1,0,0:0:0:0:
182,192,191389,1,0,0:0:0:0:
329,192,191489,1,0,0:0:0:0:
475,192,191589,1,0,0:0:0:0:
36,192,191689,1,0,0:0:0:0:
402,192,191789,1,0,0:0:0:0:
182,192,191889,1,0,0:0:0:0:
402,192,191989,1,0,0:0:0:0:
182,192,192089,1,0,0:0:0:0:
402,192,192189,1,0,0:0:0:0:
182,192,192289,1,0,0:0:0:0:
329,192,192389,1,0,0:0:0:0:
109,192,192489,1,0,0:0:0:0:
329,192,192589,1,0,0:0:0:0:
109,192,192689,1,0,0:0:0:0:
329,192,192789,1,0,0:0:0:0:
109,192,192889,1,0,0:0:0:0:
402,192,192989,1,0,0:0:0:0:
182,192,193089,1,0,0:0:0:0:
256,192,193189,1,0,0:0:0:0:
329,192,193289,1,0,0:0:0:0:
109,192,193389,1,0,0:0:0:0:
402,192,193489,1,0,0:0:0:0:
109,192,193589,1,0,0:0:0:0:
402,192,193689,1,0,0:0:0:0:
109,192,193789,1,0,0:0:0:0:
402,192,193889,1,0,0:0:0:0:
36,192,193989,1,0,0:0:0:0:
329,192,194089,1,0,0:0:0:0:
36,192,194189,1,0,0:0:0:0:
109,192,194289,1,0,0:0:0:0:
182,192,194389,1,0,0:0:0:0:
256,192,194489,1,0,0:0:0:0:
329,192,194589,1,0,0:0:0:0:
256,192,194689,1,0,0:0:0:0:
182,192,194789,1,0,0:0:0:0:
109,192,194889,1,0,0:0:0:0:
329,192,194989,1,0,0:0:0:0:
402,192,195089,1,0,0:0:0:0:
475,192,195189,1,0,0:0:0:0:
182,192,195289,1,0,0:0:0:0:
402,192,195389,1,0,0:0:0:0:
256,192,195489,1,0,0:0:0:0:
475,192,195589,1,0,0:0:0:0:
182,192,195689,1,0,0:0:0:0:
402,192,195789,1,0,0:0:0:0:
256,192,195889,1,0,0:0:0:0:
36,192,195989,1,0,0:0:0:0:
329,192,196089,1,0,0:0:0:0:
182,192,196189,1,0,0:0:0:0:
402,192,196289,1,0,0:0:0:0:
109,192,196389,1,0,0:0:0:0:
256,192,196489,1,0,0:0:0:0:
329,192,196589,1,0,0:0:0:0:
475,192,196689,1,0,0:0:0:0:
402,192,196789,1,0,0:0:0:0:
182,192,196889,1,0,0:0:0:0:
402,192,196989,1,0,0:0:0:0:
182,192,197089,1,0,0:0:0:0:
402,192,197189,1,0,0:0:0:0:
182,192,197289,1,0,0:0:0:0:
329,192,197389,1,0,0:0:0:0:
109,192,197489,1,0,0:0:0:0:
329,192,197589,1,0,0:0:0:0:
109,192,197689,1,0,0:0:0:0:
182,192,197789,1,0,0:0:0:0:
256,192,197889,1,0,0:0:0:0:
329,192,197989,1,0,0:0:0:0:
402,192,198089,1,0,0:0:0:0:
475,192,198189,1,0,0:0:0:0:
256,192,198289,1,0,0:0:0:0:
182,192,198389,1,0,0:0:0:0:
329,192,198489,1,0,0:0:0:0:
402,192,198589,1,0,0:0:0:0:
109,192,198689,1,0,0:0:0:0:
182,192,198789,1,0,0:0:0:0:
402,192,198889,1,0,0:0:0:0:
329,192,198989,1,0,0:0:0:0:
256,192,199089,1,0,0:0:0:0:
182,192,199189,1,0,0:0:0:0:
329,192,199289,1,0,0:0:0:0:
402,192,199389,128,0,199589:0:0:0:0:
109,192,199489,1,0,0:0:0:0:
36,192,199589,128,0,200089:0:0:0:0:
256,192,199689,1,0,0:0:0:0:
329,192,199789,1,0,0:0:0:0:
182,192,199889,1,0,0:0:0:0:
329,192,199989,1,0,0:0:0:0:
182,192,200089,1,0,0:0:0:0:
329,192,200189,1,0,0:0:0:0:
182,192,200289,1,0,0:0:0:0:
402,192,200389,1,0,0:0:0:0:
109,192,200489,1,0,0:0:0:0:
402,192,200589,1,0,0:0:0:0:
109,192,200689,1,0,0:0:0:0:
402,192,200789,1,0,0:0:0:0:
109,192,200889,1,0,0:0:0:0:
256,192,200989,1,0,0:0:0:0:
182,192,201089,1,0,0:0:0:0:
109,192,201189,1,0,0:0:0:0:
256,192,201289,1,0,0:0:0:0:
329,192,201389,1,0,0:0:0:0:
402,192,201489,1,0,0:0:0:0:
182,192,201589,1,0,0:0:0:0:
256,192,201689,1,0,0:0:0:0:
475,192,201789,1,0,0:0:0:0:
329,192,201889,1,0,0:0:0:0:
402,192,201989,1,0,0:0:0:0:
109,192,202089,1,0,0:0:0:0:
182,192,202189,1,0,0:0:0:0:
256,192,202289,1,0,0:0:0:0:
329,192,202389,1,0,0:0:0:0:
182,192,202439,1,0,0:0:0:0:
36,192,202489,1,0,0:0:0:0:
256,192,202539,1,0,0:0:0:0:
109,192,202589,1,0,0:0:0:0:
402,192,202639,1,0,0:0:0:0:
182,192,202689,1,0,0:0:0:0:
329,192,202739,1,0,0:0:0:0:
109,192,202822,1,0,0:0:0:0:
329,192,202889,1,0,0:0:0:0:
36,192,202989,128,0,204089:0:0:0:0:
109,192,203089,128,0,203989:0:0:0:0:
182,192,203189,128,0,203889:0:0:0:0:
256,192,203389,128,0,203789:0:0:0:0:
329,192,203589,128,0,203689:0:0:0:0:
402,192,203689,128,0,203889:0:0:0:0:
475,192,203789,128,0,203889:0:0:0:0:
329,192,203889,128,0,203989:0:0:0:0:
256,192,203889,128,0,203989:0:0:0:0:
182,192,203989,128,0,204189:0:0:0:0:
109,192,204089,128,0,204189:0:0:0:0:
475,192,204189,128,0,204389:0:0:0:0:
329,192,204189,128,0,204289:0:0:0:0:
36,192,204189,1,0,0:0:0:0:
402,192,204189,128,0,204289:0:0:0:0:
182,192,204389,128,0,204489:0:0:0:0:
36,192,204389,128,0,204589:0:0:0:0:
329,192,204489,128,0,204589:0:0:0:0:
256,192,204589,128,0,204789:0:0:0:0:
182,192,204789,1,0,0:0:0:0:
329,192,204855,1,0,0:0:0:0:
182,192,204922,1,0,0:0:0:0:
329,192,204989,1,0,0:0:0:0:
402,192,204989,1,0,0:0:0:0:
36,192,205122,1,0,0:0:0:0:
256,192,205122,1,0,0:0:0:0:
475,192,205122,128,0,205789:0:0:0:0:
256,192,205255,1,0,0:0:0:0:
36,192,205255,1,0,0:0:0:0:
109,192,205389,1,0,0:0:0:0:
329,192,205389,1,0,0:0:0:0:
329,192,205522,1,0,0:0:0:0:
109,192,205522,1,0,0:0:0:0:
402,192,205655,1,0,0:0:0:0:
182,192,205655,1,0,0:0:0:0:
109,192,205789,1,0,0:0:0:0:
256,192,205789,1,0,0:0:0:0:
329,192,205789,1,0,0:0:0:0:
36,192,205789,128,0,205989:0:0:0:0:
182,192,205889,1,0,0:0:0:0:
475,192,205989,128,0,206089:0:0:0:0:
109,192,206089,128,0,206289:0:0:0:0:
256,192,206189,1,0,0:0:0:0:
182,192,206289,1,0,0:0:0:0:
475,192,206389,128,0,206489:0:0:0:0:
36,192,206389,128,0,206589:0:0:0:0:
109,192,206489,1,0,0:0:0:0:
329,192,206589,1,0,0:0:0:0:
182,192,206689,128,0,206889:0:0:0:0:
475,192,206789,128,0,206889:0:0:0:0:
109,192,206889,1,0,0:0:0:0:
256,192,206989,128,0,207189:0:0:0:0:
36,192,207089,1,0,0:0:0:0:
329,192,207189,128,0,207389:0:0:0:0:
475,192,207189,128,0,207289:0:0:0:0:
109,192,207289,1,0,0:0:0:0:
182,192,207389,128,0,207589:0:0:0:0:
329,192,207489,1,0,0:0:0:0:
475,192,207589,128,0,207689:0:0:0:0:
109,192,207689,128,0,207889:0:0:0:0:
329,192,207789,1,0,0:0:0:0:
402,192,207889,1,0,0:0:0:0:
475,192,207989,128,0,208089:0:0:0:0:
36,192,207989,128,0,208189:0:0:0:0:
182,192,208089,1,0,0:0:0:0:
256,192,208189,1,0,0:0:0:0:
329,192,208289,128,0,208489:0:0:0:0:
475,192,208389,128,0,208489:0:0:0:0:
182,192,208489,1,0,0:0:0:0:
256,192,208589,128,0,208689:0:0:0:0:
329,192,208689,1,0,0:0:0:0:
402,192,208689,1,0,0:0:0:0:
109,192,208689,1,0,0:0:0:0:
36,192,208689,1,0,0:0:0:0:
182,192,208689,1,0,0:0:0:0:
475,192,208789,128,0,208889:0:0:0:0:
256,192,208889,1,0,0:0:0:0:
182,192,208989,1,0,0:0:0:0:
329,192,208989,1,0,0:0:0:0:
475,192,208989,1,0,0:0:0:0:
36,192,208989,1,0,0:0:0:0:
109,192,208989,1,0,0:0:0:0:
475,192,209189,128,0,209289:0:0:0:0:
329,192,209189,1,0,0:0:0:0:
182,192,209189,1,0,0:0:0:0:
36,192,209189,1,0,0:0:0:0:
109,192,209189,1,0,0:0:0:0:
256,192,209289,128,0,209489:0:0:0:0:
329,192,209389,1,0,0:0:0:0:
182,192,209489,1,0,0:0:0:0:
36,192,209589,128,0,209789:0:0:0:0:
475,192,209589,128,0,209689:0:0:0:0:
109,192,209689,1,0,0:0:0:0:
402,192,209789,1,0,0:0:0:0:
329,192,209889,128,0,210089:0:0:0:0:
475,192,209989,128,0,210089:0:0:0:0:
182,192,210089,1,0,0:0:0:0:
256,192,210189,128,0,210389:0:0:0:0:
329,192,210289,1,0,0:0:0:0:
475,192,210389,128,0,210489:0:0:0:0:
36,192,210389,128,0,210589:0:0:0:0:
329,192,210489,1,0,0:0:0:0:
109,192,210589,128,0,210689:0:0:0:0:
256,192,210689,1,0,0:0:0:0:
329,192,210689,1,0,0:0:0:0:
402,192,210689,1,0,0:0:0:0:
182,192,210689,1,0,0:0:0:0:
36,192,210689,1,0,0:0:0:0:
475,192,210789,128,0,210889:0:0:0:0:
256,192,210889,128,0,210989:0:0:0:0:
329,192,210989,1,0,0:0:0:0:
475,192,210989,1,0,0:0:0:0:
402,192,210989,1,0,0:0:0:0:
109,192,210989,1,0,0:0:0:0:
36,192,210989,1,0,0:0:0:0:
182,192,211089,1,0,0:0:0:0:
475,192,211189,128,0,211289:0:0:0:0:
329,192,211289,1,0,0:0:0:0:
402,192,211289,1,0,0:0:0:0:
256,192,211289,1,0,0:0:0:0:
109,192,211289,1,0,0:0:0:0:
36,192,211289,1,0,0:0:0:0:
182,192,211389,1,0,0:0:0:0:
256,192,211489,1,0,0:0:0:0:
475,192,211589,128,0,211689:0:0:0:0:
329,192,211589,1,0,0:0:0:0:
402,192,211589,1,0,0:0:0:0:
182,192,211589,1,0,0:0:0:0:
36,192,211589,1,0,0:0:0:0:
256,192,211689,1,0,0:0:0:0:
36,192,211789,1,0,0:0:0:0:
109,192,211822,1,0,0:0:0:0:
182,192,211855,1,0,0:0:0:0:
402,192,211889,1,0,0:0:0:0:
329,192,211922,1,0,0:0:0:0:
256,192,211955,1,0,0:0:0:0:
36,192,211989,1,0,0:0:0:0:
109,192,211989,1,0,0:0:0:0:
182,192,212039,1,0,0:0:0:0:
475,192,212039,1,0,0:0:0:0:
402,192,212089,1,0,0:0:0:0:
256,192,212089,1,0,0:0:0:0:
329,192,212139,1,0,0:0:0:0:
109,192,212189,1,0,0:0:0:0:
402,192,212189,1,0,0:0:0:0:
475,192,212189,1,0,0:0:0:0:
182,192,212189,1,0,0:0:0:0:
36,192,212189,128,0,212389:0:0:0:0:
329,192,212289,1,0,0:0:0:0:
475,192,212389,128,0,212489:0:0:0:0:
182,192,212489,128,0,212689:0:0:0:0:
256,192,212589,1,0,0:0:0:0:
109,192,212689,1,0,0:0:0:0:
475,192,212789,128,0,212889:0:0:0:0:
36,192,212789,128,0,212989:0:0:0:0:
182,192,212889,1,0,0:0:0:0:
256,192,212989,1,0,0:0:0:0:
109,192,213089,128,0,213289:0:0:0:0:
475,192,213189,128,0,213289:0:0:0:0:
256,192,213289,1,0,0:0:0:0:
36,192,213389,128,0,213589:0:0:0:0:
182,192,213489,1,0,0:0:0:0:
475,192,213589,128,0,213689:0:0:0:0:
109,192,213589,128,0,213789:0:0:0:0:
256,192,213689,1,0,0:0:0:0:
329,192,213789,128,0,213989:0:0:0:0:
182,192,213889,1,0,0:0:0:0:
475,192,213989,128,0,214089:0:0:0:0:
182,192,214089,128,0,214289:0:0:0:0:
329,192,214189,1,0,0:0:0:0:
256,192,214289,1,0,0:0:0:0:
475,192,214389,128,0,214489:0:0:0:0:
36,192,214389,128,0,214589:0:0:0:0:
182,192,214489,1,0,0:0:0:0:
109,192,214589,1,0,0:0:0:0:
256,192,214689,128,0,214889:0:0:0:0:
475,192,214789,128,0,214889:0:0:0:0:
329,192,214889,1,0,0:0:0:0:
182,192,214989,128,0,215089:0:0:0:0:
256,192,215089,1,0,0:0:0:0:
329,192,215089,1,0,0:0:0:0:
402,192,215089,1,0,0:0:0:0:
109,192,215089,1,0,0:0:0:0:
36,192,215089,1,0,0:0:0:0:
475,192,215189,128,0,215289:0:0:0:0:
329,192,215289,128,0,215389:0:0:0:0:
256,192,215389,1,0,0:0:0:0:
475,192,215389,1,0,0:0:0:0:
109,192,215389,1,0,0:0:0:0:
36,192,215389,1,0,0:0:0:0:
182,192,215389,1,0,0:0:0:0:
329,192,215489,1,0,0:0:0:0:
475,192,215589,128,0,215689:0:0:0:0:
256,192,215589,1,0,0:0:0:0:
182,192,215589,1,0,0:0:0:0:
109,192,215589,1,0,0:0:0:0:
402,192,215589,1,0,0:0:0:0:
36,192,215689,128,0,215789:0:0:0:0:
329,192,215789,1,0,0:0:0:0:
256,192,215889,1,0,0:0:0:0:
182,192,215889,1,0,0:0:0:0:
109,192,215889,1,0,0:0:0:0:
36,192,215889,1,0,0:0:0:0:
402,192,215889,1,0,0:0:0:0:
475,192,215989,128,0,216089:0:0:0:0:
329,192,216089,1,0,0:0:0:0:
402,192,216089,1,0,0:0:0:0:
109,192,216089,1,0,0:0:0:0:
36,192,216089,1,0,0:0:0:0:
182,192,216089,128,0,216289:0:0:0:0:
256,192,216189,1,0,0:0:0:0:
329,192,216289,128,0,216489:0:0:0:0:
475,192,216389,128,0,216489:0:0:0:0:
256,192,216489,1,0,0:0:0:0:
109,192,216589,128,0,216789:0:0:0:0:
402,192,216689,1,0,0:0:0:0:
475,192,216789,128,0,216889:0:0:0:0:
256,192,216889,1,0,0:0:0:0:
182,192,216989,128,0,217189:0:0:0:0:
109,192,217089,1,0,0:0:0:0:
475,192,217189,128,0,217289:0:0:0:0:
256,192,217289,128,0,217489:0:0:0:0:
329,192,217489,1,0,0:0:0:0:
475,192,217589,128,0,217689:0:0:0:0:
36,192,217589,128,0,217789:0:0:0:0:
182,192,217689,1,0,0:0:0:0:
256,192,217789,128,0,218189:0:0:0:0:
402,192,217789,1,0,0:0:0:0:
182,192,217889,1,0,0:0:0:0:
109,192,217889,1,0,0:0:0:0:
36,192,217939,1,0,0:0:0:0:
475,192,217989,1,0,0:0:0:0:
402,192,217989,1,0,0:0:0:0:
329,192,218039,1,0,0:0:0:0:
182,192,218089,1,0,0:0:0:0:
109,192,218089,1,0,0:0:0:0:
36,192,218139,1,0,0:0:0:0:
329,192,218189,1,0,0:0:0:0:
402,192,218189,1,0,0:0:0:0:
329,192,218289,1,0,0:0:0:0:
402,192,218289,1,0,0:0:0:0:
182,192,218389,1,0,0:0:0:0:
109,192,218389,1,0,0:0:0:0:
182,192,218489,1,0,0:0:0:0:
109,192,218489,1,0,0:0:0:0:
109,192,218589,1,0,0:0:0:0:
182,192,218589,1,0,0:0:0:0:
36,192,218589,1,0,0:0:0:0:
402,192,218589,1,0,0:0:0:0:
475,192,218589,1,0,0:0:0:0:
329,192,218689,1,0,0:0:0:0:
475,192,218789,1,0,0:0:0:0:
182,192,218789,1,0,0:0:0:0:
109,192,218789,1,0,0:0:0:0:
36,192,218789,1,0,0:0:0:0:
402,192,218789,1,0,0:0:0:0:
329,192,218889,1,0,0:0:0:0:
256,192,218889,1,0,0:0:0:0:
182,192,218989,1,0,0:0:0:0:
109,192,219089,1,0,0:0:0:0:
36,192,219089,1,0,0:0:0:0:
402,192,219089,1,0,0:0:0:0:
475,192,219089,1,0,0:0:0:0:
329,192,219089,1,0,0:0:0:0:
256,192,219189,1,0,0:0:0:0:
182,192,219189,1,0,0:0:0:0:
402,192,219289,1,0,0:0:0:0:
475,192,219389,1,0,0:0:0:0:
182,192,219389,1,0,0:0:0:0:
256,192,219389,1,0,0:0:0:0:
36,192,219389,1,0,0:0:0:0:
109,192,219389,1,0,0:0:0:0:
329,192,219489,1,0,0:0:0:0:
402,192,219489,1,0,0:0:0:0:
256,192,219589,1,0,0:0:0:0:
182,192,219689,1,0,0:0:0:0:
109,192,219689,1,0,0:0:0:0:
402,192,219689,1,0,0:0:0:0:
475,192,219689,1,0,0:0:0:0:
329,192,219689,1,0,0:0:0:0:
256,192,219789,1,0,0:0:0:0:
36,192,219789,1,0,0:0:0:0:
402,192,219889,1,0,0:0:0:0:
109,192,219989,1,0,0:0:0:0:
36,192,219989,1,0,0:0:0:0:
182,192,220039,1,0,0:0:0:0:
256,192,220039,1,0,0:0:0:0:
329,192,220089,1,0,0:0:0:0:
402,192,220089,1,0,0:0:0:0:
475,192,220139,1,0,0:0:0:0:
36,192,220139,1,0,0:0:0:0:
109,192,220189,1,0,0:0:0:0:
182,192,220189,1,0,0:0:0:0:
256,192,220189,1,0,0:0:0:0:
329,192,220189,1,0,0:0:0:0:
402,192,220289,1,0,0:0:0:0:
475,192,220389,1,0,0:0:0:0:
182,192,220389,1,0,0:0:0:0:
109,192,220389,1,0,0:0:0:0:
36,192,220389,1,0,0:0:0:0:
256,192,220389,1,0,0:0:0:0:
329,192,220489,1,0,0:0:0:0:
402,192,220489,1,0,0:0:0:0:
182,192,220589,1,0,0:0:0:0:
109,192,220689,1,0,0:0:0:0:
36,192,220689,1,0,0:0:0:0:
402,192,220689,1,0,0:0:0:0:
475,192,220689,1,0,0:0:0:0:
256,192,220689,1,0,0:0:0:0:
329,192,220789,1,0,0:0:0:0:
182,192,220789,1,0,0:0:0:0:
402,192,220889,1,0,0:0:0:0:
475,192,220989,1,0,0:0:0:0:
256,192,220989,1,0,0:0:0:0:
182,192,220989,1,0,0:0:0:0:
36,192,220989,1,0,0:0:0:0:
109,192,220989,1,0,0:0:0:0:
329,192,221089,1,0,0:0:0:0:
402,192,221089,1,0,0:0:0:0:
256,192,221189,1,0,0:0:0:0:
182,192,221289,1,0,0:0:0:0:
109,192,221289,1,0,0:0:0:0:
402,192,221289,1,0,0:0:0:0:
475,192,221289,1,0,0:0:0:0:
36,192,221289,1,0,0:0:0:0:
329,192,221389,128,0,221689:0:0:0:0:
256,192,221389,128,0,221689:0:0:0:0:
36,192,221489,128,0,221689:0:0:0:0:
182,192,221489,128,0,221689:0:0:0:0:
475,192,221489,128,0,221689:0:0:0:0:
36,192,221789,1,0,0:0:0:0:
182,192,221789,1,0,0:0:0:0:
256,192,221789,1,0,0:0:0:0:
329,192,221789,1,0,0:0:0:0:
475,192,221789,1,0,0:0:0:0:
36,192,221989,1,0,0:0:0:0:
329,192,221989,1,0,0:0:0:0:
475,192,221989,1,0,0:0:0:0:
402,192,221989,1,0,0:0:0:0:
256,192,221989,1,0,0:0:0:0:
109,192,222089,1,0,0:0:0:0:
182,192,222089,1,0,0:0:0:0:
329,192,222189,1,0,0:0:0:0:
402,192,222289,1,0,0:0:0:0:
475,192,222289,1,0,0:0:0:0:
182,192,222289,1,0,0:0:0:0:
109,192,222289,1,0,0:0:0:0:
256,192,222289,1,0,0:0:0:0:
329,192,222389,1,0,0:0:0:0:
36,192,222389,1,0,0:0:0:0:
182,192,222489,1,0,0:0:0:0:
109,192,222589,1,0,0:0:0:0:
36,192,222589,1,0,0:0:0:0:
329,192,222589,1,0,0:0:0:0:
402,192,222589,1,0,0:0:0:0:
256,192,222589,1,0,0:0:0:0:
182,192,222689,1,0,0:0:0:0:
475,192,222689,1,0,0:0:0:0:
329,192,222789,1,0,0:0:0:0:
402,192,222889,1,0,0:0:0:0:
475,192,222889,1,0,0:0:0:0:
256,192,222889,1,0,0:0:0:0:
36,192,222889,1,0,0:0:0:0:
182,192,222889,1,0,0:0:0:0:
109,192,222989,1,0,0:0:0:0:
329,192,222989,1,0,0:0:0:0:
256,192,223089,1,0,0:0:0:0:
402,192,223189,1,0,0:0:0:0:
475,192,223189,1,0,0:0:0:0:
329,192,223239,1,0,0:0:0:0:
256,192,223239,1,0,0:0:0:0:
182,192,223289,1,0,0:0:0:0:
109,192,223289,1,0,0:0:0:0:
36,192,223339,1,0,0:0:0:0:
475,192,223339,1,0,0:0:0:0:
402,192,223389,1,0,0:0:0:0:
329,192,223389,1,0,0:0:0:0:
256,192,223389,1,0,0:0:0:0:
182,192,223389,1,0,0:0:0:0:
256,192,223589,1,0,0:0:0:0:
329,192,223589,1,0,0:0:0:0:
475,192,223589,1,0,0:0:0:0:
36,192,223589,1,0,0:0:0:0:
182,192,223589,1,0,0:0:0:0:
109,192,223689,1,0,0:0:0:0:
402,192,223689,1,0,0:0:0:0:
256,192,223789,1,0,0:0:0:0:
329,192,223889,1,0,0:0:0:0:
402,192,223889,1,0,0:0:0:0:
182,192,223889,1,0,0:0:0:0:
109,192,223889,1,0,0:0:0:0:
36,192,223889,1,0,0:0:0:0:
256,192,223989,1,0,0:0:0:0:
475,192,223989,1,0,0:0:0:0:
329,192,224089,1,0,0:0:0:0:
402,192,224189,1,0,0:0:0:0:
475,192,224189,1,0,0:0:0:0:
182,192,224189,1,0,0:0:0:0:
109,192,224189,1,0,0:0:0:0:
256,192,224189,1,0,0:0:0:0:
36,192,224289,1,0,0:0:0:0:
329,192,224289,1,0,0:0:0:0:
256,192,224389,128,0,224589:0:0:0:0:
182,192,224389,128,0,224589:0:0:0:0:
109,192,224489,128,0,224589:0:0:0:0:
329,192,224589,128,0,224639:0:0:0:0:
475,192,224589,128,0,224639:0:0:0:0:
402,192,224589,128,0,224639:0:0:0:0:
402,192,224739,128,0,224789:0:0:0:0:
329,192,224739,128,0,224789:0:0:0:0:
475,192,224739,128,0,224789:0:0:0:0:
329,192,224889,128,0,224939:0:0:0:0:
402,192,224889,128,0,224939:0:0:0:0:
475,192,224889,128,0,224939:0:0:0:0:
109,192,224989,1,0,0:0:0:0:
36,192,224989,1,0,0:0:0:0:
182,192,225022,1,0,0:0:0:0:
256,192,225055,1,0,0:0:0:0:
402,192,225089,1,0,0:0:0:0:
475,192,225089,1,0,0:0:0:0:
329,192,225122,1,0,0:0:0:0:
256,192,225155,1,0,0:0:0:0:
109,192,225189,1,0,0:0:0:0:
182,192,225189,1,0,0:0:0:0:
475,192,225189,1,0,0:0:0:0:
36,192,225189,1,0,0:0:0:0:
329,192,225289,1,0,0:0:0:0:
402,192,225289,1,0,0:0:0:0:
256,192,225389,1,0,0:0:0:0:
182,192,225389,1,0,0:0:0:0:
109,192,225389,1,0,0:0:0:0:
36,192,225389,1,0,0:0:0:0:
329,192,225489,1,0,0:0:0:0:
402,192,225489,1,0,0:0:0:0:
475,192,225589,1,0,0:0:0:0:
109,192,225589,1,0,0:0:0:0:
36,192,225589,1,0,0:0:0:0:
182,192,225589,1,0,0:0:0:0:
329,192,225689,1,0,0:0:0:0:
256,192,225689,1,0,0:0:0:0:
182,192,225789,1,0,0:0:0:0:
109,192,225789,1,0,0:0:0:0:
402,192,225789,1,0,0:0:0:0:
475,192,225789,1,0,0:0:0:0:
36,192,225889,1,0,0:0:0:0:
329,192,225889,1,0,0:0:0:0:
256,192,225989,1,0,0:0:0:0:
182,192,225989,1,0,0:0:0:0:
402,192,225989,1,0,0:0:0:0:
475,192,225989,1,0,0:0:0:0:
109,192,226089,1,0,0:0:0:0:
329,192,226089,1,0,0:0:0:0:
36,192,226189,1,0,0:0:0:0:
256,192,226189,1,0,0:0:0:0:
402,192,226189,1,0,0:0:0:0:
475,192,226189,1,0,0:0:0:0:
182,192,226289,1,0,0:0:0:0:
109,192,226289,1,0,0:0:0:0:
256,192,226389,1,0,0:0:0:0:
329,192,226389,1,0,0:0:0:0:
402,192,226389,1,0,0:0:0:0:
475,192,226389,1,0,0:0:0:0:
36,192,226489,1,0,0:0:0:0:
109,192,226489,1,0,0:0:0:0:
402,192,226589,1,0,0:0:0:0:
475,192,226589,1,0,0:0:0:0:
329,192,226622,1,0,0:0:0:0:
256,192,226655,1,0,0:0:0:0:
36,192,226689,1,0,0:0:0:0:
109,192,226689,1,0,0:0:0:0:
182,192,226722,1,0,0:0:0:0:
256,192,226755,1,0,0:0:0:0:
329,192,226789,1,0,0:0:0:0:
475,192,226789,1,0,0:0:0:0:
402,192,226789,1,0,0:0:0:0:
182,192,226889,1,0,0:0:0:0:
109,192,226889,1,0,0:0:0:0:
36,192,226989,1,0,0:0:0:0:
256,192,226989,1,0,0:0:0:0:
402,192,226989,1,0,0:0:0:0:
475,192,226989,1,0,0:0:0:0:
402,192,227089,1,0,0:0:0:0:
475,192,227089,1,0,0:0:0:0:
36,192,227189,1,0,0:0:0:0:
109,192,227189,1,0,0:0:0:0:
182,192,227189,1,0,0:0:0:0:
256,192,227189,1,0,0:0:0:0:
36,192,227289,1,0,0:0:0:0:
109,192,227289,1,0,0:0:0:0:
256,192,227389,1,0,0:0:0:0:
329,192,227389,1,0,0:0:0:0:
402,192,227389,1,0,0:0:0:0:
475,192,227389,1,0,0:0:0:0:
475,192,227489,1,0,0:0:0:0:
402,192,227489,1,0,0:0:0:0:
109,192,227589,1,0,0:0:0:0:
36,192,227589,1,0,0:0:0:0:
256,192,227589,1,0,0:0:0:0:
329,192,227589,1,0,0:0:0:0:
109,192,227689,1,0,0:0:0:0:
36,192,227689,1,0,0:0:0:0:
182,192,227789,1,0,0:0:0:0:
329,192,227789,1,0,0:0:0:0:
402,192,227789,1,0,0:0:0:0:
475,192,227789,1,0,0:0:0:0:
402,192,227889,1,0,0:0:0:0:
475,192,227889,1,0,0:0:0:0:
329,192,227989,1,0,0:0:0:0:
182,192,227989,1,0,0:0:0:0:
109,192,227989,1,0,0:0:0:0:
36,192,227989,1,0,0:0:0:0:
36,192,228089,1,0,0:0:0:0:
109,192,228089,1,0,0:0:0:0:
402,192,228189,1,0,0:0:0:0:
475,192,228189,1,0,0:0:0:0:
329,192,228189,1,0,0:0:0:0:
256,192,228189,1,0,0:0:0:0:
182,192,228222,1,0,0:0:0:0:
109,192,228255,1,0,0:0:0:0:
475,192,228289,1,0,0:0:0:0:
36,192,228289,1,0,0:0:0:0:
402,192,228322,1,0,0:0:0:0:
329,192,228355,1,0,0:0:0:0:
256,192,228389,1,0,0:0:0:0:
182,192,228389,1,0,0:0:0:0:
109,192,228439,1,0,0:0:0:0:
36,192,228439,1,0,0:0:0:0:
475,192,228489,1,0,0:0:0:0:
402,192,228489,1,0,0:0:0:0:
329,192,228539,1,0,0:0:0:0:
256,192,228539,1,0,0:0:0:0:
182,192,228589,1,0,0:0:0:0:
109,192,228589,1,0,0:0:0:0:
475,192,228639,1,0,0:0:0:0:
36,192,228639,1,0,0:0:0:0:
402,192,228689,1,0,0:0:0:0:
329,192,228689,1,0,0:0:0:0:
182,192,228739,1,0,0:0:0:0:
256,192,228739,1,0,0:0:0:0:
109,192,228789,1,0,0:0:0:0:
36,192,228789,1,0,0:0:0:0:
475,192,228839,1,0,0:0:0:0:
402,192,228839,1,0,0:0:0:0:
256,192,228889,1,0,0:0:0:0:
329,192,228889,1,0,0:0:0:0:
182,192,228939,1,0,0:0:0:0:
109,192,228989,1,0,0:0:0:0:
36,192,228989,1,0,0:0:0:0:
475,192,229022,1,0,0:0:0:0:
402,192,229055,1,0,0:0:0:0:
329,192,229089,1,0,0:0:0:0:
256,192,229089,1,0,0:0:0:0:
182,192,229122,1,0,0:0:0:0:
109,192,229155,1,0,0:0:0:0:
475,192,229189,1,0,0:0:0:0:
36,192,229189,1,0,0:0:0:0:
402,192,229239,1,0,0:0:0:0:
329,192,229239,1,0,0:0:0:0:
182,192,229289,1,0,0:0:0:0:
256,192,229289,1,0,0:0:0:0:
109,192,229339,1,0,0:0:0:0:
36,192,229339,1,0,0:0:0:0:
475,192,229389,1,0,0:0:0:0:
402,192,229389,1,0,0:0:0:0:
329,192,229439,1,0,0:0:0:0:
256,192,229439,1,0,0:0:0:0:
182,192,229489,1,0,0:0:0:0:
109,192,229489,1,0,0:0:0:0:
36,192,229539,1,0,0:0:0:0:
475,192,229539,1,0,0:0:0:0:
329,192,229589,1,0,0:0:0:0:
402,192,229589,1,0,0:0:0:0:
182,192,229639,1,0,0:0:0:0:
256,192,229639,1,0,0:0:0:0:
109,192,229689,1,0,0:0:0:0:
36,192,229689,1,0,0:0:0:0:
475,192,229739,1,0,0:0:0:0:
402,192,229739,1,0,0:0:0:0:
256,192,229789,1,0,0:0:0:0:
329,192,229789,1,0,0:0:0:0:
182,192,229822,1,0,0:0:0:0:
109,192,229855,1,0,0:0:0:0:
36,192,229889,1,0,0:0:0:0:
475,192,229922,1,0,0:0:0:0:
402,192,229955,1,0,0:0:0:0:
329,192,229989,1,0,0:0:0:0:
256,192,230022,1,0,0:0:0:0:
36,192,230055,1,0,0:0:0:0:
109,192,230089,1,0,0:0:0:0:
182,192,230122,1,0,0:0:0:0:
475,192,230155,1,0,0:0:0:0:
402,192,230189,1,0,0:0:0:0:
329,192,230222,1,0,0:0:0:0:
36,192,230255,1,0,0:0:0:0:
109,192,230289,1,0,0:0:0:0:
182,192,230322,1,0,0:0:0:0:
256,192,230355,1,0,0:0:0:0:
475,192,230389,1,0,0:0:0:0:
402,192,230422,1,0,0:0:0:0:
329,192,230455,1,0,0:0:0:0:
256,192,230489,1,0,0:0:0:0:
182,192,230522,1,0,0:0:0:0:
109,192,230555,1,0,0:0:0:0:
475,192,230589,128,0,230789:0:0:0:0:
402,192,230589,128,0,230689:0:0:0:0:
256,192,230689,128,0,230789:0:0:0:0:
329,192,230689,128,0,230889:0:0:0:0:
109,192,230789,128,0,230889:0:0:0:0:
182,192,230789,128,0,230989:0:0:0:0:
36,192,230889,128,0,230989:0:0:0:0:
256,192,230889,128,0,230989:0:0:0:0:
475,192,230989,1,0,0:0:0:0:
329,192,231039,1,0,0:0:0:0:
182,192,231089,1,0,0:0:0:0:
36,192,231139,1,0,0:0:0:0:
256,192,231189,1,0,0:0:0:0:
475,192,231239,1,0,0:0:0:0:
402,192,231289,1,0,0:0:0:0:
329,192,231339,1,0,0:0:0:0:
256,192,231389,1,0,0:0:0:0:
182,192,231389,1,0,0:0:0:0:
36,192,231389,128,0,231489:0:0:0:0:
109,192,231389,128,0,231489:0:0:0:0:
475,192,231489,1,0,0:0:0:0:
329,192,231589,1,0,0:0:0:0:
182,192,231589,128,0,231689:0:0:0:0:
256,192,231689,128,0,231789:0:0:0:0:
329,192,231789,1,0,0:0:0:0:
109,192,231789,1,0,0:0:0:0:
36,192,231789,1,0,0:0:0:0:
402,192,231789,128,0,231889:0:0:0:0:
475,192,231789,128,0,231889:0:0:0:0:
182,192,231889,1,0,0:0:0:0:
256,192,231989,128,0,232089:0:0:0:0:
329,192,231989,128,0,232089:0:0:0:0:
182,192,232089,128,0,232189:0:0:0:0:
109,192,232189,1,0,0:0:0:0:
36,192,232189,1,0,0:0:0:0:
329,192,232189,1,0,0:0:0:0:
402,192,232189,1,0,0:0:0:0:
475,192,232189,1,0,0:0:0:0:
182,192,232289,128,0,232389:0:0:0:0:
256,192,232289,128,0,232389:0:0:0:0:
329,192,232389,128,0,232489:0:0:0:0:
109,192,232389,128,0,232489:0:0:0:0:
402,192,232489,128,0,232589:0:0:0:0:
256,192,232589,1,0,0:0:0:0:
182,192,232589,1,0,0:0:0:0:
36,192,232589,1,0,0:0:0:0:
109,192,232589,128,0,232689:0:0:0:0:
475,192,232589,128,0,232689:0:0:0:0:
402,192,232689,1,0,0:0:0:0:
256,192,232789,128,0,232889:0:0:0:0:
329,192,232789,1,0,0:0:0:0:
182,192,232889,128,0,232989:0:0:0:0:
475,192,232989,1,0,0:0:0:0:
329,192,232989,1,0,0:0:0:0:
36,192,232989,128,0,233089:0:0:0:0:
109,192,232989,128,0,233089:0:0:0:0:
402,192,232989,1,0,0:0:0:0:
256,192,233089,1,0,0:0:0:0:
329,192,233189,1,0,0:0:0:0:
182,192,233189,128,0,233289:0:0:0:0:
256,192,233289,128,0,233389:0:0:0:0:
329,192,233389,1,0,0:0:0:0:
109,192,233389,1,0,0:0:0:0:
36,192,233389,1,0,0:0:0:0:
402,192,233389,128,0,233489:0:0:0:0:
475,192,233389,128,0,233489:0:0:0:0:
182,192,233489,1,0,0:0:0:0:
256,192,233589,128,0,233689:0:0:0:0:
329,192,233589,128,0,233689:0:0:0:0:
182,192,233689,128,0,233789:0:0:0:0:
109,192,233789,1,0,0:0:0:0:
36,192,233789,1,0,0:0:0:0:
329,192,233789,1,0,0:0:0:0:
402,192,233789,1,0,0:0:0:0:
475,192,233789,1,0,0:0:0:0:
182,192,233889,128,0,233989:0:0:0:0:
256,192,233889,128,0,233989:0:0:0:0:
329,192,233989,128,0,234089:0:0:0:0:
109,192,233989,128,0,234089:0:0:0:0:
402,192,234089,128,0,234189:0:0:0:0:
256,192,234189,1,0,0:0:0:0:
182,192,234189,1,0,0:0:0:0:
36,192,234189,1,0,0:0:0:0:
109,192,234189,128,0,234289:0:0:0:0:
475,192,234189,128,0,234289:0:0:0:0:
402,192,234289,1,0,0:0:0:0:
329,192,234389,1,0,0:0:0:0:
109,192,234389,1,0,0:0:0:0:
256,192,234455,1,0,0:0:0:0:
182,192,234522,1,0,0:0:0:0:
402,192,234589,128,0,234689:0:0:0:0:
475,192,234589,128,0,234689:0:0:0:0:
109,192,234589,1,0,0:0:0:0:
36,192,234589,1,0,0:0:0:0:
329,192,234589,1,0,0:0:0:0:
256,192,234689,1,0,0:0:0:0:
329,192,234789,1,0,0:0:0:0:
182,192,234789,128,0,234889:0:0:0:0:
256,192,234889,128,0,234989:0:0:0:0:
36,192,234989,128,0,235089:0:0:0:0:
475,192,234989,128,0,235089:0:0:0:0:
329,192,234989,1,0,0:0:0:0:
402,192,234989,1,0,0:0:0:0:
109,192,234989,1,0,0:0:0:0:
182,192,235089,1,0,0:0:0:0:
256,192,235189,128,0,235289:0:0:0:0:
329,192,235189,128,0,235289:0:0:0:0:
182,192,235289,128,0,235389:0:0:0:0:
109,192,235389,1,0,0:0:0:0:
36,192,235389,1,0,0:0:0:0:
329,192,235389,1,0,0:0:0:0:
402,192,235389,1,0,0:0:0:0:
475,192,235389,1,0,0:0:0:0:
182,192,235489,128,0,235589:0:0:0:0:
256,192,235489,128,0,235589:0:0:0:0:
329,192,235589,128,0,235689:0:0:0:0:
109,192,235589,128,0,235689:0:0:0:0:
256,192,235689,128,0,235789:0:0:0:0:
109,192,235789,1,0,0:0:0:0:
36,192,235789,1,0,0:0:0:0:
475,192,235789,1,0,0:0:0:0:
182,192,235789,128,0,235889:0:0:0:0:
402,192,235789,128,0,235889:0:0:0:0:
329,192,235889,1,0,0:0:0:0:
256,192,235989,128,0,236089:0:0:0:0:
475,192,235989,1,0,0:0:0:0:
182,192,236089,128,0,236189:0:0:0:0:
402,192,236189,128,0,236289:0:0:0:0:
475,192,236189,128,0,236289:0:0:0:0:
109,192,236189,1,0,0:0:0:0:
36,192,236189,1,0,0:0:0:0:
329,192,236189,1,0,0:0:0:0:
256,192,236289,1,0,0:0:0:0:
182,192,236389,1,0,0:0:0:0:
329,192,236389,1,0,0:0:0:0:
256,192,236489,128,0,236589:0:0:0:0:
36,192,236589,128,0,236689:0:0:0:0:
475,192,236589,128,0,236689:0:0:0:0:
329,192,236589,1,0,0:0:0:0:
402,192,236589,1,0,0:0:0:0:
109,192,236589,1,0,0:0:0:0:
182,192,236689,1,0,0:0:0:0:
256,192,236789,128,0,236889:0:0:0:0:
329,192,236789,128,0,236889:0:0:0:0:
182,192,236889,128,0,236989:0:0:0:0:
109,192,236989,1,0,0:0:0:0:
36,192,236989,1,0,0:0:0:0:
329,192,236989,1,0,0:0:0:0:
402,192,236989,1,0,0:0:0:0:
475,192,236989,1,0,0:0:0:0:
182,192,237089,128,0,237189:0:0:0:0:
256,192,237089,128,0,237189:0:0:0:0:
329,192,237189,128,0,237289:0:0:0:0:
109,192,237189,128,0,237289:0:0:0:0:
256,192,237289,128,0,237389:0:0:0:0:
109,192,237389,1,0,0:0:0:0:
36,192,237389,1,0,0:0:0:0:
475,192,237389,1,0,0:0:0:0:
182,192,237389,128,0,237489:0:0:0:0:
402,192,237389,128,0,237489:0:0:0:0:
329,192,237489,1,0,0:0:0:0:
109,192,237589,1,0,0:0:0:0:
36,192,237589,1,0,0:0:0:0:
182,192,237655,1,0,0:0:0:0:
256,192,237722,1,0,0:0:0:0:
402,192,237789,1,0,0:0:0:0:
329,192,237789,1,0,0:0:0:0:
36,192,237789,128,0,237889:0:0:0:0:
109,192,237789,128,0,237889:0:0:0:0:
475,192,237789,1,0,0:0:0:0:
256,192,237889,1,0,0:0:0:0:
402,192,237989,1,0,0:0:0:0:
475,192,237989,1,0,0:0:0:0:
329,192,237989,1,0,0:0:0:0:
109,192,237989,1,0,0:0:0:0:
36,192,237989,1,0,0:0:0:0:
256,192,238089,128,0,238189:0:0:0:0:
182,192,238089,128,0,238189:0:0:0:0:
329,192,238189,1,0,0:0:0:0:
109,192,238189,1,0,0:0:0:0:
36,192,238189,1,0,0:0:0:0:
402,192,238189,128,0,238289:0:0:0:0:
475,192,238189,128,0,238289:0:0:0:0:
182,192,238289,1,0,0:0:0:0:
329,192,238389,128,0,238489:0:0:0:0:
36,192,238389,128,0,238489:0:0:0:0:
109,192,238489,128,0,238589:0:0:0:0:
182,192,238589,1,0,0:0:0:0:
256,192,238589,1,0,0:0:0:0:
329,192,238589,1,0,0:0:0:0:
402,192,238589,1,0,0:0:0:0:
475,192,238589,1,0,0:0:0:0:
36,192,238689,128,0,238789:0:0:0:0:
109,192,238689,128,0,238789:0:0:0:0:
329,192,238789,128,0,238889:0:0:0:0:
402,192,238789,128,0,238889:0:0:0:0:
256,192,238889,128,0,238989:0:0:0:0:
402,192,238989,1,0,0:0:0:0:
182,192,238989,1,0,0:0:0:0:
36,192,238989,1,0,0:0:0:0:
109,192,238989,128,0,239089:0:0:0:0:
475,192,238989,128,0,239089:0:0:0:0:
329,192,239089,1,0,0:0:0:0:
256,192,239189,128,0,239289:0:0:0:0:
402,192,239189,1,0,0:0:0:0:
182,192,239289,128,0,239389:0:0:0:0:
402,192,239389,1,0,0:0:0:0:
329,192,239389,1,0,0:0:0:0:
36,192,239389,128,0,239489:0:0:0:0:
109,192,239389,128,0,239489:0:0:0:0:
475,192,239389,1,0,0:0:0:0:
256,192,239489,1,0,0:0:0:0:
402,192,239589,1,0,0:0:0:0:
109,192,239589,1,0,0:0:0:0:
182,192,239689,128,0,239789:0:0:0:0:
256,192,239689,128,0,239789:0:0:0:0:
329,192,239789,1,0,0:0:0:0:
109,192,239789,1,0,0:0:0:0:
36,192,239789,1,0,0:0:0:0:
402,192,239789,128,0,239889:0:0:0:0:
475,192,239789,128,0,239889:0:0:0:0:
182,192,239889,1,0,0:0:0:0:
329,192,239989,128,0,240089:0:0:0:0:
36,192,239989,128,0,240089:0:0:0:0:
109,192,240089,128,0,240189:0:0:0:0:
182,192,240189,1,0,0:0:0:0:
256,192,240189,1,0,0:0:0:0:
329,192,240189,1,0,0:0:0:0:
402,192,240189,1,0,0:0:0:0:
475,192,240189,1,0,0:0:0:0:
36,192,240289,128,0,240389:0:0:0:0:
109,192,240289,128,0,240389:0:0:0:0:
329,192,240389,128,0,240489:0:0:0:0:
402,192,240389,128,0,240489:0:0:0:0:
256,192,240489,128,0,240589:0:0:0:0:
402,192,240589,1,0,0:0:0:0:
182,192,240589,1,0,0:0:0:0:
36,192,240589,1,0,0:0:0:0:
109,192,240589,128,0,240689:0:0:0:0:
475,192,240589,128,0,240689:0:0:0:0:
329,192,240689,1,0,0:0:0:0:
402,192,240789,1,0,0:0:0:0:
109,192,240789,1,0,0:0:0:0:
182,192,240855,1,0,0:0:0:0:
256,192,240922,1,0,0:0:0:0:
329,192,240989,1,0,0:0:0:0:
402,192,240989,1,0,0:0:0:0:
475,192,240989,1,0,0:0:0:0:
109,192,240989,1,0,0:0:0:0:
36,192,240989,1,0,0:0:0:0:
36,192,241089,1,0,0:0:0:0:
109,192,241089,1,0,0:0:0:0:
329,192,241089,1,0,0:0:0:0:
402,192,241089,1,0,0:0:0:0:
475,192,241089,1,0,0:0:0:0:
36,192,241189,128,0,241289:0:0:0:0:
109,192,241189,128,0,241289:0:0:0:0:
402,192,241189,1,0,0:0:0:0:
475,192,241189,1,0,0:0:0:0:
329,192,241189,1,0,0:0:0:0:
256,192,241289,1,0,0:0:0:0:
182,192,241289,1,0,0:0:0:0:
402,192,241389,1,0,0:0:0:0:
329,192,241422,1,0,0:0:0:0:
256,192,241455,1,0,0:0:0:0:
182,192,241489,1,0,0:0:0:0:
109,192,241522,1,0,0:0:0:0:
36,192,241555,1,0,0:0:0:0:
329,192,241589,1,0,0:0:0:0:
475,192,241589,1,0,0:0:0:0:
402,192,241589,1,0,0:0:0:0:
256,192,241689,1,0,0:0:0:0:
182,192,241689,1,0,0:0:0:0:
109,192,241789,1,0,0:0:0:0:
36,192,241789,1,0,0:0:0:0:
329,192,241789,1,0,0:0:0:0:
402,192,241789,1,0,0:0:0:0:
475,192,241789,1,0,0:0:0:0:
182,192,241889,1,0,0:0:0:0:
256,192,241889,1,0,0:0:0:0:
109,192,241989,1,0,0:0:0:0:
36,192,241989,1,0,0:0:0:0:
329,192,241989,1,0,0:0:0:0:
402,192,241989,1,0,0:0:0:0:
475,192,241989,1,0,0:0:0:0:
256,192,242089,1,0,0:0:0:0:
109,192,242189,1,0,0:0:0:0:
182,192,242222,1,0,0:0:0:0:
256,192,242255,1,0,0:0:0:0:
329,192,242289,1,0,0:0:0:0:
402,192,242322,1,0,0:0:0:0:
475,192,242355,1,0,0:0:0:0:
36,192,242389,1,0,0:0:0:0:
109,192,242422,1,0,0:0:0:0:
182,192,242455,1,0,0:0:0:0:
475,192,242489,1,0,0:0:0:0:
402,192,242522,1,0,0:0:0:0:
329,192,242555,1,0,0:0:0:0:
256,192,242589,1,0,0:0:0:0:
182,192,242589,1,0,0:0:0:0:
109,192,242589,1,0,0:0:0:0:
36,192,242589,1,0,0:0:0:0:
329,192,242789,1,0,0:0:0:0:
36,192,242789,1,0,0:0:0:0:
109,192,242889,1,0,0:0:0:0:
182,192,242889,1,0,0:0:0:0:
256,192,242889,1,0,0:0:0:0:
402,192,242889,1,0,0:0:0:0:
475,192,242889,1,0,0:0:0:0:
329,192,242989,1,0,0:0:0:0:
256,192,243089,1,0,0:0:0:0:
109,192,243189,1,0,0:0:0:0:
182,192,243189,1,0,0:0:0:0:
329,192,243189,1,0,0:0:0:0:
475,192,243189,1,0,0:0:0:0:
402,192,243189,1,0,0:0:0:0:
36,192,243289,1,0,0:0:0:0:
329,192,243389,1,0,0:0:0:0:
402,192,243389,1,0,0:0:0:0:
475,192,243389,1,0,0:0:0:0:
182,192,243389,1,0,0:0:0:0:
329,192,243489,1,0,0:0:0:0:
402,192,243489,1,0,0:0:0:0:
475,192,243489,1,0,0:0:0:0:
109,192,243489,1,0,0:0:0:0:
36,192,243489,1,0,0:0:0:0:
182,192,243589,1,0,0:0:0:0:
329,192,243689,1,0,0:0:0:0:
475,192,243689,1,0,0:0:0:0:
109,192,243689,1,0,0:0:0:0:
36,192,243689,1,0,0:0:0:0:
109,192,243789,1,0,0:0:0:0:
36,192,243789,1,0,0:0:0:0:
329,192,243789,1,0,0:0:0:0:
402,192,243789,1,0,0:0:0:0:
475,192,243789,1,0,0:0:0:0:
256,192,243889,1,0,0:0:0:0:
36,192,243989,1,0,0:0:0:0:
475,192,243989,1,0,0:0:0:0:
402,192,244039,1,0,0:0:0:0:
109,192,244039,1,0,0:0:0:0:
182,192,244089,1,0,0:0:0:0:
329,192,244089,1,0,0:0:0:0:
256,192,244139,1,0,0:0:0:0:
109,192,244189,1,0,0:0:0:0:
329,192,244189,1,0,0:0:0:0:
475,192,244189,128,0,244289:0:0:0:0:
402,192,244189,128,0,244289:0:0:0:0:
36,192,244189,1,0,0:0:0:0:
182,192,244289,1,0,0:0:0:0:
109,192,244389,1,0,0:0:0:0:
329,192,244389,128,0,244489:0:0:0:0:
256,192,244489,128,0,244589:0:0:0:0:
182,192,244589,1,0,0:0:0:0:
402,192,244589,1,0,0:0:0:0:
475,192,244589,1,0,0:0:0:0:
109,192,244589,128,0,244689:0:0:0:0:
36,192,244589,128,0,244689:0:0:0:0:
329,192,244689,1,0,0:0:0:0:
182,192,244789,128,0,244889:0:0:0:0:
256,192,244789,128,0,244889:0:0:0:0:
329,192,244889,128,0,244989:0:0:0:0:
402,192,244989,1,0,0:0:0:0:
475,192,244989,1,0,0:0:0:0:
182,192,244989,1,0,0:0:0:0:
109,192,244989,1,0,0:0:0:0:
36,192,244989,1,0,0:0:0:0:
329,192,245089,128,0,245189:0:0:0:0:
256,192,245089,128,0,245189:0:0:0:0:
475,192,245189,128,0,245289:0:0:0:0:
109,192,245189,128,0,245289:0:0:0:0:
182,192,245289,128,0,245389:0:0:0:0:
256,192,245389,1,0,0:0:0:0:
329,192,245389,1,0,0:0:0:0:
475,192,245389,1,0,0:0:0:0:
402,192,245389,128,0,245489:0:0:0:0:
36,192,245389,128,0,245489:0:0:0:0:
109,192,245489,1,0,0:0:0:0:
182,192,245589,128,0,245689:0:0:0:0:
256,192,245589,1,0,0:0:0:0:
329,192,245689,128,0,245789:0:0:0:0:
36,192,245789,1,0,0:0:0:0:
182,192,245789,1,0,0:0:0:0:
475,192,245789,128,0,245889:0:0:0:0:
402,192,245789,128,0,245889:0:0:0:0:
109,192,245789,1,0,0:0:0:0:
256,192,245889,1,0,0:0:0:0:
109,192,245989,1,0,0:0:0:0:
329,192,245989,128,0,246089:0:0:0:0:
256,192,246089,128,0,246189:0:0:0:0:
182,192,246189,1,0,0:0:0:0:
402,192,246189,1,0,0:0:0:0:
475,192,246189,1,0,0:0:0:0:
109,192,246189,128,0,246289:0:0:0:0:
36,192,246189,128,0,246289:0:0:0:0:
329,192,246289,1,0,0:0:0:0:
182,192,246389,128,0,246489:0:0:0:0:
256,192,246389,128,0,246489:0:0:0:0:
329,192,246489,128,0,246589:0:0:0:0:
402,192,246589,1,0,0:0:0:0:
475,192,246589,1,0,0:0:0:0:
182,192,246589,1,0,0:0:0:0:
109,192,246589,1,0,0:0:0:0:
36,192,246589,1,0,0:0:0:0:
329,192,246689,128,0,246789:0:0:0:0:
256,192,246689,128,0,246789:0:0:0:0:
182,192,246789,128,0,246889:0:0:0:0:
475,192,246789,128,0,246889:0:0:0:0:
109,192,246889,128,0,246989:0:0:0:0:
256,192,246989,1,0,0:0:0:0:
329,192,246989,1,0,0:0:0:0:
475,192,246989,1,0,0:0:0:0:
402,192,246989,128,0,247089:0:0:0:0:
36,192,246989,128,0,247089:0:0:0:0:
182,192,247089,1,0,0:0:0:0:
402,192,247189,1,0,0:0:0:0:
475,192,247189,1,0,0:0:0:0:
329,192,247189,1,0,0:0:0:0:
109,192,247189,1,0,0:0:0:0:
36,192,247189,1,0,0:0:0:0:
182,192,247255,1,0,0:0:0:0:
256,192,247322,1,0,0:0:0:0:
109,192,247389,128,0,247489:0:0:0:0:
36,192,247389,128,0,247489:0:0:0:0:
402,192,247389,1,0,0:0:0:0:
475,192,247389,1,0,0:0:0:0:
329,192,247389,1,0,0:0:0:0:
256,192,247489,1,0,0:0:0:0:
329,192,247589,1,0,0:0:0:0:
475,192,247589,1,0,0:0:0:0:
182,192,247589,1,0,0:0:0:0:
402,192,247589,1,0,0:0:0:0:
109,192,247589,1,0,0:0:0:0:
256,192,247689,128,0,247789:0:0:0:0:
36,192,247689,128,0,247789:0:0:0:0:
402,192,247789,128,0,247889:0:0:0:0:
475,192,247789,128,0,247889:0:0:0:0:
182,192,247789,1,0,0:0:0:0:
109,192,247789,1,0,0:0:0:0:
329,192,247789,1,0,0:0:0:0:
256,192,247889,1,0,0:0:0:0:
182,192,247989,1,0,0:0:0:0:
36,192,247989,128,0,248089:0:0:0:0:
109,192,247989,128,0,248089:0:0:0:0:
329,192,248089,128,0,248189:0:0:0:0:
402,192,248189,1,0,0:0:0:0:
475,192,248189,1,0,0:0:0:0:
182,192,248189,1,0,0:0:0:0:
109,192,248189,1,0,0:0:0:0:
36,192,248189,1,0,0:0:0:0:
256,192,248289,128,0,248389:0:0:0:0:
329,192,248289,128,0,248389:0:0:0:0:
182,192,248389,128,0,248489:0:0:0:0:
402,192,248389,128,0,248489:0:0:0:0:
256,192,248489,128,0,248589:0:0:0:0:
402,192,248589,1,0,0:0:0:0:
475,192,248589,1,0,0:0:0:0:
36,192,248589,1,0,0:0:0:0:
329,192,248589,128,0,248689:0:0:0:0:
109,192,248589,128,0,248689:0:0:0:0:
182,192,248689,1,0,0:0:0:0:
256,192,248789,128,0,248889:0:0:0:0:
36,192,248789,1,0,0:0:0:0:
329,192,248889,128,0,248989:0:0:0:0:
109,192,248989,128,0,249089:0:0:0:0:
36,192,248989,128,0,249089:0:0:0:0:
182,192,248989,1,0,0:0:0:0:
402,192,248989,128,0,249089:0:0:0:0:
475,192,248989,128,0,249089:0:0:0:0:
256,192,249089,1,0,0:0:0:0:
329,192,249189,1,0,0:0:0:0:
182,192,249189,1,0,0:0:0:0:
402,192,249289,128,0,249389:0:0:0:0:
475,192,249289,128,0,249389:0:0:0:0:
109,192,249289,128,0,249389:0:0:0:0:
36,192,249289,128,0,249389:0:0:0:0:
256,192,249289,1,0,0:0:0:0:
329,192,249389,1,0,0:0:0:0:
36,192,249489,1,0,0:0:0:0:
329,192,249589,128,0,249689:0:0:0:0:
402,192,249589,128,0,249689:0:0:0:0:
109,192,249589,128,0,249689:0:0:0:0:
182,192,249589,128,0,249689:0:0:0:0:
256,192,249589,1,0,0:0:0:0:
475,192,249689,1,0,0:0:0:0:
36,192,249689,1,0,0:0:0:0:
329,192,249789,1,0,0:0:0:0:
182,192,249789,1,0,0:0:0:0:
256,192,249889,1,0,0:0:0:0:
475,192,249889,128,0,249989:0:0:0:0:
36,192,249889,128,0,249989:0:0:0:0:
109,192,249889,128,0,249989:0:0:0:0:
402,192,249889,128,0,249989:0:0:0:0:
329,192,249989,1,0,0:0:0:0:
182,192,249989,1,0,0:0:0:0:
475,192,250089,1,0,0:0:0:0:
36,192,250089,1,0,0:0:0:0:
256,192,250189,1,0,0:0:0:0:
329,192,250189,128,0,250289:0:0:0:0:
402,192,250189,128,0,250289:0:0:0:0:
182,192,250189,128,0,250289:0:0:0:0:
109,192,250189,128,0,250289:0:0:0:0:
475,192,250289,128,0,250455:0:0:0:0:
36,192,250289,128,0,250455:0:0:0:0:
256,192,250389,128,0,250455:0:0:0:0:
402,192,250455,1,0,0:0:0:0:
329,192,250522,1,0,0:0:0:0:
256,192,250589,1,0,0:0:0:0:
182,192,250589,1,0,0:0:0:0:
475,192,250589,1,0,0:0:0:0:
36,192,250589,128,0,250789:0:0:0:0:
109,192,250589,128,0,250789:0:0:0:0:
36,192,250889,128,0,251089:0:0:0:0:
182,192,250889,128,0,251089:0:0:0:0:
36,192,251189,128,0,251389:0:0:0:0:
256,192,251189,128,0,251389:0:0:0:0:
182,192,251389,128,0,251489:0:0:0:0:
109,192,251389,128,0,251489:0:0:0:0:
402,192,251389,128,0,251489:0:0:0:0:
475,192,251389,128,0,251489:0:0:0:0:
36,192,251489,128,0,251689:0:0:0:0:
329,192,251489,128,0,251689:0:0:0:0:
256,192,251489,128,0,251689:0:0:0:0:
36,192,251789,1,0,0:0:0:0:
109,192,251789,1,0,0:0:0:0:
182,192,251789,1,0,0:0:0:0:
329,192,251789,128,0,251889:0:0:0:0:
475,192,251789,128,0,251889:0:0:0:0:
256,192,251889,1,0,0:0:0:0:
329,192,251989,1,0,0:0:0:0:
402,192,251989,1,0,0:0:0:0:
256,192,252089,128,0,252189:0:0:0:0:
109,192,252089,128,0,252189:0:0:0:0:
36,192,252089,1,0,0:0:0:0:
475,192,252089,1,0,0:0:0:0:
182,192,252089,1,0,0:0:0:0:
329,192,252189,128,0,252289:0:0:0:0:
402,192,252189,128,0,252289:0:0:0:0:
109,192,252289,1,0,0:0:0:0:
182,192,252389,1,0,0:0:0:0:
256,192,252389,1,0,0:0:0:0:
475,192,252389,1,0,0:0:0:0:
402,192,252389,128,0,252489:0:0:0:0:
329,192,252389,128,0,252489:0:0:0:0:
109,192,252489,128,0,252589:0:0:0:0:
36,192,252589,1,0,0:0:0:0:
475,192,252589,1,0,0:0:0:0:
182,192,252689,1,0,0:0:0:0:
109,192,252689,1,0,0:0:0:0:
402,192,252689,1,0,0:0:0:0:
256,192,252689,128,0,252789:0:0:0:0:
329,192,252689,128,0,252789:0:0:0:0:
475,192,252789,128,0,252889:0:0:0:0:
36,192,252889,1,0,0:0:0:0:
109,192,252889,1,0,0:0:0:0:
182,192,252889,1,0,0:0:0:0:
256,192,252889,1,0,0:0:0:0:
329,192,252889,1,0,0:0:0:0:
36,192,252989,128,0,253089:0:0:0:0:
109,192,252989,128,0,253089:0:0:0:0:
182,192,252989,128,0,253089:0:0:0:0:
475,192,252989,128,0,253089:0:0:0:0:
402,192,253089,128,0,253189:0:0:0:0:
329,192,253089,128,0,253189:0:0:0:0:
256,192,253089,128,0,253189:0:0:0:0:
182,192,253189,128,0,253289:0:0:0:0:
475,192,253189,128,0,253289:0:0:0:0:
109,192,253289,1,0,0:0:0:0:
182,192,253389,128,0,253489:0:0:0:0:
475,192,253389,128,0,253489:0:0:0:0:
36,192,253389,1,0,0:0:0:0:
256,192,253489,1,0,0:0:0:0:
36,192,253589,1,0,0:0:0:0:
402,192,253589,1,0,0:0:0:0:
109,192,253655,1,0,0:0:0:0:
329,192,253689,128,0,253789:0:0:0:0:
182,192,253722,1,0,0:0:0:0:
256,192,253789,1,0,0:0:0:0:
402,192,253789,1,0,0:0:0:0:
109,192,253789,1,0,0:0:0:0:
36,192,253789,1,0,0:0:0:0:
475,192,253789,1,0,0:0:0:0:
329,192,253889,1,0,0:0:0:0:
109,192,253989,1,0,0:0:0:0:
182,192,253989,1,0,0:0:0:0:
329,192,254089,128,0,254189:0:0:0:0:
475,192,254089,128,0,254189:0:0:0:0:
256,192,254189,128,0,254289:0:0:0:0:
36,192,254189,128,0,254289:0:0:0:0:
182,192,254289,1,0,0:0:0:0:
402,192,254389,128,0,254589:0:0:0:0:
109,192,254389,128,0,254489:0:0:0:0:
329,192,254489,128,0,254589:0:0:0:0:
182,192,254589,128,0,254689:0:0:0:0:
256,192,254589,128,0,254689:0:0:0:0:
475,192,254589,128,0,254689:0:0:0:0:
36,192,254589,128,0,254689:0:0:0:0:
329,192,254689,128,0,254789:0:0:0:0:
402,192,254689,128,0,254789:0:0:0:0:
109,192,254689,128,0,254789:0:0:0:0:
256,192,254789,1,0,0:0:0:0:
475,192,254789,1,0,0:0:0:0:
182,192,254889,1,0,0:0:0:0:
109,192,254989,1,0,0:0:0:0:
36,192,254989,1,0,0:0:0:0:
402,192,254989,1,0,0:0:0:0:
475,192,254989,1,0,0:0:0:0:
329,192,255089,1,0,0:0:0:0:
256,192,255089,1,0,0:0:0:0:
182,192,255089,1,0,0:0:0:0:
109,192,255189,1,0,0:0:0:0:
36,192,255189,1,0,0:0:0:0:
402,192,255189,1,0,0:0:0:0:
475,192,255189,1,0,0:0:0:0:
256,192,255289,1,0,0:0:0:0:
475,192,255389,128,0,255589:0:0:0:0:
329,192,255389,128,0,255489:0:0:0:0:
36,192,255389,1,0,0:0:0:0:
182,192,255389,128,0,255489:0:0:0:0:
182,192,255589,128,0,255689:0:0:0:0:
36,192,255589,128,0,255789:0:0:0:0:
329,192,255689,128,0,255789:0:0:0:0:
256,192,255789,128,0,255989:0:0:0:0:
109,192,255989,1,0,0:0:0:0:
329,192,255989,1,0,0:0:0:0:
109,192,256089,1,0,0:0:0:0:
329,192,256089,1,0,0:0:0:0:
402,192,256189,1,0,0:0:0:0:
182,192,256189,1,0,0:0:0:0:
256,192,256322,1,0,0:0:0:0:
36,192,256322,1,0,0:0:0:0:
475,192,256322,128,0,256989:0:0:0:0:
36,192,256455,1,0,0:0:0:0:
256,192,256455,1,0,0:0:0:0:
329,192,256589,1,0,0:0:0:0:
109,192,256589,1,0,0:0:0:0:
109,192,256722,1,0,0:0:0:0:
329,192,256722,1,0,0:0:0:0:
182,192,256855,1,0,0:0:0:0:
402,192,256855,1,0,0:0:0:0:
36,192,256989,5,0,0:0:0:0:
109,192,256989,1,0,0:0:0:0:
256,192,256989,1,0,0:0:0:0:
329,192,256989,1,0,0:0:0:0:
475,192,257189,1,0,0:0:0:0:
256,192,257189,1,0,0:0:0:0:
402,192,257239,1,0,0:0:0:0:
182,192,257239,1,0,0:0:0:0:
329,192,257289,1,0,0:0:0:0:
109,192,257289,1,0,0:0:0:0:
256,192,257339,1,0,0:0:0:0:
36,192,257339,1,0,0:0:0:0:
182,192,257389,1,0,0:0:0:0:
402,192,257389,1,0,0:0:0:0:
475,192,257389,1,0,0:0:0:0:
109,192,257489,1,0,0:0:0:0:
36,192,257489,1,0,0:0:0:0:
256,192,257489,1,0,0:0:0:0:
329,192,257489,1,0,0:0:0:0:
182,192,257589,1,0,0:0:0:0:
402,192,257689,1,0,0:0:0:0:
475,192,257689,1,0,0:0:0:0:
329,192,257689,1,0,0:0:0:0:
109,192,257689,1,0,0:0:0:0:
36,192,257689,1,0,0:0:0:0:
256,192,257789,1,0,0:0:0:0:
182,192,257889,1,0,0:0:0:0:
109,192,257889,1,0,0:0:0:0:
36,192,257889,1,0,0:0:0:0:
402,192,257889,1,0,0:0:0:0:
475,192,257889,1,0,0:0:0:0:
182,192,257989,1,0,0:0:0:0:
109,192,257989,1,0,0:0:0:0:
36,192,257989,1,0,0:0:0:0:
402,192,257989,1,0,0:0:0:0:
475,192,257989,1,0,0:0:0:0:
256,192,258089,1,0,0:0:0:0:
109,192,258189,1,0,0:0:0:0:
36,192,258189,1,0,0:0:0:0:
475,192,258189,1,0,0:0:0:0:
402,192,258189,1,0,0:0:0:0:
329,192,258289,1,0,0:0:0:0:
256,192,258289,1,0,0:0:0:0:
182,192,258289,1,0,0:0:0:0:
109,192,258389,1,0,0:0:0:0:
36,192,258389,1,0,0:0:0:0:
402,192,258389,1,0,0:0:0:0:
475,192,258389,1,0,0:0:0:0:
329,192,258489,1,0,0:0:0:0:
182,192,258489,1,0,0:0:0:0:
256,192,258489,1,0,0:0:0:0:
109,192,258689,1,0,0:0:0:0:
36,192,258689,1,0,0:0:0:0:
329,192,258689,1,0,0:0:0:0:
402,192,258689,1,0,0:0:0:0:
475,192,258789,1,0,0:0:0:0:
256,192,258789,1,0,0:0:0:0:
182,192,258789,1,0,0:0:0:0:
329,192,258889,1,0,0:0:0:0:
402,192,258889,1,0,0:0:0:0:
109,192,258889,1,0,0:0:0:0:
36,192,258889,1,0,0:0:0:0:
182,192,258989,1,0,0:0:0:0:
256,192,258989,1,0,0:0:0:0:
475,192,258989,1,0,0:0:0:0:
402,192,259089,1,0,0:0:0:0:
329,192,259089,1,0,0:0:0:0:
109,192,259089,1,0,0:0:0:0:
36,192,259089,1,0,0:0:0:0:
182,192,259189,1,0,0:0:0:0:
256,192,259189,1,0,0:0:0:0:
475,192,259189,1,0,0:0:0:0:
109,192,259389,1,0,0:0:0:0:
36,192,259389,1,0,0:0:0:0:
182,192,259389,1,0,0:0:0:0:
329,192,259389,1,0,0:0:0:0:
402,192,259389,1,0,0:0:0:0:
36,192,259489,1,0,0:0:0:0:
109,192,259489,1,0,0:0:0:0:
182,192,259489,1,0,0:0:0:0:
402,192,259489,1,0,0:0:0:0:
329,192,259489,1,0,0:0:0:0:
36,192,259589,1,0,0:0:0:0:
109,192,259589,1,0,0:0:0:0:
182,192,259589,1,0,0:0:0:0:
329,192,259589,1,0,0:0:0:0:
402,192,259589,1,0,0:0:0:0:
36,192,259789,1,0,0:0:0:0:
475,192,259789,1,0,0:0:0:0:
402,192,259839,1,0,0:0:0:0:
109,192,259839,1,0,0:0:0:0:
182,192,259889,1,0,0:0:0:0:
329,192,259889,1,0,0:0:0:0:
256,192,259939,1,0,0:0:0:0:
36,192,259989,1,0,0:0:0:0:
109,192,259989,1,0,0:0:0:0:
402,192,259989,1,0,0:0:0:0:
475,192,259989,1,0,0:0:0:0:
402,192,260089,1,0,0:0:0:0:
475,192,260089,1,0,0:0:0:0:
109,192,260089,1,0,0:0:0:0:
36,192,260089,1,0,0:0:0:0:
329,192,260189,1,0,0:0:0:0:
402,192,260189,1,0,0:0:0:0:
475,192,260189,1,0,0:0:0:0:
109,192,260189,1,0,0:0:0:0:
36,192,260189,1,0,0:0:0:0:
182,192,260289,1,0,0:0:0:0:
256,192,260389,1,0,0:0:0:0:
329,192,260389,1,0,0:0:0:0:
475,192,260389,1,0,0:0:0:0:
182,192,260489,128,0,260589:0:0:0:0:
109,192,260589,1,0,0:0:0:0:
36,192,260589,1,0,0:0:0:0:
402,192,260589,1,0,0:0:0:0:
475,192,260589,1,0,0:0:0:0:
329,192,260589,128,0,260689:0:0:0:0:
256,192,260689,1,0,0:0:0:0:
402,192,260789,1,0,0:0:0:0:
182,192,260789,128,0,260889:0:0:0:0:
475,192,260789,1,0,0:0:0:0:
109,192,260889,128,0,260989:0:0:0:0:
329,192,260989,1,0,0:0:0:0:
402,192,260989,1,0,0:0:0:0:
475,192,260989,1,0,0:0:0:0:
256,192,260989,1,0,0:0:0:0:
36,192,260989,1,0,0:0:0:0:
182,192,261089,128,0,261189:0:0:0:0:
109,192,261189,1,0,0:0:0:0:
475,192,261189,1,0,0:0:0:0:
329,192,261189,128,0,261289:0:0:0:0:
256,192,261289,1,0,0:0:0:0:
182,192,261389,1,0,0:0:0:0:
109,192,261389,1,0,0:0:0:0:
36,192,261389,1,0,0:0:0:0:
402,192,261389,128,0,261489:0:0:0:0:
475,192,261389,128,0,261489:0:0:0:0:
329,192,261489,1,0,0:0:0:0:
36,192,261589,1,0,0:0:0:0:
109,192,261589,1,0,0:0:0:0:
256,192,261589,1,0,0:0:0:0:
182,192,261689,1,0,0:0:0:0:
256,192,261789,1,0,0:0:0:0:
329,192,261789,1,0,0:0:0:0:
402,192,261789,1,0,0:0:0:0:
36,192,261789,1,0,0:0:0:0:
109,192,261789,1,0,0:0:0:0:
475,192,261889,1,0,0:0:0:0:
402,192,261989,1,0,0:0:0:0:
329,192,261989,1,0,0:0:0:0:
109,192,261989,1,0,0:0:0:0:
182,192,262089,128,0,262189:0:0:0:0:
256,192,262189,1,0,0:0:0:0:
475,192,262189,1,0,0:0:0:0:
402,192,262189,1,0,0:0:0:0:
36,192,262189,1,0,0:0:0:0:
329,192,262189,128,0,262289:0:0:0:0:
109,192,262289,1,0,0:0:0:0:
182,192,262389,1,0,0:0:0:0:
475,192,262389,1,0,0:0:0:0:
402,192,262389,128,0,262489:0:0:0:0:
329,192,262489,128,0,262589:0:0:0:0:
256,192,262589,1,0,0:0:0:0:
182,192,262589,1,0,0:0:0:0:
109,192,262589,1,0,0:0:0:0:
36,192,262589,1,0,0:0:0:0:
475,192,262589,1,0,0:0:0:0:
329,192,262689,128,0,262789:0:0:0:0:
182,192,262789,1,0,0:0:0:0:
402,192,262789,128,0,262889:0:0:0:0:
109,192,262889,1,0,0:0:0:0:
36,192,262889,1,0,0:0:0:0:
256,192,262889,1,0,0:0:0:0:
329,192,262889,1,0,0:0:0:0:
475,192,262889,1,0,0:0:0:0:
402,192,262989,1,0,0:0:0:0:
182,192,263089,1,0,0:0:0:0:
256,192,263189,1,0,0:0:0:0:
402,192,263189,1,0,0:0:0:0:
475,192,263189,1,0,0:0:0:0:
109,192,263189,1,0,0:0:0:0:
36,192,263189,1,0,0:0:0:0:
329,192,263389,1,0,0:0:0:0:
402,192,263389,1,0,0:0:0:0:
256,192,263439,1,0,0:0:0:0:
182,192,263439,1,0,0:0:0:0:
109,192,263489,1,0,0:0:0:0:
36,192,263489,1,0,0:0:0:0:
402,192,263539,1,0,0:0:0:0:
475,192,263539,1,0,0:0:0:0:
329,192,263589,1,0,0:0:0:0:
256,192,263589,1,0,0:0:0:0:
182,192,263589,1,0,0:0:0:0:
36,192,263689,1,0,0:0:0:0:
475,192,263689,1,0,0:0:0:0:
109,192,263689,1,0,0:0:0:0:
329,192,263789,1,0,0:0:0:0:
402,192,263789,1,0,0:0:0:0:
256,192,263839,1,0,0:0:0:0:
182,192,263839,1,0,0:0:0:0:
109,192,263889,1,0,0:0:0:0:
36,192,263889,1,0,0:0:0:0:
402,192,263939,1,0,0:0:0:0:
475,192,263939,1,0,0:0:0:0:
329,192,263989,1,0,0:0:0:0:
256,192,263989,1,0,0:0:0:0:
182,192,263989,1,0,0:0:0:0:
475,192,264089,1,0,0:0:0:0:
36,192,264089,1,0,0:0:0:0:
109,192,264089,1,0,0:0:0:0:
256,192,264189,1,0,0:0:0:0:
36,192,264289,1,0,0:0:0:0:
109,192,264289,1,0,0:0:0:0:
402,192,264289,1,0,0:0:0:0:
475,192,264289,1,0,0:0:0:0:
182,192,264389,1,0,0:0:0:0:
256,192,264389,1,0,0:0:0:0:
329,192,264439,1,0,0:0:0:0:
402,192,264439,1,0,0:0:0:0:
36,192,264489,1,0,0:0:0:0:
109,192,264489,1,0,0:0:0:0:
402,192,264539,1,0,0:0:0:0:
329,192,264539,1,0,0:0:0:0:
475,192,264589,1,0,0:0:0:0:
182,192,264589,1,0,0:0:0:0:
256,192,264589,1,0,0:0:0:0:
36,192,264689,1,0,0:0:0:0:
109,192,264689,1,0,0:0:0:0:
329,192,264689,1,0,0:0:0:0:
402,192,264689,1,0,0:0:0:0:
475,192,264789,1,0,0:0:0:0:
256,192,264789,1,0,0:0:0:0:
182,192,264789,1,0,0:0:0:0:
36,192,264889,1,0,0:0:0:0:
109,192,264889,1,0,0:0:0:0:
329,192,264889,1,0,0:0:0:0:
402,192,264889,1,0,0:0:0:0:
475,192,264989,1,0,0:0:0:0:
256,192,264989,1,0,0:0:0:0:
182,192,264989,1,0,0:0:0:0:
36,192,265089,1,0,0:0:0:0:
109,192,265089,1,0,0:0:0:0:
329,192,265089,1,0,0:0:0:0:
402,192,265089,1,0,0:0:0:0:
182,192,265189,1,0,0:0:0:0:
256,192,265189,1,0,0:0:0:0:
475,192,265189,1,0,0:0:0:0:
402,192,265389,1,0,0:0:0:0:
475,192,265389,1,0,0:0:0:0:
182,192,265389,1,0,0:0:0:0:
109,192,265389,1,0,0:0:0:0:
36,192,265389,1,0,0:0:0:0:
109,192,265489,1,0,0:0:0:0:
182,192,265489,1,0,0:0:0:0:
402,192,265489,1,0,0:0:0:0:
475,192,265489,1,0,0:0:0:0:
36,192,265489,1,0,0:0:0:0:
329,192,265589,1,0,0:0:0:0:
256,192,265689,1,0,0:0:0:0:
182,192,265689,1,0,0:0:0:0:
109,192,265739,1,0,0:0:0:0:
36,192,265739,1,0,0:0:0:0:
402,192,265789,1,0,0:0:0:0:
475,192,265789,1,0,0:0:0:0:
329,192,265789,1,0,0:0:0:0:
256,192,265889,1,0,0:0:0:0:
402,192,265939,1,0,0:0:0:0:
329,192,265939,1,0,0:0:0:0:
475,192,265939,1,0,0:0:0:0:
329,192,266089,1,0,0:0:0:0:
402,192,266089,1,0,0:0:0:0:
475,192,266089,1,0,0:0:0:0:
36,192,266189,1,0,0:0:0:0:
109,192,266189,1,0,0:0:0:0:
182,192,266189,1,0,0:0:0:0:
256,192,266189,1,0,0:0:0:0:
256,192,266339,1,0,0:0:0:0:
182,192,266339,1,0,0:0:0:0:
109,192,266339,1,0,0:0:0:0:
36,192,266339,1,0,0:0:0:0:
36,192,266489,1,0,0:0:0:0:
109,192,266489,1,0,0:0:0:0:
182,192,266489,1,0,0:0:0:0:
256,192,266489,1,0,0:0:0:0:
475,192,266589,1,0,0:0:0:0:
402,192,266589,1,0,0:0:0:0:
329,192,266589,1,0,0:0:0:0:
182,192,266689,1,0,0:0:0:0:
109,192,266689,1,0,0:0:0:0:
36,192,266689,1,0,0:0:0:0:
256,192,266789,1,0,0:0:0:0:
329,192,266789,1,0,0:0:0:0:
402,192,266789,1,0,0:0:0:0:
475,192,266789,1,0,0:0:0:0:
182,192,266889,1,0,0:0:0:0:
109,192,266889,1,0,0:0:0:0:
475,192,266989,128,0,267189:0:0:0:0:
36,192,266989,1,0,0:0:0:0:
256,192,266989,1,0,0:0:0:0:
402,192,267089,128,0,267289:0:0:0:0:
329,192,267189,128,0,267389:0:0:0:0:
109,192,267189,1,0,0:0:0:0:
182,192,267189,128,0,267389:0:0:0:0:
256,192,267289,128,0,267389:0:0:0:0:
402,192,267389,1,0,0:0:0:0:
475,192,267389,1,0,0:0:0:0:
109,192,267389,1,0,0:0:0:0:
36,192,267389,1,0,0:0:0:0:
256,192,267489,1,0,0:0:0:0:
329,192,267589,1,0,0:0:0:0:
402,192,267589,1,0,0:0:0:0:
182,192,267589,1,0,0:0:0:0:
109,192,267589,1,0,0:0:0:0:
256,192,267689,1,0,0:0:0:0:
36,192,267789,128,0,267989:0:0:0:0:
329,192,267789,128,0,267989:0:0:0:0:
109,192,267889,128,0,268089:0:0:0:0:
402,192,267889,128,0,268089:0:0:0:0:
182,192,267989,128,0,268189:0:0:0:0:
475,192,267989,128,0,268189:0:0:0:0:
256,192,267989,128,0,268189:0:0:0:0:
36,192,268089,128,0,268189:0:0:0:0:
329,192,268089,128,0,268189:0:0:0:0:
402,192,268189,1,0,0:0:0:0:
109,192,268189,1,0,0:0:0:0:
36,192,268389,1,0,0:0:0:0:
109,192,268389,1,0,0:0:0:0:
182,192,268389,1,0,0:0:0:0:
402,192,268389,1,0,0:0:0:0:
475,192,268389,1,0,0:0:0:0:
402,192,268489,1,0,0:0:0:0:
475,192,268489,1,0,0:0:0:0:
182,192,268489,1,0,0:0:0:0:
109,192,268489,1,0,0:0:0:0:
36,192,268489,1,0,0:0:0:0:
256,192,268589,1,0,0:0:0:0:
329,192,268689,1,0,0:0:0:0:
402,192,268689,1,0,0:0:0:0:
475,192,268689,1,0,0:0:0:0:
109,192,268689,1,0,0:0:0:0:
36,192,268689,1,0,0:0:0:0:
36,192,268789,1,0,0:0:0:0:
109,192,268789,1,0,0:0:0:0:
329,192,268789,1,0,0:0:0:0:
402,192,268789,1,0,0:0:0:0:
475,192,268789,1,0,0:0:0:0:
182,192,268989,128,0,269389:0:0:0:0:
475,192,268989,128,0,269389:0:0:0:0:
36,192,268989,128,0,269389:0:0:0:0:
256,192,268989,1,0,0:0:0:0:
329,192,269039,1,0,0:0:0:0:
402,192,269089,1,0,0:0:0:0:
109,192,269139,1,0,0:0:0:0:
256,192,269189,1,0,0:0:0:0:
329,192,269239,1,0,0:0:0:0:
402,192,269289,1,0,0:0:0:0:
109,192,269389,1,0,0:0:0:0:
256,192,269389,1,0,0:0:0:0:
109,192,269489,1,0,0:0:0:0:
256,192,269489,1,0,0:0:0:0:
329,192,269589,1,0,0:0:0:0:
182,192,269589,1,0,0:0:0:0:
329,192,269689,1,0,0:0:0:0:
182,192,269689,1,0,0:0:0:0:
475,192,269789,1,0,0:0:0:0:
402,192,269789,1,0,0:0:0:0:
109,192,269789,1,0,0:0:0:0:
36,192,269789,1,0,0:0:0:0:
256,192,269889,1,0,0:0:0:0:
329,192,269889,1,0,0:0:0:0:
182,192,269889,1,0,0:0:0:0:
475,192,269989,1,0,0:0:0:0:
402,192,269989,1,0,0:0:0:0:
109,192,269989,1,0,0:0:0:0:
36,192,269989,1,0,0:0:0:0:
256,192,270089,1,0,0:0:0:0:
329,192,270089,1,0,0:0:0:0:
182,192,270089,1,0,0:0:0:0:
182,192,270289,1,0,0:0:0:0:
256,192,270289,1,0,0:0:0:0:
402,192,270339,1,0,0:0:0:0:
329,192,270339,1,0,0:0:0:0:
109,192,270389,1,0,0:0:0:0:
36,192,270389,1,0,0:0:0:0:
475,192,270389,1,0,0:0:0:0:
182,192,270489,1,0,0:0:0:0:
256,192,270489,1,0,0:0:0:0:
329,192,270489,1,0,0:0:0:0:
402,192,270489,1,0,0:0:0:0:
475,192,270589,1,0,0:0:0:0:
109,192,270589,1,0,0:0:0:0:
36,192,270589,1,0,0:0:0:0:
329,192,270689,1,0,0:0:0:0:
402,192,270689,1,0,0:0:0:0:
256,192,270689,1,0,0:0:0:0:
182,192,270689,1,0,0:0:0:0:
109,192,270789,1,0,0:0:0:0:
402,192,270889,1,0,0:0:0:0:
475,192,270889,1,0,0:0:0:0:
329,192,270939,1,0,0:0:0:0:
256,192,270939,1,0,0:0:0:0:
182,192,270989,1,0,0:0:0:0:
109,192,270989,1,0,0:0:0:0:
36,192,270989,1,0,0:0:0:0:
256,192,271089,1,0,0:0:0:0:
329,192,271089,1,0,0:0:0:0:
402,192,271089,1,0,0:0:0:0:
475,192,271089,1,0,0:0:0:0:
182,192,271189,1,0,0:0:0:0:
109,192,271189,1,0,0:0:0:0:
36,192,271189,1,0,0:0:0:0:
475,192,271289,1,0,0:0:0:0:
109,192,271389,1,0,0:0:0:0:
36,192,271389,1,0,0:0:0:0:
182,192,271389,1,0,0:0:0:0:
256,192,271389,1,0,0:0:0:0:
329,192,271455,1,0,0:0:0:0:
402,192,271455,1,0,0:0:0:0:
109,192,271522,1,0,0:0:0:0:
475,192,271522,1,0,0:0:0:0:
36,192,271522,1,0,0:0:0:0:
182,192,271522,1,0,0:0:0:0:
256,192,271589,1,0,0:0:0:0:
329,192,271589,1,0,0:0:0:0:
182,192,271655,1,0,0:0:0:0:
402,192,271655,1,0,0:0:0:0:
475,192,271655,1,0,0:0:0:0:
109,192,271655,1,0,0:0:0:0:
36,192,271722,1,0,0:0:0:0:
329,192,271722,1,0,0:0:0:0:
256,192,271789,1,0,0:0:0:0:
182,192,271789,1,0,0:0:0:0:
402,192,271789,1,0,0:0:0:0:
475,192,271789,1,0,0:0:0:0:
109,192,271889,1,0,0:0:0:0:
36,192,271889,1,0,0:0:0:0:
329,192,271889,1,0,0:0:0:0:
256,192,271989,1,0,0:0:0:0:
182,192,272089,1,0,0:0:0:0:
109,192,272089,1,0,0:0:0:0:
36,192,272089,1,0,0:0:0:0:
329,192,272089,1,0,0:0:0:0:
256,192,272189,1,0,0:0:0:0:
402,192,272189,1,0,0:0:0:0:
475,192,272189,1,0,0:0:0:0:
182,192,272289,1,0,0:0:0:0:
402,192,272322,1,0,0:0:0:0:
475,192,272322,1,0,0:0:0:0:
109,192,272322,1,0,0:0:0:0:
36,192,272322,1,0,0:0:0:0:
402,192,272455,1,0,0:0:0:0:
475,192,272455,1,0,0:0:0:0:
109,192,272455,1,0,0:0:0:0:
36,192,272455,1,0,0:0:0:0:
329,192,272589,1,0,0:0:0:0:
182,192,272589,1,0,0:0:0:0:
256,192,272589,128,0,272789:0:0:0:0:
329,192,272789,1,0,0:0:0:0:
36,192,272789,1,0,0:0:0:0:
109,192,272839,1,0,0:0:0:0:
402,192,272839,1,0,0:0:0:0:
475,192,272889,1,0,0:0:0:0:
182,192,272889,1,0,0:0:0:0:
256,192,272939,1,0,0:0:0:0:
36,192,272939,1,0,0:0:0:0:
109,192,272989,1,0,0:0:0:0:
329,192,272989,1,0,0:0:0:0:
402,192,272989,1,0,0:0:0:0:
475,192,272989,1,0,0:0:0:0:
182,192,273089,1,0,0:0:0:0:
256,192,273189,1,0,0:0:0:0:
329,192,273189,1,0,0:0:0:0:
475,192,273189,1,0,0:0:0:0:
182,192,273289,128,0,273389:0:0:0:0:
109,192,273389,1,0,0:0:0:0:
36,192,273389,1,0,0:0:0:0:
402,192,273389,1,0,0:0:0:0:
475,192,273389,1,0,0:0:0:0:
329,192,273389,128,0,273489:0:0:0:0:
256,192,273489,1,0,0:0:0:0:
182,192,273489,1,0,0:0:0:0:
36,192,273589,1,0,0:0:0:0:
475,192,273589,1,0,0:0:0:0:
329,192,273589,128,0,273689:0:0:0:0:
402,192,273689,128,0,273789:0:0:0:0:
256,192,273789,1,0,0:0:0:0:
182,192,273789,1,0,0:0:0:0:
109,192,273789,1,0,0:0:0:0:
36,192,273789,1,0,0:0:0:0:
475,192,273789,1,0,0:0:0:0:
402,192,273889,128,0,273989:0:0:0:0:
182,192,273989,1,0,0:0:0:0:
109,192,273989,1,0,0:0:0:0:
329,192,273989,128,0,274089:0:0:0:0:
256,192,274089,1,0,0:0:0:0:
329,192,274189,1,0,0:0:0:0:
402,192,274189,1,0,0:0:0:0:
475,192,274189,1,0,0:0:0:0:
36,192,274189,128,0,274289:0:0:0:0:
109,192,274189,128,0,274289:0:0:0:0:
182,192,274289,1,0,0:0:0:0:
475,192,274389,1,0,0:0:0:0:
36,192,274389,1,0,0:0:0:0:
256,192,274389,128,0,274489:0:0:0:0:
329,192,274489,128,0,274589:0:0:0:0:
36,192,274589,128,0,274789:0:0:0:0:
109,192,274589,128,0,274789:0:0:0:0:
402,192,274589,128,0,274789:0:0:0:0:
475,192,274589,128,0,274789:0:0:0:0:
256,192,274689,1,0,0:0:0:0:
182,192,274789,1,0,0:0:0:0:
329,192,274789,1,0,0:0:0:0:
402,192,274889,128,0,275089:0:0:0:0:
475,192,274889,128,0,275089:0:0:0:0:
109,192,274889,128,0,275089:0:0:0:0:
36,192,274889,128,0,275089:0:0:0:0:
329,192,274989,1,0,0:0:0:0:
182,192,274989,1,0,0:0:0:0:
256,192,275089,1,0,0:0:0:0:
402,192,275189,128,0,275389:0:0:0:0:
475,192,275189,128,0,275389:0:0:0:0:
109,192,275189,128,0,275389:0:0:0:0:
36,192,275189,128,0,275389:0:0:0:0:
256,192,275289,1,0,0:0:0:0:
329,192,275389,1,0,0:0:0:0:
182,192,275389,1,0,0:0:0:0:
402,192,275489,128,0,275689:0:0:0:0:
475,192,275489,128,0,275689:0:0:0:0:
109,192,275489,128,0,275689:0:0:0:0:
36,192,275489,128,0,275689:0:0:0:0:
329,192,275589,1,0,0:0:0:0:
182,192,275589,1,0,0:0:0:0:
256,192,275689,1,0,0:0:0:0:
402,192,275789,128,0,275989:0:0:0:0:
475,192,275789,128,0,275989:0:0:0:0:
36,192,275789,128,0,275989:0:0:0:0:
109,192,275789,128,0,275989:0:0:0:0:
182,192,275989,1,0,0:0:0:0:
329,192,276039,1,0,0:0:0:0:
256,192,276089,1,0,0:0:0:0:
182,192,276139,1,0,0:0:0:0:
109,192,276189,1,0,0:0:0:0:
36,192,276189,1,0,0:0:0:0:
475,192,276189,1,0,0:0:0:0:
402,192,276222,1,0,0:0:0:0:
329,192,276255,1,0,0:0:0:0:
109,192,276289,1,0,0:0:0:0:
182,192,276322,1,0,0:0:0:0:
256,192,276355,1,0,0:0:0:0:
475,192,276389,1,0,0:0:0:0:
329,192,276389,1,0,0:0:0:0:
402,192,276389,1,0,0:0:0:0:
109,192,276489,1,0,0:0:0:0:
36,192,276489,1,0,0:0:0:0:
256,192,276589,1,0,0:0:0:0:
329,192,276589,1,0,0:0:0:0:
402,192,276589,1,0,0:0:0:0:
475,192,276589,1,0,0:0:0:0:
475,192,276689,1,0,0:0:0:0:
402,192,276689,1,0,0:0:0:0:
329,192,276789,1,0,0:0:0:0:
109,192,276789,1,0,0:0:0:0:
36,192,276789,1,0,0:0:0:0:
182,192,276789,1,0,0:0:0:0:
109,192,276889,1,0,0:0:0:0:
36,192,276889,1,0,0:0:0:0:
256,192,276989,1,0,0:0:0:0:
402,192,276989,1,0,0:0:0:0:
475,192,276989,1,0,0:0:0:0:
329,192,276989,1,0,0:0:0:0:
475,192,277089,1,0,0:0:0:0:
402,192,277089,1,0,0:0:0:0:
182,192,277189,1,0,0:0:0:0:
109,192,277189,1,0,0:0:0:0:
36,192,277189,1,0,0:0:0:0:
256,192,277189,1,0,0:0:0:0:
36,192,277289,1,0,0:0:0:0:
109,192,277289,1,0,0:0:0:0:
256,192,277389,1,0,0:0:0:0:
402,192,277389,1,0,0:0:0:0:
475,192,277389,1,0,0:0:0:0:
329,192,277389,1,0,0:0:0:0:
475,192,277489,1,0,0:0:0:0:
402,192,277489,1,0,0:0:0:0:
182,192,277589,1,0,0:0:0:0:
109,192,277589,1,0,0:0:0:0:
36,192,277589,1,0,0:0:0:0:
256,192,277589,1,0,0:0:0:0:
36,192,277689,1,0,0:0:0:0:
109,192,277689,1,0,0:0:0:0:
402,192,277789,1,0,0:0:0:0:
475,192,277789,1,0,0:0:0:0:
329,192,277822,1,0,0:0:0:0:
256,192,277855,1,0,0:0:0:0:
36,192,277889,1,0,0:0:0:0:
109,192,277922,1,0,0:0:0:0:
182,192,277955,1,0,0:0:0:0:
402,192,277989,1,0,0:0:0:0:
329,192,277989,1,0,0:0:0:0:
256,192,277989,1,0,0:0:0:0:
329,192,278089,1,0,0:0:0:0:
402,192,278089,1,0,0:0:0:0:
182,192,278189,1,0,0:0:0:0:
109,192,278189,1,0,0:0:0:0:
36,192,278189,1,0,0:0:0:0:
256,192,278189,1,0,0:0:0:0:
109,192,278289,1,0,0:0:0:0:
36,192,278289,1,0,0:0:0:0:
182,192,278389,1,0,0:0:0:0:
329,192,278389,1,0,0:0:0:0:
402,192,278389,1,0,0:0:0:0:
475,192,278389,1,0,0:0:0:0:
475,192,278489,1,0,0:0:0:0:
402,192,278489,1,0,0:0:0:0:
256,192,278589,1,0,0:0:0:0:
182,192,278589,1,0,0:0:0:0:
109,192,278589,1,0,0:0:0:0:
36,192,278589,1,0,0:0:0:0:
109,192,278689,1,0,0:0:0:0:
182,192,278689,1,0,0:0:0:0:
256,192,278789,1,0,0:0:0:0:
329,192,278789,1,0,0:0:0:0:
402,192,278789,1,0,0:0:0:0:
475,192,278789,1,0,0:0:0:0:
402,192,278889,1,0,0:0:0:0:
475,192,278889,1,0,0:0:0:0:
329,192,278989,1,0,0:0:0:0:
182,192,278989,1,0,0:0:0:0:
109,192,278989,1,0,0:0:0:0:
36,192,278989,1,0,0:0:0:0:
36,192,279089,1,0,0:0:0:0:
109,192,279089,1,0,0:0:0:0:
182,192,279189,1,0,0:0:0:0:
329,192,279189,1,0,0:0:0:0:
402,192,279189,1,0,0:0:0:0:
475,192,279189,1,0,0:0:0:0:
475,192,279289,1,0,0:0:0:0:
402,192,279289,1,0,0:0:0:0:
36,192,279389,1,0,0:0:0:0:
109,192,279422,1,0,0:0:0:0:
182,192,279455,1,0,0:0:0:0:
329,192,279489,1,0,0:0:0:0:
402,192,279522,1,0,0:0:0:0:
475,192,279555,1,0,0:0:0:0:
36,192,279589,1,0,0:0:0:0:
109,192,279589,1,0,0:0:0:0:
182,192,279639,1,0,0:0:0:0:
256,192,279639,1,0,0:0:0:0:
329,192,279689,1,0,0:0:0:0:
402,192,279689,1,0,0:0:0:0:
475,192,279739,1,0,0:0:0:0:
36,192,279739,1,0,0:0:0:0:
109,192,279789,1,0,0:0:0:0:
182,192,279789,1,0,0:0:0:0:
256,192,279839,1,0,0:0:0:0:
329,192,279839,1,0,0:0:0:0:
402,192,279889,1,0,0:0:0:0:
475,192,279889,1,0,0:0:0:0:
36,192,279939,1,0,0:0:0:0:
109,192,279939,1,0,0:0:0:0:
182,192,279989,1,0,0:0:0:0:
256,192,279989,1,0,0:0:0:0:
329,192,280039,1,0,0:0:0:0:
402,192,280039,1,0,0:0:0:0:
475,192,280089,1,0,0:0:0:0:
36,192,280089,1,0,0:0:0:0:
109,192,280089,1,0,0:0:0:0:
182,192,280139,1,0,0:0:0:0:
256,192,280139,1,0,0:0:0:0:
402,192,280189,1,0,0:0:0:0:
329,192,280189,1,0,0:0:0:0:
475,192,280222,1,0,0:0:0:0:
36,192,280255,1,0,0:0:0:0:
182,192,280289,1,0,0:0:0:0:
109,192,280289,1,0,0:0:0:0:
256,192,280322,1,0,0:0:0:0:
475,192,280355,1,0,0:0:0:0:
402,192,280389,1,0,0:0:0:0:
329,192,280422,1,0,0:0:0:0:
256,192,280455,1,0,0:0:0:0:
182,192,280489,1,0,0:0:0:0:
109,192,280522,1,0,0:0:0:0:
36,192,280555,1,0,0:0:0:0:
402,192,280589,1,0,0:0:0:0:
475,192,280589,1,0,0:0:0:0:
329,192,280622,1,0,0:0:0:0:
256,192,280655,1,0,0:0:0:0:
36,192,280689,1,0,0:0:0:0:
109,192,280722,1,0,0:0:0:0:
182,192,280755,1,0,0:0:0:0:
475,192,280789,1,0,0:0:0:0:
402,192,280822,1,0,0:0:0:0:
329,192,280855,1,0,0:0:0:0:
36,192,280889,1,0,0:0:0:0:
109,192,280889,1,0,0:0:0:0:
182,192,280922,1,0,0:0:0:0:
256,192,280955,1,0,0:0:0:0:
329,192,280989,1,0,0:0:0:0:
475,192,280989,128,0,281189:0:0:0:0:
402,192,280989,128,0,281189:0:0:0:0:
256,192,281189,128,0,281289:0:0:0:0:
36,192,281289,128,0,281489:0:0:0:0:
182,192,281489,128,0,281589:0:0:0:0:
475,192,281589,1,0,0:0:0:0:
402,192,281639,1,0,0:0:0:0:
329,192,281689,1,0,0:0:0:0:
256,192,281789,1,0,0:0:0:0:
36,192,281789,1,0,0:0:0:0:
109,192,281839,1,0,0:0:0:0:
182,192,281889,1,0,0:0:0:0:
329,192,281889,1,0,0:0:0:0:
256,192,281989,1,0,0:0:0:0:
475,192,281989,1,0,0:0:0:0:
402,192,282039,1,0,0:0:0:0:
329,192,282089,1,0,0:0:0:0:
182,192,282089,1,0,0:0:0:0:
109,192,282189,1,0,0:0:0:0:
36,192,282189,1,0,0:0:0:0:
402,192,282189,1,0,0:0:0:0:
475,192,282189,1,0,0:0:0:0:
182,192,282239,1,0,0:0:0:0:
329,192,282289,1,0,0:0:0:0:
256,192,282289,1,0,0:0:0:0:
475,192,282389,1,0,0:0:0:0:
109,192,282389,1,0,0:0:0:0:
36,192,282389,1,0,0:0:0:0:
182,192,282439,1,0,0:0:0:0:
256,192,282489,1,0,0:0:0:0:
402,192,282589,1,0,0:0:0:0:
475,192,282589,1,0,0:0:0:0:
36,192,282589,1,0,0:0:0:0:
109,192,282589,1,0,0:0:0:0:
329,192,282589,1,0,0:0:0:0:
402,192,282689,1,0,0:0:0:0:
475,192,282689,1,0,0:0:0:0:
182,192,282789,1,0,0:0:0:0:
109,192,282789,1,0,0:0:0:0:
36,192,282789,1,0,0:0:0:0:
256,192,282889,1,0,0:0:0:0:
329,192,282889,1,0,0:0:0:0:
402,192,282989,1,0,0:0:0:0:
475,192,282989,1,0,0:0:0:0:
182,192,282989,1,0,0:0:0:0:
109,192,282989,1,0,0:0:0:0:
36,192,282989,1,0,0:0:0:0:
329,192,283089,128,0,283189:0:0:0:0:
475,192,283089,1,0,0:0:0:0:
256,192,283189,128,0,283289:0:0:0:0:
109,192,283189,1,0,0:0:0:0:
36,192,283189,1,0,0:0:0:0:
182,192,283289,128,0,283389:0:0:0:0:
402,192,283289,1,0,0:0:0:0:
329,192,283389,1,0,0:0:0:0:
475,192,283389,1,0,0:0:0:0:
109,192,283389,1,0,0:0:0:0:
36,192,283389,1,0,0:0:0:0:
256,192,283389,1,0,0:0:0:0:
182,192,283489,1,0,0:0:0:0:
402,192,283489,1,0,0:0:0:0:
256,192,283539,1,0,0:0:0:0:
329,192,283589,1,0,0:0:0:0:
109,192,283589,1,0,0:0:0:0:
36,192,283589,1,0,0:0:0:0:
182,192,283689,1,0,0:0:0:0:
402,192,283689,1,0,0:0:0:0:
256,192,283789,1,0,0:0:0:0:
329,192,283789,1,0,0:0:0:0:
475,192,283789,1,0,0:0:0:0:
109,192,283789,1,0,0:0:0:0:
36,192,283789,1,0,0:0:0:0:
256,192,283989,1,0,0:0:0:0:
36,192,283989,1,0,0:0:0:0:
475,192,283989,1,0,0:0:0:0:
402,192,283989,1,0,0:0:0:0:
182,192,283989,1,0,0:0:0:0:
36,192,284189,128,0,284789:0:0:0:0:
329,192,284189,1,0,0:0:0:0:
182,192,284189,1,0,0:0:0:0:
402,192,284389,1,0,0:0:0:0:
475,192,284389,1,0,0:0:0:0:
402,192,284489,1,0,0:0:0:0:
475,192,284489,1,0,0:0:0:0:
329,192,284589,1,0,0:0:0:0:
182,192,284589,1,0,0:0:0:0:
182,192,284689,1,0,0:0:0:0:
329,192,284689,1,0,0:0:0:0:
256,192,284789,128,0,285389:0:0:0:0:
402,192,284789,1,0,0:0:0:0:
475,192,284789,1,0,0:0:0:0:
402,192,284889,1,0,0:0:0:0:
475,192,284889,1,0,0:0:0:0:
109,192,284989,1,0,0:0:0:0:
36,192,284989,1,0,0:0:0:0:
36,192,285089,1,0,0:0:0:0:
109,192,285089,1,0,0:0:0:0:
402,192,285189,1,0,0:0:0:0:
475,192,285189,1,0,0:0:0:0:
475,192,285289,1,0,0:0:0:0:
402,192,285289,1,0,0:0:0:0:
36,192,285389,1,0,0:0:0:0:
182,192,285439,1,0,0:0:0:0:
329,192,285489,1,0,0:0:0:0:
475,192,285539,1,0,0:0:0:0:
182,192,285589,1,0,0:0:0:0:
329,192,285639,1,0,0:0:0:0:
36,192,285689,1,0,0:0:0:0:
109,192,285739,1,0,0:0:0:0:
256,192,285789,1,0,0:0:0:0:
182,192,285789,1,0,0:0:0:0:
402,192,285789,1,0,0:0:0:0:
475,192,285789,1,0,0:0:0:0:
329,192,285889,1,0,0:0:0:0:
36,192,285889,1,0,0:0:0:0:
402,192,285939,1,0,0:0:0:0:
256,192,285989,1,0,0:0:0:0:
182,192,285989,1,0,0:0:0:0:
475,192,285989,1,0,0:0:0:0:
109,192,286089,1,0,0:0:0:0:
36,192,286189,1,0,0:0:0:0:
182,192,286189,1,0,0:0:0:0:
256,192,286189,1,0,0:0:0:0:
329,192,286189,1,0,0:0:0:0:
475,192,286189,1,0,0:0:0:0:
402,192,286289,128,0,286389:0:0:0:0:
329,192,286389,1,0,0:0:0:0:
109,192,286389,128,0,286489:0:0:0:0:
475,192,286389,1,0,0:0:0:0:
182,192,286489,128,0,286589:0:0:0:0:
36,192,286589,1,0,0:0:0:0:
256,192,286589,1,0,0:0:0:0:
329,192,286589,1,0,0:0:0:0:
402,192,286589,1,0,0:0:0:0:
475,192,286589,1,0,0:0:0:0:
109,192,286689,1,0,0:0:0:0:
182,192,286689,1,0,0:0:0:0:
256,192,286739,1,0,0:0:0:0:
402,192,286789,1,0,0:0:0:0:
475,192,286789,1,0,0:0:0:0:
329,192,286789,1,0,0:0:0:0:
109,192,286889,1,0,0:0:0:0:
182,192,286889,1,0,0:0:0:0:
256,192,286989,1,0,0:0:0:0:
329,192,286989,1,0,0:0:0:0:
402,192,286989,1,0,0:0:0:0:
475,192,286989,1,0,0:0:0:0:
36,192,286989,1,0,0:0:0:0:
182,192,287089,1,0,0:0:0:0:
109,192,287189,1,0,0:0:0:0:
402,192,287189,1,0,0:0:0:0:
475,192,287189,1,0,0:0:0:0:
329,192,287289,1,0,0:0:0:0:
256,192,287389,1,0,0:0:0:0:
182,192,287389,1,0,0:0:0:0:
109,192,287389,1,0,0:0:0:0:
36,192,287389,1,0,0:0:0:0:
475,192,287389,1,0,0:0:0:0:
402,192,287489,128,0,287589:0:0:0:0:
329,192,287589,128,0,287689:0:0:0:0:
256,192,287589,128,0,287689:0:0:0:0:
182,192,287589,128,0,287689:0:0:0:0:
109,192,287689,128,0,287789:0:0:0:0:
36,192,287789,1,0,0:0:0:0:
329,192,287789,1,0,0:0:0:0:
402,192,287789,1,0,0:0:0:0:
475,192,287789,1,0,0:0:0:0:
256,192,287789,1,0,0:0:0:0:
182,192,287889,1,0,0:0:0:0:
109,192,287989,1,0,0:0:0:0:
36,192,287989,1,0,0:0:0:0:
402,192,287989,1,0,0:0:0:0:
329,192,288089,1,0,0:0:0:0:
256,192,288089,1,0,0:0:0:0:
182,192,288089,1,0,0:0:0:0:
402,192,288189,1,0,0:0:0:0:
475,192,288189,1,0,0:0:0:0:
109,192,288189,1,0,0:0:0:0:
36,192,288189,1,0,0:0:0:0:
475,192,288339,1,0,0:0:0:0:
402,192,288339,1,0,0:0:0:0:
109,192,288339,1,0,0:0:0:0:
36,192,288339,1,0,0:0:0:0:
256,192,288389,1,0,0:0:0:0:
329,192,288389,1,0,0:0:0:0:
36,192,288489,1,0,0:0:0:0:
109,192,288489,1,0,0:0:0:0:
475,192,288489,1,0,0:0:0:0:
402,192,288489,1,0,0:0:0:0:
329,192,288589,1,0,0:0:0:0:
182,192,288589,1,0,0:0:0:0:
256,192,288589,1,0,0:0:0:0:
475,192,288689,128,0,288989:0:0:0:0:
36,192,288689,128,0,288989:0:0:0:0:
256,192,288789,128,0,288989:0:0:0:0:
402,192,288789,128,0,288989:0:0:0:0:
109,192,288789,128,0,288989:0:0:0:0:
329,192,288889,128,0,288989:0:0:0:0:
182,192,288889,128,0,288989:0:0:0:0:
402,192,289189,1,0,0:0:0:0:
475,192,289189,1,0,0:0:0:0:
256,192,289189,1,0,0:0:0:0:
109,192,289189,1,0,0:0:0:0:
36,192,289189,1,0,0:0:0:0:
182,192,289289,1,0,0:0:0:0:
329,192,289389,1,0,0:0:0:0:
402,192,289389,1,0,0:0:0:0:
475,192,289389,1,0,0:0:0:0:
329,192,289489,1,0,0:0:0:0:
109,192,289589,1,0,0:0:0:0:
36,192,289589,1,0,0:0:0:0:
256,192,289589,1,0,0:0:0:0:
182,192,289589,1,0,0:0:0:0:
475,192,289589,1,0,0:0:0:0:
36,192,289689,1,0,0:0:0:0:
109,192,289689,1,0,0:0:0:0:
182,192,289689,1,0,0:0:0:0:
256,192,289689,1,0,0:0:0:0:
475,192,289689,1,0,0:0:0:0:
36,192,289789,1,0,0:0:0:0:
329,192,289789,1,0,0:0:0:0:
402,192,289789,1,0,0:0:0:0:
109,192,289789,1,0,0:0:0:0:
256,192,289889,1,0,0:0:0:0:
182,192,289889,1,0,0:0:0:0:
329,192,289939,1,0,0:0:0:0:
475,192,289989,1,0,0:0:0:0:
36,192,289989,1,0,0:0:0:0:
402,192,289989,1,0,0:0:0:0:
256,192,290089,1,0,0:0:0:0:
182,192,290189,1,0,0:0:0:0:
109,192,290189,1,0,0:0:0:0:
36,192,290189,1,0,0:0:0:0:
475,192,290189,1,0,0:0:0:0:
402,192,290239,1,0,0:0:0:0:
329,192,290289,1,0,0:0:0:0:
182,192,290339,1,0,0:0:0:0:
109,192,290389,1,0,0:0:0:0:
329,192,290389,1,0,0:0:0:0:
36,192,290439,1,0,0:0:0:0:
402,192,290489,1,0,0:0:0:0:
475,192,290539,1,0,0:0:0:0:
182,192,290589,128,0,290855:0:0:0:0:
36,192,290589,128,0,290722:0:0:0:0:
109,192,290589,128,0,290722:0:0:0:0:
256,192,290722,128,0,290855:0:0:0:0:
329,192,290855,128,0,290989:0:0:0:0:
109,192,290855,128,0,290989:0:0:0:0:
402,192,290989,1,0,0:0:0:0:
475,192,290989,1,0,0:0:0:0:
256,192,290989,1,0,0:0:0:0:
36,192,290989,1,0,0:0:0:0:
182,192,291122,1,0,0:0:0:0:
256,192,291189,1,0,0:0:0:0:
402,192,291189,1,0,0:0:0:0:
109,192,291255,1,0,0:0:0:0:
36,192,291255,1,0,0:0:0:0:
329,192,291322,1,0,0:0:0:0:
256,192,291389,1,0,0:0:0:0:
182,192,291389,1,0,0:0:0:0:
475,192,291389,1,0,0:0:0:0:
36,192,291389,1,0,0:0:0:0:
109,192,291389,1,0,0:0:0:0:
475,192,291522,1,0,0:0:0:0:
256,192,291522,1,0,0:0:0:0:
182,192,291589,1,0,0:0:0:0:
109,192,291655,1,0,0:0:0:0:
329,192,291655,1,0,0:0:0:0:
109,192,291789,1,0,0:0:0:0:
329,192,291789,1,0,0:0:0:0:
402,192,291789,1,0,0:0:0:0:
475,192,291789,1,0,0:0:0:0:
36,192,291789,1,0,0:0:0:0:
182,192,291839,1,0,0:0:0:0:
256,192,291889,1,0,0:0:0:0:
329,192,291939,1,0,0:0:0:0:
36,192,291989,128,0,292089:0:0:0:0:
109,192,291989,128,0,292089:0:0:0:0:
182,192,291989,128,0,292089:0:0:0:0:
402,192,291989,128,0,292289:0:0:0:0:
475,192,291989,128,0,292289:0:0:0:0:
256,192,292089,128,0,292289:0:0:0:0:
329,192,292089,128,0,292289:0:0:0:0:
182,192,292289,128,0,292389:0:0:0:0:
329,192,292389,1,0,0:0:0:0:
109,192,292389,1,0,0:0:0:0:
36,192,292389,1,0,0:0:0:0:
475,192,292389,1,0,0:0:0:0:
402,192,292389,1,0,0:0:0:0:
182,192,292489,1,0,0:0:0:0:
256,192,292589,1,0,0:0:0:0:
182,192,292689,1,0,0:0:0:0:
36,192,292689,1,0,0:0:0:0:
182,192,292789,1,0,0:0:0:0:
36,192,292789,1,0,0:0:0:0:
402,192,292789,1,0,0:0:0:0:
475,192,292789,1,0,0:0:0:0:
329,192,292789,1,0,0:0:0:0:
329,192,292889,1,0,0:0:0:0:
475,192,292889,1,0,0:0:0:0:
256,192,292989,1,0,0:0:0:0:
402,192,293089,1,0,0:0:0:0:
329,192,293139,1,0,0:0:0:0:
256,192,293189,1,0,0:0:0:0:
182,192,293189,1,0,0:0:0:0:
109,192,293189,1,0,0:0:0:0:
36,192,293189,1,0,0:0:0:0:
475,192,293189,1,0,0:0:0:0:
329,192,293289,1,0,0:0:0:0:
402,192,293289,1,0,0:0:0:0:
256,192,293339,1,0,0:0:0:0:
182,192,293339,1,0,0:0:0:0:
109,192,293389,1,0,0:0:0:0:
36,192,293389,128,0,293739:0:0:0:0:
475,192,293489,128,0,293739:0:0:0:0:
402,192,293539,128,0,293739:0:0:0:0:
329,192,293589,128,0,293739:0:0:0:0:
256,192,293639,128,0,293739:0:0:0:0:
182,192,293689,128,0,293739:0:0:0:0:
402,192,293789,128,0,293889:0:0:0:0:
475,192,293789,128,0,293889:0:0:0:0:
329,192,293789,128,0,293889:0:0:0:0:
36,192,293789,1,0,0:0:0:0:
402,192,293989,128,0,294089:0:0:0:0:
329,192,293989,128,0,294089:0:0:0:0:
256,192,293989,128,0,294089:0:0:0:0:
329,192,294189,128,0,294289:0:0:0:0:
256,192,294189,128,0,294289:0:0:0:0:
182,192,294189,128,0,294289:0:0:0:0:
182,192,294389,128,0,294489:0:0:0:0:
109,192,294389,128,0,294489:0:0:0:0:
256,192,294389,128,0,294489:0:0:0:0:
475,192,294389,1,0,0:0:0:0:
329,192,294489,1,0,0:0:0:0:
109,192,294589,128,0,294989:0:0:0:0:
36,192,294589,128,0,294989:0:0:0:0:
182,192,294589,128,0,294689:0:0:0:0:
402,192,294589,1,0,0:0:0:0:
256,192,294689,1,0,0:0:0:0:
329,192,294789,1,0,0:0:0:0:
475,192,294789,128,0,294989:0:0:0:0:
402,192,294789,128,0,294989:0:0:0:0:
182,192,294889,1,0,0:0:0:0:
256,192,294989,1,0,0:0:0:0:
182,192,295089,128,0,295289:0:0:0:0:
109,192,295089,128,0,295289:0:0:0:0:
329,192,295089,128,0,295289:0:0:0:0:
402,192,295089,128,0,295289:0:0:0:0:
402,192,295389,1,0,0:0:0:0:
109,192,295389,1,0,0:0:0:0:
329,192,295489,1,0,0:0:0:0:
36,192,295489,1,0,0:0:0:0:
109,192,295539,1,0,0:0:0:0:
402,192,295539,1,0,0:0:0:0:
475,192,295589,1,0,0:0:0:0:
182,192,295589,1,0,0:0:0:0:
256,192,295639,1,0,0:0:0:0:
329,192,295689,1,0,0:0:0:0:
36,192,295689,1,0,0:0:0:0:
109,192,295739,1,0,0:0:0:0:
402,192,295739,1,0,0:0:0:0:
182,192,295789,1,0,0:0:0:0:
475,192,295789,1,0,0:0:0:0:
329,192,295889,1,0,0:0:0:0:
256,192,295889,1,0,0:0:0:0:
109,192,295989,1,0,0:0:0:0:
182,192,295989,1,0,0:0:0:0:
402,192,295989,1,0,0:0:0:0:
475,192,295989,1,0,0:0:0:0:
36,192,295989,1,0,0:0:0:0:
329,192,296089,128,0,296289:0:0:0:0:
36,192,296289,1,0,0:0:0:0:
109,192,296289,1,0,0:0:0:0:
182,192,296289,1,0,0:0:0:0:
402,192,296289,1,0,0:0:0:0:
475,192,296289,1,0,0:0:0:0:
402,192,296389,1,0,0:0:0:0:
475,192,296389,1,0,0:0:0:0:
182,192,296389,1,0,0:0:0:0:
109,192,296389,1,0,0:0:0:0:
36,192,296389,1,0,0:0:0:0:
256,192,296489,1,0,0:0:0:0:
329,192,296589,1,0,0:0:0:0:
402,192,296589,1,0,0:0:0:0:
475,192,296589,1,0,0:0:0:0:
109,192,296589,1,0,0:0:0:0:
36,192,296589,1,0,0:0:0:0:
36,192,296689,1,0,0:0:0:0:
109,192,296689,1,0,0:0:0:0:
329,192,296689,1,0,0:0:0:0:
402,192,296689,1,0,0:0:0:0:
475,192,296689,1,0,0:0:0:0:
182,192,296789,1,0,0:0:0:0:
256,192,296889,1,0,0:0:0:0:
329,192,296889,1,0,0:0:0:0:
402,192,296889,1,0,0:0:0:0:
475,192,296889,1,0,0:0:0:0:
109,192,296889,1,0,0:0:0:0:
109,192,296989,1,0,0:0:0:0:
256,192,296989,1,0,0:0:0:0:
329,192,296989,1,0,0:0:0:0:
402,192,296989,1,0,0:0:0:0:
475,192,296989,1,0,0:0:0:0:
36,192,297089,1,0,0:0:0:0:
475,192,297189,1,0,0:0:0:0:
402,192,297239,1,0,0:0:0:0:
329,192,297289,1,0,0:0:0:0:
256,192,297339,1,0,0:0:0:0:
182,192,297389,1,0,0:0:0:0:
109,192,297389,1,0,0:0:0:0:
36,192,297389,1,0,0:0:0:0:
475,192,297389,1,0,0:0:0:0:
402,192,297389,1,0,0:0:0:0:
329,192,297489,1,0,0:0:0:0:
109,192,297589,1,0,0:0:0:0:
182,192,297589,1,0,0:0:0:0:
256,192,297639,1,0,0:0:0:0:
329,192,297639,1,0,0:0:0:0:
402,192,297689,1,0,0:0:0:0:
475,192,297689,1,0,0:0:0:0:
329,192,297789,1,0,0:0:0:0:
256,192,297789,1,0,0:0:0:0:
182,192,297789,1,0,0:0:0:0:
109,192,297789,1,0,0:0:0:0:
36,192,297789,1,0,0:0:0:0:
329,192,297889,1,0,0:0:0:0:
256,192,297889,1,0,0:0:0:0:
182,192,297889,1,0,0:0:0:0:
109,192,297889,1,0,0:0:0:0:
36,192,297889,1,0,0:0:0:0:
402,192,297989,128,0,298089:0:0:0:0:
475,192,298089,1,0,0:0:0:0:
256,192,298089,1,0,0:0:0:0:
182,192,298089,1,0,0:0:0:0:
109,192,298089,1,0,0:0:0:0:
329,192,298089,1,0,0:0:0:0:
36,192,298189,1,0,0:0:0:0:
402,192,298289,1,0,0:0:0:0:
329,192,298389,1,0,0:0:0:0:
256,192,298389,1,0,0:0:0:0:
182,192,298389,1,0,0:0:0:0:
36,192,298389,1,0,0:0:0:0:
475,192,298389,1,0,0:0:0:0:
402,192,298489,1,0,0:0:0:0:
109,192,298489,1,0,0:0:0:0:
182,192,298589,1,0,0:0:0:0:
256,192,298589,1,0,0:0:0:0:
329,192,298589,1,0,0:0:0:0:
475,192,298689,1,0,0:0:0:0:
36,192,298689,1,0,0:0:0:0:
109,192,298739,1,0,0:0:0:0:
402,192,298739,1,0,0:0:0:0:
329,192,298789,1,0,0:0:0:0:
182,192,298789,1,0,0:0:0:0:
256,192,298839,1,0,0:0:0:0:
36,192,298889,1,0,0:0:0:0:
475,192,298889,1,0,0:0:0:0:
402,192,298939,1,0,0:0:0:0:
109,192,298939,1,0,0:0:0:0:
329,192,298989,1,0,0:0:0:0:
182,192,298989,1,0,0:0:0:0:
109,192,299089,1,0,0:0:0:0:
402,192,299089,1,0,0:0:0:0:
329,192,299189,1,0,0:0:0:0:
36,192,299189,1,0,0:0:0:0:
182,192,299189,1,0,0:0:0:0:
475,192,299189,1,0,0:0:0:0:
256,192,299189,1,0,0:0:0:0:
402,192,299289,1,0,0:0:0:0:
109,192,299289,1,0,0:0:0:0:
329,192,299489,1,0,0:0:0:0:
402,192,299489,1,0,0:0:0:0:
475,192,299489,1,0,0:0:0:0:
109,192,299489,1,0,0:0:0:0:
36,192,299489,1,0,0:0:0:0:
36,192,299589,1,0,0:0:0:0:
109,192,299589,1,0,0:0:0:0:
329,192,299589,1,0,0:0:0:0:
402,192,299589,1,0,0:0:0:0:
475,192,299589,1,0,0:0:0:0:
329,192,299689,1,0,0:0:0:0:
402,192,299689,1,0,0:0:0:0:
475,192,299689,1,0,0:0:0:0:
109,192,299689,1,0,0:0:0:0:
36,192,299689,1,0,0:0:0:0:
182,192,299789,1,0,0:0:0:0:
109,192,299789,1,0,0:0:0:0:
36,192,299789,1,0,0:0:0:0:
256,192,299789,1,0,0:0:0:0:
475,192,299889,1,0,0:0:0:0:
402,192,299939,1,0,0:0:0:0:
329,192,299989,1,0,0:0:0:0:
256,192,299989,1,0,0:0:0:0:
182,192,299989,1,0,0:0:0:0:
109,192,299989,1,0,0:0:0:0:
36,192,299989,1,0,0:0:0:0:
475,192,300089,128,0,300189:0:0:0:0:
402,192,300089,128,0,300189:0:0:0:0:
182,192,300189,1,0,0:0:0:0:
256,192,300189,1,0,0:0:0:0:
36,192,300189,1,0,0:0:0:0:
109,192,300189,1,0,0:0:0:0:
109,192,300289,128,0,300389:0:0:0:0:
36,192,300289,128,0,300389:0:0:0:0:
329,192,300389,1,0,0:0:0:0:
475,192,300389,1,0,0:0:0:0:
402,192,300389,1,0,0:0:0:0:
256,192,300389,1,0,0:0:0:0:
475,192,300489,128,0,300589:0:0:0:0:
402,192,300489,128,0,300589:0:0:0:0:
182,192,300589,1,0,0:0:0:0:
36,192,300589,1,0,0:0:0:0:
109,192,300589,1,0,0:0:0:0:
256,192,300589,1,0,0:0:0:0:
36,192,300689,128,0,300789:0:0:0:0:
109,192,300689,128,0,300789:0:0:0:0:
329,192,300789,1,0,0:0:0:0:
402,192,300789,1,0,0:0:0:0:
256,192,300889,1,0,0:0:0:0:
109,192,300889,1,0,0:0:0:0:
36,192,300889,1,0,0:0:0:0:
182,192,300889,1,0,0:0:0:0:
475,192,300989,128,0,301189:0:0:0:0:
402,192,300989,128,0,301189:0:0:0:0:
36,192,301089,1,0,0:0:0:0:
109,192,301139,1,0,0:0:0:0:
182,192,301189,1,0,0:0:0:0:
256,192,301189,1,0,0:0:0:0:
329,192,301189,1,0,0:0:0:0:
402,192,301289,128,0,301589:0:0:0:0:
109,192,301289,128,0,301589:0:0:0:0:
182,192,301389,128,0,301589:0:0:0:0:
329,192,301389,128,0,301589:0:0:0:0:
256,192,301589,128,0,301689:0:0:0:0:
329,192,301689,128,0,301789:0:0:0:0:
182,192,301689,128,0,301789:0:0:0:0:
256,192,301789,1,0,0:0:0:0:
109,192,301789,1,0,0:0:0:0:
36,192,301789,1,0,0:0:0:0:
402,192,301789,1,0,0:0:0:0:
475,192,301789,1,0,0:0:0:0:
475,192,301889,1,0,0:0:0:0:
182,192,301889,1,0,0:0:0:0:
402,192,301939,1,0,0:0:0:0:
109,192,301939,1,0,0:0:0:0:
329,192,301989,1,0,0:0:0:0:
36,192,301989,1,0,0:0:0:0:
256,192,302039,1,0,0:0:0:0:
475,192,302089,1,0,0:0:0:0:
182,192,302089,1,0,0:0:0:0:
402,192,302139,1,0,0:0:0:0:
109,192,302139,1,0,0:0:0:0:
329,192,302189,1,0,0:0:0:0:
36,192,302189,1,0,0:0:0:0:
256,192,302289,1,0,0:0:0:0:
182,192,302289,1,0,0:0:0:0:
109,192,302389,1,0,0:0:0:0:
36,192,302389,1,0,0:0:0:0:
329,192,302489,1,0,0:0:0:0:
256,192,302489,1,0,0:0:0:0:
402,192,302589,128,0,302689:0:0:0:0:
475,192,302589,128,0,302689:0:0:0:0:
109,192,302589,128,0,302689:0:0:0:0:
36,192,302589,128,0,302689:0:0:0:0:
182,192,302689,128,0,302789:0:0:0:0:
256,192,302689,128,0,302789:0:0:0:0:
329,192,302689,128,0,302789:0:0:0:0:
475,192,302789,1,0,0:0:0:0:
36,192,302789,1,0,0:0:0:0:
109,192,302889,1,0,0:0:0:0:
402,192,302889,1,0,0:0:0:0:
182,192,302989,1,0,0:0:0:0:
256,192,302989,1,0,0:0:0:0:
329,192,302989,1,0,0:0:0:0:
475,192,302989,1,0,0:0:0:0:
36,192,302989,1,0,0:0:0:0:
402,192,303089,1,0,0:0:0:0:
475,192,303189,1,0,0:0:0:0:
109,192,303189,1,0,0:0:0:0:
36,192,303189,1,0,0:0:0:0:
182,192,303289,1,0,0:0:0:0:
256,192,303289,1,0,0:0:0:0:
329,192,303289,1,0,0:0:0:0:
402,192,303289,1,0,0:0:0:0:
109,192,303389,1,0,0:0:0:0:
475,192,303389,1,0,0:0:0:0:
182,192,303439,1,0,0:0:0:0:
36,192,303489,1,0,0:0:0:0:
402,192,303589,1,0,0:0:0:0:
475,192,303589,1,0,0:0:0:0:
182,192,303589,1,0,0:0:0:0:
256,192,303589,1,0,0:0:0:0:
329,192,303589,1,0,0:0:0:0:
109,192,303689,1,0,0:0:0:0:
36,192,303689,1,0,0:0:0:0:
182,192,303739,1,0,0:0:0:0:
329,192,303789,1,0,0:0:0:0:
256,192,303789,1,0,0:0:0:0:
475,192,303789,1,0,0:0:0:0:
402,192,303889,1,0,0:0:0:0:
182,192,303889,1,0,0:0:0:0:
109,192,303889,1,0,0:0:0:0:
36,192,303889,1,0,0:0:0:0:
329,192,303989,1,0,0:0:0:0:
475,192,303989,1,0,0:0:0:0:
256,192,304039,1,0,0:0:0:0:
109,192,304089,1,0,0:0:0:0:
182,192,304089,1,0,0:0:0:0:
402,192,304089,1,0,0:0:0:0:
36,192,304089,1,0,0:0:0:0:
475,192,304189,128,0,304289:0:0:0:0:
402,192,304189,128,0,304289:0:0:0:0:
36,192,304189,128,0,304289:0:0:0:0:
109,192,304189,128,0,304289:0:0:0:0:
329,192,304289,128,0,304389:0:0:0:0:
256,192,304289,128,0,304389:0:0:0:0:
182,192,304289,128,0,304389:0:0:0:0:
36,192,304389,128,0,304489:0:0:0:0:
475,192,304389,128,0,304489:0:0:0:0:
402,192,304489,128,0,304589:0:0:0:0:
109,192,304589,1,0,0:0:0:0:
256,192,304689,1,0,0:0:0:0:
182,192,304789,1,0,0:0:0:0:
329,192,304889,1,0,0:0:0:0:
402,192,304989,1,0,0:0:0:0:
109,192,304989,1,0,0:0:0:0:
36,192,304989,1,0,0:0:0:0:
475,192,304989,1,0,0:0:0:0:
182,192,304989,1,0,0:0:0:0:
329,192,305089,1,0,0:0:0:0:
36,192,305089,1,0,0:0:0:0:
109,192,305139,1,0,0:0:0:0:
402,192,305139,1,0,0:0:0:0:
475,192,305189,1,0,0:0:0:0:
182,192,305189,1,0,0:0:0:0:
256,192,305239,1,0,0:0:0:0:
329,192,305289,1,0,0:0:0:0:
36,192,305289,1,0,0:0:0:0:
109,192,305339,1,0,0:0:0:0:
402,192,305339,1,0,0:0:0:0:
182,192,305389,1,0,0:0:0:0:
475,192,305389,1,0,0:0:0:0:
329,192,305489,1,0,0:0:0:0:
256,192,305489,1,0,0:0:0:0:
36,192,305589,1,0,0:0:0:0:
475,192,305589,1,0,0:0:0:0:
109,192,305689,1,0,0:0:0:0:
182,192,305689,1,0,0:0:0:0:
36,192,305789,128,0,305889:0:0:0:0:
329,192,305789,128,0,305889:0:0:0:0:
402,192,305789,128,0,305889:0:0:0:0:
475,192,305789,128,0,305889:0:0:0:0:
109,192,305889,128,0,305989:0:0:0:0:
182,192,305889,128,0,305989:0:0:0:0:
256,192,305889,128,0,305989:0:0:0:0:
402,192,305989,1,0,0:0:0:0:
475,192,305989,1,0,0:0:0:0:
36,192,306089,1,0,0:0:0:0:
109,192,306089,1,0,0:0:0:0:
329,192,306189,1,0,0:0:0:0:
256,192,306189,1,0,0:0:0:0:
182,192,306189,1,0,0:0:0:0:
402,192,306189,1,0,0:0:0:0:
475,192,306189,1,0,0:0:0:0:
109,192,306289,1,0,0:0:0:0:
36,192,306289,1,0,0:0:0:0:
182,192,306339,1,0,0:0:0:0:
256,192,306389,1,0,0:0:0:0:
329,192,306389,1,0,0:0:0:0:
109,192,306489,1,0,0:0:0:0:
475,192,306489,1,0,0:0:0:0:
182,192,306489,1,0,0:0:0:0:
36,192,306489,1,0,0:0:0:0:
402,192,306489,1,0,0:0:0:0:
329,192,306589,1,0,0:0:0:0:
256,192,306639,1,0,0:0:0:0:
182,192,306689,1,0,0:0:0:0:
475,192,306689,1,0,0:0:0:0:
402,192,306789,1,0,0:0:0:0:
329,192,306789,1,0,0:0:0:0:
256,192,306789,1,0,0:0:0:0:
36,192,306789,1,0,0:0:0:0:
109,192,306789,1,0,0:0:0:0:
182,192,306889,1,0,0:0:0:0:
36,192,306989,1,0,0:0:0:0:
256,192,306989,1,0,0:0:0:0:
109,192,307039,1,0,0:0:0:0:
182,192,307089,1,0,0:0:0:0:
329,192,307089,1,0,0:0:0:0:
402,192,307089,1,0,0:0:0:0:
475,192,307089,1,0,0:0:0:0:
256,192,307189,1,0,0:0:0:0:
182,192,307239,1,0,0:0:0:0:
109,192,307289,1,0,0:0:0:0:
36,192,307289,1,0,0:0:0:0:
402,192,307289,1,0,0:0:0:0:
475,192,307289,1,0,0:0:0:0:
475,192,307389,1,0,0:0:0:0:
36,192,307389,1,0,0:0:0:0:
182,192,307389,1,0,0:0:0:0:
329,192,307389,1,0,0:0:0:0:
402,192,307489,1,0,0:0:0:0:
109,192,307589,1,0,0:0:0:0:
402,192,307689,1,0,0:0:0:0:
256,192,307789,128,0,308189:0:0:0:0:
36,192,307789,1,0,0:0:0:0:
109,192,307839,1,0,0:0:0:0:
182,192,307889,1,0,0:0:0:0:
475,192,307939,1,0,0:0:0:0:
402,192,307989,1,0,0:0:0:0:
329,192,308039,1,0,0:0:0:0:
36,192,308089,1,0,0:0:0:0:
109,192,308139,1,0,0:0:0:0:
182,192,308189,1,0,0:0:0:0:
329,192,308189,1,0,0:0:0:0:
402,192,308189,1,0,0:0:0:0:
475,192,308189,1,0,0:0:0:0:
