osu file format v14

[General]
AudioFilename: FM_Synthesis_Experiment.mp3
AudioLeadIn: 0
PreviewTime: 140975
Countdown: 0
SampleSet: Normal
StackLeniency: 0.7
Mode: 3
LetterboxInBreaks: 0
SpecialStyle: 0
WidescreenStoryboard: 1

[Editor]
Bookmarks: 64175,77375,102975,141375,217775,230975,268975,285375,307775
DistanceSpacing: 1.1
BeatDivisor: 8
GridSize: 4
TimelineZoom: 2.199999

[Metadata]
Title:FM Synthesis Experiment
TitleUnicode:FM Synthesis Experiment
Artist:Camellia
ArtistUnicode:かめりあ
Creator:Curiossity
Version:Transmission Log 0018-5
Source:
Tags:heart of android Comiket C95 CTCD-018 Cametek かめるかめりあ Kamelcamellia Featured Artists Hardcore Techno Trap Electronic Instrumental osu! FA
BeatmapID:1909748
BeatmapSetID:914341

[Difficulty]
HPDrainRate:8.7
CircleSize:4
OverallDifficulty:7.8
ApproachRate:5
SliderMultiplier:1.4
SliderTickRate:1

[Events]
//Background and Video events
0,0,"synthesis.jpg",0,0
//Break Periods
//Storyboard Layer 0 (Background)
//Storyboard Layer 1 (Fail)
//Storyboard Layer 2 (Pass)
//Storyboard Layer 3 (Foreground)
//Storyboard Layer 4 (Overlay)
//Storyboard Sound Samples

[TimingPoints]
975,400,4,1,1,70,1,0
24975,-142.857142857143,4,1,1,70,0,0
25025,-111.111111111111,4,1,1,70,0,0
25075,-90.9090909090909,4,1,1,70,0,0
25125,-76.9230769230769,4,1,1,70,0,0
25175,-142.857142857143,4,1,1,70,0,0
25225,-111.111111111111,4,1,1,70,0,0
25275,-90.9090909090909,4,1,1,70,0,0
25325,-76.9230769230769,4,1,1,70,0,0
25375,-62.5,4,1,1,70,0,0
25408,-125,4,1,1,70,0,0
25508,-62.5,4,1,1,70,0,0
25541,-125,4,1,1,70,0,0
25641,-62.5,4,1,1,70,0,0
25675,-125,4,1,1,70,0,0
25775,-62.5,4,1,1,70,0,0
25808,-125,4,1,1,70,0,0
25908,-62.5,4,1,1,70,0,0
25941,-125,4,1,1,70,0,0
26041,-62.5,4,1,1,70,0,0
26075,-125,4,1,1,70,0,0
26175,-62.5,4,1,1,70,0,0
26208,-125,4,1,1,70,0,0
26308,-62.5,4,1,1,70,0,0
26341,-125,4,1,1,70,0,0
26441,-62.5,4,1,1,70,0,0
26475,-125,4,1,1,70,0,0
26575,-10,4,1,1,70,0,0
26608,-117.647058823529,4,1,1,70,0,0
39375,-111.111111111111,4,1,1,70,0,0
50575,-100,4,1,1,70,0,0
52175,-10,4,1,1,70,0,0
52200,-125,4,1,1,70,0,0
55075,-66.6666666666667,4,1,1,70,0,0
55108,-125,4,1,1,70,0,0
55375,-66.6666666666667,4,1,1,70,0,0
55408,-125,4,1,1,70,0,0
55575,-66.6666666666667,4,1,1,70,0,0
55608,-125,4,1,1,70,0,0
57075,-41.6666666666667,4,1,1,70,0,0
57108,-125,4,1,1,70,0,0
57375,-41.6666666666667,4,1,1,70,0,0
57408,-125,4,1,1,70,0,0
57675,-41.6666666666667,4,1,1,70,0,0
57708,-125,4,1,1,70,0,0
57975,-41.6666666666667,4,1,1,70,0,0
58008,-125,4,1,1,70,0,0
58175,-166.666666666667,4,1,1,70,0,0
58275,-83.3333333333333,4,1,1,70,0,0
58375,-166.666666666667,4,1,1,70,0,0
58475,-83.3333333333333,4,1,1,70,0,0
58575,-10,4,1,1,70,0,0
58600,-111.111111111111,4,1,1,70,0,0
61475,-66.6666666666667,4,1,1,70,0,0
61508,-111.111111111111,4,1,1,70,0,0
61775,-66.6666666666667,4,1,1,70,0,0
61808,-111.111111111111,4,1,1,70,0,0
61975,-66.6666666666667,4,1,1,70,0,0
62008,-111.111111111111,4,1,1,70,0,0
62275,-66.6666666666667,4,1,1,70,0,0
62308,-111.111111111111,4,1,1,70,0,0
62475,-66.6666666666667,4,1,1,70,0,0
62508,-111.111111111111,4,1,1,70,0,0
64175,-200,4,1,1,70,0,0
64225,-66.6666666666667,4,1,1,70,0,0
64275,-200,4,1,1,70,0,0
64300,-66.6666666666667,4,1,1,70,0,0
64325,-200,4,1,1,70,0,0
64350,-66.6666666666667,4,1,1,70,0,0
64375,-200,4,1,1,70,0,0
64400,-66.6666666666667,4,1,1,70,0,0
64425,-200,4,1,1,70,0,0
64450,-66.6666666666667,4,1,1,70,0,0
64475,-200,4,1,1,70,0,0
64550,-40,4,1,1,70,0,0
64575,-66.6666666666667,4,1,1,70,0,0
64625,-200,4,1,1,70,0,0
64675,-66.6666666666667,4,1,1,70,0,0
64725,-200,4,1,1,70,0,0
64775,-66.6666666666667,4,1,1,70,0,0
64825,-200,4,1,1,70,0,0
64875,-66.6666666666667,4,1,1,70,0,0
64925,-200,4,1,1,70,0,0
64975,-100,4,1,1,70,0,0
67775,-250,4,1,1,70,0,0
67875,-125,4,1,1,70,0,0
67975,-83.3333333333333,4,1,1,70,0,0
68075,-62.5,4,1,1,70,0,0
68175,-100,4,1,1,70,0,0
70975,-76.9230769230769,4,1,1,70,0,0
71025,-58.8235294117647,4,1,1,70,0,0
71075,-1000,4,1,1,70,0,0
71125,-76.9230769230769,4,1,1,70,0,0
71175,-58.8235294117647,4,1,1,70,0,0
71225,-1000,4,1,1,70,0,0
71275,-76.9230769230769,4,1,1,70,0,0
71325,-58.8235294117647,4,1,1,70,0,0
71375,-100,4,1,1,60,0,0
74575,-100,4,1,1,50,0,0
76175,-100,4,1,1,70,0,0
77375,-66.6666666666667,4,1,1,70,0,0
77400,-200,4,1,1,70,0,0
77425,-66.6666666666667,4,1,1,70,0,0
77450,-200,4,1,1,70,0,0
77475,-66.6666666666667,4,1,1,70,0,0
77500,-200,4,1,1,70,0,0
77525,-66.6666666666667,4,1,1,70,0,0
77550,-200,4,1,1,70,0,0
77575,-66.6666666666667,4,1,1,70,0,0
77600,-200,4,1,1,70,0,0
77625,-66.6666666666667,4,1,1,70,0,0
77650,-200,4,1,1,70,0,0
77675,-66.6666666666667,4,1,1,70,0,0
77700,-200,4,1,1,70,0,0
77725,-66.6666666666667,4,1,1,70,0,0
77750,-200,4,1,1,70,0,0
77775,-100,4,1,1,70,0,0
80775,-76.923076923077,4,1,1,70,0,0
80825,-90.9090909090908,4,1,1,70,0,0
80875,-111.111111111111,4,1,1,70,0,0
80925,-142.857142857143,4,1,1,70,0,0
80975,-100,4,1,1,70,0,0
83775,-142.857142857143,4,1,1,70,0,0
83825,-111.111111111111,4,1,1,70,0,0
83875,-90.9090909090909,4,1,1,70,0,0
83925,-76.9230769230769,4,1,1,70,0,0
83975,-142.857142857143,4,1,1,70,0,0
84025,-111.111111111111,4,1,1,70,0,0
84075,-90.9090909090909,4,1,1,70,0,0
84125,-76.9230769230769,4,1,1,70,0,0
84175,-100,4,1,1,70,0,0
87175,-76.923076923077,4,1,1,70,0,0
87225,-90.9090909090908,4,1,1,70,0,0
87275,-111.111111111111,4,1,1,70,0,0
87325,-142.857142857143,4,1,1,70,0,0
87375,-100,4,1,1,70,0,0
90275,-10,4,1,1,70,0,0
90300,-100,4,1,1,70,0,0
93575,-76.9230769230769,4,1,1,70,0,0
93625,-90.9090909090909,4,1,1,70,0,0
93675,-111.111111111111,4,1,1,70,0,0
93725,-142.857142857143,4,1,1,70,0,0
93775,-100,4,1,1,70,0,0
96575,-142.857142857143,4,1,1,70,0,0
96625,-111.111111111111,4,1,1,70,0,0
96675,-90.9090909090909,4,1,1,70,0,0
96725,-76.9230769230769,4,1,1,70,0,0
96825,-90.9090909090909,4,1,1,70,0,0
96875,-111.111111111111,4,1,1,70,0,0
96925,-142.857142857143,4,1,1,70,0,0
96975,-100,4,1,1,70,0,0
102975,-66.6666666666667,4,1,1,70,0,0
103000,-200,4,1,1,70,0,0
103025,-66.6666666666667,4,1,1,70,0,0
103050,-200,4,1,1,70,0,0
103075,-66.6666666666667,4,1,1,70,0,0
103100,-200,4,1,1,70,0,0
103125,-66.6666666666667,4,1,1,70,0,0
103150,-200,4,1,1,70,0,0
103175,-66.6666666666667,4,1,1,70,0,0
103200,-200,4,1,1,70,0,0
103225,-66.6666666666667,4,1,1,70,0,0
103250,-200,4,1,1,70,0,0
103275,-66.6666666666667,4,1,1,70,0,0
103300,-200,4,1,1,70,0,0
103325,-66.6666666666667,4,1,1,70,0,0
103350,-200,4,1,1,70,0,0
103375,-100,4,1,1,70,0,1
109775,-111.111111111111,4,1,1,70,0,0
111175,-100,4,1,1,70,0,0
111375,-111.111111111111,4,1,1,70,0,0
112775,-100,4,1,1,70,0,0
112975,-111.111111111111,4,1,1,70,0,0
114175,-100,4,1,1,70,0,0
115875,-10,4,1,1,70,0,0
115900,-100,4,1,1,70,0,0
116175,-142.857142857143,4,1,1,70,0,0
116225,-111.111111111111,4,1,1,70,0,0
116275,-90.9090909090909,4,1,1,70,0,0
116325,-76.9230769230769,4,1,1,70,0,0
116375,-142.857142857143,4,1,1,70,0,0
116425,-111.111111111111,4,1,1,70,0,0
116475,-90.9090909090909,4,1,1,70,0,0
116525,-76.9230769230769,4,1,1,70,0,0
116575,-100,4,1,1,70,0,1
121975,-66.6666666666667,4,1,1,70,0,1
122041,-133.333333333333,4,1,1,70,0,1
122175,-10,4,1,1,70,0,1
122200,-111.111111111111,4,1,1,70,0,1
122575,-125,4,1,1,70,0,0
122725,-83.3333333333333,4,1,1,70,0,0
122775,-125,4,1,1,70,0,0
122925,-83.3333333333333,4,1,1,70,0,0
122975,-125,4,1,1,70,0,0
123375,-100,4,1,1,70,0,0
123775,-111.111111111111,4,1,1,70,0,0
125575,-100,4,1,1,70,0,0
125775,-111.111111111111,4,1,1,70,0,0
126375,-105.263157894737,4,1,1,70,0,0
126975,-100,4,1,1,70,0,0
128575,-200,4,1,1,70,0,0
128600,-66.6666666666667,4,1,1,70,0,0
128625,-200,4,1,1,70,0,0
128650,-66.6666666666667,4,1,1,70,0,0
128675,-200,4,1,1,70,0,0
128700,-66.6666666666667,4,1,1,70,0,0
128725,-200,4,1,1,70,0,0
128750,-66.6666666666667,4,1,1,70,0,0
128775,-200,4,1,1,70,0,0
128800,-66.6666666666667,4,1,1,70,0,0
128825,-200,4,1,1,70,0,0
128850,-66.6666666666667,4,1,1,70,0,0
128875,-200,4,1,1,70,0,0
128900,-66.6666666666667,4,1,1,70,0,0
128925,-200,4,1,1,70,0,0
128950,-66.6666666666667,4,1,1,70,0,0
128975,-111.111111111111,4,1,1,70,0,0
135375,-100,4,1,1,60,0,0
138575,-100,4,1,1,50,0,0
140175,-66.6666666666667,4,1,1,70,0,0
140225,-200,4,1,1,70,0,0
140275,-66.6666666666667,4,1,1,70,0,0
140325,-200,4,1,1,70,0,0
140375,-66.6666666666667,4,1,1,70,0,0
140425,-200,4,1,1,70,0,0
140475,-66.6666666666667,4,1,1,70,0,0
140525,-200,4,1,1,70,0,0
140575,-66.6666666666667,4,1,1,70,0,0
140625,-200,4,1,1,70,0,0
140675,-66.6666666666667,4,1,1,70,0,0
140725,-200,4,1,1,70,0,0
140775,-66.6666666666667,4,1,1,70,0,0
140825,-200,4,1,1,70,0,0
140875,-66.6666666666667,4,1,1,70,0,0
140925,-200,4,1,1,70,0,0
140975,-100,4,1,1,70,0,0
141375,-66.6666666666667,4,1,1,70,0,0
141400,-200,4,1,1,70,0,0
141425,-66.6666666666667,4,1,1,70,0,0
141450,-200,4,1,1,70,0,0
141475,-66.6666666666667,4,1,1,70,0,0
141500,-200,4,1,1,70,0,0
141525,-66.6666666666667,4,1,1,70,0,0
141550,-200,4,1,1,70,0,0
141575,-66.6666666666667,4,1,1,70,0,0
141600,-200,4,1,1,70,0,0
141625,-66.6666666666667,4,1,1,70,0,0
141650,-200,4,1,1,70,0,0
141675,-66.6666666666667,4,1,1,70,0,0
141700,-200,4,1,1,70,0,0
141725,-66.6666666666667,4,1,1,70,0,0
141750,-200,4,1,1,70,0,0
141775,-33.3333333333333,4,1,1,70,0,0
141825,-100,4,1,1,70,0,0
142975,-100,4,1,1,70,0,1
144975,-100,4,1,1,70,0,0
145175,-66.6666666666667,4,1,1,70,0,0
145241,-111.111111111111,4,1,1,70,0,0
145375,-66.6666666666667,4,1,1,70,0,0
145441,-111.111111111111,4,1,1,70,0,0
145575,-142.857142857143,4,1,1,70,0,0
145625,-111.111111111111,4,1,1,70,0,0
145675,-90.9090909090909,4,1,1,70,0,0
145725,-76.9230769230769,4,1,1,70,0,0
145775,-100,4,1,1,70,0,0
146175,-100,4,1,1,70,0,1
147575,-10,4,1,1,70,0,1
147600,-100,4,1,1,70,0,1
154575,-66.6666666666667,4,1,1,70,0,0
154625,-100,4,1,1,70,0,0
154975,-66.6666666666667,4,1,1,70,0,0
155025,-100,4,1,1,70,0,0
155775,-100,4,1,1,70,0,1
157775,-100,4,1,1,70,0,0
157975,-66.6666666666667,4,1,1,70,0,0
158041,-111.111111111111,4,1,1,70,0,0
158175,-66.6666666666667,4,1,1,70,0,0
158241,-111.111111111111,4,1,1,70,0,0
158375,-142.857142857143,4,1,1,70,0,0
158425,-111.111111111111,4,1,1,70,0,0
158475,-90.9090909090909,4,1,1,70,0,0
158525,-76.9230769230769,4,1,1,70,0,0
158575,-100,4,1,1,70,0,0
158975,-100,4,1,1,70,0,1
160375,-10,4,1,1,70,0,1
160400,-100,4,1,1,70,0,1
166775,-66.6666666666667,4,1,1,70,0,1
166825,-200,4,1,1,70,0,1
166875,-66.6666666666667,4,1,1,70,0,1
166925,-200,4,1,1,70,0,1
166975,-66.6666666666667,4,1,1,70,0,1
167025,-200,4,1,1,70,0,1
167075,-66.6666666666667,4,1,1,70,0,1
167125,-200,4,1,1,70,0,1
167175,-66.6666666666667,4,1,1,70,0,1
167225,-200,4,1,1,70,0,1
167275,-66.6666666666667,4,1,1,70,0,1
167325,-200,4,1,1,70,0,1
167375,-10,4,1,1,70,0,0
167400,-117.647058823529,4,1,1,70,0,0
170575,-117.647058823529,4,1,1,60,0,0
173775,-117.647058823529,4,1,1,45,0,0
176975,-117.647058823529,4,1,1,30,0,0
180175,-117.647058823529,4,1,1,20,0,0
192975,-117.647058823529,4,1,1,30,0,0
196175,-117.647058823529,4,1,1,40,0,0
199375,-111.111111111111,4,1,1,70,0,0
202575,-100,4,1,1,70,0,0
204175,-142.857142857143,4,1,1,70,0,0
204225,-111.111111111111,4,1,1,70,0,0
204275,-90.9090909090909,4,1,1,70,0,0
204325,-76.9230769230769,4,1,1,70,0,0
204375,-142.857142857143,4,1,1,70,0,0
204425,-111.111111111111,4,1,1,70,0,0
204475,-90.9090909090909,4,1,1,70,0,0
204525,-76.9230769230769,4,1,1,70,0,0
204575,-62.5,4,1,1,70,0,0
204608,-125,4,1,1,70,0,0
204708,-62.5,4,1,1,70,0,0
204741,-125,4,1,1,70,0,0
204841,-62.5,4,1,1,70,0,0
204875,-125,4,1,1,70,0,0
204975,-62.5,4,1,1,70,0,0
205008,-125,4,1,1,70,0,0
205108,-62.5,4,1,1,70,0,0
205141,-125,4,1,1,70,0,0
205241,-62.5,4,1,1,70,0,0
205275,-125,4,1,1,70,0,0
205375,-62.5,4,1,1,70,0,0
205408,-125,4,1,1,70,0,0
205508,-62.5,4,1,1,70,0,0
205541,-125,4,1,1,70,0,0
205641,-62.5,4,1,1,70,0,0
205675,-125,4,1,1,70,0,0
205775,-111.111111111111,4,1,1,70,0,0
211775,-166.666666666666,4,1,1,70,0,0
211875,-83.3333333333333,4,1,1,70,0,0
211975,-166.666666666666,4,1,1,70,0,0
212075,-83.3333333333333,4,1,1,70,0,0
212175,-111.111111111111,4,1,1,70,0,0
217775,-200,4,1,1,70,0,0
217825,-66.6666666666667,4,1,1,70,0,0
217875,-200,4,1,1,70,0,0
217900,-66.6666666666667,4,1,1,70,0,0
217925,-200,4,1,1,70,0,0
217950,-66.6666666666667,4,1,1,70,0,0
217975,-200,4,1,1,70,0,0
218000,-66.6666666666667,4,1,1,70,0,0
218025,-200,4,1,1,70,0,0
218050,-66.6666666666667,4,1,1,70,0,0
218075,-200,4,1,1,70,0,0
218150,-40,4,1,1,70,0,0
218175,-66.6666666666667,4,1,1,70,0,0
218225,-200,4,1,1,70,0,0
218275,-66.6666666666667,4,1,1,70,0,0
218325,-200,4,1,1,70,0,0
218375,-66.6666666666667,4,1,1,70,0,0
218425,-200,4,1,1,70,0,0
218475,-66.6666666666667,4,1,1,70,0,0
218525,-200,4,1,1,70,0,0
218575,-100,4,1,1,70,0,0
221375,-250,4,1,1,70,0,0
221475,-125,4,1,1,70,0,0
221575,-83.3333333333333,4,1,1,70,0,0
221675,-62.5,4,1,1,70,0,0
221775,-100,4,1,1,70,0,0
224575,-76.9230769230769,4,1,1,70,0,0
224625,-58.8235294117647,4,1,1,70,0,0
224675,-1000,4,1,1,70,0,0
224725,-76.9230769230769,4,1,1,70,0,0
224775,-58.8235294117647,4,1,1,70,0,0
224825,-1000,4,1,1,70,0,0
224875,-76.9230769230769,4,1,1,70,0,0
224925,-58.8235294117647,4,1,1,70,0,0
224975,-100,4,1,1,60,0,0
228175,-100,4,1,1,50,0,0
229775,-100,4,1,1,70,0,0
230975,-66.6666666666667,4,1,1,70,0,0
231000,-200,4,1,1,70,0,0
231025,-66.6666666666667,4,1,1,70,0,0
231050,-200,4,1,1,70,0,0
231075,-66.6666666666667,4,1,1,70,0,0
231100,-200,4,1,1,70,0,0
231125,-66.6666666666667,4,1,1,70,0,0
231150,-200,4,1,1,70,0,0
231175,-66.6666666666667,4,1,1,70,0,0
231200,-200,4,1,1,70,0,0
231225,-66.6666666666667,4,1,1,70,0,0
231250,-200,4,1,1,70,0,0
231275,-66.6666666666667,4,1,1,70,0,0
231300,-200,4,1,1,70,0,0
231325,-66.6666666666667,4,1,1,70,0,0
231350,-200,4,1,1,70,0,0
231375,-100,4,1,1,70,0,1
243775,-142.857142857143,4,1,1,70,0,1
243825,-111.111111111111,4,1,1,70,0,1
243875,-90.9090909090909,4,1,1,70,0,1
243925,-76.9230769230769,4,1,1,70,0,1
243975,-100,4,1,1,70,0,1
250675,-125,4,1,1,70,0,1
250875,-100,4,1,1,70,0,1
250975,-125,4,1,1,70,0,1
251175,-100,4,1,1,70,0,1
251275,-125,4,1,1,70,0,1
251375,-83.3333333333333,4,1,1,70,0,1
251425,-100,4,1,1,70,0,1
251575,-142.857142857143,4,1,1,70,0,1
251625,-111.111111111111,4,1,1,70,0,1
251675,-90.9090909090909,4,1,1,70,0,1
251725,-76.9230769230769,4,1,1,70,0,1
251775,-100,4,1,1,70,0,1
255375,-100,4,1,1,70,0,0
256975,-100,4,1,1,70,0,1
265775,-71.4285714285714,4,1,1,70,0,1
265825,-125,4,1,1,70,0,1
265925,-71.4285714285714,4,1,1,70,0,1
265975,-125,4,1,1,70,0,1
266075,-71.4285714285714,4,1,1,70,0,1
266125,-166.666666666667,4,1,1,70,0,1
266175,-71.4285714285714,4,1,1,70,0,1
266225,-125,4,1,1,70,0,1
266325,-71.4285714285714,4,1,1,70,0,1
266375,-125,4,1,1,70,0,1
266475,-71.4285714285714,4,1,1,70,0,1
266525,-166.666666666667,4,1,1,70,0,1
266575,-100,4,1,1,70,0,1
268975,-200,4,1,1,70,0,0
269025,-66.6666666666667,4,1,1,70,0,0
269075,-200,4,1,1,70,0,0
269100,-66.6666666666667,4,1,1,70,0,0
269125,-200,4,1,1,70,0,0
269150,-66.6666666666667,4,1,1,70,0,0
269175,-200,4,1,1,70,0,0
269200,-66.6666666666667,4,1,1,70,0,0
269225,-200,4,1,1,70,0,0
269250,-66.6666666666667,4,1,1,70,0,0
269275,-200,4,1,1,70,0,0
269350,-40,4,1,1,70,0,0
269375,-66.6666666666667,4,1,1,70,0,0
269425,-200,4,1,1,70,0,0
269475,-66.6666666666667,4,1,1,70,0,0
269525,-200,4,1,1,70,0,0
269575,-66.6666666666667,4,1,1,70,0,0
269625,-200,4,1,1,70,0,0
269675,-66.6666666666667,4,1,1,70,0,0
269725,-200,4,1,1,70,0,0
269775,-100,4,1,1,70,0,1
276175,-100,4,1,1,60,0,1
279375,-100,4,1,1,50,0,1
280975,-100,4,1,1,70,0,0
282575,-100,4,1,1,70,0,1
285375,-66.6666666666667,4,1,1,70,0,1
285400,-200,4,1,1,70,0,1
285425,-66.6666666666667,4,1,1,70,0,1
285450,-200,4,1,1,70,0,1
285475,-66.6666666666667,4,1,1,70,0,1
285500,-200,4,1,1,70,0,1
285525,-66.6666666666667,4,1,1,70,0,1
285550,-200,4,1,1,70,0,1
285575,-66.6666666666667,4,1,1,70,0,1
285600,-200,4,1,1,70,0,1
285625,-66.6666666666667,4,1,1,70,0,1
285650,-200,4,1,1,70,0,1
285675,-66.6666666666667,4,1,1,70,0,1
285700,-200,4,1,1,70,0,1
285725,-66.6666666666667,4,1,1,70,0,1
285750,-200,4,1,1,70,0,1
285775,-100,4,1,1,70,0,1
288975,-142.857142857143,4,1,1,70,0,1
289025,-111.111111111111,4,1,1,70,0,1
289075,-90.9090909090909,4,1,1,70,0,1
289125,-76.9230769230769,4,1,1,70,0,1
289175,-100,4,1,1,70,0,1
295075,-10,4,1,1,70,0,1
295100,-100,4,1,1,70,0,1
301375,-76.9230769230769,4,1,1,70,0,1
301425,-83.3333333333333,4,1,1,70,0,1
301475,-90.9090909090909,4,1,1,70,0,1
301525,-100,4,1,1,70,0,1
301575,-111.111111111111,4,1,1,70,0,1
301625,-125,4,1,1,70,0,1
301675,-100,4,1,1,70,0,1
307775,-66.6666666666667,4,1,1,70,0,1
307800,-200,4,1,1,70,0,1
307825,-66.6666666666667,4,1,1,70,0,1
307850,-200,4,1,1,70,0,1
307875,-66.6666666666667,4,1,1,70,0,1
307900,-200,4,1,1,70,0,1
307925,-66.6666666666667,4,1,1,70,0,1
307950,-200,4,1,1,70,0,1
307975,-66.6666666666667,4,1,1,70,0,1
308000,-200,4,1,1,70,0,1
308025,-66.6666666666667,4,1,1,70,0,1
308050,-200,4,1,1,70,0,1
308075,-66.6666666666667,4,1,1,70,0,1
308100,-200,4,1,1,70,0,1
308125,-66.6666666666667,4,1,1,70,0,1
308150,-200,4,1,1,70,0,1
308175,-100,4,1,1,70,0,0

[HitObjects]
192,192,24975,128,2,25175:0:0:0:0:
64,192,24975,128,0,25175:0:0:0:0:
448,192,24975,128,0,25375:0:0:0:0:
320,192,25175,128,0,25641:0:0:0:0:
192,192,25375,128,0,25775:0:0:0:0:
448,192,25508,1,0,0:0:0:0:
64,192,25641,1,0,0:0:0:0:
448,192,25775,1,0,0:0:0:0:
320,192,25775,128,2,25975:0:0:0:0:
64,192,25908,1,0,0:0:0:0:
320,192,26041,1,0,0:0:0:0:
64,192,26175,128,0,26375:0:0:0:0:
192,192,26175,1,0,0:0:0:0:
448,192,26308,1,0,0:0:0:0:
64,192,26441,1,0,0:0:0:0:
448,192,26575,1,0,0:0:0:0:
320,192,26575,1,2,0:0:0:0:
192,192,26575,1,4,0:0:0:0:
448,192,26975,1,0,0:0:0:0:
64,192,27075,1,0,0:0:0:0:
448,192,27175,128,0,27225:0:0:0:0:
64,192,27275,128,0,27325:0:0:0:0:
448,192,27375,128,0,27475:0:0:0:0:
64,192,27475,128,0,27575:0:0:0:0:
448,192,27575,128,0,27675:0:0:0:0:
64,192,27675,128,0,27775:0:0:0:0:
448,192,27775,128,0,27825:0:0:0:0:
64,192,27875,128,0,27925:0:0:0:0:
448,192,27975,1,0,0:0:0:0:
64,192,28075,1,0,0:0:0:0:
448,192,28175,1,0,0:0:0:0:
192,192,28275,1,0,0:0:0:0:
320,192,28375,1,0,0:0:0:0:
64,192,28475,1,0,0:0:0:0:
192,192,28575,128,0,28875:0:0:0:0:
448,192,28675,128,0,28875:0:0:0:0:
64,192,28775,128,0,28875:0:0:0:0:
320,192,28875,128,0,28975:0:0:0:0:
64,192,28975,1,0,0:0:0:0:
192,192,29075,128,0,29175:0:0:0:0:
64,192,29175,1,0,0:0:0:0:
448,192,29275,128,0,29375:0:0:0:0:
64,192,29375,1,0,0:0:0:0:
320,192,29475,128,0,29575:0:0:0:0:
192,192,29575,1,0,0:0:0:0:
448,192,29675,128,0,29775:0:0:0:0:
192,192,29775,1,0,0:0:0:0:
64,192,29875,1,0,0:0:0:0:
320,192,29975,1,0,0:0:0:0:
192,192,30075,1,0,0:0:0:0:
448,192,30175,1,0,0:0:0:0:
192,192,30275,1,0,0:0:0:0:
448,192,30375,128,0,30425:0:0:0:0:
192,192,30475,128,0,30525:0:0:0:0:
448,192,30575,128,0,30675:0:0:0:0:
192,192,30675,128,0,30775:0:0:0:0:
448,192,30775,128,0,30875:0:0:0:0:
192,192,30875,128,0,30975:0:0:0:0:
448,192,30975,128,0,31025:0:0:0:0:
192,192,31075,128,0,31125:0:0:0:0:
448,192,31175,1,0,0:0:0:0:
192,192,31275,1,0,0:0:0:0:
448,192,31375,1,0,0:0:0:0:
64,192,31475,1,0,0:0:0:0:
320,192,31575,1,0,0:0:0:0:
64,192,31675,1,0,0:0:0:0:
192,192,31775,128,0,32075:0:0:0:0:
448,192,31875,128,0,32075:0:0:0:0:
64,192,31975,128,0,32075:0:0:0:0:
320,192,32075,128,0,32175:0:0:0:0:
448,192,32175,1,0,0:0:0:0:
64,192,32275,128,0,32375:0:0:0:0:
320,192,32375,1,0,0:0:0:0:
192,192,32475,128,0,32575:0:0:0:0:
448,192,32575,1,0,0:0:0:0:
64,192,32675,128,0,32775:0:0:0:0:
448,192,32775,1,0,0:0:0:0:
192,192,32875,128,0,32975:0:0:0:0:
320,192,32975,1,0,0:0:0:0:
448,192,33075,1,0,0:0:0:0:
192,192,33175,1,0,0:0:0:0:
320,192,33275,1,0,0:0:0:0:
64,192,33375,1,0,0:0:0:0:
320,192,33475,1,0,0:0:0:0:
64,192,33575,128,0,33625:0:0:0:0:
320,192,33675,128,0,33725:0:0:0:0:
64,192,33775,128,0,33875:0:0:0:0:
320,192,33875,128,0,33975:0:0:0:0:
64,192,33975,128,0,34075:0:0:0:0:
320,192,34075,128,0,34175:0:0:0:0:
64,192,34175,128,0,34225:0:0:0:0:
320,192,34275,128,0,34325:0:0:0:0:
64,192,34375,1,0,0:0:0:0:
320,192,34475,1,0,0:0:0:0:
64,192,34575,1,0,0:0:0:0:
448,192,34675,1,0,0:0:0:0:
192,192,34775,1,0,0:0:0:0:
448,192,34875,1,0,0:0:0:0:
320,192,34975,128,0,35275:0:0:0:0:
64,192,35075,128,0,35275:0:0:0:0:
448,192,35175,128,0,35275:0:0:0:0:
192,192,35275,128,0,35375:0:0:0:0:
320,192,35375,1,0,0:0:0:0:
64,192,35475,128,0,35575:0:0:0:0:
320,192,35575,1,0,0:0:0:0:
192,192,35675,128,0,35775:0:0:0:0:
320,192,35775,1,0,0:0:0:0:
448,192,35875,128,0,35975:0:0:0:0:
320,192,35975,1,0,0:0:0:0:
64,192,36075,128,0,36175:0:0:0:0:
192,192,36175,1,0,0:0:0:0:
448,192,36275,1,0,0:0:0:0:
320,192,36375,1,0,0:0:0:0:
192,192,36475,1,0,0:0:0:0:
448,192,36575,1,0,0:0:0:0:
320,192,36675,1,0,0:0:0:0:
448,192,36775,128,0,36825:0:0:0:0:
320,192,36875,128,0,36925:0:0:0:0:
448,192,36975,128,0,37075:0:0:0:0:
320,192,37075,128,0,37175:0:0:0:0:
448,192,37175,128,0,37275:0:0:0:0:
320,192,37275,128,0,37375:0:0:0:0:
448,192,37375,128,0,37425:0:0:0:0:
320,192,37475,128,0,37525:0:0:0:0:
448,192,37575,1,0,0:0:0:0:
320,192,37675,1,0,0:0:0:0:
192,192,37775,1,0,0:0:0:0:
448,192,37875,1,0,0:0:0:0:
64,192,37975,1,0,0:0:0:0:
320,192,38075,1,0,0:0:0:0:
64,192,38175,1,0,0:0:0:0:
192,192,38275,1,0,0:0:0:0:
64,192,38375,128,0,38425:0:0:0:0:
192,192,38475,128,0,38525:0:0:0:0:
64,192,38575,128,0,38675:0:0:0:0:
192,192,38675,128,0,38775:0:0:0:0:
64,192,38775,128,0,38875:0:0:0:0:
192,192,38875,128,0,38975:0:0:0:0:
64,192,38975,128,0,39025:0:0:0:0:
192,192,39075,128,0,39125:0:0:0:0:
64,192,39175,1,0,0:0:0:0:
192,192,39275,1,0,0:0:0:0:
320,192,39375,1,4,0:0:0:0:
448,192,39375,1,0,0:0:0:0:
192,192,39475,1,0,0:0:0:0:
448,192,39575,1,0,0:0:0:0:
64,192,39675,1,0,0:0:0:0:
320,192,39775,1,0,0:0:0:0:
64,192,39875,1,0,0:0:0:0:
320,192,39975,128,0,40025:0:0:0:0:
64,192,40075,128,0,40125:0:0:0:0:
320,192,40175,128,0,40275:0:0:0:0:
64,192,40275,128,0,40375:0:0:0:0:
320,192,40375,128,0,40475:0:0:0:0:
64,192,40475,128,0,40575:0:0:0:0:
320,192,40575,128,0,40625:0:0:0:0:
64,192,40675,128,0,40725:0:0:0:0:
320,192,40775,1,0,0:0:0:0:
64,192,40875,1,0,0:0:0:0:
448,192,40975,1,0,0:0:0:0:
192,192,41075,1,0,0:0:0:0:
320,192,41175,1,0,0:0:0:0:
64,192,41275,1,0,0:0:0:0:
320,192,41375,128,0,41575:0:0:0:0:
192,192,41475,128,0,41575:0:0:0:0:
448,192,41575,128,0,41675:0:0:0:0:
192,192,41675,128,0,41775:0:0:0:0:
320,192,41775,1,0,0:0:0:0:
64,192,41875,128,0,41975:0:0:0:0:
320,192,41975,1,0,0:0:0:0:
192,192,42075,128,0,42175:0:0:0:0:
448,192,42175,1,0,0:0:0:0:
192,192,42275,1,0,0:0:0:0:
320,192,42375,1,0,0:0:0:0:
64,192,42441,1,0,0:0:0:0:
448,192,42508,1,0,0:0:0:0:
192,192,42575,1,0,0:0:0:0:
64,192,42675,1,0,0:0:0:0:
320,192,42775,1,0,0:0:0:0:
448,192,42875,1,0,0:0:0:0:
192,192,42975,1,0,0:0:0:0:
448,192,43075,1,0,0:0:0:0:
192,192,43175,128,0,43225:0:0:0:0:
448,192,43275,128,0,43325:0:0:0:0:
192,192,43375,128,0,43475:0:0:0:0:
448,192,43475,128,0,43575:0:0:0:0:
192,192,43575,128,0,43675:0:0:0:0:
448,192,43675,128,0,43775:0:0:0:0:
192,192,43775,128,0,43825:0:0:0:0:
448,192,43875,128,0,43925:0:0:0:0:
192,192,43975,1,0,0:0:0:0:
448,192,44075,1,0,0:0:0:0:
320,192,44175,1,0,0:0:0:0:
64,192,44275,1,0,0:0:0:0:
448,192,44375,1,0,0:0:0:0:
192,192,44475,1,0,0:0:0:0:
448,192,44575,128,0,44775:0:0:0:0:
64,192,44675,128,0,44775:0:0:0:0:
320,192,44775,128,0,44875:0:0:0:0:
64,192,44875,128,0,44975:0:0:0:0:
448,192,44975,1,0,0:0:0:0:
192,192,45075,128,0,45175:0:0:0:0:
448,192,45175,1,0,0:0:0:0:
64,192,45275,128,0,45375:0:0:0:0:
320,192,45375,1,0,0:0:0:0:
64,192,45475,1,0,0:0:0:0:
448,192,45575,1,0,0:0:0:0:
192,192,45641,1,0,0:0:0:0:
320,192,45708,1,0,0:0:0:0:
64,192,45775,1,0,0:0:0:0:
448,192,45875,1,0,0:0:0:0:
320,192,45975,1,0,0:0:0:0:
192,192,46075,1,0,0:0:0:0:
448,192,46175,1,0,0:0:0:0:
64,192,46275,1,0,0:0:0:0:
448,192,46375,128,0,46425:0:0:0:0:
64,192,46475,128,0,46525:0:0:0:0:
448,192,46575,128,0,46675:0:0:0:0:
64,192,46675,128,0,46775:0:0:0:0:
448,192,46775,128,0,46875:0:0:0:0:
64,192,46875,128,0,46975:0:0:0:0:
448,192,46975,128,0,47025:0:0:0:0:
64,192,47075,128,0,47125:0:0:0:0:
448,192,47175,1,0,0:0:0:0:
64,192,47275,1,0,0:0:0:0:
448,192,47375,1,0,0:0:0:0:
192,192,47475,1,0,0:0:0:0:
320,192,47575,1,0,0:0:0:0:
64,192,47675,1,0,0:0:0:0:
320,192,47775,128,0,47975:0:0:0:0:
192,192,47875,128,0,47975:0:0:0:0:
448,192,47975,128,0,48075:0:0:0:0:
192,192,48075,128,0,48175:0:0:0:0:
320,192,48175,1,0,0:0:0:0:
64,192,48275,128,0,48375:0:0:0:0:
320,192,48375,1,0,0:0:0:0:
192,192,48475,128,0,48575:0:0:0:0:
448,192,48575,1,0,0:0:0:0:
320,192,48675,1,0,0:0:0:0:
192,192,48775,1,0,0:0:0:0:
64,192,48841,1,0,0:0:0:0:
448,192,48908,1,0,0:0:0:0:
320,192,48975,1,0,0:0:0:0:
192,192,49075,1,0,0:0:0:0:
448,192,49175,1,0,0:0:0:0:
64,192,49275,1,0,0:0:0:0:
192,192,49375,1,0,0:0:0:0:
320,192,49475,1,0,0:0:0:0:
192,192,49575,128,0,49625:0:0:0:0:
320,192,49675,128,0,49725:0:0:0:0:
192,192,49775,128,0,49875:0:0:0:0:
320,192,49875,128,0,49975:0:0:0:0:
192,192,49975,128,0,50075:0:0:0:0:
320,192,50075,128,0,50175:0:0:0:0:
192,192,50175,128,0,50225:0:0:0:0:
320,192,50275,128,0,50325:0:0:0:0:
192,192,50375,1,0,0:0:0:0:
320,192,50475,1,0,0:0:0:0:
64,192,50575,5,0,0:0:0:0:
192,192,50625,1,0,0:0:0:0:
448,192,50675,1,0,0:0:0:0:
320,192,50725,1,0,0:0:0:0:
192,192,50775,1,0,0:0:0:0:
448,192,50841,1,0,0:0:0:0:
64,192,50908,1,0,0:0:0:0:
320,192,50975,1,0,0:0:0:0:
192,192,51075,1,0,0:0:0:0:
448,192,51175,1,0,0:0:0:0:
192,192,51275,1,0,0:0:0:0:
64,192,51375,1,0,0:0:0:0:
448,192,51475,1,0,0:0:0:0:
320,192,51575,5,0,0:0:0:0:
320,192,51675,1,0,0:0:0:0:
64,192,51775,5,0,0:0:0:0:
64,192,51875,1,0,0:0:0:0:
192,192,51975,1,0,0:0:0:0:
448,192,52075,1,0,0:0:0:0:
320,192,52175,1,4,0:0:0:0:
448,192,52175,1,0,0:0:0:0:
64,192,52175,1,0,0:0:0:0:
448,192,52575,1,0,0:0:0:0:
64,192,52675,1,0,0:0:0:0:
448,192,52775,128,0,52825:0:0:0:0:
64,192,52875,128,0,52925:0:0:0:0:
448,192,52975,128,0,53075:0:0:0:0:
64,192,53075,128,0,53175:0:0:0:0:
448,192,53175,128,0,53275:0:0:0:0:
64,192,53275,128,0,53375:0:0:0:0:
448,192,53375,128,0,53425:0:0:0:0:
64,192,53475,128,0,53525:0:0:0:0:
448,192,53575,1,0,0:0:0:0:
64,192,53675,1,0,0:0:0:0:
64,192,54275,1,0,0:0:0:0:
320,192,54375,128,0,54575:0:0:0:0:
64,192,54575,1,0,0:0:0:0:
320,192,54675,128,0,54875:0:0:0:0:
64,192,54875,1,0,0:0:0:0:
320,192,54975,128,0,55075:0:0:0:0:
64,192,55075,1,0,0:0:0:0:
192,192,55075,1,4,0:0:0:0:
320,192,55175,1,0,0:0:0:0:
448,192,55275,128,0,55375:0:0:0:0:
64,192,55375,1,0,0:0:0:0:
192,192,55375,1,4,0:0:0:0:
64,192,55575,1,0,0:0:0:0:
192,192,55575,1,4,0:0:0:0:
448,192,55775,1,0,0:0:0:0:
64,192,55875,1,0,0:0:0:0:
448,192,55975,128,0,56025:0:0:0:0:
64,192,56075,128,0,56125:0:0:0:0:
448,192,56175,128,0,56275:0:0:0:0:
64,192,56275,128,0,56375:0:0:0:0:
448,192,56375,128,0,56475:0:0:0:0:
64,192,56475,128,0,56575:0:0:0:0:
448,192,56575,128,0,56625:0:0:0:0:
64,192,56675,128,0,56725:0:0:0:0:
448,192,56775,1,0,0:0:0:0:
64,192,56875,1,0,0:0:0:0:
320,192,57075,1,4,0:0:0:0:
448,192,57075,1,0,0:0:0:0:
320,192,57375,1,4,0:0:0:0:
448,192,57375,1,0,0:0:0:0:
320,192,57675,1,4,0:0:0:0:
448,192,57675,1,0,0:0:0:0:
320,192,57975,1,4,0:0:0:0:
448,192,57975,1,0,0:0:0:0:
448,192,58175,128,0,58375:0:0:0:0:
64,192,58225,128,0,58375:0:0:0:0:
320,192,58375,128,0,58575:0:0:0:0:
192,192,58425,128,0,58575:0:0:0:0:
64,192,58575,1,0,0:0:0:0:
448,192,58575,1,4,0:0:0:0:
448,192,58975,1,0,0:0:0:0:
64,192,59075,1,0,0:0:0:0:
448,192,59175,128,0,59225:0:0:0:0:
64,192,59275,128,0,59325:0:0:0:0:
448,192,59375,128,0,59475:0:0:0:0:
64,192,59475,128,0,59575:0:0:0:0:
448,192,59575,128,0,59675:0:0:0:0:
64,192,59675,128,0,59775:0:0:0:0:
448,192,59775,128,0,59825:0:0:0:0:
64,192,59875,128,0,59925:0:0:0:0:
448,192,59975,1,0,0:0:0:0:
64,192,60075,1,0,0:0:0:0:
192,192,60675,1,0,0:0:0:0:
448,192,60775,128,0,60975:0:0:0:0:
192,192,60975,1,0,0:0:0:0:
448,192,61075,128,0,61275:0:0:0:0:
192,192,61275,1,0,0:0:0:0:
448,192,61375,128,0,61475:0:0:0:0:
64,192,61475,1,0,0:0:0:0:
192,192,61475,1,4,0:0:0:0:
448,192,61575,1,0,0:0:0:0:
320,192,61675,128,0,61775:0:0:0:0:
64,192,61775,1,0,0:0:0:0:
192,192,61775,1,4,0:0:0:0:
64,192,61975,1,0,0:0:0:0:
192,192,61975,1,4,0:0:0:0:
448,192,62175,1,0,0:0:0:0:
192,192,62275,1,4,0:0:0:0:
64,192,62275,1,0,0:0:0:0:
448,192,62375,128,0,62425:0:0:0:0:
192,192,62475,1,4,0:0:0:0:
64,192,62475,128,0,62525:0:0:0:0:
448,192,62575,128,0,62675:0:0:0:0:
64,192,62675,128,0,62775:0:0:0:0:
448,192,62775,128,0,62875:0:0:0:0:
64,192,62875,128,0,62975:0:0:0:0:
448,192,62975,128,0,63025:0:0:0:0:
64,192,63075,128,0,63125:0:0:0:0:
448,192,63175,1,0,0:0:0:0:
64,192,63275,1,0,0:0:0:0:
448,192,63375,1,0,0:0:0:0:
192,192,63475,1,0,0:0:0:0:
320,192,63575,1,0,0:0:0:0:
64,192,63675,1,0,0:0:0:0:
320,192,63775,1,0,0:0:0:0:
192,192,63875,1,0,0:0:0:0:
448,192,63975,1,0,0:0:0:0:
192,192,64075,1,0,0:0:0:0:
448,192,64175,128,0,64475:0:0:0:0:
64,192,64175,128,0,64275:0:0:0:0:
192,192,64275,1,0,0:0:0:0:
320,192,64325,1,0,0:0:0:0:
64,192,64375,1,0,0:0:0:0:
192,192,64425,1,0,0:0:0:0:
320,192,64475,1,0,0:0:0:0:
448,192,64575,128,0,64608:0:0:0:0:
448,192,64675,128,0,64708:0:0:0:0:
64,192,64775,128,0,64808:0:0:0:0:
64,192,64875,128,0,64908:0:0:0:0:
448,192,64975,1,0,0:0:0:0:
192,192,64975,1,2,0:0:0:0:
320,192,64975,1,4,0:0:0:0:
64,192,65175,1,0,0:0:0:0:
192,192,65175,1,2,0:0:0:0:
192,192,65275,1,2,0:0:0:0:
320,192,65275,1,0,0:0:0:0:
448,192,65375,1,0,0:0:0:0:
64,192,65475,1,0,0:0:0:0:
192,192,65475,1,2,0:0:0:0:
192,192,65575,1,2,0:0:0:0:
320,192,65575,1,0,0:0:0:0:
64,192,65775,1,0,0:0:0:0:
192,192,65775,1,2,0:0:0:0:
320,192,65875,1,0,0:0:0:0:
192,192,65875,1,2,0:0:0:0:
448,192,65975,1,0,0:0:0:0:
64,192,66075,1,0,0:0:0:0:
192,192,66075,1,2,0:0:0:0:
320,192,66175,1,0,0:0:0:0:
192,192,66175,1,2,0:0:0:0:
64,192,66375,1,0,0:0:0:0:
192,192,66375,1,2,0:0:0:0:
448,192,66425,1,2,0:0:0:0:
320,192,66475,1,2,0:0:0:0:
64,192,66475,1,0,0:0:0:0:
192,192,66525,1,2,0:0:0:0:
320,192,66575,1,2,0:0:0:0:
448,192,66575,1,0,0:0:0:0:
320,192,66775,1,2,0:0:0:0:
448,192,66775,1,0,0:0:0:0:
320,192,66875,1,2,0:0:0:0:
192,192,66875,1,0,0:0:0:0:
64,192,66975,1,0,0:0:0:0:
320,192,67075,1,2,0:0:0:0:
448,192,67075,1,0,0:0:0:0:
320,192,67175,1,2,0:0:0:0:
192,192,67175,1,0,0:0:0:0:
320,192,67375,1,2,0:0:0:0:
448,192,67375,1,0,0:0:0:0:
320,192,67475,1,2,0:0:0:0:
192,192,67475,1,0,0:0:0:0:
64,192,67575,1,0,0:0:0:0:
320,192,67675,1,2,0:0:0:0:
448,192,67675,1,0,0:0:0:0:
320,192,67775,128,2,68175:0:0:0:0:
192,192,67775,1,0,0:0:0:0:
64,192,68175,1,0,0:0:0:0:
192,192,68175,1,2,0:0:0:0:
192,192,68375,1,2,0:0:0:0:
64,192,68375,1,0,0:0:0:0:
320,192,68475,1,2,0:0:0:0:
64,192,68475,1,0,0:0:0:0:
448,192,68575,1,0,0:0:0:0:
64,192,68675,1,0,0:0:0:0:
192,192,68675,1,2,0:0:0:0:
64,192,68775,1,0,0:0:0:0:
320,192,68775,1,2,0:0:0:0:
64,192,68975,1,0,0:0:0:0:
192,192,68975,1,2,0:0:0:0:
64,192,69075,1,0,0:0:0:0:
320,192,69075,1,2,0:0:0:0:
448,192,69175,1,0,0:0:0:0:
64,192,69275,1,0,0:0:0:0:
192,192,69275,1,2,0:0:0:0:
64,192,69375,1,0,0:0:0:0:
320,192,69375,1,2,0:0:0:0:
64,192,69575,1,0,0:0:0:0:
192,192,69575,1,2,0:0:0:0:
320,192,69625,1,2,0:0:0:0:
448,192,69675,1,0,0:0:0:0:
192,192,69675,1,2,0:0:0:0:
64,192,69725,1,2,0:0:0:0:
320,192,69775,1,2,0:0:0:0:
448,192,69775,1,0,0:0:0:0:
320,192,69975,1,2,0:0:0:0:
448,192,69975,1,0,0:0:0:0:
192,192,70075,1,2,0:0:0:0:
448,192,70075,1,0,0:0:0:0:
64,192,70175,1,0,0:0:0:0:
320,192,70275,1,2,0:0:0:0:
448,192,70275,1,0,0:0:0:0:
192,192,70375,1,2,0:0:0:0:
448,192,70375,1,0,0:0:0:0:
320,192,70575,1,2,0:0:0:0:
448,192,70575,1,0,0:0:0:0:
192,192,70675,1,2,0:0:0:0:
448,192,70675,1,0,0:0:0:0:
320,192,70775,128,0,70975:0:0:0:0:
64,192,70775,1,0,0:0:0:0:
64,192,70975,128,0,71025:0:0:0:0:
448,192,70975,128,0,71025:0:0:0:0:
64,192,71125,128,0,71175:0:0:0:0:
448,192,71125,128,0,71175:0:0:0:0:
448,192,71275,128,0,71325:0:0:0:0:
64,192,71275,128,0,71325:0:0:0:0:
64,192,71375,1,2,0:0:0:0:
192,192,71425,1,2,0:0:0:0:
320,192,71475,1,2,0:0:0:0:
448,192,71525,1,2,0:0:0:0:
64,192,71575,1,0,0:0:0:0:
192,192,71575,1,2,0:0:0:0:
320,192,71675,1,2,0:0:0:0:
448,192,71675,1,0,0:0:0:0:
64,192,71775,1,0,0:0:0:0:
192,192,71775,1,2,0:0:0:0:
64,192,71875,1,0,0:0:0:0:
192,192,71875,1,2,0:0:0:0:
320,192,71975,1,2,0:0:0:0:
448,192,71975,1,0,0:0:0:0:
192,192,72075,1,2,0:0:0:0:
64,192,72075,1,0,0:0:0:0:
320,192,72175,1,2,0:0:0:0:
448,192,72175,1,0,0:0:0:0:
320,192,72275,1,2,0:0:0:0:
448,192,72275,1,0,0:0:0:0:
64,192,72375,1,0,0:0:0:0:
192,192,72375,1,2,0:0:0:0:
448,192,72475,1,0,0:0:0:0:
320,192,72475,1,2,0:0:0:0:
64,192,72575,1,0,0:0:0:0:
192,192,72575,1,2,0:0:0:0:
64,192,72675,1,0,0:0:0:0:
192,192,72675,1,2,0:0:0:0:
320,192,72775,1,2,0:0:0:0:
448,192,72775,1,0,0:0:0:0:
64,192,72875,1,0,0:0:0:0:
192,192,72875,1,2,0:0:0:0:
448,192,72975,1,2,0:0:0:0:
320,192,73025,1,2,0:0:0:0:
192,192,73075,1,2,0:0:0:0:
64,192,73125,1,2,0:0:0:0:
320,192,73175,1,2,0:0:0:0:
448,192,73175,1,0,0:0:0:0:
192,192,73275,1,2,0:0:0:0:
64,192,73275,1,0,0:0:0:0:
320,192,73375,1,2,0:0:0:0:
448,192,73375,1,0,0:0:0:0:
448,192,73475,1,0,0:0:0:0:
320,192,73475,1,2,0:0:0:0:
192,192,73575,1,2,0:0:0:0:
64,192,73575,1,0,0:0:0:0:
320,192,73675,1,2,0:0:0:0:
448,192,73675,1,0,0:0:0:0:
192,192,73775,1,2,0:0:0:0:
64,192,73775,1,0,0:0:0:0:
192,192,73875,1,2,0:0:0:0:
64,192,73875,1,0,0:0:0:0:
320,192,73975,1,2,0:0:0:0:
448,192,73975,1,0,0:0:0:0:
64,192,74075,1,0,0:0:0:0:
192,192,74075,1,2,0:0:0:0:
320,192,74175,1,2,0:0:0:0:
448,192,74175,1,0,0:0:0:0:
320,192,74275,1,2,0:0:0:0:
448,192,74275,1,0,0:0:0:0:
192,192,74375,1,2,0:0:0:0:
64,192,74375,1,0,0:0:0:0:
320,192,74475,1,2,0:0:0:0:
448,192,74475,1,0,0:0:0:0:
64,192,74575,1,2,0:0:0:0:
192,192,74625,1,2,0:0:0:0:
320,192,74675,1,2,0:0:0:0:
448,192,74725,1,2,0:0:0:0:
64,192,74775,1,2,0:0:0:0:
192,192,74825,1,2,0:0:0:0:
320,192,74875,1,2,0:0:0:0:
64,192,74925,1,2,0:0:0:0:
448,192,74975,1,2,0:0:0:0:
320,192,75025,1,2,0:0:0:0:
192,192,75075,1,2,0:0:0:0:
448,192,75125,1,2,0:0:0:0:
64,192,75175,1,2,0:0:0:0:
192,192,75225,1,2,0:0:0:0:
320,192,75275,1,2,0:0:0:0:
64,192,75325,1,2,0:0:0:0:
448,192,75375,1,2,0:0:0:0:
320,192,75425,1,2,0:0:0:0:
192,192,75475,1,2,0:0:0:0:
64,192,75525,1,2,0:0:0:0:
448,192,75575,1,2,0:0:0:0:
320,192,75625,1,2,0:0:0:0:
192,192,75675,1,2,0:0:0:0:
448,192,75725,1,2,0:0:0:0:
64,192,75775,1,2,0:0:0:0:
192,192,75825,1,2,0:0:0:0:
320,192,75875,1,2,0:0:0:0:
64,192,75925,1,2,0:0:0:0:
448,192,75975,1,2,0:0:0:0:
320,192,76025,1,2,0:0:0:0:
192,192,76075,1,2,0:0:0:0:
448,192,76125,1,2,0:0:0:0:
64,192,76175,128,2,76975:0:0:0:0:
192,192,76225,1,0,0:0:0:0:
320,192,76275,1,0,0:0:0:0:
448,192,76325,1,0,0:0:0:0:
192,192,76375,1,0,0:0:0:0:
320,192,76425,1,0,0:0:0:0:
448,192,76475,1,0,0:0:0:0:
192,192,76525,1,0,0:0:0:0:
320,192,76575,1,0,0:0:0:0:
448,192,76625,1,0,0:0:0:0:
192,192,76675,1,0,0:0:0:0:
320,192,76725,1,0,0:0:0:0:
448,192,76775,1,0,0:0:0:0:
192,192,76825,1,0,0:0:0:0:
320,192,76875,1,0,0:0:0:0:
448,192,76925,1,0,0:0:0:0:
192,192,76975,128,0,77075:0:0:0:0:
320,192,77075,128,0,77175:0:0:0:0:
64,192,77175,128,0,77275:0:0:0:0:
448,192,77275,128,0,77375:0:0:0:0:
192,192,77375,1,0,0:0:0:0:
64,192,77425,1,0,0:0:0:0:
448,192,77475,1,0,0:0:0:0:
320,192,77525,1,0,0:0:0:0:
192,192,77575,1,0,0:0:0:0:
64,192,77625,1,0,0:0:0:0:
448,192,77675,1,0,0:0:0:0:
320,192,77725,1,0,0:0:0:0:
64,192,77775,1,2,0:0:0:0:
448,192,77775,1,0,0:0:0:0:
192,192,77775,1,4,0:0:0:0:
320,192,77875,1,0,0:0:0:0:
64,192,77925,1,0,0:0:0:0:
320,192,77975,1,0,0:0:0:0:
192,192,77975,1,0,0:0:0:0:
448,192,78075,1,0,0:0:0:0:
320,192,78175,1,2,0:0:0:0:
64,192,78175,1,0,0:0:0:0:
192,192,78275,1,0,0:0:0:0:
448,192,78325,1,0,0:0:0:0:
192,192,78375,1,0,0:0:0:0:
320,192,78375,1,0,0:0:0:0:
64,192,78475,1,0,0:0:0:0:
192,192,78575,1,2,0:0:0:0:
448,192,78575,1,0,0:0:0:0:
320,192,78675,1,0,0:0:0:0:
192,192,78725,1,0,0:0:0:0:
320,192,78775,1,0,0:0:0:0:
64,192,78775,1,0,0:0:0:0:
448,192,78875,1,0,0:0:0:0:
64,192,78975,1,0,0:0:0:0:
320,192,78975,1,2,0:0:0:0:
192,192,79075,1,0,0:0:0:0:
192,192,79175,1,0,0:0:0:0:
448,192,79175,1,0,0:0:0:0:
320,192,79275,1,0,0:0:0:0:
192,192,79375,1,2,0:0:0:0:
448,192,79375,1,0,0:0:0:0:
64,192,79375,128,0,79675:0:0:0:0:
320,192,79475,1,0,0:0:0:0:
448,192,79575,1,0,0:0:0:0:
192,192,79675,1,0,0:0:0:0:
320,192,79775,1,2,0:0:0:0:
448,192,79775,1,0,0:0:0:0:
64,192,79875,1,0,0:0:0:0:
448,192,79925,1,0,0:0:0:0:
64,192,79975,1,0,0:0:0:0:
320,192,79975,1,0,0:0:0:0:
192,192,80075,1,0,0:0:0:0:
64,192,80175,1,0,0:0:0:0:
320,192,80175,1,2,0:0:0:0:
448,192,80275,1,0,0:0:0:0:
192,192,80325,1,0,0:0:0:0:
448,192,80375,1,0,0:0:0:0:
64,192,80375,1,0,0:0:0:0:
320,192,80475,1,0,0:0:0:0:
448,192,80575,1,0,0:0:0:0:
192,192,80575,1,2,0:0:0:0:
64,192,80675,1,0,0:0:0:0:
64,192,80775,1,0,0:0:0:0:
192,192,80975,1,2,0:0:0:0:
64,192,80975,1,0,0:0:0:0:
448,192,80975,1,0,0:0:0:0:
320,192,81075,1,0,0:0:0:0:
64,192,81125,1,0,0:0:0:0:
192,192,81175,1,0,0:0:0:0:
320,192,81175,1,0,0:0:0:0:
448,192,81275,1,0,0:0:0:0:
192,192,81375,1,2,0:0:0:0:
64,192,81375,1,0,0:0:0:0:
448,192,81475,1,0,0:0:0:0:
192,192,81525,1,0,0:0:0:0:
448,192,81575,1,0,0:0:0:0:
64,192,81575,1,0,0:0:0:0:
320,192,81675,1,0,0:0:0:0:
448,192,81775,1,0,0:0:0:0:
64,192,81775,1,2,0:0:0:0:
192,192,81875,1,0,0:0:0:0:
320,192,81925,1,0,0:0:0:0:
192,192,81975,1,0,0:0:0:0:
448,192,81975,1,0,0:0:0:0:
64,192,82075,1,0,0:0:0:0:
320,192,82175,1,2,0:0:0:0:
192,192,82175,1,0,0:0:0:0:
64,192,82275,1,0,0:0:0:0:
64,192,82375,1,0,0:0:0:0:
320,192,82375,1,0,0:0:0:0:
192,192,82475,1,0,0:0:0:0:
64,192,82575,1,0,0:0:0:0:
320,192,82575,1,2,0:0:0:0:
448,192,82575,128,0,82875:0:0:0:0:
192,192,82675,1,0,0:0:0:0:
320,192,82775,1,0,0:0:0:0:
64,192,82875,1,0,0:0:0:0:
192,192,82975,128,0,83075:0:0:0:0:
448,192,82975,1,2,0:0:0:0:
448,192,83175,128,0,83275:0:0:0:0:
64,192,83275,1,0,0:0:0:0:
192,192,83375,128,0,83475:0:0:0:0:
448,192,83375,1,2,0:0:0:0:
448,192,83575,128,0,83675:0:0:0:0:
64,192,83675,1,0,0:0:0:0:
320,192,83775,128,0,83875:0:0:0:0:
192,192,83775,128,0,84075:0:0:0:0:
448,192,83975,128,0,84175:0:0:0:0:
192,192,84175,1,4,0:0:0:0:
64,192,84175,1,0,0:0:0:0:
320,192,84175,1,2,0:0:0:0:
448,192,84275,1,0,0:0:0:0:
64,192,84325,1,0,0:0:0:0:
448,192,84375,1,0,0:0:0:0:
192,192,84375,1,0,0:0:0:0:
320,192,84475,1,0,0:0:0:0:
64,192,84575,1,2,0:0:0:0:
448,192,84575,1,0,0:0:0:0:
192,192,84675,1,0,0:0:0:0:
320,192,84725,1,0,0:0:0:0:
192,192,84775,1,0,0:0:0:0:
448,192,84775,1,0,0:0:0:0:
320,192,84875,1,0,0:0:0:0:
64,192,84975,1,2,0:0:0:0:
448,192,84975,1,0,0:0:0:0:
320,192,85075,1,0,0:0:0:0:
192,192,85125,1,0,0:0:0:0:
320,192,85175,1,0,0:0:0:0:
64,192,85175,1,0,0:0:0:0:
448,192,85275,1,0,0:0:0:0:
320,192,85375,1,2,0:0:0:0:
192,192,85375,1,0,0:0:0:0:
64,192,85475,1,0,0:0:0:0:
64,192,85575,1,0,0:0:0:0:
320,192,85575,1,0,0:0:0:0:
192,192,85675,1,0,0:0:0:0:
448,192,85775,1,2,0:0:0:0:
64,192,85775,128,0,86075:0:0:0:0:
320,192,85875,1,0,0:0:0:0:
192,192,85975,1,0,0:0:0:0:
448,192,86075,1,0,0:0:0:0:
320,192,86175,1,0,0:0:0:0:
192,192,86175,1,2,0:0:0:0:
64,192,86275,1,0,0:0:0:0:
448,192,86325,1,0,0:0:0:0:
320,192,86375,1,0,0:0:0:0:
64,192,86375,1,0,0:0:0:0:
192,192,86475,1,0,0:0:0:0:
448,192,86575,1,0,0:0:0:0:
64,192,86575,1,2,0:0:0:0:
320,192,86675,1,0,0:0:0:0:
192,192,86725,1,0,0:0:0:0:
320,192,86775,1,0,0:0:0:0:
64,192,86775,1,0,0:0:0:0:
448,192,86875,1,0,0:0:0:0:
64,192,86975,1,0,0:0:0:0:
320,192,86975,1,2,0:0:0:0:
192,192,87075,1,0,0:0:0:0:
192,192,87175,1,0,0:0:0:0:
192,192,87375,1,2,0:0:0:0:
64,192,87375,1,0,0:0:0:0:
320,192,87441,1,0,0:0:0:0:
448,192,87508,1,0,0:0:0:0:
192,192,87575,1,2,0:0:0:0:
64,192,87575,1,0,0:0:0:0:
448,192,87641,1,0,0:0:0:0:
320,192,87708,1,0,0:0:0:0:
192,192,87775,1,2,0:0:0:0:
64,192,87775,1,0,0:0:0:0:
320,192,87908,1,0,0:0:0:0:
448,192,87975,1,0,0:0:0:0:
64,192,87975,1,0,0:0:0:0:
192,192,88041,1,0,0:0:0:0:
320,192,88175,1,2,0:0:0:0:
448,192,88175,1,0,0:0:0:0:
192,192,88308,1,0,0:0:0:0:
320,192,88375,1,2,0:0:0:0:
448,192,88375,1,0,0:0:0:0:
192,192,88475,1,2,0:0:0:0:
64,192,88475,1,0,0:0:0:0:
320,192,88525,1,2,0:0:0:0:
448,192,88575,1,2,0:0:0:0:
64,192,88575,1,0,0:0:0:0:
192,192,88775,1,0,0:0:0:0:
320,192,88825,1,0,0:0:0:0:
192,192,88875,1,0,0:0:0:0:
320,192,88925,1,0,0:0:0:0:
448,192,88975,128,2,89075:0:0:0:0:
64,192,88975,128,0,89275:0:0:0:0:
448,192,89175,128,2,89275:0:0:0:0:
448,192,89375,1,8,0:0:0:0:
64,192,89375,1,0,0:0:0:0:
320,192,89441,1,0,0:0:0:0:
192,192,89508,1,0,0:0:0:0:
448,192,89575,1,0,0:0:0:0:
320,192,89641,1,0,0:0:0:0:
64,192,89708,1,0,0:0:0:0:
448,192,89775,1,0,0:0:0:0:
192,192,89841,1,0,0:0:0:0:
64,192,89908,1,0,0:0:0:0:
320,192,89975,1,2,0:0:0:0:
192,192,90041,1,0,0:0:0:0:
64,192,90108,1,0,0:0:0:0:
448,192,90175,1,8,0:0:0:0:
320,192,90275,1,2,0:0:0:0:
448,192,90275,1,0,0:0:0:0:
192,192,90575,1,2,0:0:0:0:
64,192,90575,1,0,0:0:0:0:
192,192,90675,1,2,0:0:0:0:
64,192,90675,1,0,0:0:0:0:
320,192,90775,1,0,0:0:0:0:
192,192,90875,1,2,0:0:0:0:
64,192,90875,1,0,0:0:0:0:
320,192,90975,1,2,0:0:0:0:
448,192,90975,1,0,0:0:0:0:
64,192,91075,1,0,0:0:0:0:
448,192,91125,1,0,0:0:0:0:
64,192,91175,1,0,0:0:0:0:
320,192,91175,1,0,0:0:0:0:
192,192,91275,1,0,0:0:0:0:
320,192,91375,1,2,0:0:0:0:
64,192,91375,1,0,0:0:0:0:
448,192,91475,1,0,0:0:0:0:
64,192,91525,1,0,0:0:0:0:
448,192,91575,1,0,0:0:0:0:
192,192,91575,1,0,0:0:0:0:
320,192,91675,1,0,0:0:0:0:
448,192,91775,1,0,0:0:0:0:
64,192,91775,1,2,0:0:0:0:
192,192,91875,1,0,0:0:0:0:
192,192,91975,1,0,0:0:0:0:
448,192,91975,1,0,0:0:0:0:
320,192,92075,1,0,0:0:0:0:
192,192,92175,1,2,0:0:0:0:
64,192,92175,128,0,92475:0:0:0:0:
448,192,92275,1,0,0:0:0:0:
320,192,92375,1,0,0:0:0:0:
192,192,92475,1,0,0:0:0:0:
64,192,92575,1,0,0:0:0:0:
448,192,92575,1,2,0:0:0:0:
320,192,92675,1,0,0:0:0:0:
64,192,92725,1,0,0:0:0:0:
320,192,92775,1,0,0:0:0:0:
192,192,92775,1,0,0:0:0:0:
448,192,92875,1,0,0:0:0:0:
64,192,92975,1,0,0:0:0:0:
320,192,92975,1,2,0:0:0:0:
192,192,93075,1,0,0:0:0:0:
448,192,93125,1,0,0:0:0:0:
192,192,93175,1,0,0:0:0:0:
320,192,93175,1,0,0:0:0:0:
64,192,93275,1,0,0:0:0:0:
448,192,93375,1,0,0:0:0:0:
192,192,93375,1,2,0:0:0:0:
320,192,93475,1,0,0:0:0:0:
320,192,93575,1,0,0:0:0:0:
192,192,93575,1,2,0:0:0:0:
320,192,93775,1,2,0:0:0:0:
448,192,93775,1,0,0:0:0:0:
192,192,93875,1,0,0:0:0:0:
448,192,93925,1,0,0:0:0:0:
320,192,93975,1,0,0:0:0:0:
192,192,93975,1,0,0:0:0:0:
64,192,94075,1,0,0:0:0:0:
448,192,94175,1,0,0:0:0:0:
192,192,94175,1,2,0:0:0:0:
320,192,94275,1,0,0:0:0:0:
64,192,94325,1,0,0:0:0:0:
192,192,94375,1,0,0:0:0:0:
320,192,94375,1,0,0:0:0:0:
448,192,94475,1,0,0:0:0:0:
192,192,94575,1,2,0:0:0:0:
64,192,94575,1,0,0:0:0:0:
448,192,94675,1,0,0:0:0:0:
64,192,94725,1,0,0:0:0:0:
192,192,94775,1,0,0:0:0:0:
448,192,94775,1,0,0:0:0:0:
320,192,94875,1,0,0:0:0:0:
192,192,94975,1,2,0:0:0:0:
448,192,94975,1,0,0:0:0:0:
64,192,95075,1,0,0:0:0:0:
64,192,95175,1,0,0:0:0:0:
320,192,95175,1,0,0:0:0:0:
192,192,95275,1,0,0:0:0:0:
320,192,95375,1,2,0:0:0:0:
448,192,95375,128,0,95775:0:0:0:0:
192,192,95575,1,2,0:0:0:0:
320,192,95575,128,0,95775:0:0:0:0:
192,192,95775,1,2,0:0:0:0:
64,192,95775,128,0,96075:0:0:0:0:
320,192,95875,1,0,0:0:0:0:
320,192,95975,1,0,0:0:0:0:
448,192,96075,1,0,0:0:0:0:
192,192,96075,128,2,96375:0:0:0:0:
320,192,96175,1,0,0:0:0:0:
320,192,96275,1,0,0:0:0:0:
64,192,96375,128,2,96575:0:0:0:0:
448,192,96375,1,0,0:0:0:0:
320,192,96475,1,0,0:0:0:0:
448,192,96575,128,0,96875:0:0:0:0:
192,192,96575,128,0,96775:0:0:0:0:
64,192,96775,128,0,96975:0:0:0:0:
320,192,96975,1,2,0:0:0:0:
448,192,96975,1,0,0:0:0:0:
192,192,97075,1,0,0:0:0:0:
320,192,97125,1,0,0:0:0:0:
192,192,97175,1,0,0:0:0:0:
320,192,97275,1,0,0:0:0:0:
64,192,97475,1,0,0:0:0:0:
320,192,97525,1,0,0:0:0:0:
64,192,97575,1,0,0:0:0:0:
320,192,97675,1,0,0:0:0:0:
64,192,97775,1,8,0:0:0:0:
448,192,97775,1,0,0:0:0:0:
192,192,97875,1,2,0:0:0:0:
320,192,97875,1,0,0:0:0:0:
64,192,97925,1,0,0:0:0:0:
320,192,97975,1,0,0:0:0:0:
448,192,98075,1,0,0:0:0:0:
192,192,98175,1,2,0:0:0:0:
64,192,98175,1,0,0:0:0:0:
448,192,98275,1,0,0:0:0:0:
448,192,98375,1,0,0:0:0:0:
64,192,98375,1,0,0:0:0:0:
320,192,98475,1,2,0:0:0:0:
192,192,98475,1,0,0:0:0:0:
64,192,98675,1,0,0:0:0:0:
320,192,98775,1,2,0:0:0:0:
448,192,98775,1,0,0:0:0:0:
192,192,98875,1,0,0:0:0:0:
192,192,98975,1,0,0:0:0:0:
320,192,99075,1,2,0:0:0:0:
448,192,99075,1,0,0:0:0:0:
192,192,99175,1,0,0:0:0:0:
192,192,99275,1,2,0:0:0:0:
320,192,99275,1,0,0:0:0:0:
448,192,99375,1,0,0:0:0:0:
64,192,99375,1,8,0:0:0:0:
320,192,99475,1,0,0:0:0:0:
192,192,99525,1,0,0:0:0:0:
320,192,99575,1,0,0:0:0:0:
64,192,99575,1,0,0:0:0:0:
448,192,99675,1,0,0:0:0:0:
192,192,99775,1,0,0:0:0:0:
320,192,99875,1,0,0:0:0:0:
320,192,99975,1,0,0:0:0:0:
192,192,100175,1,2,0:0:0:0:
64,192,100175,1,0,0:0:0:0:
320,192,100241,1,0,0:0:0:0:
64,192,100308,1,0,0:0:0:0:
192,192,100375,1,0,0:0:0:0:
64,192,100508,1,0,0:0:0:0:
192,192,100575,1,0,0:0:0:0:
64,192,100708,1,0,0:0:0:0:
320,192,100775,1,0,0:0:0:0:
192,192,100841,1,0,0:0:0:0:
64,192,100975,1,0,0:0:0:0:
448,192,100975,1,8,0:0:0:0:
192,192,101075,1,0,0:0:0:0:
320,192,101075,1,2,0:0:0:0:
64,192,101175,1,0,0:0:0:0:
192,192,101241,1,0,0:0:0:0:
320,192,101375,1,2,0:0:0:0:
448,192,101375,1,0,0:0:0:0:
192,192,101508,1,0,0:0:0:0:
448,192,101575,1,0,0:0:0:0:
64,192,101641,1,0,0:0:0:0:
192,192,101675,1,2,0:0:0:0:
320,192,101675,1,0,0:0:0:0:
448,192,101775,1,0,0:0:0:0:
192,192,101908,1,0,0:0:0:0:
320,192,101975,1,0,0:0:0:0:
64,192,101975,1,2,0:0:0:0:
448,192,102075,1,0,0:0:0:0:
320,192,102175,1,0,0:0:0:0:
192,192,102275,1,2,0:0:0:0:
64,192,102275,1,0,0:0:0:0:
448,192,102308,1,0,0:0:0:0:
320,192,102441,1,0,0:0:0:0:
192,192,102475,1,2,0:0:0:0:
64,192,102475,1,0,0:0:0:0:
64,192,102575,1,0,0:0:0:0:
448,192,102575,1,8,0:0:0:0:
192,192,102675,1,0,0:0:0:0:
320,192,102775,1,0,0:0:0:0:
192,192,102875,1,0,0:0:0:0:
448,192,102975,1,0,0:0:0:0:
320,192,103025,1,0,0:0:0:0:
64,192,103075,1,0,0:0:0:0:
448,192,103125,1,0,0:0:0:0:
192,192,103175,1,0,0:0:0:0:
64,192,103225,1,0,0:0:0:0:
320,192,103275,1,0,0:0:0:0:
192,192,103325,1,0,0:0:0:0:
320,192,103375,1,2,0:0:0:0:
448,192,103375,1,0,0:0:0:0:
64,192,103375,1,4,0:0:0:0:
448,192,103475,1,0,0:0:0:0:
320,192,103575,1,0,0:0:0:0:
192,192,103575,1,0,0:0:0:0:
64,192,103675,1,0,0:0:0:0:
320,192,103775,1,2,0:0:0:0:
448,192,103775,1,0,0:0:0:0:
192,192,103875,128,0,103925:0:0:0:0:
64,192,103975,1,0,0:0:0:0:
448,192,103975,128,0,104025:0:0:0:0:
320,192,104075,128,0,104125:0:0:0:0:
192,192,104175,1,2,0:0:0:0:
64,192,104175,1,0,0:0:0:0:
64,192,104275,128,0,104325:0:0:0:0:
320,192,104375,1,0,0:0:0:0:
192,192,104375,1,0,0:0:0:0:
448,192,104475,128,0,104525:0:0:0:0:
192,192,104575,1,2,0:0:0:0:
64,192,104575,1,0,0:0:0:0:
320,192,104675,128,0,104725:0:0:0:0:
64,192,104775,1,0,0:0:0:0:
448,192,104775,1,0,0:0:0:0:
192,192,104875,128,0,104925:0:0:0:0:
320,192,104975,1,2,0:0:0:0:
448,192,104975,1,0,0:0:0:0:
448,192,105075,128,0,105125:0:0:0:0:
320,192,105175,1,0,0:0:0:0:
192,192,105175,1,0,0:0:0:0:
64,192,105275,128,0,105325:0:0:0:0:
192,192,105375,1,2,0:0:0:0:
448,192,105375,1,0,0:0:0:0:
320,192,105475,128,0,105525:0:0:0:0:
64,192,105575,1,0,0:0:0:0:
192,192,105575,128,0,105625:0:0:0:0:
448,192,105675,128,0,105725:0:0:0:0:
192,192,105775,1,2,0:0:0:0:
64,192,105775,1,0,0:0:0:0:
64,192,105875,1,0,0:0:0:0:
192,192,105875,128,0,105925:0:0:0:0:
448,192,105975,1,0,0:0:0:0:
320,192,105975,1,0,0:0:0:0:
192,192,106075,1,0,0:0:0:0:
64,192,106075,128,0,106125:0:0:0:0:
448,192,106175,1,0,0:0:0:0:
320,192,106175,1,2,0:0:0:0:
320,192,106275,128,0,106325:0:0:0:0:
64,192,106375,1,0,0:0:0:0:
192,192,106375,1,0,0:0:0:0:
448,192,106475,128,0,106525:0:0:0:0:
192,192,106575,1,2,0:0:0:0:
320,192,106575,1,0,0:0:0:0:
192,192,106675,1,0,0:0:0:0:
64,192,106775,1,0,0:0:0:0:
320,192,106775,1,0,0:0:0:0:
448,192,106875,1,0,0:0:0:0:
320,192,106975,1,0,0:0:0:0:
192,192,106975,1,2,0:0:0:0:
64,192,107075,128,0,107125:0:0:0:0:
448,192,107175,1,0,0:0:0:0:
192,192,107175,128,0,107225:0:0:0:0:
320,192,107275,128,0,107325:0:0:0:0:
448,192,107375,1,0,0:0:0:0:
64,192,107375,1,2,0:0:0:0:
64,192,107475,128,0,107525:0:0:0:0:
192,192,107575,1,0,0:0:0:0:
448,192,107575,1,0,0:0:0:0:
320,192,107675,128,0,107725:0:0:0:0:
64,192,107775,1,0,0:0:0:0:
448,192,107775,1,2,0:0:0:0:
192,192,107875,128,0,107925:0:0:0:0:
320,192,107975,1,0,0:0:0:0:
64,192,107975,1,0,0:0:0:0:
448,192,108075,128,0,108125:0:0:0:0:
320,192,108175,1,2,0:0:0:0:
192,192,108175,1,0,0:0:0:0:
192,192,108275,128,0,108325:0:0:0:0:
64,192,108375,1,0,0:0:0:0:
320,192,108375,1,0,0:0:0:0:
448,192,108475,128,0,108525:0:0:0:0:
320,192,108575,1,0,0:0:0:0:
192,192,108575,1,2,0:0:0:0:
64,192,108625,1,0,0:0:0:0:
320,192,108675,1,0,0:0:0:0:
192,192,108725,1,0,0:0:0:0:
448,192,108775,1,0,0:0:0:0:
64,192,108775,128,0,108825:0:0:0:0:
320,192,108875,128,0,108925:0:0:0:0:
64,192,108975,1,0,0:0:0:0:
192,192,108975,1,2,0:0:0:0:
192,192,109075,1,2,0:0:0:0:
64,192,109075,1,0,0:0:0:0:
320,192,109175,1,0,0:0:0:0:
192,192,109275,1,2,0:0:0:0:
448,192,109275,1,0,0:0:0:0:
320,192,109375,128,2,109475:0:0:0:0:
448,192,109375,128,0,109475:0:0:0:0:
320,192,109575,1,2,0:0:0:0:
448,192,109575,1,0,0:0:0:0:
64,192,109625,1,2,0:0:0:0:
192,192,109675,1,0,0:0:0:0:
320,192,109675,1,2,0:0:0:0:
448,192,109725,1,2,0:0:0:0:
192,192,109775,128,2,109875:0:0:0:0:
64,192,109775,128,0,109875:0:0:0:0:
320,192,109975,128,0,110025:0:0:0:0:
64,192,110075,1,0,0:0:0:0:
192,192,110075,1,2,0:0:0:0:
320,192,110175,1,0,0:0:0:0:
320,192,110275,1,0,0:0:0:0:
64,192,110375,1,0,0:0:0:0:
192,192,110375,128,2,110425:0:0:0:0:
192,192,110475,1,0,0:0:0:0:
320,192,110575,1,0,0:0:0:0:
64,192,110675,1,0,0:0:0:0:
192,192,110675,1,2,0:0:0:0:
448,192,110775,128,0,110825:0:0:0:0:
448,192,110875,1,0,0:0:0:0:
64,192,110975,1,0,0:0:0:0:
192,192,110975,1,2,0:0:0:0:
448,192,111075,1,0,0:0:0:0:
64,192,111175,1,2,0:0:0:0:
320,192,111175,128,0,111225:0:0:0:0:
192,192,111275,1,0,0:0:0:0:
320,192,111375,1,2,0:0:0:0:
448,192,111375,1,0,0:0:0:0:
64,192,111575,128,0,111625:0:0:0:0:
320,192,111675,1,2,0:0:0:0:
448,192,111675,1,0,0:0:0:0:
192,192,111775,1,0,0:0:0:0:
192,192,111875,1,0,0:0:0:0:
448,192,111975,1,0,0:0:0:0:
320,192,111975,128,2,112025:0:0:0:0:
320,192,112075,1,0,0:0:0:0:
192,192,112175,1,0,0:0:0:0:
320,192,112275,1,2,0:0:0:0:
448,192,112275,1,0,0:0:0:0:
64,192,112375,128,0,112425:0:0:0:0:
64,192,112475,1,0,0:0:0:0:
320,192,112575,1,2,0:0:0:0:
448,192,112575,1,0,0:0:0:0:
64,192,112675,1,0,0:0:0:0:
448,192,112775,1,2,0:0:0:0:
192,192,112775,128,0,112825:0:0:0:0:
320,192,112875,1,0,0:0:0:0:
192,192,112975,128,2,113075:0:0:0:0:
64,192,112975,128,0,113075:0:0:0:0:
320,192,113175,128,0,113225:0:0:0:0:
64,192,113275,1,0,0:0:0:0:
192,192,113275,1,2,0:0:0:0:
448,192,113375,1,0,0:0:0:0:
448,192,113475,5,0,0:0:0:0:
64,192,113575,1,0,0:0:0:0:
192,192,113575,128,2,113625:0:0:0:0:
320,192,113675,1,0,0:0:0:0:
320,192,113775,1,0,0:0:0:0:
64,192,113875,1,0,0:0:0:0:
192,192,113875,1,2,0:0:0:0:
192,192,113975,1,2,0:0:0:0:
64,192,113975,128,0,114025:0:0:0:0:
320,192,114075,1,2,0:0:0:0:
448,192,114075,1,0,0:0:0:0:
192,192,114125,1,2,0:0:0:0:
64,192,114175,1,2,0:0:0:0:
448,192,114175,1,0,0:0:0:0:
320,192,114375,1,0,0:0:0:0:
192,192,114425,1,0,0:0:0:0:
320,192,114475,1,0,0:0:0:0:
192,192,114525,1,0,0:0:0:0:
64,192,114575,128,2,114675:0:0:0:0:
448,192,114575,128,0,114875:0:0:0:0:
64,192,114775,128,2,114875:0:0:0:0:
64,192,114975,1,8,0:0:0:0:
448,192,114975,1,0,0:0:0:0:
192,192,115041,1,0,0:0:0:0:
320,192,115108,1,0,0:0:0:0:
64,192,115175,1,0,0:0:0:0:
192,192,115241,1,0,0:0:0:0:
448,192,115308,1,0,0:0:0:0:
64,192,115375,1,0,0:0:0:0:
320,192,115441,1,0,0:0:0:0:
448,192,115508,1,0,0:0:0:0:
192,192,115575,1,2,0:0:0:0:
320,192,115641,1,0,0:0:0:0:
448,192,115708,1,0,0:0:0:0:
64,192,115775,1,8,0:0:0:0:
64,192,115875,1,0,0:0:0:0:
192,192,115875,1,2,0:0:0:0:
64,192,116175,128,0,116375:0:0:0:0:
448,192,116175,128,2,116475:0:0:0:0:
320,192,116375,128,0,116475:0:0:0:0:
64,192,116575,1,0,0:0:0:0:
448,192,116575,1,2,0:0:0:0:
192,192,116575,1,4,0:0:0:0:
320,192,116675,128,0,116725:0:0:0:0:
448,192,116775,1,0,0:0:0:0:
64,192,116775,128,0,116825:0:0:0:0:
192,192,116875,128,0,116925:0:0:0:0:
320,192,116975,1,2,0:0:0:0:
448,192,116975,1,0,0:0:0:0:
448,192,117075,128,0,117125:0:0:0:0:
64,192,117175,1,0,0:0:0:0:
320,192,117175,1,0,0:0:0:0:
192,192,117275,128,0,117325:0:0:0:0:
448,192,117375,1,2,0:0:0:0:
64,192,117375,1,0,0:0:0:0:
320,192,117475,128,0,117525:0:0:0:0:
448,192,117575,1,0,0:0:0:0:
192,192,117575,1,0,0:0:0:0:
64,192,117675,128,0,117725:0:0:0:0:
320,192,117775,1,2,0:0:0:0:
448,192,117775,1,0,0:0:0:0:
320,192,117875,128,0,117925:0:0:0:0:
64,192,117975,1,0,0:0:0:0:
448,192,117975,1,0,0:0:0:0:
192,192,118075,128,0,118125:0:0:0:0:
320,192,118175,1,2,0:0:0:0:
448,192,118175,1,0,0:0:0:0:
64,192,118275,128,0,118325:0:0:0:0:
320,192,118375,1,0,0:0:0:0:
192,192,118375,128,0,118425:0:0:0:0:
448,192,118475,128,0,118525:0:0:0:0:
192,192,118575,1,2,0:0:0:0:
64,192,118575,1,0,0:0:0:0:
192,192,118675,1,0,0:0:0:0:
64,192,118675,128,0,118725:0:0:0:0:
448,192,118775,1,0,0:0:0:0:
320,192,118775,1,0,0:0:0:0:
64,192,118875,1,0,0:0:0:0:
192,192,118875,128,0,118925:0:0:0:0:
320,192,118975,1,2,0:0:0:0:
448,192,118975,1,0,0:0:0:0:
448,192,119075,128,0,119125:0:0:0:0:
64,192,119175,1,0,0:0:0:0:
192,192,119175,1,0,0:0:0:0:
320,192,119275,128,0,119325:0:0:0:0:
64,192,119375,1,0,0:0:0:0:
448,192,119375,1,2,0:0:0:0:
64,192,119475,1,0,0:0:0:0:
192,192,119575,1,0,0:0:0:0:
448,192,119575,1,0,0:0:0:0:
320,192,119675,1,0,0:0:0:0:
448,192,119775,1,2,0:0:0:0:
64,192,119775,1,0,0:0:0:0:
192,192,119875,128,0,119925:0:0:0:0:
64,192,119975,1,0,0:0:0:0:
320,192,119975,128,0,120025:0:0:0:0:
448,192,120075,128,0,120125:0:0:0:0:
64,192,120175,1,2,0:0:0:0:
192,192,120175,1,0,0:0:0:0:
192,192,120275,128,0,120325:0:0:0:0:
320,192,120375,1,0,0:0:0:0:
448,192,120375,1,0,0:0:0:0:
64,192,120475,128,0,120525:0:0:0:0:
320,192,120575,1,0,0:0:0:0:
192,192,120575,1,2,0:0:0:0:
448,192,120675,128,0,120725:0:0:0:0:
64,192,120775,1,0,0:0:0:0:
192,192,120775,1,0,0:0:0:0:
320,192,120875,128,0,120925:0:0:0:0:
64,192,120975,1,2,0:0:0:0:
448,192,120975,1,0,0:0:0:0:
192,192,121075,128,0,121125:0:0:0:0:
64,192,121175,1,2,0:0:0:0:
320,192,121175,1,8,0:0:0:0:
448,192,121175,1,0,0:0:0:0:
320,192,121275,128,0,121325:0:0:0:0:
64,192,121375,1,2,0:0:0:0:
448,192,121375,1,0,0:0:0:0:
192,192,121425,1,0,0:0:0:0:
320,192,121475,1,0,0:0:0:0:
64,192,121525,1,0,0:0:0:0:
192,192,121575,1,2,0:0:0:0:
448,192,121575,1,8,0:0:0:0:
320,192,121675,1,0,0:0:0:0:
192,192,121775,1,2,0:0:0:0:
64,192,121775,1,0,0:0:0:0:
448,192,121825,1,2,0:0:0:0:
320,192,121875,1,0,0:0:0:0:
192,192,121875,1,2,0:0:0:0:
64,192,121925,1,2,0:0:0:0:
320,192,121975,1,2,0:0:0:0:
448,192,121975,1,8,0:0:0:0:
64,192,122175,1,2,0:0:0:0:
448,192,122175,1,0,0:0:0:0:
448,192,122575,1,0,0:0:0:0:
320,192,122575,128,2,122675:0:0:0:0:
64,192,122775,128,0,122825:0:0:0:0:
448,192,122975,1,0,0:0:0:0:
192,192,122975,128,0,123075:0:0:0:0:
320,192,123275,1,0,0:0:0:0:
64,192,123375,1,8,0:0:0:0:
448,192,123375,1,0,0:0:0:0:
64,192,123475,1,0,0:0:0:0:
192,192,123475,128,2,123575:0:0:0:0:
320,192,123575,128,0,123675:0:0:0:0:
448,192,123675,128,0,123775:0:0:0:0:
192,192,123775,1,2,0:0:0:0:
64,192,123775,1,0,0:0:0:0:
320,192,123875,1,0,0:0:0:0:
448,192,123975,1,0,0:0:0:0:
64,192,123975,1,0,0:0:0:0:
64,192,124075,1,0,0:0:0:0:
192,192,124075,1,2,0:0:0:0:
320,192,124175,1,0,0:0:0:0:
448,192,124275,1,0,0:0:0:0:
64,192,124375,1,0,0:0:0:0:
192,192,124375,1,2,0:0:0:0:
192,192,124475,1,0,0:0:0:0:
320,192,124575,1,0,0:0:0:0:
64,192,124675,1,0,0:0:0:0:
192,192,124675,1,2,0:0:0:0:
64,192,124775,1,0,0:0:0:0:
448,192,124775,1,0,0:0:0:0:
320,192,124875,1,2,0:0:0:0:
448,192,124875,1,0,0:0:0:0:
64,192,124975,1,0,0:0:0:0:
192,192,124975,1,8,0:0:0:0:
192,192,125075,1,0,0:0:0:0:
320,192,125175,1,0,0:0:0:0:
320,192,125275,1,0,0:0:0:0:
192,192,125375,1,2,0:0:0:0:
64,192,125375,1,0,0:0:0:0:
64,192,125475,1,0,0:0:0:0:
192,192,125575,1,0,0:0:0:0:
320,192,125575,1,2,0:0:0:0:
448,192,125775,1,0,0:0:0:0:
320,192,125775,128,2,125925:0:0:0:0:
192,192,125975,1,0,0:0:0:0:
448,192,126075,1,0,0:0:0:0:
320,192,126075,128,2,126125:0:0:0:0:
64,192,126175,1,0,0:0:0:0:
64,192,126275,1,0,0:0:0:0:
448,192,126375,1,0,0:0:0:0:
320,192,126375,128,2,126425:0:0:0:0:
192,192,126475,1,0,0:0:0:0:
64,192,126575,1,0,0:0:0:0:
448,192,126575,1,8,0:0:0:0:
448,192,126675,1,0,0:0:0:0:
320,192,126675,128,2,126725:0:0:0:0:
192,192,126775,1,0,0:0:0:0:
192,192,126875,1,0,0:0:0:0:
320,192,126975,128,2,127075:0:0:0:0:
448,192,126975,1,0,0:0:0:0:
64,192,127075,1,0,0:0:0:0:
64,192,127175,1,0,0:0:0:0:
192,192,127275,128,2,127375:0:0:0:0:
320,192,127275,1,0,0:0:0:0:
448,192,127375,1,0,0:0:0:0:
448,192,127475,1,0,0:0:0:0:
64,192,127475,1,0,0:0:0:0:
64,192,127575,128,0,127675:0:0:0:0:
192,192,127575,1,2,0:0:0:0:
320,192,127675,1,0,0:0:0:0:
320,192,127775,1,0,0:0:0:0:
192,192,127875,5,2,0:0:0:0:
64,192,127875,1,0,0:0:0:0:
64,192,127975,1,0,0:0:0:0:
448,192,127975,1,0,0:0:0:0:
320,192,128075,1,2,0:0:0:0:
448,192,128075,1,0,0:0:0:0:
192,192,128175,1,8,0:0:0:0:
64,192,128175,1,0,0:0:0:0:
192,192,128275,1,0,0:0:0:0:
320,192,128375,1,0,0:0:0:0:
192,192,128475,1,0,0:0:0:0:
448,192,128575,1,0,0:0:0:0:
320,192,128625,1,0,0:0:0:0:
192,192,128675,1,0,0:0:0:0:
64,192,128725,1,0,0:0:0:0:
448,192,128775,1,0,0:0:0:0:
320,192,128825,1,0,0:0:0:0:
192,192,128875,1,0,0:0:0:0:
64,192,128925,1,0,0:0:0:0:
320,192,128975,1,4,0:0:0:0:
448,192,128975,1,0,0:0:0:0:
448,192,129375,1,0,0:0:0:0:
192,192,129475,1,0,0:0:0:0:
448,192,129575,128,0,129625:0:0:0:0:
192,192,129675,128,0,129725:0:0:0:0:
448,192,129775,128,0,129875:0:0:0:0:
192,192,129875,128,0,129975:0:0:0:0:
448,192,129975,128,0,130075:0:0:0:0:
192,192,130075,128,0,130175:0:0:0:0:
448,192,130175,128,0,130225:0:0:0:0:
192,192,130275,128,0,130325:0:0:0:0:
448,192,130375,1,0,0:0:0:0:
192,192,130475,1,0,0:0:0:0:
64,192,131075,1,0,0:0:0:0:
448,192,131175,128,0,131375:0:0:0:0:
64,192,131375,1,0,0:0:0:0:
448,192,131475,128,0,131675:0:0:0:0:
64,192,131675,1,0,0:0:0:0:
448,192,131775,128,0,131975:0:0:0:0:
64,192,131975,1,0,0:0:0:0:
192,192,132025,1,0,0:0:0:0:
320,192,132075,1,0,0:0:0:0:
448,192,132125,1,0,0:0:0:0:
64,192,132575,1,0,0:0:0:0:
320,192,132675,1,0,0:0:0:0:
64,192,132775,128,0,132825:0:0:0:0:
320,192,132875,128,0,132925:0:0:0:0:
64,192,132975,128,0,133075:0:0:0:0:
320,192,133075,128,0,133175:0:0:0:0:
64,192,133175,128,0,133275:0:0:0:0:
320,192,133275,128,0,133375:0:0:0:0:
64,192,133375,128,0,133425:0:0:0:0:
320,192,133475,128,0,133525:0:0:0:0:
64,192,133575,1,0,0:0:0:0:
320,192,133675,1,0,0:0:0:0:
64,192,133975,1,0,0:0:0:0:
192,192,134025,1,0,0:0:0:0:
448,192,134075,1,0,0:0:0:0:
320,192,134125,1,0,0:0:0:0:
192,192,134175,1,0,0:0:0:0:
192,192,134275,1,0,0:0:0:0:
192,192,134375,1,0,0:0:0:0:
320,192,134575,1,0,0:0:0:0:
448,192,134575,1,0,0:0:0:0:
192,192,134675,128,0,134725:0:0:0:0:
64,192,134975,128,0,135075:0:0:0:0:
448,192,134975,128,0,135075:0:0:0:0:
320,192,135175,128,0,135225:0:0:0:0:
64,192,135375,1,2,0:0:0:0:
192,192,135425,1,2,0:0:0:0:
320,192,135475,1,2,0:0:0:0:
448,192,135525,1,2,0:0:0:0:
192,192,135575,1,2,0:0:0:0:
64,192,135575,1,0,0:0:0:0:
320,192,135675,1,2,0:0:0:0:
448,192,135675,1,0,0:0:0:0:
192,192,135775,1,2,0:0:0:0:
64,192,135775,1,0,0:0:0:0:
64,192,135875,1,0,0:0:0:0:
192,192,135875,1,2,0:0:0:0:
320,192,135975,1,2,0:0:0:0:
448,192,135975,1,0,0:0:0:0:
192,192,136075,1,2,0:0:0:0:
64,192,136075,1,0,0:0:0:0:
320,192,136175,1,2,0:0:0:0:
448,192,136175,1,0,0:0:0:0:
320,192,136275,1,2,0:0:0:0:
448,192,136275,1,0,0:0:0:0:
192,192,136375,1,2,0:0:0:0:
64,192,136375,1,0,0:0:0:0:
320,192,136475,1,2,0:0:0:0:
448,192,136475,1,0,0:0:0:0:
192,192,136575,1,2,0:0:0:0:
64,192,136575,1,0,0:0:0:0:
64,192,136675,1,0,0:0:0:0:
192,192,136675,1,2,0:0:0:0:
320,192,136775,1,2,0:0:0:0:
448,192,136775,1,0,0:0:0:0:
192,192,136875,1,2,0:0:0:0:
64,192,136875,1,0,0:0:0:0:
448,192,136975,1,2,0:0:0:0:
320,192,137025,1,2,0:0:0:0:
192,192,137075,1,2,0:0:0:0:
64,192,137125,1,2,0:0:0:0:
320,192,137175,1,2,0:0:0:0:
448,192,137175,1,0,0:0:0:0:
192,192,137275,1,2,0:0:0:0:
64,192,137275,1,0,0:0:0:0:
320,192,137375,1,2,0:0:0:0:
448,192,137375,1,0,0:0:0:0:
320,192,137475,1,2,0:0:0:0:
448,192,137475,1,0,0:0:0:0:
192,192,137575,1,2,0:0:0:0:
64,192,137575,1,0,0:0:0:0:
320,192,137675,1,2,0:0:0:0:
448,192,137675,1,0,0:0:0:0:
192,192,137775,1,2,0:0:0:0:
64,192,137775,1,0,0:0:0:0:
64,192,137875,1,0,0:0:0:0:
192,192,137875,1,2,0:0:0:0:
320,192,137975,1,2,0:0:0:0:
448,192,137975,1,0,0:0:0:0:
192,192,138075,1,2,0:0:0:0:
64,192,138075,1,0,0:0:0:0:
320,192,138175,1,2,0:0:0:0:
448,192,138175,1,0,0:0:0:0:
320,192,138275,1,2,0:0:0:0:
448,192,138275,1,0,0:0:0:0:
192,192,138375,1,2,0:0:0:0:
64,192,138375,1,0,0:0:0:0:
320,192,138475,1,2,0:0:0:0:
448,192,138475,1,0,0:0:0:0:
64,192,138575,1,2,0:0:0:0:
192,192,138625,1,2,0:0:0:0:
320,192,138675,1,2,0:0:0:0:
448,192,138725,1,2,0:0:0:0:
64,192,138775,1,2,0:0:0:0:
192,192,138825,1,2,0:0:0:0:
320,192,138875,1,2,0:0:0:0:
64,192,138925,1,2,0:0:0:0:
448,192,138975,1,2,0:0:0:0:
320,192,139025,1,2,0:0:0:0:
192,192,139075,1,2,0:0:0:0:
448,192,139125,1,2,0:0:0:0:
64,192,139175,1,2,0:0:0:0:
192,192,139225,1,2,0:0:0:0:
320,192,139275,1,2,0:0:0:0:
64,192,139325,1,2,0:0:0:0:
448,192,139375,1,2,0:0:0:0:
320,192,139425,1,2,0:0:0:0:
192,192,139475,1,2,0:0:0:0:
64,192,139525,1,2,0:0:0:0:
448,192,139575,1,2,0:0:0:0:
320,192,139625,1,2,0:0:0:0:
192,192,139675,1,2,0:0:0:0:
448,192,139725,1,2,0:0:0:0:
64,192,139775,128,2,139875:0:0:0:0:
192,192,139825,128,2,139875:0:0:0:0:
320,192,139875,1,2,0:0:0:0:
448,192,139925,1,2,0:0:0:0:
64,192,139975,128,2,140075:0:0:0:0:
192,192,140025,128,2,140075:0:0:0:0:
320,192,140075,1,2,0:0:0:0:
448,192,140125,1,2,0:0:0:0:
64,192,140175,128,0,140975:0:0:0:0:
192,192,140275,128,0,140575:0:0:0:0:
448,192,140375,128,0,140775:0:0:0:0:
448,192,140975,128,0,141075:0:0:0:0:
192,192,141075,128,0,141175:0:0:0:0:
320,192,141175,128,0,141275:0:0:0:0:
64,192,141275,128,0,141375:0:0:0:0:
448,192,141375,1,0,0:0:0:0:
320,192,141425,1,0,0:0:0:0:
64,192,141475,1,0,0:0:0:0:
448,192,141525,1,0,0:0:0:0:
192,192,141575,1,0,0:0:0:0:
64,192,141625,1,0,0:0:0:0:
320,192,141675,1,0,0:0:0:0:
192,192,141725,1,0,0:0:0:0:
64,192,141775,128,2,141975:0:0:0:0:
320,192,141775,128,4,142075:0:0:0:0:
448,192,141775,128,0,142075:0:0:0:0:
64,192,142175,1,0,0:0:0:0:
192,192,142225,1,0,0:0:0:0:
448,192,142275,1,0,0:0:0:0:
192,192,142325,1,0,0:0:0:0:
320,192,142375,1,0,0:0:0:0:
448,192,142425,1,0,0:0:0:0:
192,192,142475,1,0,0:0:0:0:
448,192,142525,1,0,0:0:0:0:
64,192,142575,1,0,0:0:0:0:
320,192,142575,1,8,0:0:0:0:
192,192,142675,1,2,0:0:0:0:
64,192,142675,1,0,0:0:0:0:
448,192,142725,1,0,0:0:0:0:
320,192,142775,1,0,0:0:0:0:
320,192,142875,1,0,0:0:0:0:
64,192,142975,1,0,0:0:0:0:
192,192,142975,1,2,0:0:0:0:
192,192,143075,1,0,0:0:0:0:
448,192,143175,1,0,0:0:0:0:
320,192,143275,1,2,0:0:0:0:
448,192,143275,1,0,0:0:0:0:
64,192,143475,1,0,0:0:0:0:
192,192,143575,1,2,0:0:0:0:
64,192,143575,1,0,0:0:0:0:
320,192,143675,1,0,0:0:0:0:
64,192,143775,1,2,0:0:0:0:
448,192,143775,1,0,0:0:0:0:
320,192,143825,1,0,0:0:0:0:
192,192,143875,1,0,0:0:0:0:
448,192,143925,1,0,0:0:0:0:
192,192,143975,1,0,0:0:0:0:
64,192,144025,1,0,0:0:0:0:
320,192,144075,1,2,0:0:0:0:
448,192,144075,1,0,0:0:0:0:
192,192,144125,1,0,0:0:0:0:
448,192,144175,1,8,0:0:0:0:
64,192,144175,1,0,0:0:0:0:
192,192,144275,1,0,0:0:0:0:
320,192,144325,1,0,0:0:0:0:
448,192,144375,1,0,0:0:0:0:
64,192,144575,128,0,144975:0:0:0:0:
192,192,144675,1,0,0:0:0:0:
320,192,144675,1,2,0:0:0:0:
192,192,144975,1,0,0:0:0:0:
320,192,144975,1,2,0:0:0:0:
320,192,145075,1,0,0:0:0:0:
448,192,145175,128,0,145275:0:0:0:0:
448,192,145375,128,0,145575:0:0:0:0:
192,192,145775,1,8,0:0:0:0:
64,192,145775,1,0,0:0:0:0:
320,192,145875,1,2,0:0:0:0:
448,192,145875,1,0,0:0:0:0:
192,192,145925,1,0,0:0:0:0:
320,192,145975,1,0,0:0:0:0:
448,192,146075,1,0,0:0:0:0:
192,192,146175,1,2,0:0:0:0:
64,192,146175,1,0,0:0:0:0:
192,192,146275,1,0,0:0:0:0:
320,192,146375,1,0,0:0:0:0:
320,192,146475,1,2,0:0:0:0:
448,192,146475,1,0,0:0:0:0:
64,192,146675,1,0,0:0:0:0:
64,192,146775,1,0,0:0:0:0:
192,192,146775,1,2,0:0:0:0:
320,192,146875,1,0,0:0:0:0:
448,192,146975,1,0,0:0:0:0:
320,192,146975,1,2,0:0:0:0:
64,192,147025,1,0,0:0:0:0:
192,192,147075,1,0,0:0:0:0:
448,192,147125,1,0,0:0:0:0:
192,192,147175,1,0,0:0:0:0:
320,192,147225,1,0,0:0:0:0:
448,192,147275,1,0,0:0:0:0:
64,192,147275,1,2,0:0:0:0:
192,192,147325,1,0,0:0:0:0:
320,192,147375,1,8,0:0:0:0:
448,192,147375,1,0,0:0:0:0:
192,192,147475,1,0,0:0:0:0:
448,192,147525,1,0,0:0:0:0:
64,192,147575,128,0,147975:0:0:0:0:
320,192,147575,1,2,0:0:0:0:
448,192,147975,1,0,0:0:0:0:
320,192,148025,1,0,0:0:0:0:
448,192,148075,1,0,0:0:0:0:
320,192,148125,1,0,0:0:0:0:
64,192,148175,1,0,0:0:0:0:
192,192,148175,1,2,0:0:0:0:
320,192,148375,1,0,0:0:0:0:
192,192,148475,1,2,0:0:0:0:
64,192,148475,1,0,0:0:0:0:
64,192,148575,1,0,0:0:0:0:
448,192,148575,1,0,0:0:0:0:
320,192,148775,1,2,0:0:0:0:
448,192,148775,1,0,0:0:0:0:
320,192,148875,1,0,0:0:0:0:
64,192,148975,1,0,0:0:0:0:
448,192,148975,1,0,0:0:0:0:
192,192,149075,1,2,0:0:0:0:
64,192,149075,1,0,0:0:0:0:
320,192,149175,1,0,0:0:0:0:
448,192,149275,1,0,0:0:0:0:
320,192,149375,1,2,0:0:0:0:
448,192,149375,1,0,0:0:0:0:
64,192,149375,1,0,0:0:0:0:
192,192,149575,1,0,0:0:0:0:
320,192,149575,1,2,0:0:0:0:
192,192,149775,1,2,0:0:0:0:
64,192,149775,1,0,0:0:0:0:
448,192,149775,1,0,0:0:0:0:
320,192,149975,1,0,0:0:0:0:
192,192,150075,1,2,0:0:0:0:
64,192,150075,1,0,0:0:0:0:
64,192,150175,1,0,0:0:0:0:
448,192,150175,1,0,0:0:0:0:
320,192,150375,1,2,0:0:0:0:
448,192,150375,1,0,0:0:0:0:
320,192,150475,1,0,0:0:0:0:
448,192,150575,1,0,0:0:0:0:
192,192,150575,1,0,0:0:0:0:
192,192,150675,1,2,0:0:0:0:
64,192,150675,1,0,0:0:0:0:
320,192,150775,1,0,0:0:0:0:
320,192,150875,1,0,0:0:0:0:
64,192,150975,1,0,0:0:0:0:
448,192,150975,1,0,0:0:0:0:
192,192,150975,1,2,0:0:0:0:
64,192,151075,1,0,0:0:0:0:
320,192,151175,1,2,0:0:0:0:
448,192,151175,1,0,0:0:0:0:
64,192,151375,1,0,0:0:0:0:
192,192,151375,1,4,0:0:0:0:
448,192,151375,1,0,0:0:0:0:
320,192,151575,1,0,0:0:0:0:
192,192,151675,1,2,0:0:0:0:
64,192,151675,1,0,0:0:0:0:
64,192,151775,1,0,0:0:0:0:
448,192,151775,1,0,0:0:0:0:
192,192,151975,1,2,0:0:0:0:
64,192,151975,1,0,0:0:0:0:
192,192,152075,1,0,0:0:0:0:
448,192,152175,1,0,0:0:0:0:
64,192,152175,1,0,0:0:0:0:
320,192,152275,1,2,0:0:0:0:
448,192,152275,1,0,0:0:0:0:
192,192,152375,1,0,0:0:0:0:
64,192,152475,1,0,0:0:0:0:
64,192,152575,1,0,0:0:0:0:
448,192,152575,1,0,0:0:0:0:
320,192,152575,1,2,0:0:0:0:
192,192,152775,1,0,0:0:0:0:
320,192,152775,1,2,0:0:0:0:
64,192,152975,1,0,0:0:0:0:
448,192,152975,1,0,0:0:0:0:
192,192,152975,1,4,0:0:0:0:
192,192,153175,1,0,0:0:0:0:
320,192,153275,1,2,0:0:0:0:
448,192,153275,1,0,0:0:0:0:
64,192,153375,1,0,0:0:0:0:
448,192,153375,1,0,0:0:0:0:
64,192,153475,1,0,0:0:0:0:
192,192,153475,1,2,0:0:0:0:
320,192,153575,1,2,0:0:0:0:
448,192,153575,1,0,0:0:0:0:
320,192,153675,1,2,0:0:0:0:
448,192,153675,1,0,0:0:0:0:
192,192,153775,1,2,0:0:0:0:
64,192,153775,128,0,153875:0:0:0:0:
448,192,153975,1,0,0:0:0:0:
320,192,154075,128,0,154275:0:0:0:0:
192,192,154375,128,0,154475:0:0:0:0:
64,192,154575,128,2,154775:0:0:0:0:
320,192,154575,128,4,154675:0:0:0:0:
448,192,154575,128,0,154775:0:0:0:0:
192,192,154775,128,0,154875:0:0:0:0:
64,192,154975,128,2,155175:0:0:0:0:
320,192,154975,128,4,155075:0:0:0:0:
448,192,154975,128,0,155175:0:0:0:0:
192,192,155175,128,0,155275:0:0:0:0:
64,192,155375,1,0,0:0:0:0:
448,192,155375,1,8,0:0:0:0:
192,192,155425,1,0,0:0:0:0:
448,192,155475,1,0,0:0:0:0:
320,192,155525,1,0,0:0:0:0:
192,192,155575,1,0,0:0:0:0:
192,192,155675,1,0,0:0:0:0:
320,192,155775,1,2,0:0:0:0:
448,192,155775,1,0,0:0:0:0:
320,192,155875,1,0,0:0:0:0:
64,192,155975,1,0,0:0:0:0:
64,192,156075,1,0,0:0:0:0:
192,192,156075,1,2,0:0:0:0:
448,192,156275,1,0,0:0:0:0:
320,192,156375,1,2,0:0:0:0:
448,192,156375,1,0,0:0:0:0:
64,192,156475,1,0,0:0:0:0:
448,192,156575,1,0,0:0:0:0:
192,192,156575,1,2,0:0:0:0:
320,192,156625,1,0,0:0:0:0:
64,192,156675,1,0,0:0:0:0:
320,192,156725,1,0,0:0:0:0:
192,192,156775,1,0,0:0:0:0:
64,192,156825,1,0,0:0:0:0:
448,192,156875,1,0,0:0:0:0:
320,192,156875,1,2,0:0:0:0:
64,192,156925,1,0,0:0:0:0:
448,192,156975,1,0,0:0:0:0:
192,192,156975,1,8,0:0:0:0:
192,192,157075,1,0,0:0:0:0:
320,192,157125,1,0,0:0:0:0:
64,192,157175,1,0,0:0:0:0:
448,192,157375,128,0,157775:0:0:0:0:
64,192,157475,1,0,0:0:0:0:
192,192,157475,1,2,0:0:0:0:
64,192,157775,1,0,0:0:0:0:
192,192,157775,1,2,0:0:0:0:
192,192,157875,1,0,0:0:0:0:
448,192,157975,1,0,0:0:0:0:
320,192,157975,128,2,158075:0:0:0:0:
448,192,158175,1,0,0:0:0:0:
320,192,158175,128,2,158375:0:0:0:0:
64,192,158575,1,0,0:0:0:0:
192,192,158575,1,8,0:0:0:0:
64,192,158675,1,0,0:0:0:0:
320,192,158725,1,0,0:0:0:0:
192,192,158775,1,0,0:0:0:0:
448,192,158875,1,0,0:0:0:0:
64,192,158975,1,0,0:0:0:0:
192,192,158975,1,2,0:0:0:0:
192,192,159075,1,0,0:0:0:0:
320,192,159175,1,0,0:0:0:0:
320,192,159275,1,2,0:0:0:0:
448,192,159275,1,0,0:0:0:0:
192,192,159475,1,0,0:0:0:0:
64,192,159575,1,0,0:0:0:0:
192,192,159575,1,2,0:0:0:0:
320,192,159675,1,0,0:0:0:0:
192,192,159775,1,2,0:0:0:0:
448,192,159775,1,0,0:0:0:0:
320,192,159825,1,0,0:0:0:0:
64,192,159875,1,0,0:0:0:0:
192,192,159925,1,0,0:0:0:0:
320,192,159975,1,0,0:0:0:0:
64,192,160025,1,0,0:0:0:0:
448,192,160075,1,0,0:0:0:0:
320,192,160075,1,2,0:0:0:0:
192,192,160125,1,0,0:0:0:0:
64,192,160175,1,0,0:0:0:0:
448,192,160175,1,8,0:0:0:0:
320,192,160225,1,0,0:0:0:0:
64,192,160275,1,0,0:0:0:0:
192,192,160325,1,0,0:0:0:0:
320,192,160375,1,2,0:0:0:0:
448,192,160375,128,0,160775:0:0:0:0:
64,192,160775,1,0,0:0:0:0:
192,192,160825,1,0,0:0:0:0:
64,192,160875,1,0,0:0:0:0:
192,192,160925,1,0,0:0:0:0:
320,192,160975,1,4,0:0:0:0:
448,192,160975,1,0,0:0:0:0:
192,192,161175,1,0,0:0:0:0:
320,192,161275,1,2,0:0:0:0:
448,192,161275,1,0,0:0:0:0:
64,192,161375,1,0,0:0:0:0:
448,192,161375,1,0,0:0:0:0:
192,192,161575,1,2,0:0:0:0:
64,192,161575,1,0,0:0:0:0:
192,192,161675,1,0,0:0:0:0:
64,192,161775,1,0,0:0:0:0:
448,192,161775,1,0,0:0:0:0:
320,192,161875,1,2,0:0:0:0:
448,192,161875,1,0,0:0:0:0:
192,192,161975,1,0,0:0:0:0:
64,192,162075,1,0,0:0:0:0:
448,192,162175,1,0,0:0:0:0:
64,192,162175,1,0,0:0:0:0:
320,192,162175,1,2,0:0:0:0:
192,192,162375,1,0,0:0:0:0:
320,192,162375,1,2,0:0:0:0:
64,192,162575,1,0,0:0:0:0:
448,192,162575,1,0,0:0:0:0:
192,192,162575,1,2,0:0:0:0:
320,192,162775,1,0,0:0:0:0:
192,192,162875,1,2,0:0:0:0:
64,192,162875,1,0,0:0:0:0:
448,192,162975,1,0,0:0:0:0:
64,192,162975,1,0,0:0:0:0:
320,192,163175,1,2,0:0:0:0:
448,192,163175,1,0,0:0:0:0:
320,192,163275,1,0,0:0:0:0:
64,192,163375,1,0,0:0:0:0:
448,192,163375,1,0,0:0:0:0:
192,192,163475,1,2,0:0:0:0:
64,192,163475,1,0,0:0:0:0:
320,192,163575,1,0,0:0:0:0:
448,192,163675,1,0,0:0:0:0:
448,192,163775,1,0,0:0:0:0:
64,192,163775,1,0,0:0:0:0:
192,192,163775,1,2,0:0:0:0:
192,192,163975,1,2,0:0:0:0:
320,192,163975,1,0,0:0:0:0:
320,192,164175,1,4,0:0:0:0:
448,192,164175,1,0,0:0:0:0:
64,192,164175,1,0,0:0:0:0:
320,192,164275,1,2,0:0:0:0:
448,192,164275,1,0,0:0:0:0:
192,192,164475,1,2,0:0:0:0:
64,192,164475,1,0,0:0:0:0:
448,192,164575,1,0,0:0:0:0:
64,192,164575,1,0,0:0:0:0:
320,192,164675,1,2,0:0:0:0:
192,192,164675,1,0,0:0:0:0:
320,192,164775,1,2,0:0:0:0:
448,192,164775,1,0,0:0:0:0:
192,192,164875,1,2,0:0:0:0:
64,192,164875,1,0,0:0:0:0:
64,192,164975,1,0,0:0:0:0:
448,192,164975,1,0,0:0:0:0:
320,192,165075,1,2,0:0:0:0:
448,192,165075,1,0,0:0:0:0:
192,192,165175,1,0,0:0:0:0:
192,192,165275,1,2,0:0:0:0:
64,192,165275,1,0,0:0:0:0:
64,192,165375,1,0,0:0:0:0:
448,192,165375,1,0,0:0:0:0:
320,192,165375,1,2,0:0:0:0:
320,192,165475,1,2,0:0:0:0:
448,192,165475,1,0,0:0:0:0:
192,192,165575,1,2,0:0:0:0:
64,192,165575,1,0,0:0:0:0:
320,192,165675,1,2,0:0:0:0:
448,192,165775,1,0,0:0:0:0:
64,192,165775,1,0,0:0:0:0:
192,192,165875,1,2,0:0:0:0:
64,192,165875,1,0,0:0:0:0:
320,192,165975,1,2,0:0:0:0:
448,192,165975,1,0,0:0:0:0:
320,192,166075,1,2,0:0:0:0:
448,192,166075,1,0,0:0:0:0:
64,192,166175,1,0,0:0:0:0:
448,192,166175,1,0,0:0:0:0:
192,192,166175,1,2,0:0:0:0:
192,192,166375,5,2,0:0:0:0:
320,192,166375,1,0,0:0:0:0:
320,192,166575,128,2,166725:0:0:0:0:
448,192,166575,128,0,166725:0:0:0:0:
64,192,166575,128,0,166675:0:0:0:0:
192,192,166775,1,0,0:0:0:0:
192,192,166875,1,0,0:0:0:0:
64,192,166975,1,0,0:0:0:0:
448,192,167075,1,0,0:0:0:0:
192,192,167175,1,0,0:0:0:0:
320,192,167275,1,0,0:0:0:0:
64,192,167375,5,0,0:0:0:0:
192,192,167375,1,2,0:0:0:0:
448,192,167375,1,0,0:0:0:0:
320,192,167375,1,4,0:0:0:0:
448,192,167775,1,0,0:0:0:0:
64,192,167875,1,0,0:0:0:0:
448,192,167975,128,0,168025:0:0:0:0:
64,192,168075,128,0,168125:0:0:0:0:
448,192,168175,128,0,168275:0:0:0:0:
64,192,168275,128,0,168375:0:0:0:0:
448,192,168375,128,0,168475:0:0:0:0:
64,192,168475,128,0,168575:0:0:0:0:
448,192,168575,128,0,168625:0:0:0:0:
64,192,168675,128,0,168725:0:0:0:0:
448,192,168775,1,0,0:0:0:0:
64,192,168875,1,0,0:0:0:0:
320,192,168975,1,0,0:0:0:0:
448,192,169075,1,0,0:0:0:0:
192,192,169175,1,0,0:0:0:0:
64,192,169275,1,0,0:0:0:0:
320,192,169375,128,0,169675:0:0:0:0:
192,192,169475,128,0,169675:0:0:0:0:
448,192,169575,128,0,169675:0:0:0:0:
64,192,169675,128,0,169775:0:0:0:0:
320,192,169775,1,0,0:0:0:0:
448,192,169875,128,0,169975:0:0:0:0:
320,192,169975,1,0,0:0:0:0:
192,192,170075,128,0,170175:0:0:0:0:
320,192,170175,1,0,0:0:0:0:
64,192,170275,128,0,170375:0:0:0:0:
320,192,170375,1,0,0:0:0:0:
192,192,170475,128,0,170575:0:0:0:0:
448,192,170575,1,0,0:0:0:0:
64,192,170675,1,0,0:0:0:0:
320,192,170775,1,0,0:0:0:0:
192,192,170875,1,0,0:0:0:0:
64,192,170975,1,0,0:0:0:0:
448,192,171075,1,0,0:0:0:0:
64,192,171175,128,0,171225:0:0:0:0:
448,192,171275,128,0,171325:0:0:0:0:
64,192,171375,128,0,171475:0:0:0:0:
448,192,171475,128,0,171575:0:0:0:0:
64,192,171575,128,0,171675:0:0:0:0:
448,192,171675,128,0,171775:0:0:0:0:
64,192,171775,128,0,171825:0:0:0:0:
448,192,171875,128,0,171925:0:0:0:0:
64,192,171975,1,0,0:0:0:0:
448,192,172075,1,0,0:0:0:0:
192,192,172175,1,0,0:0:0:0:
320,192,172275,1,0,0:0:0:0:
64,192,172375,1,0,0:0:0:0:
320,192,172475,1,0,0:0:0:0:
64,192,172575,128,0,172875:0:0:0:0:
448,192,172675,128,0,172875:0:0:0:0:
320,192,172775,128,0,172875:0:0:0:0:
192,192,172875,128,0,172975:0:0:0:0:
448,192,172975,1,0,0:0:0:0:
320,192,173075,128,0,173175:0:0:0:0:
448,192,173175,1,0,0:0:0:0:
64,192,173275,128,0,173375:0:0:0:0:
448,192,173375,1,0,0:0:0:0:
192,192,173475,128,0,173575:0:0:0:0:
448,192,173575,1,0,0:0:0:0:
320,192,173675,128,0,173775:0:0:0:0:
192,192,173775,1,0,0:0:0:0:
448,192,173875,1,0,0:0:0:0:
64,192,173975,1,0,0:0:0:0:
320,192,174075,1,0,0:0:0:0:
448,192,174175,1,0,0:0:0:0:
64,192,174275,1,0,0:0:0:0:
448,192,174375,128,0,174425:0:0:0:0:
64,192,174475,128,0,174525:0:0:0:0:
448,192,174575,128,0,174675:0:0:0:0:
64,192,174675,128,0,174775:0:0:0:0:
448,192,174775,128,0,174875:0:0:0:0:
64,192,174875,128,0,174975:0:0:0:0:
448,192,174975,128,0,175025:0:0:0:0:
64,192,175075,128,0,175125:0:0:0:0:
448,192,175175,1,0,0:0:0:0:
64,192,175275,1,0,0:0:0:0:
320,192,175375,1,0,0:0:0:0:
192,192,175475,1,0,0:0:0:0:
448,192,175575,1,0,0:0:0:0:
320,192,175675,1,0,0:0:0:0:
64,192,175775,128,0,176075:0:0:0:0:
448,192,175875,128,0,176075:0:0:0:0:
192,192,175975,128,0,176075:0:0:0:0:
320,192,176075,128,0,176175:0:0:0:0:
64,192,176175,1,0,0:0:0:0:
448,192,176275,128,0,176375:0:0:0:0:
64,192,176375,128,0,176575:0:0:0:0:
192,192,176475,128,0,176575:0:0:0:0:
448,192,176575,128,0,176775:0:0:0:0:
320,192,176675,128,0,176775:0:0:0:0:
64,192,176775,128,0,176975:0:0:0:0:
192,192,176875,128,0,176975:0:0:0:0:
320,192,176975,1,0,0:0:0:0:
448,192,177075,128,0,177275:0:0:0:0:
192,192,177175,1,0,0:0:0:0:
320,192,177275,1,0,0:0:0:0:
64,192,177375,1,0,0:0:0:0:
448,192,177475,1,0,0:0:0:0:
64,192,177575,128,0,177625:0:0:0:0:
448,192,177675,128,0,177725:0:0:0:0:
64,192,177775,128,0,177875:0:0:0:0:
448,192,177875,128,0,177975:0:0:0:0:
64,192,177975,128,0,178075:0:0:0:0:
448,192,178075,128,0,178175:0:0:0:0:
64,192,178175,128,0,178225:0:0:0:0:
448,192,178275,128,0,178325:0:0:0:0:
64,192,178375,1,0,0:0:0:0:
448,192,178475,1,0,0:0:0:0:
320,192,178575,128,0,178775:0:0:0:0:
64,192,178675,1,0,0:0:0:0:
192,192,178775,128,0,178875:0:0:0:0:
448,192,178875,1,0,0:0:0:0:
64,192,178975,128,0,179275:0:0:0:0:
192,192,179075,128,0,179275:0:0:0:0:
448,192,179175,128,0,179275:0:0:0:0:
320,192,179275,128,0,179375:0:0:0:0:
64,192,179375,1,0,0:0:0:0:
448,192,179475,128,0,179775:0:0:0:0:
192,192,179575,1,0,0:0:0:0:
320,192,179675,128,0,179775:0:0:0:0:
64,192,179775,1,0,0:0:0:0:
448,192,179875,128,0,179975:0:0:0:0:
192,192,179975,1,0,0:0:0:0:
64,192,180075,128,0,180175:0:0:0:0:
320,192,180175,1,0,0:0:0:0:
64,192,180275,1,0,0:0:0:0:
448,192,180375,1,0,0:0:0:0:
192,192,180475,1,0,0:0:0:0:
448,192,180575,1,0,0:0:0:0:
64,192,180675,1,0,0:0:0:0:
448,192,180775,128,0,180825:0:0:0:0:
64,192,180875,128,0,180925:0:0:0:0:
448,192,180975,128,0,181075:0:0:0:0:
64,192,181075,128,0,181175:0:0:0:0:
448,192,181175,128,0,181275:0:0:0:0:
64,192,181275,128,0,181375:0:0:0:0:
448,192,181375,128,0,181425:0:0:0:0:
64,192,181475,128,0,181525:0:0:0:0:
448,192,181575,1,0,0:0:0:0:
64,192,181675,1,0,0:0:0:0:
320,192,181775,1,0,0:0:0:0:
192,192,181875,1,0,0:0:0:0:
448,192,181975,128,0,182975:0:0:0:0:
320,192,182075,1,0,0:0:0:0:
64,192,182175,128,0,182375:0:0:0:0:
192,192,182275,128,0,182375:0:0:0:0:
320,192,182375,128,0,182475:0:0:0:0:
64,192,182475,1,0,0:0:0:0:
320,192,182575,1,0,0:0:0:0:
64,192,182675,1,0,0:0:0:0:
192,192,182775,1,0,0:0:0:0:
320,192,182875,1,0,0:0:0:0:
64,192,182975,1,0,0:0:0:0:
320,192,183075,1,0,0:0:0:0:
192,192,183175,128,0,183225:0:0:0:0:
448,192,183275,128,0,183325:0:0:0:0:
64,192,183375,128,0,183425:0:0:0:0:
320,192,183475,1,0,0:0:0:0:
192,192,183575,1,0,0:0:0:0:
448,192,183675,1,0,0:0:0:0:
64,192,183775,1,0,0:0:0:0:
320,192,183875,1,0,0:0:0:0:
64,192,183975,128,0,184025:0:0:0:0:
320,192,184075,128,0,184125:0:0:0:0:
64,192,184175,128,0,184275:0:0:0:0:
320,192,184275,128,0,184375:0:0:0:0:
64,192,184375,128,0,184475:0:0:0:0:
320,192,184475,128,0,184575:0:0:0:0:
64,192,184575,128,0,184625:0:0:0:0:
320,192,184675,128,0,184725:0:0:0:0:
64,192,184775,1,0,0:0:0:0:
320,192,184875,1,0,0:0:0:0:
448,192,184975,128,0,185025:0:0:0:0:
64,192,185075,1,0,0:0:0:0:
320,192,185175,1,0,0:0:0:0:
192,192,185275,1,0,0:0:0:0:
320,192,185375,128,0,185475:0:0:0:0:
64,192,185475,128,0,185675:0:0:0:0:
192,192,185575,128,0,185675:0:0:0:0:
448,192,185675,1,0,0:0:0:0:
64,192,185775,1,0,0:0:0:0:
320,192,185875,5,0,0:0:0:0:
448,192,185975,1,0,0:0:0:0:
192,192,186075,1,0,0:0:0:0:
64,192,186175,1,0,0:0:0:0:
320,192,186275,1,0,0:0:0:0:
64,192,186375,128,0,186425:0:0:0:0:
448,192,186475,1,0,0:0:0:0:
192,192,186575,1,0,0:0:0:0:
320,192,186675,128,0,186775:0:0:0:0:
64,192,186775,1,0,0:0:0:0:
192,192,186875,128,0,186975:0:0:0:0:
448,192,186975,5,0,0:0:0:0:
64,192,187075,1,0,0:0:0:0:
448,192,187175,128,0,187225:0:0:0:0:
64,192,187275,128,0,187325:0:0:0:0:
448,192,187375,128,0,187475:0:0:0:0:
64,192,187475,128,0,187575:0:0:0:0:
448,192,187575,128,0,187675:0:0:0:0:
64,192,187675,128,0,187775:0:0:0:0:
448,192,187775,128,0,187825:0:0:0:0:
64,192,187875,128,0,187925:0:0:0:0:
448,192,187975,1,0,0:0:0:0:
64,192,188075,1,0,0:0:0:0:
320,192,188175,1,0,0:0:0:0:
448,192,188275,1,0,0:0:0:0:
192,192,188375,1,0,0:0:0:0:
320,192,188475,1,0,0:0:0:0:
448,192,188575,128,0,188625:0:0:0:0:
64,192,188675,128,0,188725:0:0:0:0:
320,192,188775,1,0,0:0:0:0:
192,192,188875,1,0,0:0:0:0:
448,192,188975,1,0,0:0:0:0:
320,192,189075,1,0,0:0:0:0:
64,192,189175,128,0,189575:0:0:0:0:
192,192,189275,1,0,0:0:0:0:
448,192,189375,1,0,0:0:0:0:
320,192,189475,1,0,0:0:0:0:
448,192,189575,1,0,0:0:0:0:
192,192,189675,1,0,0:0:0:0:
320,192,189775,128,0,189825:0:0:0:0:
64,192,189875,1,0,0:0:0:0:
448,192,189975,1,0,0:0:0:0:
192,192,190075,128,0,190125:0:0:0:0:
448,192,190175,128,0,190225:0:0:0:0:
64,192,190275,1,0,0:0:0:0:
448,192,190375,128,0,190425:0:0:0:0:
192,192,190475,128,0,190525:0:0:0:0:
448,192,190575,128,0,190675:0:0:0:0:
64,192,190675,128,0,190775:0:0:0:0:
320,192,190775,128,0,190875:0:0:0:0:
64,192,190875,128,0,190975:0:0:0:0:
448,192,190975,128,0,191025:0:0:0:0:
192,192,191075,128,0,191125:0:0:0:0:
448,192,191175,1,0,0:0:0:0:
64,192,191275,1,0,0:0:0:0:
320,192,191375,1,0,0:0:0:0:
448,192,191475,1,0,0:0:0:0:
64,192,191575,128,0,191625:0:0:0:0:
192,192,191675,128,0,191725:0:0:0:0:
448,192,191775,128,0,191825:0:0:0:0:
64,192,191875,128,0,191925:0:0:0:0:
448,192,191975,128,0,192025:0:0:0:0:
192,192,192075,128,0,192125:0:0:0:0:
448,192,192175,128,0,192275:0:0:0:0:
64,192,192275,128,0,192375:0:0:0:0:
320,192,192375,128,0,192475:0:0:0:0:
64,192,192475,128,0,192575:0:0:0:0:
448,192,192575,128,0,192625:0:0:0:0:
192,192,192675,128,0,192725:0:0:0:0:
448,192,192775,1,0,0:0:0:0:
64,192,192875,128,0,192975:0:0:0:0:
320,192,192975,128,0,193175:0:0:0:0:
448,192,193075,1,0,0:0:0:0:
64,192,193175,1,0,0:0:0:0:
192,192,193275,1,0,0:0:0:0:
448,192,193375,1,0,0:0:0:0:
64,192,193475,1,0,0:0:0:0:
448,192,193575,128,0,193625:0:0:0:0:
64,192,193675,128,0,193725:0:0:0:0:
448,192,193775,128,0,193875:0:0:0:0:
64,192,193875,128,0,193975:0:0:0:0:
448,192,193975,128,0,194075:0:0:0:0:
64,192,194075,128,0,194175:0:0:0:0:
448,192,194175,128,0,194225:0:0:0:0:
64,192,194275,128,0,194325:0:0:0:0:
448,192,194375,1,0,0:0:0:0:
64,192,194475,1,0,0:0:0:0:
192,192,194575,128,0,194775:0:0:0:0:
320,192,194675,1,0,0:0:0:0:
448,192,194775,128,0,194875:0:0:0:0:
64,192,194875,1,0,0:0:0:0:
320,192,194975,128,0,195025:0:0:0:0:
192,192,195075,128,0,195125:0:0:0:0:
64,192,195175,128,0,195225:0:0:0:0:
448,192,195275,1,0,0:0:0:0:
320,192,195375,1,0,0:0:0:0:
192,192,195475,128,0,195525:0:0:0:0:
448,192,195575,1,0,0:0:0:0:
320,192,195675,1,0,0:0:0:0:
64,192,195775,1,0,0:0:0:0:
448,192,195875,1,0,0:0:0:0:
192,192,195975,1,0,0:0:0:0:
64,192,196075,1,0,0:0:0:0:
448,192,196175,1,0,0:0:0:0:
192,192,196275,1,0,0:0:0:0:
320,192,196375,1,0,0:0:0:0:
64,192,196475,1,0,0:0:0:0:
448,192,196575,1,0,0:0:0:0:
192,192,196675,1,0,0:0:0:0:
448,192,196775,128,0,196825:0:0:0:0:
192,192,196875,128,0,196925:0:0:0:0:
448,192,196975,128,0,197075:0:0:0:0:
192,192,197075,128,0,197175:0:0:0:0:
448,192,197175,128,0,197275:0:0:0:0:
192,192,197275,128,0,197375:0:0:0:0:
448,192,197375,128,0,197425:0:0:0:0:
192,192,197475,128,0,197525:0:0:0:0:
448,192,197575,1,0,0:0:0:0:
192,192,197675,1,0,0:0:0:0:
448,192,197775,128,0,198575:0:0:0:0:
320,192,197875,1,0,0:0:0:0:
192,192,197975,1,0,0:0:0:0:
64,192,198075,1,0,0:0:0:0:
320,192,198175,1,0,0:0:0:0:
64,192,198275,1,0,0:0:0:0:
192,192,198375,1,0,0:0:0:0:
320,192,198475,1,0,0:0:0:0:
64,192,198575,128,0,198975:0:0:0:0:
192,192,198675,1,0,0:0:0:0:
448,192,198675,1,0,0:0:0:0:
320,192,198775,1,0,0:0:0:0:
192,192,198875,1,0,0:0:0:0:
448,192,198975,128,0,199375:0:0:0:0:
320,192,199075,1,0,0:0:0:0:
64,192,199175,1,0,0:0:0:0:
192,192,199275,1,0,0:0:0:0:
320,192,199375,128,0,199775:0:0:0:0:
64,192,199375,1,0,0:0:0:0:
192,192,199575,128,0,200075:0:0:0:0:
448,192,199775,1,0,0:0:0:0:
64,192,199875,1,0,0:0:0:0:
448,192,199975,128,0,200025:0:0:0:0:
64,192,200075,128,0,200125:0:0:0:0:
448,192,200175,128,0,200275:0:0:0:0:
64,192,200275,128,0,200375:0:0:0:0:
448,192,200375,128,0,200475:0:0:0:0:
64,192,200475,128,0,200575:0:0:0:0:
448,192,200575,128,0,200625:0:0:0:0:
64,192,200675,128,0,200725:0:0:0:0:
192,192,200675,1,0,0:0:0:0:
448,192,200775,1,0,0:0:0:0:
64,192,200875,1,0,0:0:0:0:
320,192,200875,1,0,0:0:0:0:
192,192,200975,1,0,0:0:0:0:
320,192,201075,1,0,0:0:0:0:
448,192,201075,1,0,0:0:0:0:
192,192,201175,1,0,0:0:0:0:
64,192,201175,1,0,0:0:0:0:
320,192,201275,1,0,0:0:0:0:
64,192,201375,128,0,201675:0:0:0:0:
448,192,201475,128,0,201675:0:0:0:0:
192,192,201575,128,0,201675:0:0:0:0:
320,192,201675,128,0,201775:0:0:0:0:
64,192,201775,1,0,0:0:0:0:
448,192,201875,128,0,201975:0:0:0:0:
64,192,201975,1,0,0:0:0:0:
192,192,202075,128,0,202175:0:0:0:0:
64,192,202175,1,0,0:0:0:0:
448,192,202275,128,0,202375:0:0:0:0:
192,192,202375,1,0,0:0:0:0:
320,192,202475,128,0,202575:0:0:0:0:
448,192,202575,1,0,0:0:0:0:
64,192,202625,1,0,0:0:0:0:
192,192,202675,1,0,0:0:0:0:
448,192,202725,1,0,0:0:0:0:
320,192,202775,1,0,0:0:0:0:
64,192,202841,1,0,0:0:0:0:
192,192,202908,1,0,0:0:0:0:
448,192,202975,1,0,0:0:0:0:
320,192,203075,1,0,0:0:0:0:
64,192,203175,1,0,0:0:0:0:
320,192,203275,128,0,203375:0:0:0:0:
192,192,203375,1,0,0:0:0:0:
448,192,203475,128,0,203575:0:0:0:0:
320,192,203575,1,0,0:0:0:0:
192,192,203675,1,0,0:0:0:0:
192,192,203775,1,0,0:0:0:0:
320,192,203875,1,0,0:0:0:0:
320,192,203975,1,0,0:0:0:0:
64,192,204075,1,0,0:0:0:0:
448,192,204175,128,0,204375:0:0:0:0:
320,192,204175,128,2,204375:0:0:0:0:
64,192,204175,128,0,204575:0:0:0:0:
192,192,204375,128,0,204841:0:0:0:0:
320,192,204575,128,0,204975:0:0:0:0:
64,192,204708,1,0,0:0:0:0:
448,192,204841,1,0,0:0:0:0:
64,192,204975,1,0,0:0:0:0:
192,192,204975,128,2,205175:0:0:0:0:
448,192,205108,1,0,0:0:0:0:
192,192,205241,1,0,0:0:0:0:
320,192,205375,128,0,205575:0:0:0:0:
448,192,205375,1,0,0:0:0:0:
64,192,205508,1,0,0:0:0:0:
320,192,205641,1,0,0:0:0:0:
192,192,205775,5,4,0:0:0:0:
64,192,205775,128,0,205875:0:0:0:0:
448,192,205775,1,0,0:0:0:0:
320,192,205875,1,0,0:0:0:0:
64,192,205975,1,0,0:0:0:0:
192,192,206075,1,0,0:0:0:0:
448,192,206075,128,0,206175:0:0:0:0:
64,192,206175,1,0,0:0:0:0:
448,192,206275,1,0,0:0:0:0:
320,192,206375,1,0,0:0:0:0:
64,192,206375,128,0,206475:0:0:0:0:
448,192,206475,1,0,0:0:0:0:
192,192,206575,1,0,0:0:0:0:
320,192,206675,1,0,0:0:0:0:
448,192,206675,128,0,206775:0:0:0:0:
192,192,206775,1,0,0:0:0:0:
320,192,206875,1,0,0:0:0:0:
64,192,206975,1,0,0:0:0:0:
192,192,206975,128,0,207075:0:0:0:0:
448,192,207075,1,0,0:0:0:0:
64,192,207175,1,0,0:0:0:0:
320,192,207275,1,0,0:0:0:0:
192,192,207375,1,0,0:0:0:0:
64,192,207375,128,0,207475:0:0:0:0:
320,192,207475,1,0,0:0:0:0:
192,192,207575,1,0,0:0:0:0:
448,192,207675,128,0,207775:0:0:0:0:
64,192,207675,1,0,0:0:0:0:
320,192,207775,1,0,0:0:0:0:
192,192,207875,1,0,0:0:0:0:
320,192,207975,1,0,0:0:0:0:
64,192,207975,128,0,208075:0:0:0:0:
448,192,208075,1,0,0:0:0:0:
192,192,208175,1,0,0:0:0:0:
320,192,208275,1,0,0:0:0:0:
448,192,208275,128,0,208375:0:0:0:0:
192,192,208375,1,0,0:0:0:0:
64,192,208475,1,0,0:0:0:0:
320,192,208575,128,0,208675:0:0:0:0:
448,192,208575,1,0,0:0:0:0:
64,192,208675,1,0,0:0:0:0:
192,192,208675,1,4,0:0:0:0:
448,192,208775,1,0,0:0:0:0:
320,192,208875,1,0,0:0:0:0:
192,192,208975,1,4,0:0:0:0:
64,192,208975,128,0,209075:0:0:0:0:
320,192,209075,1,0,0:0:0:0:
64,192,209175,1,0,0:0:0:0:
192,192,209175,1,4,0:0:0:0:
320,192,209275,1,0,0:0:0:0:
448,192,209275,128,0,209375:0:0:0:0:
192,192,209375,1,0,0:0:0:0:
448,192,209475,1,0,0:0:0:0:
320,192,209575,1,0,0:0:0:0:
64,192,209575,128,0,209675:0:0:0:0:
448,192,209675,1,0,0:0:0:0:
64,192,209775,1,0,0:0:0:0:
192,192,209875,1,0,0:0:0:0:
448,192,209875,128,0,209975:0:0:0:0:
64,192,209975,1,0,0:0:0:0:
320,192,210075,1,0,0:0:0:0:
64,192,210175,1,0,0:0:0:0:
192,192,210175,128,0,210275:0:0:0:0:
448,192,210275,1,0,0:0:0:0:
64,192,210375,1,0,0:0:0:0:
192,192,210475,1,0,0:0:0:0:
448,192,210575,1,0,0:0:0:0:
320,192,210575,128,0,210675:0:0:0:0:
64,192,210675,1,0,0:0:0:0:
192,192,210675,1,4,0:0:0:0:
320,192,210775,1,0,0:0:0:0:
448,192,210875,128,0,210975:0:0:0:0:
64,192,210975,1,0,0:0:0:0:
192,192,210975,1,4,0:0:0:0:
448,192,211075,1,0,0:0:0:0:
320,192,211175,128,0,211275:0:0:0:0:
64,192,211275,1,0,0:0:0:0:
192,192,211275,1,4,0:0:0:0:
320,192,211375,1,0,0:0:0:0:
448,192,211475,128,0,211575:0:0:0:0:
64,192,211575,1,0,0:0:0:0:
192,192,211575,1,4,0:0:0:0:
320,192,211675,1,0,0:0:0:0:
64,192,211775,128,0,211975:0:0:0:0:
448,192,211825,128,0,211975:0:0:0:0:
192,192,211975,128,2,212175:0:0:0:0:
320,192,212025,128,0,212175:0:0:0:0:
448,192,212175,1,4,0:0:0:0:
64,192,212175,128,0,212275:0:0:0:0:
192,192,212275,1,0,0:0:0:0:
320,192,212375,1,0,0:0:0:0:
448,192,212475,128,0,212575:0:0:0:0:
192,192,212475,1,0,0:0:0:0:
64,192,212575,1,0,0:0:0:0:
320,192,212675,1,0,0:0:0:0:
192,192,212775,1,0,0:0:0:0:
64,192,212775,128,0,212875:0:0:0:0:
448,192,212875,1,0,0:0:0:0:
320,192,212975,1,0,0:0:0:0:
192,192,213075,1,0,0:0:0:0:
448,192,213075,128,0,213175:0:0:0:0:
64,192,213175,1,0,0:0:0:0:
192,192,213275,1,0,0:0:0:0:
320,192,213375,128,0,213475:0:0:0:0:
448,192,213375,1,0,0:0:0:0:
192,192,213475,1,0,0:0:0:0:
64,192,213575,1,0,0:0:0:0:
320,192,213675,1,0,0:0:0:0:
192,192,213775,1,0,0:0:0:0:
64,192,213775,128,0,213875:0:0:0:0:
320,192,213875,1,0,0:0:0:0:
448,192,213975,1,0,0:0:0:0:
192,192,214075,1,0,0:0:0:0:
320,192,214075,128,0,214175:0:0:0:0:
64,192,214175,1,0,0:0:0:0:
448,192,214275,1,0,0:0:0:0:
320,192,214375,1,0,0:0:0:0:
192,192,214375,128,0,214475:0:0:0:0:
448,192,214475,1,0,0:0:0:0:
64,192,214575,1,0,0:0:0:0:
192,192,214675,1,0,0:0:0:0:
448,192,214675,128,0,214775:0:0:0:0:
64,192,214775,1,0,0:0:0:0:
320,192,214875,1,0,0:0:0:0:
192,192,214975,1,0,0:0:0:0:
64,192,214975,128,0,215075:0:0:0:0:
320,192,215075,1,4,0:0:0:0:
448,192,215075,1,0,0:0:0:0:
192,192,215175,1,0,0:0:0:0:
64,192,215275,1,0,0:0:0:0:
320,192,215375,1,4,0:0:0:0:
448,192,215375,1,0,0:0:0:0:
192,192,215475,1,0,0:0:0:0:
320,192,215575,1,4,0:0:0:0:
448,192,215575,1,0,0:0:0:0:
64,192,215675,128,0,215775:0:0:0:0:
192,192,215775,1,0,0:0:0:0:
320,192,215875,1,4,0:0:0:0:
448,192,215875,1,0,0:0:0:0:
192,192,215975,128,0,216075:0:0:0:0:
320,192,216075,1,4,0:0:0:0:
448,192,216075,1,0,0:0:0:0:
64,192,216175,1,0,0:0:0:0:
192,192,216275,1,0,0:0:0:0:
448,192,216275,128,0,216375:0:0:0:0:
320,192,216375,1,0,0:0:0:0:
64,192,216475,1,0,0:0:0:0:
192,192,216575,128,0,216675:0:0:0:0:
448,192,216575,1,0,0:0:0:0:
320,192,216675,1,0,0:0:0:0:
64,192,216775,1,0,0:0:0:0:
192,192,216875,1,0,0:0:0:0:
320,192,216975,1,0,0:0:0:0:
448,192,216975,128,0,217075:0:0:0:0:
192,192,217075,1,0,0:0:0:0:
64,192,217175,1,0,0:0:0:0:
192,192,217275,1,0,0:0:0:0:
320,192,217275,128,0,217375:0:0:0:0:
64,192,217375,1,0,0:0:0:0:
448,192,217475,1,0,0:0:0:0:
320,192,217575,128,0,217675:0:0:0:0:
64,192,217575,1,0,0:0:0:0:
192,192,217675,1,0,0:0:0:0:
64,192,217775,128,0,218075:0:0:0:0:
448,192,217775,128,0,217875:0:0:0:0:
320,192,217875,1,0,0:0:0:0:
192,192,217925,1,0,0:0:0:0:
448,192,217975,1,0,0:0:0:0:
320,192,218025,1,0,0:0:0:0:
192,192,218075,1,0,0:0:0:0:
64,192,218175,128,0,218208:0:0:0:0:
64,192,218275,128,0,218308:0:0:0:0:
448,192,218375,128,0,218408:0:0:0:0:
448,192,218475,128,0,218508:0:0:0:0:
192,192,218575,1,2,0:0:0:0:
64,192,218575,1,0,0:0:0:0:
320,192,218575,1,4,0:0:0:0:
320,192,218775,1,2,0:0:0:0:
448,192,218775,1,0,0:0:0:0:
320,192,218875,1,2,0:0:0:0:
64,192,218875,1,0,0:0:0:0:
192,192,218975,1,0,0:0:0:0:
320,192,219075,1,2,0:0:0:0:
448,192,219075,1,0,0:0:0:0:
320,192,219175,1,2,0:0:0:0:
64,192,219175,1,0,0:0:0:0:
320,192,219375,1,2,0:0:0:0:
448,192,219375,1,0,0:0:0:0:
320,192,219475,1,2,0:0:0:0:
64,192,219475,1,0,0:0:0:0:
192,192,219575,1,0,0:0:0:0:
320,192,219675,1,2,0:0:0:0:
448,192,219675,1,0,0:0:0:0:
320,192,219775,1,2,0:0:0:0:
64,192,219775,1,0,0:0:0:0:
320,192,219975,1,2,0:0:0:0:
448,192,219975,1,0,0:0:0:0:
192,192,220025,1,2,0:0:0:0:
64,192,220075,1,0,0:0:0:0:
448,192,220075,1,2,0:0:0:0:
320,192,220125,1,2,0:0:0:0:
192,192,220175,1,2,0:0:0:0:
64,192,220175,1,0,0:0:0:0:
192,192,220375,1,2,0:0:0:0:
64,192,220375,1,0,0:0:0:0:
192,192,220475,1,2,0:0:0:0:
448,192,220475,1,0,0:0:0:0:
320,192,220575,1,0,0:0:0:0:
192,192,220675,1,2,0:0:0:0:
64,192,220675,1,0,0:0:0:0:
192,192,220775,1,2,0:0:0:0:
448,192,220775,1,0,0:0:0:0:
192,192,220975,1,2,0:0:0:0:
64,192,220975,1,0,0:0:0:0:
192,192,221075,1,2,0:0:0:0:
448,192,221075,1,0,0:0:0:0:
320,192,221175,1,0,0:0:0:0:
192,192,221275,1,2,0:0:0:0:
64,192,221275,1,0,0:0:0:0:
448,192,221375,1,0,0:0:0:0:
192,192,221375,128,2,221775:0:0:0:0:
320,192,221775,1,0,0:0:0:0:
448,192,221775,1,2,0:0:0:0:
320,192,221975,1,0,0:0:0:0:
448,192,221975,1,2,0:0:0:0:
448,192,222075,1,2,0:0:0:0:
64,192,222075,1,0,0:0:0:0:
192,192,222175,1,0,0:0:0:0:
320,192,222275,1,0,0:0:0:0:
448,192,222275,1,2,0:0:0:0:
448,192,222375,1,2,0:0:0:0:
64,192,222375,1,0,0:0:0:0:
320,192,222575,1,0,0:0:0:0:
448,192,222575,1,2,0:0:0:0:
448,192,222675,1,2,0:0:0:0:
64,192,222675,1,0,0:0:0:0:
192,192,222775,1,0,0:0:0:0:
320,192,222875,1,0,0:0:0:0:
448,192,222875,1,2,0:0:0:0:
448,192,222975,1,2,0:0:0:0:
64,192,222975,1,0,0:0:0:0:
320,192,223175,1,0,0:0:0:0:
448,192,223175,1,2,0:0:0:0:
64,192,223225,1,2,0:0:0:0:
192,192,223275,1,2,0:0:0:0:
320,192,223275,1,0,0:0:0:0:
448,192,223325,1,2,0:0:0:0:
192,192,223375,1,0,0:0:0:0:
64,192,223375,1,2,0:0:0:0:
64,192,223575,1,2,0:0:0:0:
192,192,223575,1,0,0:0:0:0:
64,192,223675,1,2,0:0:0:0:
448,192,223675,1,0,0:0:0:0:
320,192,223775,1,0,0:0:0:0:
192,192,223875,5,0,0:0:0:0:
64,192,223875,1,2,0:0:0:0:
64,192,223975,1,2,0:0:0:0:
448,192,223975,1,0,0:0:0:0:
192,192,224175,1,0,0:0:0:0:
64,192,224175,1,2,0:0:0:0:
64,192,224275,1,2,0:0:0:0:
448,192,224275,1,0,0:0:0:0:
320,192,224375,128,0,224575:0:0:0:0:
192,192,224375,1,0,0:0:0:0:
64,192,224575,128,0,224625:0:0:0:0:
448,192,224575,128,0,224625:0:0:0:0:
448,192,224725,128,0,224775:0:0:0:0:
64,192,224725,128,0,224775:0:0:0:0:
64,192,224875,128,0,224925:0:0:0:0:
448,192,224875,128,0,224925:0:0:0:0:
448,192,224975,5,2,0:0:0:0:
320,192,225025,1,2,0:0:0:0:
192,192,225075,1,2,0:0:0:0:
64,192,225125,1,2,0:0:0:0:
320,192,225175,1,2,0:0:0:0:
448,192,225175,1,0,0:0:0:0:
192,192,225275,1,2,0:0:0:0:
64,192,225275,1,0,0:0:0:0:
320,192,225375,1,2,0:0:0:0:
448,192,225375,1,0,0:0:0:0:
320,192,225475,1,2,0:0:0:0:
448,192,225475,1,0,0:0:0:0:
64,192,225575,1,0,0:0:0:0:
192,192,225575,1,2,0:0:0:0:
320,192,225675,1,2,0:0:0:0:
448,192,225675,1,0,0:0:0:0:
192,192,225775,1,2,0:0:0:0:
64,192,225775,1,0,0:0:0:0:
64,192,225875,1,0,0:0:0:0:
192,192,225875,1,2,0:0:0:0:
320,192,225975,1,2,0:0:0:0:
448,192,225975,1,0,0:0:0:0:
192,192,226075,1,2,0:0:0:0:
64,192,226075,1,0,0:0:0:0:
320,192,226175,1,2,0:0:0:0:
448,192,226175,1,0,0:0:0:0:
320,192,226275,1,2,0:0:0:0:
448,192,226275,1,0,0:0:0:0:
192,192,226375,1,2,0:0:0:0:
64,192,226375,1,0,0:0:0:0:
320,192,226475,1,2,0:0:0:0:
448,192,226475,1,0,0:0:0:0:
64,192,226575,1,2,0:0:0:0:
192,192,226625,1,2,0:0:0:0:
320,192,226675,1,2,0:0:0:0:
448,192,226725,1,2,0:0:0:0:
192,192,226775,1,2,0:0:0:0:
64,192,226775,1,0,0:0:0:0:
320,192,226875,1,2,0:0:0:0:
448,192,226875,1,0,0:0:0:0:
192,192,226975,1,2,0:0:0:0:
64,192,226975,1,0,0:0:0:0:
64,192,227075,1,0,0:0:0:0:
192,192,227075,1,2,0:0:0:0:
320,192,227175,1,2,0:0:0:0:
448,192,227175,1,0,0:0:0:0:
192,192,227275,1,2,0:0:0:0:
64,192,227275,1,0,0:0:0:0:
320,192,227375,1,2,0:0:0:0:
448,192,227375,1,0,0:0:0:0:
320,192,227475,1,2,0:0:0:0:
448,192,227475,1,0,0:0:0:0:
192,192,227575,1,2,0:0:0:0:
64,192,227575,1,0,0:0:0:0:
320,192,227675,1,2,0:0:0:0:
448,192,227675,1,0,0:0:0:0:
192,192,227775,1,2,0:0:0:0:
64,192,227775,1,0,0:0:0:0:
64,192,227875,1,0,0:0:0:0:
192,192,227875,1,2,0:0:0:0:
320,192,227975,1,2,0:0:0:0:
448,192,227975,1,0,0:0:0:0:
192,192,228075,1,2,0:0:0:0:
64,192,228075,1,0,0:0:0:0:
448,192,228175,1,2,0:0:0:0:
320,192,228225,1,2,0:0:0:0:
192,192,228275,1,2,0:0:0:0:
64,192,228325,1,2,0:0:0:0:
448,192,228375,1,2,0:0:0:0:
320,192,228425,1,2,0:0:0:0:
192,192,228475,1,2,0:0:0:0:
448,192,228525,1,2,0:0:0:0:
64,192,228575,1,2,0:0:0:0:
192,192,228625,1,2,0:0:0:0:
320,192,228675,1,2,0:0:0:0:
64,192,228725,1,2,0:0:0:0:
448,192,228775,1,2,0:0:0:0:
320,192,228825,1,2,0:0:0:0:
192,192,228875,1,2,0:0:0:0:
448,192,228925,1,2,0:0:0:0:
64,192,228975,1,2,0:0:0:0:
192,192,229025,1,2,0:0:0:0:
320,192,229075,1,2,0:0:0:0:
448,192,229125,1,2,0:0:0:0:
64,192,229175,1,2,0:0:0:0:
192,192,229225,1,2,0:0:0:0:
320,192,229275,1,2,0:0:0:0:
64,192,229325,1,2,0:0:0:0:
448,192,229375,1,2,0:0:0:0:
320,192,229425,1,2,0:0:0:0:
192,192,229475,1,2,0:0:0:0:
448,192,229525,1,2,0:0:0:0:
64,192,229575,1,2,0:0:0:0:
192,192,229625,1,2,0:0:0:0:
320,192,229675,1,2,0:0:0:0:
64,192,229725,1,2,0:0:0:0:
448,192,229775,128,2,230575:0:0:0:0:
320,192,229825,1,0,0:0:0:0:
192,192,229875,1,0,0:0:0:0:
64,192,229925,1,0,0:0:0:0:
320,192,229975,1,0,0:0:0:0:
192,192,230025,1,0,0:0:0:0:
64,192,230075,1,0,0:0:0:0:
320,192,230125,1,0,0:0:0:0:
192,192,230175,1,0,0:0:0:0:
64,192,230225,1,0,0:0:0:0:
320,192,230275,1,0,0:0:0:0:
192,192,230325,1,0,0:0:0:0:
64,192,230375,1,0,0:0:0:0:
320,192,230425,1,0,0:0:0:0:
192,192,230475,1,0,0:0:0:0:
64,192,230525,1,0,0:0:0:0:
320,192,230575,128,0,230675:0:0:0:0:
192,192,230675,128,0,230775:0:0:0:0:
448,192,230775,128,0,230875:0:0:0:0:
64,192,230875,128,0,230975:0:0:0:0:
320,192,230975,1,0,0:0:0:0:
448,192,230975,1,0,0:0:0:0:
192,192,231025,1,0,0:0:0:0:
64,192,231075,1,0,0:0:0:0:
448,192,231125,1,0,0:0:0:0:
320,192,231175,1,0,0:0:0:0:
192,192,231225,1,0,0:0:0:0:
64,192,231275,1,0,0:0:0:0:
448,192,231325,1,0,0:0:0:0:
64,192,231375,128,4,231425:0:0:0:0:
320,192,231375,128,2,231425:0:0:0:0:
192,192,231375,128,0,231425:0:0:0:0:
448,192,231475,1,0,0:0:0:0:
64,192,231575,1,0,0:0:0:0:
320,192,231575,1,0,0:0:0:0:
192,192,231675,128,0,231725:0:0:0:0:
64,192,231675,128,0,231725:0:0:0:0:
320,192,231775,1,2,0:0:0:0:
448,192,231775,1,0,0:0:0:0:
320,192,231875,1,0,0:0:0:0:
192,192,231975,128,0,232025:0:0:0:0:
448,192,231975,128,0,232025:0:0:0:0:
320,192,232075,1,0,0:0:0:0:
192,192,232175,1,2,0:0:0:0:
64,192,232175,1,0,0:0:0:0:
64,192,232275,128,0,232325:0:0:0:0:
448,192,232275,128,0,232325:0:0:0:0:
192,192,232375,1,0,0:0:0:0:
320,192,232375,1,0,0:0:0:0:
448,192,232475,1,0,0:0:0:0:
192,192,232575,128,2,232625:0:0:0:0:
64,192,232575,128,0,232625:0:0:0:0:
320,192,232675,1,0,0:0:0:0:
448,192,232775,1,0,0:0:0:0:
64,192,232775,1,0,0:0:0:0:
192,192,232875,1,0,0:0:0:0:
320,192,232975,128,2,233025:0:0:0:0:
448,192,232975,128,0,233025:0:0:0:0:
192,192,233075,1,0,0:0:0:0:
320,192,233175,1,0,0:0:0:0:
64,192,233175,1,0,0:0:0:0:
192,192,233275,128,0,233325:0:0:0:0:
64,192,233275,128,0,233325:0:0:0:0:
320,192,233375,1,2,0:0:0:0:
448,192,233375,1,0,0:0:0:0:
320,192,233475,1,0,0:0:0:0:
64,192,233575,128,0,233625:0:0:0:0:
448,192,233575,128,0,233625:0:0:0:0:
320,192,233675,1,0,0:0:0:0:
192,192,233775,1,2,0:0:0:0:
64,192,233775,1,0,0:0:0:0:
64,192,233875,128,0,233925:0:0:0:0:
320,192,233875,128,0,233925:0:0:0:0:
192,192,233975,1,0,0:0:0:0:
448,192,233975,1,0,0:0:0:0:
320,192,234075,1,0,0:0:0:0:
192,192,234175,128,2,234225:0:0:0:0:
64,192,234175,128,0,234225:0:0:0:0:
320,192,234275,1,0,0:0:0:0:
64,192,234375,1,0,0:0:0:0:
448,192,234375,1,0,0:0:0:0:
320,192,234475,1,0,0:0:0:0:
64,192,234575,128,0,234625:0:0:0:0:
192,192,234575,128,2,234625:0:0:0:0:
448,192,234675,1,0,0:0:0:0:
192,192,234775,1,0,0:0:0:0:
320,192,234775,1,0,0:0:0:0:
320,192,234875,128,0,234925:0:0:0:0:
448,192,234875,128,0,234925:0:0:0:0:
192,192,234975,1,2,0:0:0:0:
64,192,234975,1,0,0:0:0:0:
192,192,235075,1,0,0:0:0:0:
448,192,235175,128,0,235225:0:0:0:0:
64,192,235175,128,0,235225:0:0:0:0:
192,192,235275,1,0,0:0:0:0:
320,192,235375,1,2,0:0:0:0:
448,192,235375,1,0,0:0:0:0:
448,192,235475,128,0,235525:0:0:0:0:
192,192,235475,128,0,235525:0:0:0:0:
320,192,235575,1,0,0:0:0:0:
64,192,235575,1,0,0:0:0:0:
192,192,235675,1,0,0:0:0:0:
320,192,235775,128,2,235825:0:0:0:0:
448,192,235775,128,0,235825:0:0:0:0:
192,192,235875,1,0,0:0:0:0:
64,192,235975,1,0,0:0:0:0:
448,192,235975,1,0,0:0:0:0:
320,192,236075,1,0,0:0:0:0:
64,192,236175,128,0,236225:0:0:0:0:
192,192,236175,128,2,236225:0:0:0:0:
320,192,236275,1,0,0:0:0:0:
448,192,236375,1,0,0:0:0:0:
192,192,236375,1,0,0:0:0:0:
320,192,236475,128,0,236525:0:0:0:0:
448,192,236475,128,0,236525:0:0:0:0:
192,192,236575,1,2,0:0:0:0:
64,192,236575,1,0,0:0:0:0:
192,192,236675,1,0,0:0:0:0:
64,192,236775,128,0,236825:0:0:0:0:
320,192,236775,128,0,236825:0:0:0:0:
192,192,236875,1,0,0:0:0:0:
320,192,236975,1,2,0:0:0:0:
448,192,236975,1,0,0:0:0:0:
192,192,237075,128,0,237125:0:0:0:0:
448,192,237075,128,0,237125:0:0:0:0:
320,192,237175,1,0,0:0:0:0:
64,192,237175,1,0,0:0:0:0:
192,192,237275,1,0,0:0:0:0:
320,192,237375,128,2,237425:0:0:0:0:
448,192,237375,128,0,237425:0:0:0:0:
192,192,237475,1,0,0:0:0:0:
448,192,237575,1,0,0:0:0:0:
64,192,237575,1,0,0:0:0:0:
192,192,237675,1,0,0:0:0:0:
320,192,237775,128,2,237825:0:0:0:0:
448,192,237775,128,0,237825:0:0:0:0:
192,192,237875,1,0,0:0:0:0:
320,192,237975,1,2,0:0:0:0:
64,192,237975,1,0,0:0:0:0:
192,192,238075,128,0,238125:0:0:0:0:
64,192,238075,128,0,238125:0:0:0:0:
320,192,238175,1,2,0:0:0:0:
448,192,238175,1,0,0:0:0:0:
320,192,238275,1,0,0:0:0:0:
64,192,238375,128,0,238425:0:0:0:0:
448,192,238375,128,0,238425:0:0:0:0:
320,192,238475,1,0,0:0:0:0:
192,192,238575,1,2,0:0:0:0:
64,192,238575,1,0,0:0:0:0:
192,192,238675,128,0,238725:0:0:0:0:
448,192,238675,128,0,238725:0:0:0:0:
64,192,238775,1,0,0:0:0:0:
320,192,238775,1,0,0:0:0:0:
448,192,238875,1,0,0:0:0:0:
192,192,238975,128,2,239025:0:0:0:0:
64,192,238975,128,0,239025:0:0:0:0:
448,192,239075,1,0,0:0:0:0:
64,192,239175,1,0,0:0:0:0:
320,192,239175,1,0,0:0:0:0:
192,192,239275,1,0,0:0:0:0:
320,192,239375,128,2,239425:0:0:0:0:
448,192,239375,128,0,239425:0:0:0:0:
64,192,239475,1,0,0:0:0:0:
320,192,239575,1,0,0:0:0:0:
192,192,239575,1,0,0:0:0:0:
192,192,239675,128,0,239725:0:0:0:0:
64,192,239675,128,0,239725:0:0:0:0:
320,192,239775,1,2,0:0:0:0:
448,192,239775,1,0,0:0:0:0:
320,192,239875,1,0,0:0:0:0:
192,192,239975,128,0,240025:0:0:0:0:
448,192,239975,128,0,240025:0:0:0:0:
320,192,240075,1,0,0:0:0:0:
192,192,240175,1,2,0:0:0:0:
64,192,240175,1,0,0:0:0:0:
320,192,240275,128,0,240325:0:0:0:0:
64,192,240275,128,0,240325:0:0:0:0:
192,192,240375,1,0,0:0:0:0:
448,192,240375,1,0,0:0:0:0:
320,192,240475,1,0,0:0:0:0:
64,192,240575,128,0,240625:0:0:0:0:
192,192,240575,128,2,240625:0:0:0:0:
448,192,240675,1,0,0:0:0:0:
320,192,240775,1,0,0:0:0:0:
192,192,240775,1,0,0:0:0:0:
64,192,240875,1,0,0:0:0:0:
320,192,240975,1,2,0:0:0:0:
448,192,240975,1,0,0:0:0:0:
320,192,241075,1,2,0:0:0:0:
448,192,241075,1,0,0:0:0:0:
192,192,241175,1,2,0:0:0:0:
64,192,241175,1,0,0:0:0:0:
320,192,241275,1,0,0:0:0:0:
64,192,241375,128,2,241475:0:0:0:0:
448,192,241375,128,8,241475:0:0:0:0:
192,192,241475,1,0,0:0:0:0:
320,192,241575,1,0,0:0:0:0:
64,192,241575,1,0,0:0:0:0:
192,192,241675,1,0,0:0:0:0:
448,192,241775,1,0,0:0:0:0:
320,192,241775,1,2,0:0:0:0:
320,192,241875,1,0,0:0:0:0:
192,192,241975,1,2,0:0:0:0:
64,192,241975,1,0,0:0:0:0:
192,192,242075,1,0,0:0:0:0:
64,192,242175,128,2,242275:0:0:0:0:
448,192,242175,128,8,242275:0:0:0:0:
320,192,242275,1,0,0:0:0:0:
64,192,242375,1,0,0:0:0:0:
192,192,242475,1,0,0:0:0:0:
320,192,242575,1,2,0:0:0:0:
448,192,242575,1,0,0:0:0:0:
320,192,242675,1,0,0:0:0:0:
192,192,242775,1,0,0:0:0:0:
64,192,242875,1,2,0:0:0:0:
448,192,242875,1,0,0:0:0:0:
64,192,242975,1,0,0:0:0:0:
192,192,243075,1,0,0:0:0:0:
320,192,243175,1,2,0:0:0:0:
448,192,243175,1,0,0:0:0:0:
448,192,243275,1,0,0:0:0:0:
192,192,243375,1,2,0:0:0:0:
64,192,243375,1,0,0:0:0:0:
192,192,243475,1,2,0:0:0:0:
64,192,243475,1,0,0:0:0:0:
320,192,243575,1,0,0:0:0:0:
192,192,243675,1,2,0:0:0:0:
64,192,243675,1,0,0:0:0:0:
64,192,243775,1,0,0:0:0:0:
192,192,243775,1,2,0:0:0:0:
192,192,243975,1,2,0:0:0:0:
64,192,243975,1,0,0:0:0:0:
448,192,244025,1,2,0:0:0:0:
320,192,244075,1,2,0:0:0:0:
192,192,244075,1,0,0:0:0:0:
64,192,244125,1,2,0:0:0:0:
320,192,244175,128,2,244225:0:0:0:0:
448,192,244175,128,0,244225:0:0:0:0:
192,192,244275,1,0,0:0:0:0:
64,192,244375,1,0,0:0:0:0:
320,192,244375,1,0,0:0:0:0:
192,192,244475,128,0,244525:0:0:0:0:
64,192,244475,128,0,244525:0:0:0:0:
320,192,244575,1,2,0:0:0:0:
448,192,244575,1,0,0:0:0:0:
448,192,244675,1,0,0:0:0:0:
64,192,244775,128,0,244825:0:0:0:0:
320,192,244775,128,0,244825:0:0:0:0:
448,192,244875,1,0,0:0:0:0:
192,192,244975,1,2,0:0:0:0:
64,192,244975,1,0,0:0:0:0:
192,192,245075,128,0,245125:0:0:0:0:
320,192,245075,128,0,245125:0:0:0:0:
64,192,245175,1,0,0:0:0:0:
448,192,245175,1,0,0:0:0:0:
320,192,245275,1,0,0:0:0:0:
192,192,245375,128,2,245425:0:0:0:0:
64,192,245375,128,0,245425:0:0:0:0:
448,192,245475,1,0,0:0:0:0:
192,192,245575,1,0,0:0:0:0:
320,192,245575,1,0,0:0:0:0:
64,192,245675,1,0,0:0:0:0:
320,192,245775,128,2,245825:0:0:0:0:
448,192,245775,128,0,245825:0:0:0:0:
192,192,245875,1,0,0:0:0:0:
320,192,245975,1,0,0:0:0:0:
64,192,245975,1,0,0:0:0:0:
192,192,246075,128,0,246125:0:0:0:0:
64,192,246075,128,0,246125:0:0:0:0:
320,192,246175,1,2,0:0:0:0:
448,192,246175,1,0,0:0:0:0:
320,192,246275,1,0,0:0:0:0:
192,192,246375,128,0,246425:0:0:0:0:
448,192,246375,128,0,246425:0:0:0:0:
320,192,246475,1,0,0:0:0:0:
192,192,246575,1,2,0:0:0:0:
64,192,246575,1,0,0:0:0:0:
64,192,246675,128,0,246725:0:0:0:0:
448,192,246675,128,0,246725:0:0:0:0:
192,192,246775,1,0,0:0:0:0:
320,192,246775,1,0,0:0:0:0:
448,192,246875,1,0,0:0:0:0:
64,192,246975,128,0,247025:0:0:0:0:
320,192,246975,128,2,247025:0:0:0:0:
192,192,247075,1,0,0:0:0:0:
448,192,247175,1,0,0:0:0:0:
320,192,247175,1,2,0:0:0:0:
192,192,247275,1,0,0:0:0:0:
64,192,247375,128,2,247425:0:0:0:0:
448,192,247375,128,0,247425:0:0:0:0:
320,192,247475,1,0,0:0:0:0:
448,192,247575,1,0,0:0:0:0:
192,192,247575,1,2,0:0:0:0:
320,192,247675,128,0,247725:0:0:0:0:
448,192,247675,128,0,247725:0:0:0:0:
192,192,247775,1,2,0:0:0:0:
64,192,247775,1,0,0:0:0:0:
192,192,247875,1,0,0:0:0:0:
64,192,247975,128,0,248025:0:0:0:0:
320,192,247975,128,0,248025:0:0:0:0:
192,192,248075,1,0,0:0:0:0:
320,192,248175,1,2,0:0:0:0:
448,192,248175,1,0,0:0:0:0:
192,192,248275,128,0,248325:0:0:0:0:
448,192,248275,128,0,248325:0:0:0:0:
320,192,248375,1,0,0:0:0:0:
64,192,248375,1,0,0:0:0:0:
192,192,248475,1,0,0:0:0:0:
320,192,248575,128,2,248625:0:0:0:0:
448,192,248575,128,0,248625:0:0:0:0:
64,192,248675,1,0,0:0:0:0:
192,192,248775,1,0,0:0:0:0:
448,192,248775,1,0,0:0:0:0:
320,192,248875,1,0,0:0:0:0:
192,192,248975,128,4,249025:0:0:0:0:
64,192,248975,128,2,249025:0:0:0:0:
448,192,248975,1,0,0:0:0:0:
320,192,249075,1,0,0:0:0:0:
192,192,249175,1,0,0:0:0:0:
320,192,249275,128,4,249325:0:0:0:0:
448,192,249275,128,2,249325:0:0:0:0:
64,192,249275,1,0,0:0:0:0:
192,192,249375,1,0,0:0:0:0:
448,192,249475,1,0,0:0:0:0:
64,192,249575,128,2,249625:0:0:0:0:
192,192,249575,128,4,249625:0:0:0:0:
320,192,249575,1,0,0:0:0:0:
448,192,249675,1,0,0:0:0:0:
64,192,249775,1,0,0:0:0:0:
448,192,249875,128,2,249925:0:0:0:0:
320,192,249875,128,4,249925:0:0:0:0:
192,192,249875,1,0,0:0:0:0:
64,192,249975,1,0,0:0:0:0:
320,192,250075,1,0,0:0:0:0:
192,192,250175,128,4,250225:0:0:0:0:
64,192,250175,128,2,250225:0:0:0:0:
448,192,250175,1,0,0:0:0:0:
320,192,250275,1,0,0:0:0:0:
192,192,250375,1,0,0:0:0:0:
320,192,250475,1,0,0:0:0:0:
64,192,250575,128,2,250675:0:0:0:0:
448,192,250575,128,0,250675:0:0:0:0:
192,192,250575,128,4,250675:0:0:0:0:
64,192,250875,128,0,250975:0:0:0:0:
320,192,250875,128,0,250975:0:0:0:0:
192,192,251175,128,0,251275:0:0:0:0:
320,192,251175,128,0,251275:0:0:0:0:
64,192,251375,1,0,0:0:0:0:
448,192,251375,1,8,0:0:0:0:
192,192,251475,128,0,251575:0:0:0:0:
448,192,251475,128,2,251575:0:0:0:0:
64,192,251775,128,0,251875:0:0:0:0:
320,192,251775,128,4,251875:0:0:0:0:
448,192,251775,128,2,251875:0:0:0:0:
192,192,251875,1,0,0:0:0:0:
320,192,251975,1,0,0:0:0:0:
64,192,252075,1,0,0:0:0:0:
192,192,252075,128,2,252125:0:0:0:0:
320,192,252175,128,0,252225:0:0:0:0:
448,192,252275,1,0,0:0:0:0:
192,192,252375,1,2,0:0:0:0:
64,192,252375,128,0,252425:0:0:0:0:
448,192,252475,128,0,252525:0:0:0:0:
320,192,252575,1,0,0:0:0:0:
64,192,252675,1,0,0:0:0:0:
192,192,252675,128,2,252725:0:0:0:0:
320,192,252775,128,0,252825:0:0:0:0:
64,192,252875,1,0,0:0:0:0:
192,192,252875,1,2,0:0:0:0:
448,192,252975,1,8,0:0:0:0:
64,192,252975,128,0,253025:0:0:0:0:
448,192,253075,128,0,253125:0:0:0:0:
192,192,253175,1,0,0:0:0:0:
64,192,253175,1,0,0:0:0:0:
320,192,253275,1,0,0:0:0:0:
448,192,253375,128,0,253425:0:0:0:0:
64,192,253375,128,0,253425:0:0:0:0:
192,192,253475,1,0,0:0:0:0:
448,192,253575,1,0,0:0:0:0:
320,192,253675,1,0,0:0:0:0:
64,192,253775,128,0,253825:0:0:0:0:
192,192,253775,128,2,253825:0:0:0:0:
320,192,253875,1,0,0:0:0:0:
448,192,253975,1,0,0:0:0:0:
64,192,253975,1,0,0:0:0:0:
192,192,254075,128,0,254125:0:0:0:0:
320,192,254175,1,0,0:0:0:0:
320,192,254275,1,0,0:0:0:0:
192,192,254375,128,0,254425:0:0:0:0:
448,192,254375,128,0,254425:0:0:0:0:
320,192,254475,1,0,0:0:0:0:
64,192,254575,1,8,0:0:0:0:
448,192,254575,1,0,0:0:0:0:
192,192,254675,128,2,254725:0:0:0:0:
64,192,254675,128,0,254725:0:0:0:0:
320,192,254775,1,0,0:0:0:0:
192,192,254875,1,0,0:0:0:0:
448,192,254975,1,0,0:0:0:0:
320,192,254975,1,2,0:0:0:0:
320,192,255075,1,2,0:0:0:0:
448,192,255075,1,0,0:0:0:0:
64,192,255175,1,0,0:0:0:0:
192,192,255175,1,2,0:0:0:0:
320,192,255275,1,0,0:0:0:0:
64,192,255375,128,0,255525:0:0:0:0:
192,192,255375,128,2,255575:0:0:0:0:
448,192,255575,128,0,255875:0:0:0:0:
64,192,255675,128,0,255975:0:0:0:0:
320,192,255875,128,0,256075:0:0:0:0:
192,192,255975,128,0,256175:0:0:0:0:
320,192,256175,1,0,0:0:0:0:
448,192,256175,128,0,256375:0:0:0:0:
192,192,256275,1,0,0:0:0:0:
64,192,256308,128,0,256508:0:0:0:0:
448,192,256441,128,0,256641:0:0:0:0:
320,192,256475,1,0,0:0:0:0:
192,192,256575,1,0,0:0:0:0:
64,192,256575,128,0,256775:0:0:0:0:
448,192,256708,1,0,0:0:0:0:
64,192,256841,1,0,0:0:0:0:
320,192,256975,5,2,0:0:0:0:
448,192,256975,1,0,0:0:0:0:
64,192,257175,1,0,0:0:0:0:
192,192,257175,1,2,0:0:0:0:
448,192,257225,1,2,0:0:0:0:
320,192,257275,1,2,0:0:0:0:
192,192,257275,1,0,0:0:0:0:
64,192,257325,1,2,0:0:0:0:
320,192,257375,1,2,0:0:0:0:
448,192,257375,1,0,0:0:0:0:
192,192,257475,1,2,0:0:0:0:
64,192,257475,1,0,0:0:0:0:
448,192,257575,1,0,0:0:0:0:
192,192,257675,1,2,0:0:0:0:
320,192,257675,1,0,0:0:0:0:
64,192,257775,1,0,0:0:0:0:
320,192,257875,1,2,0:0:0:0:
448,192,257875,1,0,0:0:0:0:
320,192,257975,1,2,0:0:0:0:
448,192,257975,1,0,0:0:0:0:
192,192,258175,1,2,0:0:0:0:
64,192,258175,1,0,0:0:0:0:
64,192,258275,1,0,0:0:0:0:
192,192,258275,1,2,0:0:0:0:
320,192,258375,1,2,0:0:0:0:
448,192,258375,1,0,0:0:0:0:
192,192,258475,1,2,0:0:0:0:
64,192,258475,1,0,0:0:0:0:
64,192,258575,1,0,0:0:0:0:
448,192,258675,1,0,0:0:0:0:
320,192,258675,1,2,0:0:0:0:
320,192,258775,1,2,0:0:0:0:
448,192,258775,1,0,0:0:0:0:
192,192,258875,1,2,0:0:0:0:
64,192,258875,1,0,0:0:0:0:
64,192,258975,1,0,0:0:0:0:
192,192,258975,1,2,0:0:0:0:
320,192,259075,1,2,0:0:0:0:
448,192,259075,1,0,0:0:0:0:
192,192,259175,1,2,0:0:0:0:
64,192,259175,1,0,0:0:0:0:
192,192,259275,1,0,0:0:0:0:
320,192,259375,1,2,0:0:0:0:
448,192,259375,1,0,0:0:0:0:
320,192,259475,1,2,0:0:0:0:
448,192,259475,1,0,0:0:0:0:
192,192,259575,1,2,0:0:0:0:
64,192,259575,1,0,0:0:0:0:
64,192,259675,1,0,0:0:0:0:
448,192,259775,1,0,0:0:0:0:
320,192,259775,1,0,0:0:0:0:
192,192,259825,1,0,0:0:0:0:
64,192,259875,1,0,0:0:0:0:
320,192,259925,1,0,0:0:0:0:
192,192,259975,1,0,0:0:0:0:
448,192,259975,1,0,0:0:0:0:
448,192,260075,1,0,0:0:0:0:
64,192,260175,128,0,260225:0:0:0:0:
320,192,260175,128,2,260225:0:0:0:0:
448,192,260275,1,0,0:0:0:0:
192,192,260375,1,0,0:0:0:0:
320,192,260375,1,0,0:0:0:0:
192,192,260475,128,0,260525:0:0:0:0:
448,192,260475,128,0,260525:0:0:0:0:
320,192,260575,1,2,0:0:0:0:
64,192,260575,1,0,0:0:0:0:
320,192,260675,1,0,0:0:0:0:
192,192,260775,128,0,260825:0:0:0:0:
64,192,260775,128,0,260825:0:0:0:0:
320,192,260875,1,0,0:0:0:0:
192,192,260975,1,2,0:0:0:0:
448,192,260975,1,0,0:0:0:0:
64,192,261075,128,0,261125:0:0:0:0:
448,192,261075,128,0,261125:0:0:0:0:
320,192,261175,1,0,0:0:0:0:
192,192,261175,1,0,0:0:0:0:
64,192,261275,1,0,0:0:0:0:
192,192,261375,128,2,261425:0:0:0:0:
448,192,261375,128,0,261425:0:0:0:0:
320,192,261475,1,0,0:0:0:0:
64,192,261575,1,0,0:0:0:0:
448,192,261575,1,0,0:0:0:0:
192,192,261675,1,0,0:0:0:0:
320,192,261775,128,2,261825:0:0:0:0:
448,192,261775,128,0,261825:0:0:0:0:
64,192,261875,1,0,0:0:0:0:
320,192,261975,1,0,0:0:0:0:
192,192,261975,1,0,0:0:0:0:
192,192,262075,128,0,262125:0:0:0:0:
64,192,262075,128,0,262125:0:0:0:0:
320,192,262175,1,2,0:0:0:0:
448,192,262175,1,0,0:0:0:0:
320,192,262275,1,0,0:0:0:0:
192,192,262375,128,0,262425:0:0:0:0:
448,192,262375,128,0,262425:0:0:0:0:
320,192,262475,1,0,0:0:0:0:
192,192,262575,1,2,0:0:0:0:
64,192,262575,1,0,0:0:0:0:
64,192,262675,128,0,262725:0:0:0:0:
448,192,262675,128,0,262725:0:0:0:0:
320,192,262775,1,0,0:0:0:0:
192,192,262875,1,2,0:0:0:0:
64,192,262875,1,0,0:0:0:0:
192,192,262975,128,0,263025:0:0:0:0:
320,192,262975,128,2,263025:0:0:0:0:
448,192,263075,1,0,0:0:0:0:
192,192,263175,1,2,0:0:0:0:
64,192,263175,1,0,0:0:0:0:
320,192,263275,1,0,0:0:0:0:
64,192,263375,1,0,0:0:0:0:
192,192,263375,1,2,0:0:0:0:
320,192,263425,1,2,0:0:0:0:
448,192,263475,1,0,0:0:0:0:
192,192,263475,1,2,0:0:0:0:
64,192,263525,1,2,0:0:0:0:
320,192,263575,1,2,0:0:0:0:
448,192,263575,1,0,0:0:0:0:
192,192,263675,1,2,0:0:0:0:
64,192,263675,1,0,0:0:0:0:
320,192,263775,1,2,0:0:0:0:
448,192,263775,1,0,0:0:0:0:
192,192,263825,1,2,0:0:0:0:
64,192,263875,1,0,0:0:0:0:
320,192,263875,1,2,0:0:0:0:
448,192,263925,1,2,0:0:0:0:
192,192,263975,1,2,0:0:0:0:
64,192,263975,1,0,0:0:0:0:
320,192,264075,1,2,0:0:0:0:
448,192,264075,1,0,0:0:0:0:
64,192,264275,1,0,0:0:0:0:
192,192,264275,1,2,0:0:0:0:
320,192,264375,1,2,0:0:0:0:
448,192,264375,1,0,0:0:0:0:
64,192,264425,1,2,0:0:0:0:
192,192,264475,1,2,0:0:0:0:
320,192,264475,1,0,0:0:0:0:
448,192,264525,1,2,0:0:0:0:
192,192,264575,1,2,0:0:0:0:
64,192,264575,1,0,0:0:0:0:
320,192,264675,1,2,0:0:0:0:
448,192,264675,1,0,0:0:0:0:
192,192,264775,1,2,0:0:0:0:
64,192,264775,1,0,0:0:0:0:
64,192,264875,1,0,0:0:0:0:
192,192,264875,1,2,0:0:0:0:
320,192,264975,1,2,0:0:0:0:
448,192,264975,1,0,0:0:0:0:
320,192,265075,1,2,0:0:0:0:
448,192,265075,1,0,0:0:0:0:
192,192,265175,1,2,0:0:0:0:
64,192,265175,1,0,0:0:0:0:
192,192,265275,1,0,0:0:0:0:
320,192,265375,1,2,0:0:0:0:
448,192,265375,1,0,0:0:0:0:
320,192,265475,1,2,0:0:0:0:
448,192,265475,1,0,0:0:0:0:
64,192,265675,1,0,0:0:0:0:
192,192,265675,1,2,0:0:0:0:
320,192,265725,1,2,0:0:0:0:
64,192,265775,128,0,265825:0:0:0:0:
448,192,265775,128,2,265825:0:0:0:0:
448,192,265925,128,0,265975:0:0:0:0:
64,192,265925,128,2,265975:0:0:0:0:
64,192,266075,1,0,0:0:0:0:
448,192,266075,1,2,0:0:0:0:
192,192,266175,128,2,266225:0:0:0:0:
320,192,266175,128,0,266225:0:0:0:0:
192,192,266325,128,0,266375:0:0:0:0:
320,192,266325,128,2,266375:0:0:0:0:
192,192,266475,1,2,0:0:0:0:
320,192,266475,1,0,0:0:0:0:
64,192,266575,1,0,0:0:0:0:
192,192,266575,1,2,0:0:0:0:
320,192,266675,1,2,0:0:0:0:
448,192,266675,1,0,0:0:0:0:
320,192,266775,1,2,0:0:0:0:
448,192,266775,1,0,0:0:0:0:
192,192,266875,1,0,0:0:0:0:
64,192,266975,128,8,267075:0:0:0:0:
448,192,266975,128,2,267075:0:0:0:0:
320,192,267175,1,0,0:0:0:0:
64,192,267375,1,0,0:0:0:0:
192,192,267375,1,2,0:0:0:0:
192,192,267475,1,0,0:0:0:0:
320,192,267575,1,2,0:0:0:0:
64,192,267575,1,0,0:0:0:0:
320,192,267675,1,0,0:0:0:0:
64,192,267775,128,8,267875:0:0:0:0:
448,192,267775,128,2,267875:0:0:0:0:
192,192,267975,1,0,0:0:0:0:
320,192,268175,1,2,0:0:0:0:
448,192,268175,1,0,0:0:0:0:
192,192,268375,1,2,0:0:0:0:
64,192,268375,1,0,0:0:0:0:
64,192,268475,1,0,0:0:0:0:
192,192,268475,1,2,0:0:0:0:
320,192,268675,1,2,0:0:0:0:
448,192,268675,1,0,0:0:0:0:
320,192,268775,1,2,0:0:0:0:
448,192,268775,1,0,0:0:0:0:
64,192,268975,128,0,269275:0:0:0:0:
448,192,268975,128,2,269075:0:0:0:0:
320,192,269075,1,0,0:0:0:0:
192,192,269125,1,0,0:0:0:0:
448,192,269175,1,0,0:0:0:0:
320,192,269225,1,0,0:0:0:0:
192,192,269275,1,0,0:0:0:0:
64,192,269375,128,0,269408:0:0:0:0:
64,192,269475,128,0,269508:0:0:0:0:
448,192,269575,128,0,269608:0:0:0:0:
448,192,269675,128,0,269708:0:0:0:0:
64,192,269775,1,0,0:0:0:0:
192,192,269775,1,2,0:0:0:0:
320,192,269875,1,2,0:0:0:0:
448,192,269875,1,0,0:0:0:0:
192,192,269975,1,2,0:0:0:0:
64,192,269975,1,0,0:0:0:0:
64,192,270075,1,0,0:0:0:0:
192,192,270075,1,2,0:0:0:0:
64,192,270275,1,0,0:0:0:0:
192,192,270275,1,2,0:0:0:0:
320,192,270325,1,2,0:0:0:0:
64,192,270375,1,0,0:0:0:0:
448,192,270375,1,2,0:0:0:0:
320,192,270475,1,2,0:0:0:0:
448,192,270475,1,0,0:0:0:0:
192,192,270575,1,2,0:0:0:0:
64,192,270575,1,0,0:0:0:0:
64,192,270675,1,0,0:0:0:0:
192,192,270675,1,2,0:0:0:0:
320,192,270875,1,2,0:0:0:0:
448,192,270875,1,0,0:0:0:0:
192,192,270925,1,2,0:0:0:0:
64,192,270975,1,2,0:0:0:0:
448,192,270975,1,0,0:0:0:0:
192,192,271075,1,0,0:0:0:0:
64,192,271075,1,2,0:0:0:0:
320,192,271175,1,2,0:0:0:0:
448,192,271175,1,0,0:0:0:0:
64,192,271375,1,0,0:0:0:0:
192,192,271375,1,2,0:0:0:0:
320,192,271441,1,2,0:0:0:0:
448,192,271441,1,0,0:0:0:0:
192,192,271508,1,2,0:0:0:0:
64,192,271508,1,0,0:0:0:0:
320,192,271575,1,2,0:0:0:0:
448,192,271575,1,0,0:0:0:0:
192,192,271641,1,2,0:0:0:0:
64,192,271641,1,0,0:0:0:0:
320,192,271708,1,2,0:0:0:0:
448,192,271708,1,0,0:0:0:0:
192,192,271775,1,2,0:0:0:0:
64,192,271775,1,0,0:0:0:0:
64,192,271875,1,0,0:0:0:0:
192,192,271875,1,2,0:0:0:0:
320,192,272075,1,2,0:0:0:0:
448,192,272075,1,0,0:0:0:0:
320,192,272175,1,2,0:0:0:0:
448,192,272175,1,0,0:0:0:0:
320,192,272308,1,2,0:0:0:0:
448,192,272308,1,0,0:0:0:0:
192,192,272375,1,0,0:0:0:0:
448,192,272441,1,0,0:0:0:0:
320,192,272441,1,2,0:0:0:0:
448,192,272575,1,0,0:0:0:0:
320,192,272575,1,2,0:0:0:0:
64,192,272575,1,0,0:0:0:0:
64,192,272775,1,0,0:0:0:0:
192,192,272775,1,2,0:0:0:0:
448,192,272825,1,2,0:0:0:0:
192,192,272875,1,0,0:0:0:0:
320,192,272875,1,2,0:0:0:0:
64,192,272925,1,2,0:0:0:0:
320,192,272975,128,2,273025:0:0:0:0:
448,192,272975,128,0,273025:0:0:0:0:
192,192,273075,1,0,0:0:0:0:
64,192,273175,1,0,0:0:0:0:
320,192,273175,1,0,0:0:0:0:
64,192,273275,128,0,273325:0:0:0:0:
192,192,273275,128,0,273325:0:0:0:0:
320,192,273375,1,2,0:0:0:0:
448,192,273375,1,0,0:0:0:0:
448,192,273475,1,0,0:0:0:0:
320,192,273575,128,0,273625:0:0:0:0:
64,192,273575,128,0,273625:0:0:0:0:
448,192,273675,1,0,0:0:0:0:
192,192,273775,1,2,0:0:0:0:
64,192,273775,1,0,0:0:0:0:
448,192,273875,128,0,273925:0:0:0:0:
192,192,273875,128,0,273925:0:0:0:0:
320,192,273975,1,0,0:0:0:0:
64,192,273975,1,0,0:0:0:0:
448,192,274075,1,0,0:0:0:0:
192,192,274175,128,2,274225:0:0:0:0:
64,192,274175,128,0,274225:0:0:0:0:
320,192,274275,1,0,0:0:0:0:
192,192,274375,1,0,0:0:0:0:
448,192,274375,1,0,0:0:0:0:
64,192,274475,1,0,0:0:0:0:
192,192,274575,1,4,0:0:0:0:
320,192,274575,128,2,274625:0:0:0:0:
448,192,274575,128,0,274625:0:0:0:0:
192,192,274675,1,0,0:0:0:0:
448,192,274775,1,0,0:0:0:0:
320,192,274875,1,4,0:0:0:0:
192,192,274875,128,2,274925:0:0:0:0:
64,192,274875,128,0,274925:0:0:0:0:
320,192,274975,1,0,0:0:0:0:
192,192,275075,1,0,0:0:0:0:
64,192,275175,1,4,0:0:0:0:
320,192,275175,128,2,275225:0:0:0:0:
448,192,275175,128,0,275225:0:0:0:0:
64,192,275275,1,0,0:0:0:0:
320,192,275375,1,0,0:0:0:0:
448,192,275475,1,4,0:0:0:0:
192,192,275475,128,2,275525:0:0:0:0:
64,192,275475,128,0,275525:0:0:0:0:
448,192,275575,1,0,0:0:0:0:
320,192,275675,1,0,0:0:0:0:
192,192,275775,128,4,275825:0:0:0:0:
64,192,275775,128,0,275825:0:0:0:0:
448,192,275775,128,0,275825:0:0:0:0:
320,192,275775,128,2,275825:0:0:0:0:
192,192,275975,1,2,0:0:0:0:
64,192,276025,1,2,0:0:0:0:
320,192,276075,1,2,0:0:0:0:
192,192,276125,1,2,0:0:0:0:
448,192,276175,1,2,0:0:0:0:
320,192,276225,1,2,0:0:0:0:
192,192,276275,1,2,0:0:0:0:
64,192,276325,1,2,0:0:0:0:
320,192,276375,1,2,0:0:0:0:
448,192,276375,1,0,0:0:0:0:
192,192,276475,1,2,0:0:0:0:
64,192,276475,1,0,0:0:0:0:
320,192,276575,1,2,0:0:0:0:
448,192,276575,1,0,0:0:0:0:
320,192,276675,1,2,0:0:0:0:
448,192,276675,1,0,0:0:0:0:
192,192,276775,1,2,0:0:0:0:
64,192,276775,1,0,0:0:0:0:
448,192,276875,1,0,0:0:0:0:
320,192,276875,1,2,0:0:0:0:
192,192,276975,1,2,0:0:0:0:
64,192,276975,1,0,0:0:0:0:
64,192,277075,1,0,0:0:0:0:
192,192,277075,1,2,0:0:0:0:
320,192,277175,1,2,0:0:0:0:
448,192,277175,1,0,0:0:0:0:
192,192,277275,1,2,0:0:0:0:
64,192,277275,1,0,0:0:0:0:
320,192,277375,1,2,0:0:0:0:
448,192,277375,1,0,0:0:0:0:
320,192,277475,1,2,0:0:0:0:
448,192,277475,1,0,0:0:0:0:
192,192,277575,1,2,0:0:0:0:
64,192,277575,1,0,0:0:0:0:
320,192,277675,1,2,0:0:0:0:
448,192,277675,1,0,0:0:0:0:
64,192,277775,1,2,0:0:0:0:
192,192,277825,1,2,0:0:0:0:
320,192,277875,1,2,0:0:0:0:
448,192,277925,1,2,0:0:0:0:
192,192,277975,1,2,0:0:0:0:
64,192,277975,1,0,0:0:0:0:
320,192,278075,1,2,0:0:0:0:
448,192,278075,1,0,0:0:0:0:
192,192,278175,1,2,0:0:0:0:
64,192,278175,1,0,0:0:0:0:
64,192,278275,1,0,0:0:0:0:
192,192,278275,1,2,0:0:0:0:
320,192,278375,1,2,0:0:0:0:
448,192,278375,1,0,0:0:0:0:
192,192,278475,1,2,0:0:0:0:
64,192,278475,1,0,0:0:0:0:
320,192,278575,1,2,0:0:0:0:
448,192,278575,1,0,0:0:0:0:
320,192,278675,1,2,0:0:0:0:
448,192,278675,1,0,0:0:0:0:
192,192,278775,1,2,0:0:0:0:
64,192,278775,1,0,0:0:0:0:
320,192,278875,1,2,0:0:0:0:
448,192,278875,1,0,0:0:0:0:
192,192,278975,1,2,0:0:0:0:
64,192,278975,1,0,0:0:0:0:
64,192,279075,1,0,0:0:0:0:
192,192,279075,1,2,0:0:0:0:
320,192,279175,1,2,0:0:0:0:
448,192,279175,1,0,0:0:0:0:
64,192,279275,1,0,0:0:0:0:
192,192,279275,1,2,0:0:0:0:
448,192,279375,1,2,0:0:0:0:
320,192,279425,1,2,0:0:0:0:
192,192,279475,1,2,0:0:0:0:
64,192,279525,1,2,0:0:0:0:
448,192,279575,1,2,0:0:0:0:
320,192,279625,1,2,0:0:0:0:
192,192,279675,1,2,0:0:0:0:
448,192,279725,1,2,0:0:0:0:
64,192,279775,1,2,0:0:0:0:
192,192,279825,1,2,0:0:0:0:
320,192,279875,1,2,0:0:0:0:
64,192,279925,1,2,0:0:0:0:
448,192,279975,1,2,0:0:0:0:
320,192,280025,1,2,0:0:0:0:
192,192,280075,1,2,0:0:0:0:
448,192,280125,1,2,0:0:0:0:
64,192,280175,1,2,0:0:0:0:
192,192,280225,1,2,0:0:0:0:
320,192,280275,1,2,0:0:0:0:
448,192,280325,1,2,0:0:0:0:
64,192,280375,1,2,0:0:0:0:
192,192,280425,1,2,0:0:0:0:
320,192,280475,1,2,0:0:0:0:
64,192,280525,1,2,0:0:0:0:
448,192,280575,128,2,280675:0:0:0:0:
320,192,280625,128,2,280675:0:0:0:0:
192,192,280675,1,2,0:0:0:0:
64,192,280725,1,2,0:0:0:0:
448,192,280775,128,2,280875:0:0:0:0:
320,192,280825,128,2,280875:0:0:0:0:
192,192,280875,1,2,0:0:0:0:
64,192,280925,1,2,0:0:0:0:
448,192,280975,1,0,0:0:0:0:
320,192,280975,1,0,0:0:0:0:
448,192,281175,1,0,0:0:0:0:
64,192,281275,1,0,0:0:0:0:
320,192,281375,1,0,0:0:0:0:
192,192,281425,1,0,0:0:0:0:
320,192,281475,1,0,0:0:0:0:
64,192,281575,1,0,0:0:0:0:
320,192,281625,1,0,0:0:0:0:
64,192,281675,1,0,0:0:0:0:
448,192,281775,1,0,0:0:0:0:
64,192,281825,1,0,0:0:0:0:
448,192,281875,1,0,0:0:0:0:
192,192,281975,1,0,0:0:0:0:
320,192,282025,1,0,0:0:0:0:
192,192,282075,1,0,0:0:0:0:
64,192,282175,1,8,0:0:0:0:
448,192,282175,1,0,0:0:0:0:
320,192,282225,1,0,0:0:0:0:
64,192,282275,1,0,0:0:0:0:
192,192,282375,1,0,0:0:0:0:
448,192,282375,1,0,0:0:0:0:
320,192,282425,1,0,0:0:0:0:
448,192,282475,1,0,0:0:0:0:
192,192,282575,1,2,0:0:0:0:
64,192,282575,1,0,0:0:0:0:
320,192,282675,1,0,0:0:0:0:
192,192,282725,1,0,0:0:0:0:
64,192,282775,1,0,0:0:0:0:
320,192,282775,1,0,0:0:0:0:
448,192,282875,1,0,0:0:0:0:
64,192,282975,1,0,0:0:0:0:
320,192,282975,1,2,0:0:0:0:
192,192,283075,1,0,0:0:0:0:
192,192,283175,1,0,0:0:0:0:
448,192,283175,1,0,0:0:0:0:
320,192,283275,1,0,0:0:0:0:
192,192,283375,1,2,0:0:0:0:
64,192,283375,1,0,0:0:0:0:
448,192,283475,1,0,0:0:0:0:
64,192,283525,1,0,0:0:0:0:
192,192,283575,1,0,0:0:0:0:
448,192,283575,1,0,0:0:0:0:
320,192,283675,1,0,0:0:0:0:
192,192,283775,1,2,0:0:0:0:
64,192,283775,1,0,0:0:0:0:
64,192,283975,1,0,0:0:0:0:
192,192,283975,1,2,0:0:0:0:
320,192,284075,1,0,0:0:0:0:
64,192,284175,1,0,0:0:0:0:
448,192,284175,1,0,0:0:0:0:
192,192,284375,1,2,0:0:0:0:
320,192,284475,1,2,0:0:0:0:
192,192,284575,1,2,0:0:0:0:
192,192,284675,1,2,0:0:0:0:
320,192,284775,1,2,0:0:0:0:
320,192,284875,1,2,0:0:0:0:
192,192,284975,1,2,0:0:0:0:
64,192,284975,1,0,0:0:0:0:
64,192,285075,1,0,0:0:0:0:
192,192,285075,1,2,0:0:0:0:
320,192,285175,1,2,0:0:0:0:
448,192,285175,1,0,0:0:0:0:
320,192,285275,1,2,0:0:0:0:
448,192,285275,1,0,0:0:0:0:
64,192,285375,1,0,0:0:0:0:
192,192,285425,1,0,0:0:0:0:
448,192,285475,1,0,0:0:0:0:
64,192,285525,1,0,0:0:0:0:
320,192,285575,1,0,0:0:0:0:
448,192,285625,1,0,0:0:0:0:
192,192,285675,1,0,0:0:0:0:
320,192,285725,1,0,0:0:0:0:
192,192,285775,1,2,0:0:0:0:
64,192,285775,1,0,0:0:0:0:
448,192,285775,1,0,0:0:0:0:
320,192,285875,1,0,0:0:0:0:
192,192,285925,1,0,0:0:0:0:
320,192,285975,1,0,0:0:0:0:
64,192,285975,1,0,0:0:0:0:
448,192,286075,1,0,0:0:0:0:
320,192,286175,1,0,0:0:0:0:
192,192,286175,1,2,0:0:0:0:
64,192,286275,1,0,0:0:0:0:
64,192,286375,1,0,0:0:0:0:
448,192,286375,1,0,0:0:0:0:
192,192,286475,1,0,0:0:0:0:
64,192,286575,1,0,0:0:0:0:
320,192,286575,1,2,0:0:0:0:
448,192,286675,1,0,0:0:0:0:
192,192,286725,1,0,0:0:0:0:
64,192,286775,1,0,0:0:0:0:
448,192,286775,1,0,0:0:0:0:
320,192,286875,1,0,0:0:0:0:
64,192,286975,1,0,0:0:0:0:
448,192,286975,128,2,287275:0:0:0:0:
192,192,287075,1,0,0:0:0:0:
320,192,287125,1,0,0:0:0:0:
64,192,287175,1,0,0:0:0:0:
192,192,287225,1,0,0:0:0:0:
320,192,287275,1,0,0:0:0:0:
192,192,287375,1,2,0:0:0:0:
64,192,287375,1,0,0:0:0:0:
448,192,287475,1,0,0:0:0:0:
320,192,287575,1,0,0:0:0:0:
64,192,287575,1,0,0:0:0:0:
192,192,287625,1,0,0:0:0:0:
320,192,287675,1,0,0:0:0:0:
64,192,287775,1,0,0:0:0:0:
448,192,287775,1,2,0:0:0:0:
320,192,287875,1,0,0:0:0:0:
192,192,287975,1,0,0:0:0:0:
448,192,287975,1,0,0:0:0:0:
320,192,288025,1,0,0:0:0:0:
192,192,288075,1,0,0:0:0:0:
320,192,288175,1,2,0:0:0:0:
448,192,288175,1,0,0:0:0:0:
64,192,288275,1,0,0:0:0:0:
320,192,288325,1,2,0:0:0:0:
448,192,288325,1,0,0:0:0:0:
192,192,288375,1,0,0:0:0:0:
320,192,288475,1,2,0:0:0:0:
448,192,288475,1,0,0:0:0:0:
320,192,288575,128,2,288625:0:0:0:0:
448,192,288575,128,0,288675:0:0:0:0:
64,192,288675,1,0,0:0:0:0:
192,192,288725,1,0,0:0:0:0:
320,192,288775,1,0,0:0:0:0:
64,192,288825,128,0,288975:0:0:0:0:
192,192,288875,128,0,288975:0:0:0:0:
320,192,289175,1,2,0:0:0:0:
448,192,289175,1,0,0:0:0:0:
64,192,289175,1,0,0:0:0:0:
320,192,289275,1,0,0:0:0:0:
192,192,289375,1,0,0:0:0:0:
448,192,289475,1,0,0:0:0:0:
192,192,289575,1,2,0:0:0:0:
64,192,289575,1,0,0:0:0:0:
64,192,289675,1,0,0:0:0:0:
192,192,289675,1,2,0:0:0:0:
320,192,289775,1,2,0:0:0:0:
448,192,289775,1,0,0:0:0:0:
64,192,289875,1,0,0:0:0:0:
320,192,289925,1,0,0:0:0:0:
448,192,289975,1,0,0:0:0:0:
64,192,289975,1,0,0:0:0:0:
192,192,290075,1,0,0:0:0:0:
320,192,290175,1,2,0:0:0:0:
64,192,290175,128,0,290475:0:0:0:0:
448,192,290275,1,0,0:0:0:0:
320,192,290325,1,0,0:0:0:0:
192,192,290375,1,0,0:0:0:0:
448,192,290425,1,0,0:0:0:0:
320,192,290475,1,0,0:0:0:0:
192,192,290575,128,2,290708:0:0:0:0:
64,192,290575,128,0,290841:0:0:0:0:
320,192,290708,128,0,290975:0:0:0:0:
192,192,290841,128,0,290975:0:0:0:0:
64,192,290975,128,0,291041:0:0:0:0:
448,192,290975,128,2,291308:0:0:0:0:
192,192,291108,128,0,291175:0:0:0:0:
320,192,291241,128,0,291308:0:0:0:0:
64,192,291375,1,0,0:0:0:0:
192,192,291375,1,2,0:0:0:0:
64,192,291508,128,0,291575:0:0:0:0:
320,192,291508,128,0,291575:0:0:0:0:
320,192,291641,128,0,291708:0:0:0:0:
448,192,291641,128,0,291708:0:0:0:0:
192,192,291775,128,2,291841:0:0:0:0:
64,192,291775,128,0,291908:0:0:0:0:
192,192,291975,128,0,292075:0:0:0:0:
320,192,291975,128,2,292175:0:0:0:0:
448,192,291975,1,0,0:0:0:0:
64,192,292075,1,0,0:0:0:0:
448,192,292175,1,0,0:0:0:0:
64,192,292275,1,0,0:0:0:0:
320,192,292375,1,2,0:0:0:0:
448,192,292375,1,0,0:0:0:0:
192,192,292475,1,0,0:0:0:0:
448,192,292525,1,0,0:0:0:0:
320,192,292575,1,0,0:0:0:0:
192,192,292575,1,0,0:0:0:0:
64,192,292675,1,0,0:0:0:0:
448,192,292775,1,0,0:0:0:0:
192,192,292775,1,2,0:0:0:0:
448,192,292875,128,0,293075:0:0:0:0:
320,192,292875,128,0,293025:0:0:0:0:
64,192,293075,1,0,0:0:0:0:
192,192,293125,1,0,0:0:0:0:
320,192,293175,1,2,0:0:0:0:
448,192,293175,1,0,0:0:0:0:
192,192,293275,1,2,0:0:0:0:
64,192,293275,1,0,0:0:0:0:
320,192,293325,1,2,0:0:0:0:
448,192,293375,1,2,0:0:0:0:
64,192,293375,128,0,293675:0:0:0:0:
192,192,293475,1,0,0:0:0:0:
320,192,293525,1,0,0:0:0:0:
448,192,293575,1,0,0:0:0:0:
192,192,293625,1,0,0:0:0:0:
320,192,293675,1,0,0:0:0:0:
448,192,293775,128,2,293875:0:0:0:0:
64,192,293775,128,0,294075:0:0:0:0:
448,192,293975,128,2,294075:0:0:0:0:
448,192,294175,1,8,0:0:0:0:
64,192,294175,1,0,0:0:0:0:
320,192,294241,1,0,0:0:0:0:
192,192,294308,1,0,0:0:0:0:
448,192,294375,1,0,0:0:0:0:
320,192,294441,1,0,0:0:0:0:
64,192,294508,1,0,0:0:0:0:
448,192,294575,1,0,0:0:0:0:
192,192,294641,1,0,0:0:0:0:
64,192,294708,1,0,0:0:0:0:
320,192,294775,1,2,0:0:0:0:
192,192,294841,1,0,0:0:0:0:
64,192,294908,1,0,0:0:0:0:
448,192,294975,1,8,0:0:0:0:
448,192,295075,1,0,0:0:0:0:
320,192,295075,1,2,0:0:0:0:
64,192,295375,1,0,0:0:0:0:
192,192,295375,1,0,0:0:0:0:
448,192,295475,1,0,0:0:0:0:
192,192,295525,1,0,0:0:0:0:
320,192,295575,1,0,0:0:0:0:
64,192,295625,1,0,0:0:0:0:
320,192,295675,1,0,0:0:0:0:
192,192,295725,1,0,0:0:0:0:
448,192,295775,1,0,0:0:0:0:
320,192,295875,1,0,0:0:0:0:
192,192,295975,1,2,0:0:0:0:
64,192,295975,1,0,0:0:0:0:
64,192,296075,128,0,296175:0:0:0:0:
448,192,296075,128,0,296175:0:0:0:0:
320,192,296275,1,2,0:0:0:0:
448,192,296275,1,0,0:0:0:0:
192,192,296375,1,2,0:0:0:0:
64,192,296375,1,0,0:0:0:0:
448,192,296475,1,0,0:0:0:0:
64,192,296475,1,0,0:0:0:0:
320,192,296575,1,2,0:0:0:0:
448,192,296575,1,0,0:0:0:0:
192,192,296675,1,2,0:0:0:0:
64,192,296675,1,0,0:0:0:0:
320,192,296775,1,0,0:0:0:0:
192,192,296875,1,2,0:0:0:0:
64,192,296875,1,0,0:0:0:0:
64,192,296975,1,0,0:0:0:0:
192,192,296975,1,2,0:0:0:0:
320,192,297075,1,0,0:0:0:0:
448,192,297175,1,0,0:0:0:0:
64,192,297175,1,0,0:0:0:0:
192,192,297225,1,0,0:0:0:0:
448,192,297275,1,0,0:0:0:0:
320,192,297375,1,2,0:0:0:0:
64,192,297375,1,0,0:0:0:0:
192,192,297475,1,0,0:0:0:0:
448,192,297575,1,0,0:0:0:0:
64,192,297575,1,0,0:0:0:0:
320,192,297625,1,0,0:0:0:0:
64,192,297675,1,0,0:0:0:0:
320,192,297775,1,2,0:0:0:0:
448,192,297775,1,0,0:0:0:0:
320,192,297875,1,2,0:0:0:0:
448,192,297875,1,0,0:0:0:0:
192,192,297975,1,0,0:0:0:0:
320,192,298075,1,2,0:0:0:0:
448,192,298075,1,0,0:0:0:0:
448,192,298175,1,0,0:0:0:0:
64,192,298275,1,0,0:0:0:0:
192,192,298375,1,2,0:0:0:0:
64,192,298375,1,0,0:0:0:0:
448,192,298475,1,0,0:0:0:0:
320,192,298575,1,0,0:0:0:0:
448,192,298575,1,0,0:0:0:0:
64,192,298675,1,0,0:0:0:0:
320,192,298725,1,0,0:0:0:0:
192,192,298775,1,0,0:0:0:0:
448,192,298825,1,0,0:0:0:0:
192,192,298875,1,0,0:0:0:0:
320,192,298925,1,0,0:0:0:0:
64,192,298975,1,0,0:0:0:0:
192,192,299075,1,0,0:0:0:0:
320,192,299175,1,2,0:0:0:0:
448,192,299175,1,0,0:0:0:0:
64,192,299275,128,0,299375:0:0:0:0:
448,192,299275,128,0,299375:0:0:0:0:
320,192,299475,1,2,0:0:0:0:
448,192,299475,1,0,0:0:0:0:
192,192,299575,1,2,0:0:0:0:
64,192,299575,1,0,0:0:0:0:
64,192,299675,1,0,0:0:0:0:
192,192,299675,1,2,0:0:0:0:
320,192,299775,1,2,0:0:0:0:
448,192,299775,1,0,0:0:0:0:
448,192,299875,1,0,0:0:0:0:
320,192,299925,1,0,0:0:0:0:
192,192,299975,1,2,0:0:0:0:
64,192,299975,1,0,0:0:0:0:
64,192,300075,1,0,0:0:0:0:
320,192,300175,1,2,0:0:0:0:
448,192,300175,1,0,0:0:0:0:
320,192,300275,1,0,0:0:0:0:
64,192,300375,1,2,0:0:0:0:
448,192,300375,1,0,0:0:0:0:
64,192,300475,1,0,0:0:0:0:
192,192,300575,1,0,0:0:0:0:
320,192,300575,1,2,0:0:0:0:
320,192,300675,1,0,0:0:0:0:
192,192,300775,1,0,0:0:0:0:
192,192,300875,1,2,0:0:0:0:
64,192,300875,1,0,0:0:0:0:
448,192,300975,1,0,0:0:0:0:
320,192,301041,1,0,0:0:0:0:
64,192,301108,1,0,0:0:0:0:
448,192,301175,1,0,0:0:0:0:
192,192,301175,1,2,0:0:0:0:
448,192,301275,1,0,0:0:0:0:
64,192,301375,128,0,301575:0:0:0:0:
64,192,301675,1,0,0:0:0:0:
320,192,301775,1,2,0:0:0:0:
448,192,301775,1,0,0:0:0:0:
192,192,301875,1,0,0:0:0:0:
64,192,301925,1,0,0:0:0:0:
320,192,301975,1,0,0:0:0:0:
64,192,302025,1,0,0:0:0:0:
192,192,302075,1,0,0:0:0:0:
448,192,302125,1,0,0:0:0:0:
320,192,302175,1,0,0:0:0:0:
320,192,302275,1,0,0:0:0:0:
192,192,302375,1,0,0:0:0:0:
192,192,302475,1,0,0:0:0:0:
64,192,302575,1,0,0:0:0:0:
448,192,302575,1,8,0:0:0:0:
320,192,302675,1,2,0:0:0:0:
448,192,302675,1,0,0:0:0:0:
192,192,302775,1,0,0:0:0:0:
192,192,302875,1,0,0:0:0:0:
320,192,302975,1,2,0:0:0:0:
448,192,302975,1,0,0:0:0:0:
64,192,303075,1,0,0:0:0:0:
320,192,303125,1,0,0:0:0:0:
64,192,303175,1,0,0:0:0:0:
448,192,303175,1,0,0:0:0:0:
320,192,303275,1,2,0:0:0:0:
192,192,303275,1,0,0:0:0:0:
448,192,303375,1,0,0:0:0:0:
64,192,303375,1,0,0:0:0:0:
192,192,303425,1,0,0:0:0:0:
448,192,303475,1,0,0:0:0:0:
320,192,303575,1,2,0:0:0:0:
64,192,303575,1,0,0:0:0:0:
448,192,303675,1,0,0:0:0:0:
320,192,303775,1,0,0:0:0:0:
64,192,303825,1,0,0:0:0:0:
192,192,303875,1,2,0:0:0:0:
320,192,303875,1,0,0:0:0:0:
448,192,303975,1,0,0:0:0:0:
64,192,304075,1,0,0:0:0:0:
192,192,304075,1,2,0:0:0:0:
64,192,304175,1,0,0:0:0:0:
448,192,304175,1,8,0:0:0:0:
320,192,304275,128,0,304575:0:0:0:0:
192,192,304375,128,0,304575:0:0:0:0:
64,192,304475,128,0,304575:0:0:0:0:
448,192,304575,1,0,0:0:0:0:
448,192,304675,1,0,0:0:0:0:
192,192,304775,1,0,0:0:0:0:
64,192,304841,1,0,0:0:0:0:
448,192,304908,1,0,0:0:0:0:
64,192,304975,1,0,0:0:0:0:
192,192,304975,1,2,0:0:0:0:
320,192,305075,1,0,0:0:0:0:
448,192,305125,1,0,0:0:0:0:
192,192,305175,1,0,0:0:0:0:
448,192,305225,1,0,0:0:0:0:
320,192,305275,1,0,0:0:0:0:
64,192,305325,1,0,0:0:0:0:
192,192,305375,1,0,0:0:0:0:
192,192,305475,1,0,0:0:0:0:
448,192,305575,1,0,0:0:0:0:
448,192,305675,1,0,0:0:0:0:
64,192,305775,1,0,0:0:0:0:
320,192,305775,1,8,0:0:0:0:
192,192,305875,1,2,0:0:0:0:
64,192,305875,1,0,0:0:0:0:
320,192,305975,1,0,0:0:0:0:
320,192,306075,1,0,0:0:0:0:
192,192,306175,1,2,0:0:0:0:
64,192,306175,1,0,0:0:0:0:
448,192,306275,1,0,0:0:0:0:
448,192,306375,128,0,306475:0:0:0:0:
64,192,306475,1,0,0:0:0:0:
192,192,306475,1,2,0:0:0:0:
320,192,306575,1,0,0:0:0:0:
192,192,306625,5,0,0:0:0:0:
320,192,306675,1,0,0:0:0:0:
192,192,306775,1,2,0:0:0:0:
64,192,306775,1,0,0:0:0:0:
320,192,306875,1,0,0:0:0:0:
64,192,306975,1,0,0:0:0:0:
448,192,307025,1,0,0:0:0:0:
320,192,307075,1,2,0:0:0:0:
64,192,307075,1,0,0:0:0:0:
192,192,307175,1,0,0:0:0:0:
320,192,307275,1,2,0:0:0:0:
448,192,307275,1,0,0:0:0:0:
64,192,307375,1,0,0:0:0:0:
448,192,307375,1,8,0:0:0:0:
320,192,307475,1,0,0:0:0:0:
192,192,307575,1,0,0:0:0:0:
320,192,307675,1,0,0:0:0:0:
64,192,307775,5,0,0:0:0:0:
192,192,307825,1,0,0:0:0:0:
448,192,307875,1,0,0:0:0:0:
64,192,307925,1,0,0:0:0:0:
320,192,307975,1,0,0:0:0:0:
448,192,308025,1,0,0:0:0:0:
192,192,308075,1,0,0:0:0:0:
320,192,308125,1,0,0:0:0:0:
448,192,308175,1,0,0:0:0:0:
64,192,308175,1,4,0:0:0:0:
192,192,308175,1,2,0:0:0:0:
