osu file format v14

[General]
AudioFilename: audio.mp3
AudioLeadIn: 0
PreviewTime: 78750
Countdown: 0
SampleSet: Soft
StackLeniency: 0.7
Mode: 3
LetterboxInBreaks: 0
SpecialStyle: 0
WidescreenStoryboard: 0

[Editor]
Bookmarks: 27575,53175,65975,78775,104375,129975,142775,168375,206775,232375,257975,275875,283575,309175
DistanceSpacing: 1.3
BeatDivisor: 12
GridSize: 8
TimelineZoom: 3.5

[Metadata]
Title:FM Synthesis Experiment
TitleUnicode:FM Synthesis Experiment
Artist:Camellia
ArtistUnicode:かめりあ
Creator:AncuL
Version:Oscillation
Source:
Tags:heart of android Comic Market Comiket C95 CTCD-018 Cametek Masaya Oya 大箭将也 かめるかめりあ Kamelcamellia Featured Artist Hardcore Techno psystyle dubstep Trap Electronic Instrumental osu! FA megative -noname- vvn
BeatmapID:2364828
BeatmapSetID:1132164

[Difficulty]
HPDrainRate:8.6
CircleSize:7
OverallDifficulty:8
ApproachRate:5
SliderMultiplier:1.4
SliderTickRate:1

[Events]
//Background and Video events
0,0,"fm_synthesis_experiment_BG_00066.jpg",0,0
//Break Periods
//Storyboard Layer 0 (Background)
//Storyboard Layer 1 (Fail)
//Storyboard Layer 2 (Pass)
//Storyboard Layer 3 (Foreground)
//Storyboard Layer 4 (Overlay)
//Storyboard Sound Samples
Sample,77960,0,"hit.wav",50
Sample,293550,0,"Whistle.wav",45

[TimingPoints]
1975,400,4,2,1,20,1,0
25575,-100,4,2,1,45,0,0
104375,-100,4,2,1,45,0,1
110775,-100,4,2,1,45,0,0
115575,-100,4,2,1,45,0,1
117175,-100,4,2,1,45,0,0
117575,-100,4,2,1,45,0,1
123575,-100,4,2,1,45,0,0
124775,-100,4,2,1,45,0,1
129975,-100,4,2,1,45,0,0
168675,-100,4,2,1,20,0,0
203375,-100,4,2,1,45,0,0
232375,-100,4,2,1,45,0,1
251575,-100,4,2,1,45,0,0
257975,-100,4,2,1,45,0,0
258075,-100,4,2,1,45,0,1
283575,-100,4,2,1,45,0,0

[HitObjects]
329,192,5075,128,0,6875:0:0:0:0:
182,192,8475,128,0,9375:0:0:0:0:
402,192,9375,128,0,12675:0:0:0:0:
36,192,13175,128,0,14775:0:0:0:0:
475,192,14175,128,0,14775:0:0:0:0:
256,192,15375,1,0,0:0:0:0:
402,192,15475,128,0,15575:0:0:0:20:Whistle.wav
182,192,15675,128,0,15775:0:0:0:0:
329,192,15875,128,0,15975:0:0:0:20:Whistle.wav
109,192,16075,128,0,16175:0:0:0:0:
256,192,16275,128,0,16375:0:0:0:20:Whistle.wav
36,192,16475,1,0,0:0:0:0:
36,192,16675,1,0,0:0:0:0:
109,192,16875,1,0,0:0:0:0:
256,192,16975,1,0,0:0:0:0:
475,192,17075,128,0,17175:0:0:0:20:Whistle.wav
182,192,17275,128,0,17375:0:0:0:0:
402,192,17475,128,0,17575:0:0:0:20:Whistle.wav
109,192,17675,128,0,17775:0:0:0:0:
329,192,17875,128,0,17975:0:0:0:20:Whistle.wav
182,192,17975,1,0,0:0:0:0:
109,192,18375,1,0,0:0:0:0:
182,192,18575,1,0,0:0:0:0:
329,192,18675,128,0,18775:0:0:0:20:Whistle.wav
109,192,18875,128,0,18975:0:0:0:0:
256,192,19075,128,0,19175:0:0:0:20:Whistle.wav
36,192,19275,128,0,19375:0:0:0:0:
182,192,19475,128,0,19575:0:0:0:20:Whistle.wav
109,192,19675,1,0,0:0:0:0:
109,192,19875,1,0,0:0:0:0:
109,192,20075,1,0,0:0:0:0:
256,192,20175,1,0,0:0:0:0:
402,192,20275,128,0,20375:0:0:0:20:Whistle.wav
182,192,20475,128,0,20575:0:0:0:0:
329,192,20675,128,0,20775:0:0:0:20:Whistle.wav
109,192,20875,128,0,20975:0:0:0:0:
256,192,21075,128,0,21175:0:0:0:20:Whistle.wav
36,192,21275,1,0,0:0:0:0:
109,192,21375,1,0,0:0:0:0:
36,192,21475,1,0,0:0:0:0:
109,192,21675,1,0,0:0:0:0:
256,192,21775,1,0,0:0:0:0:
402,192,21875,128,0,22075:0:0:0:20:Whistle.wav
182,192,22075,128,0,22275:0:0:0:0:
329,192,22275,128,0,22475:0:0:0:20:Whistle.wav
109,192,22475,128,0,22675:0:0:0:0:
256,192,22675,128,0,22875:0:0:0:20:Whistle.wav
36,192,22875,1,0,0:0:0:0:
182,192,22975,1,0,0:0:0:0:
402,192,23075,1,0,0:0:0:0:
109,192,23275,1,0,0:0:0:0:
256,192,23375,1,0,0:0:0:0:
402,192,23475,128,0,23675:0:0:0:20:Whistle.wav
475,192,23575,1,0,0:0:0:0:
182,192,23675,128,0,23875:0:0:0:0:
109,192,23775,1,0,0:0:0:0:
329,192,23875,128,0,24075:0:0:0:20:Whistle.wav
402,192,23975,1,0,0:0:0:0:
109,192,24075,128,0,24275:0:0:0:0:
36,192,24175,1,0,0:0:0:0:
256,192,24275,128,0,24475:0:0:0:20:Whistle.wav
329,192,24375,1,0,0:0:0:0:
36,192,24475,1,0,0:0:0:0:
329,192,24575,1,0,0:0:0:0:
475,192,24675,1,0,0:0:0:0:
109,192,24875,1,0,0:0:0:0:
182,192,24975,1,0,0:0:0:0:
402,192,25075,128,0,25275:0:0:0:20:Whistle.wav
475,192,25175,1,0,0:0:0:0:
109,192,25275,128,0,25475:0:0:0:0:
36,192,25375,1,0,0:0:0:0:
402,192,25475,1,0,0:0:0:20:Whistle.wav
182,192,25575,1,0,0:0:0:0:
329,192,25625,1,0,0:0:0:0:
182,192,25675,1,0,0:0:0:0:
256,192,25725,1,0,0:0:0:0:
329,192,25775,1,0,0:0:0:0:
182,192,25825,1,0,0:0:0:0:
329,192,25875,1,0,0:0:0:0:
256,192,25925,1,0,0:0:0:0:
475,192,25975,1,0,0:0:0:0:
182,192,25975,1,0,0:0:0:0:
36,192,25975,1,0,0:0:0:0:
402,192,25975,1,0,0:0:0:60:Kick Hard.wav
109,192,26175,1,0,0:0:0:0:
329,192,26175,1,0,0:0:0:20:Ping pong.wav
329,192,26375,1,0,0:0:0:20:Ping pong.wav
109,192,26375,1,0,0:0:0:0:
256,192,26575,1,0,0:0:0:0:
36,192,26575,1,0,0:0:0:0:
402,192,26675,1,0,0:0:0:0:
329,192,26675,1,0,0:0:0:20:Ping pong.wav
182,192,26775,1,0,0:0:0:0:
36,192,26775,1,0,0:0:0:50:Kick Soft.wav
475,192,26775,1,0,0:0:0:0:
182,192,26908,1,0,0:0:0:20:Ping pong.wav
329,192,26908,1,0,0:0:0:0:
329,192,27041,1,0,0:0:0:20:Ping pong.wav
475,192,27041,1,0,0:0:0:0:
109,192,27175,1,0,0:0:0:0:
475,192,27175,1,0,0:0:0:30:Ping pong.wav
109,192,27308,1,0,0:0:0:20:Ping pong.wav
256,192,27308,1,0,0:0:0:0:
256,192,27441,1,0,0:0:0:20:Ping pong.wav
402,192,27441,1,0,0:0:0:0:
182,192,27508,1,0,0:0:0:20:Ping pong.wav
475,192,27575,1,0,0:0:0:0:
329,192,27575,1,0,0:0:0:60:Cymbal.wav
402,192,27575,1,0,0:0:0:60:Kick Hard.wav
36,192,27575,1,0,0:0:0:0:
109,192,27575,1,0,0:0:0:0:
329,192,27975,1,0,0:0:0:0:
256,192,28075,128,0,28175:0:0:0:0:
329,192,28175,128,0,28275:0:0:0:0:
475,192,28275,128,0,28375:0:0:0:0:
182,192,28375,128,0,28575:0:0:0:0:
256,192,28475,128,0,28675:0:0:0:0:
402,192,28575,128,0,28775:0:0:0:0:
109,192,28675,128,0,28775:0:0:0:0:
182,192,28775,128,0,28875:0:0:0:0:
329,192,28875,128,0,28975:0:0:0:0:
109,192,29175,1,0,0:0:0:0:
109,192,29475,1,0,0:0:0:0:
329,192,29775,1,0,0:0:0:45:Whistle.wav
329,192,30075,1,0,0:0:0:45:Whistle.wav
329,192,30375,1,0,0:0:0:45:Whistle.wav
256,192,30775,1,0,0:0:0:0:
329,192,31175,1,0,0:0:0:0:
256,192,31275,128,0,31375:0:0:0:0:
402,192,31375,128,0,31475:0:0:0:0:
475,192,31475,128,0,31575:0:0:0:0:
182,192,31575,128,0,31775:0:0:0:0:
329,192,31675,128,0,31875:0:0:0:0:
402,192,31775,128,0,31975:0:0:0:0:
109,192,31875,128,0,31975:0:0:0:0:
256,192,31975,128,0,32075:0:0:0:0:
329,192,32075,128,0,32175:0:0:0:0:
36,192,32375,1,0,0:0:0:0:
36,192,32675,1,0,0:0:0:0:
475,192,32975,1,0,0:0:0:45:Whistle.wav
475,192,33275,1,0,0:0:0:45:Whistle.wav
475,192,33575,1,0,0:0:0:45:Whistle.wav
329,192,33975,1,0,0:0:0:0:
329,192,34375,1,0,0:0:0:0:
256,192,34475,128,0,34575:0:0:0:0:
329,192,34575,128,0,34675:0:0:0:0:
475,192,34675,128,0,34775:0:0:0:0:
182,192,34775,128,0,34975:0:0:0:0:
256,192,34875,128,0,35075:0:0:0:0:
402,192,34975,128,0,35175:0:0:0:0:
109,192,35075,128,0,35175:0:0:0:0:
182,192,35175,128,0,35275:0:0:0:0:
329,192,35275,128,0,35375:0:0:0:0:
109,192,35575,1,0,0:0:0:0:
109,192,35875,1,0,0:0:0:0:
329,192,36175,1,0,0:0:0:45:Whistle.wav
329,192,36475,1,0,0:0:0:45:Whistle.wav
329,192,36775,1,0,0:0:0:45:Whistle.wav
256,192,37175,1,0,0:0:0:0:
256,192,37575,1,0,0:0:0:0:
182,192,37675,128,0,37775:0:0:0:0:
329,192,37775,128,0,37875:0:0:0:0:
475,192,37875,128,0,37975:0:0:0:0:
109,192,37975,128,0,38175:0:0:0:0:
256,192,38075,128,0,38275:0:0:0:0:
402,192,38175,128,0,38375:0:0:0:0:
36,192,38275,128,0,38375:0:0:0:0:
182,192,38375,128,0,38475:0:0:0:0:
329,192,38475,128,0,38575:0:0:0:0:
109,192,38775,1,0,0:0:0:0:
329,192,39175,1,0,0:0:0:0:
182,192,39275,128,0,39375:0:0:0:0:
402,192,39375,128,0,39475:0:0:0:0:
475,192,39475,128,0,39575:0:0:0:0:
109,192,39575,128,0,39775:0:0:0:0:
329,192,39675,128,0,39875:0:0:0:0:
402,192,39775,128,0,39975:0:0:0:0:
36,192,39875,128,0,39975:0:0:0:0:
256,192,39975,128,0,40075:0:0:0:0:
329,192,40075,128,0,40175:0:0:0:0:
402,192,40375,1,0,0:0:0:60:Kick Soft.wav
475,192,40375,1,0,0:0:0:0:
109,192,40375,1,0,0:0:0:60:Cymbal.wav
36,192,40375,1,0,0:0:0:0:
256,192,40675,1,0,0:0:0:0:
329,192,40775,1,0,0:0:0:0:
256,192,40875,128,0,40975:0:0:0:0:
329,192,40975,128,0,41075:0:0:0:0:
475,192,41075,128,0,41175:0:0:0:45:Whistle.wav
182,192,41175,128,0,41375:0:0:0:0:
256,192,41275,128,0,41475:0:0:0:0:
402,192,41375,128,0,41575:0:0:0:0:
109,192,41475,128,0,41575:0:0:0:45:Whistle.wav
182,192,41575,128,0,41675:0:0:0:0:
329,192,41675,128,0,41775:0:0:0:0:
182,192,41775,1,0,0:0:0:0:
329,192,41875,1,0,0:0:0:45:Whistle.wav
109,192,41975,1,0,0:0:0:0:
256,192,42275,1,0,0:0:0:0:
182,192,42375,1,0,0:0:0:0:
256,192,42475,1,0,0:0:0:0:
402,192,42575,1,0,0:0:0:0:
475,192,42675,128,0,42775:0:0:0:45:Whistle.wav
182,192,42875,128,0,42975:0:0:0:0:
402,192,43075,128,0,43175:0:0:0:45:Whistle.wav
109,192,43275,128,0,43375:0:0:0:0:
329,192,43475,128,0,43575:0:0:0:45:Whistle.wav
36,192,43575,1,0,0:0:0:0:
256,192,43875,1,0,0:0:0:0:
329,192,43975,1,0,0:0:0:0:
256,192,44075,128,0,44175:0:0:0:0:
402,192,44175,128,0,44275:0:0:0:0:
475,192,44275,128,0,44375:0:0:0:45:Whistle.wav
182,192,44375,128,0,44575:0:0:0:0:
329,192,44475,128,0,44675:0:0:0:0:
402,192,44575,128,0,44775:0:0:0:0:
109,192,44675,128,0,44775:0:0:0:45:Whistle.wav
256,192,44775,128,0,44875:0:0:0:0:
329,192,44875,128,0,44975:0:0:0:0:
109,192,44975,1,0,0:0:0:0:
256,192,45075,1,0,0:0:0:45:Whistle.wav
36,192,45175,1,0,0:0:0:0:
182,192,45475,1,0,0:0:0:0:
109,192,45575,1,0,0:0:0:0:
182,192,45675,1,0,0:0:0:0:
329,192,45775,1,0,0:0:0:0:
402,192,45875,128,0,45975:0:0:0:45:Whistle.wav
109,192,46075,128,0,46175:0:0:0:0:
475,192,46275,128,0,46375:0:0:0:45:Whistle.wav
36,192,46475,128,0,46575:0:0:0:0:
402,192,46675,128,0,46775:0:0:0:45:Whistle.wav
256,192,46775,1,0,0:0:0:0:
256,192,47075,1,0,0:0:0:0:
329,192,47175,1,0,0:0:0:0:
256,192,47275,128,0,47375:0:0:0:0:
329,192,47375,128,0,47475:0:0:0:0:
475,192,47475,128,0,47575:0:0:0:45:Whistle.wav
182,192,47575,128,0,47775:0:0:0:0:
256,192,47675,128,0,47875:0:0:0:0:
402,192,47775,128,0,47975:0:0:0:0:
109,192,47875,128,0,47975:0:0:0:45:Whistle.wav
182,192,47975,128,0,48075:0:0:0:0:
329,192,48075,128,0,48175:0:0:0:0:
182,192,48175,1,0,0:0:0:0:
329,192,48275,1,0,0:0:0:45:Whistle.wav
109,192,48375,1,0,0:0:0:0:
256,192,48675,1,0,0:0:0:0:
182,192,48775,1,0,0:0:0:0:
256,192,48875,1,0,0:0:0:0:
402,192,48975,1,0,0:0:0:0:
475,192,49075,128,0,49175:0:0:0:45:Whistle.wav
182,192,49275,128,0,49375:0:0:0:0:
402,192,49475,128,0,49575:0:0:0:45:Whistle.wav
109,192,49675,128,0,49775:0:0:0:0:
329,192,49875,128,0,49975:0:0:0:45:Whistle.wav
36,192,49975,1,0,0:0:0:0:
182,192,50275,1,0,0:0:0:0:
256,192,50375,1,0,0:0:0:0:
182,192,50475,128,0,50575:0:0:0:0:
329,192,50575,128,0,50675:0:0:0:0:
475,192,50675,128,0,50775:0:0:0:45:Whistle.wav
109,192,50775,128,0,50975:0:0:0:0:
256,192,50875,128,0,51075:0:0:0:0:
402,192,50975,128,0,51175:0:0:0:0:
36,192,51075,128,0,51175:0:0:0:45:Whistle.wav
182,192,51175,128,0,51275:0:0:0:0:
329,192,51325,1,0,0:0:0:30:Ping pong.wav
475,192,51325,1,0,0:0:0:0:
329,192,51450,1,0,0:0:0:30:Ping pong.wav
475,192,51450,1,0,0:0:0:0:
256,192,51525,1,0,0:0:0:30:Ping pong.wav
36,192,51575,1,0,0:0:0:0:
109,192,51575,1,0,0:0:0:0:
475,192,51608,1,0,0:0:0:0:
329,192,51641,1,0,0:0:0:0:
182,192,51675,1,0,0:0:0:0:
36,192,51708,1,0,0:0:0:0:
402,192,51775,1,0,0:0:0:0:
256,192,51841,1,0,0:0:0:0:
109,192,51908,1,0,0:0:0:0:
36,192,51975,128,0,53075:0:0:0:0:
475,192,51975,1,0,0:0:0:0:
402,192,51975,1,0,0:0:0:0:
475,192,52108,128,0,53075:0:0:0:0:
182,192,52108,1,0,0:0:0:30:Ping pong.wav
109,192,52108,1,0,0:0:0:0:
329,192,52275,1,0,0:0:0:30:Ping pong.wav
256,192,52275,1,0,0:0:0:0:
109,192,52275,128,0,53075:0:0:0:0:
402,192,52475,128,0,53075:0:0:0:0:
256,192,52475,1,0,0:0:0:0:
182,192,52475,1,0,0:0:0:30:Ping pong.wav
329,192,52675,1,0,0:0:0:0:
256,192,52775,1,0,0:0:0:30:Ping pong.wav
256,192,52875,128,0,53075:0:0:0:30:Ping pong.wav
329,192,52975,1,0,0:0:0:0:
182,192,53041,1,0,0:0:0:0:
329,192,53108,1,0,0:0:0:0:
402,192,53175,1,0,0:0:0:60:Kick Hard.wav
182,192,53175,1,0,0:0:0:60:Cymbal.wav
475,192,53175,1,0,0:0:0:0:
36,192,53175,1,0,0:0:0:0:
256,192,53675,128,0,53775:0:0:0:0:
329,192,53775,128,0,53875:0:0:0:0:
475,192,53875,128,0,53975:0:0:0:0:
182,192,53975,128,0,54175:0:0:0:0:
256,192,54075,128,0,54275:0:0:0:0:
402,192,54175,128,0,54375:0:0:0:0:
109,192,54275,128,0,54375:0:0:0:0:
182,192,54375,128,0,54475:0:0:0:0:
329,192,54475,128,0,54575:0:0:0:0:
182,192,55275,1,0,0:0:0:0:
182,192,55375,128,0,55575:0:0:0:45:Whistle.wav
329,192,55575,1,0,0:0:0:0:
329,192,55675,128,0,55875:0:0:0:45:Whistle.wav
182,192,55875,1,0,0:0:0:0:
182,192,55975,1,0,0:0:0:45:Whistle.wav
256,192,56075,1,0,0:0:0:60:Kick Hard.wav
402,192,56075,1,0,0:0:0:0:
475,192,56075,1,0,0:0:0:0:
36,192,56075,1,0,0:0:0:60:Cymbal.wav
256,192,56375,1,0,0:0:0:60:Kick Hard.wav
109,192,56375,1,0,0:0:0:60:Cymbal.wav
329,192,56375,1,0,0:0:0:0:
475,192,56375,1,0,0:0:0:0:
36,192,56575,1,0,0:0:0:0:
182,192,56575,1,0,0:0:0:60:Cymbal.wav
329,192,56575,1,0,0:0:0:60:Kick Hard.wav
402,192,56575,1,0,0:0:0:0:
256,192,56875,128,0,56975:0:0:0:0:
402,192,56975,128,0,57075:0:0:0:0:
475,192,57075,128,0,57175:0:0:0:0:
182,192,57175,128,0,57375:0:0:0:0:
329,192,57275,128,0,57475:0:0:0:0:
402,192,57375,128,0,57575:0:0:0:0:
109,192,57475,128,0,57575:0:0:0:0:
256,192,57575,128,0,57675:0:0:0:0:
329,192,57675,128,0,57775:0:0:0:0:
182,192,58075,1,0,0:0:0:60:Cymbal.wav
402,192,58075,1,0,0:0:0:60:Kick Hard.wav
475,192,58075,1,0,0:0:0:0:
36,192,58075,1,0,0:0:0:0:
182,192,58375,1,0,0:0:0:60:Cymbal.wav
36,192,58375,1,0,0:0:0:0:
475,192,58375,1,0,0:0:0:0:
402,192,58375,1,0,0:0:0:60:Kick Hard.wav
329,192,58675,1,0,0:0:0:60:Kick Hard.wav
402,192,58675,1,0,0:0:0:0:
256,192,58675,1,0,0:0:0:60:Cymbal.wav
109,192,58675,1,0,0:0:0:0:
109,192,58975,1,0,0:0:0:0:
329,192,58975,1,0,0:0:0:60:Kick Hard.wav
256,192,58975,1,0,0:0:0:60:Cymbal.wav
402,192,58975,1,0,0:0:0:0:
182,192,59175,128,0,59275:0:0:0:30:Ping pong.wav
329,192,59175,128,0,59275:0:0:0:0:
402,192,59200,128,0,59275:0:0:0:30:Ping pong.wav
109,192,59200,128,0,59275:0:0:0:0:
36,192,59225,128,0,59275:0:0:0:30:Ping pong.wav
475,192,59225,128,0,59275:0:0:0:0:
109,192,59375,1,0,0:0:0:60:Kick Soft.wav
182,192,59400,1,0,0:0:0:60:Kick Soft.wav
256,192,59425,1,0,0:0:0:60:Kick Soft.wav
475,192,59450,1,0,0:0:0:60:Kick Soft.wav
402,192,59475,1,0,0:0:0:60:Kick Soft.wav
329,192,59500,1,0,0:0:0:60:Kick Soft.wav
256,192,59525,1,0,0:0:0:60:Kick Soft.wav
182,192,59550,1,0,0:0:0:60:Kick Soft.wav
109,192,59575,1,0,0:0:0:60:Kick Hard.wav
36,192,59575,1,0,0:0:0:0:
402,192,59575,1,0,0:0:0:60:Cymbal.wav
475,192,59575,1,0,0:0:0:0:
182,192,60075,128,0,60175:0:0:0:0:
329,192,60175,128,0,60275:0:0:0:0:
475,192,60275,128,0,60375:0:0:0:0:
109,192,60375,128,0,60575:0:0:0:0:
256,192,60475,128,0,60675:0:0:0:0:
402,192,60575,128,0,60775:0:0:0:0:
36,192,60675,128,0,60775:0:0:0:0:
182,192,60775,128,0,60875:0:0:0:0:
329,192,60875,128,0,60975:0:0:0:0:
402,192,61675,1,0,0:0:0:0:
402,192,61775,128,0,61975:0:0:0:45:Whistle.wav
109,192,61975,1,0,0:0:0:0:
109,192,62075,128,0,62275:0:0:0:45:Whistle.wav
402,192,62275,1,0,0:0:0:0:
402,192,62375,1,0,0:0:0:45:Whistle.wav
329,192,62475,1,0,0:0:0:0:
256,192,62475,1,0,0:0:0:60:Cymbal.wav
109,192,62475,1,0,0:0:0:60:Kick Hard.wav
36,192,62475,1,0,0:0:0:0:
109,192,62775,1,0,0:0:0:0:
402,192,62775,1,0,0:0:0:60:Kick Hard.wav
256,192,62775,1,0,0:0:0:60:Cymbal.wav
475,192,62775,1,0,0:0:0:0:
475,192,62975,1,0,0:0:0:0:
329,192,62975,1,0,0:0:0:60:Kick Hard.wav
182,192,62975,1,0,0:0:0:60:Cymbal.wav
36,192,62975,1,0,0:0:0:0:
329,192,63175,1,0,0:0:0:0:
109,192,63275,1,0,0:0:0:60:Cymbal.wav
36,192,63275,1,0,0:0:0:0:
256,192,63275,1,0,0:0:0:60:Kick Hard.wav
402,192,63275,1,0,0:0:0:0:
36,192,63475,1,0,0:0:0:0:
329,192,63475,1,0,0:0:0:60:Cymbal.wav
475,192,63475,1,0,0:0:0:60:Kick Hard.wav
182,192,63475,128,0,63675:0:0:0:0:
256,192,63575,128,0,63775:0:0:0:0:
402,192,63675,128,0,63875:0:0:0:0:
109,192,63775,128,0,63875:0:0:0:0:
182,192,63875,128,0,63975:0:0:0:0:
329,192,63975,128,0,64075:0:0:0:0:
329,192,65175,128,0,65475:0:0:0:0:
182,192,65175,128,0,65475:0:0:0:45:Whistle.wav
329,192,65575,1,0,0:0:0:45:Whistle.wav
182,192,65575,1,0,0:0:0:0:
182,192,65675,1,0,0:0:0:45:Whistle.wav
329,192,65675,1,0,0:0:0:0:
402,192,65775,1,0,0:0:0:45:Whistle.wav
109,192,65775,1,0,0:0:0:0:
109,192,65875,1,0,0:0:0:45:Whistle.wav
402,192,65875,1,0,0:0:0:0:
256,192,65975,1,0,0:0:0:80:Snare.wav
36,192,65975,1,0,0:0:0:0:
475,192,65975,1,0,0:0:0:0:
109,192,66175,1,0,0:0:0:60:Kick Hard.wav
475,192,66175,1,0,0:0:0:0:
329,192,66275,1,0,0:0:0:0:
256,192,66275,1,0,0:0:0:80:Snare.wav
109,192,66275,1,0,0:0:0:0:
402,192,66475,1,0,0:0:0:60:Kick Hard.wav
36,192,66475,1,0,0:0:0:0:
256,192,66575,1,0,0:0:0:80:Snare.wav
402,192,66575,1,0,0:0:0:0:
182,192,66575,1,0,0:0:0:0:
475,192,66775,1,0,0:0:0:0:
109,192,66775,1,0,0:0:0:60:Kick Hard.wav
329,192,66875,1,0,0:0:0:0:
109,192,66875,1,0,0:0:0:0:
256,192,66875,1,0,0:0:0:80:Snare.wav
402,192,67075,1,0,0:0:0:60:Kick Hard.wav
36,192,67075,1,0,0:0:0:0:
256,192,67175,1,0,0:0:0:80:Snare.wav
402,192,67175,1,0,0:0:0:0:
182,192,67175,1,0,0:0:0:0:
109,192,67375,1,0,0:0:0:0:
36,192,67375,1,0,0:0:0:40:Kick Hard.wav
329,192,67425,1,0,0:0:0:40:Kick Hard.wav
402,192,67425,1,0,0:0:0:0:
182,192,67475,1,0,0:0:0:0:
109,192,67475,1,0,0:0:0:40:Kick Hard.wav
256,192,67525,1,0,0:0:0:40:Kick Hard.wav
329,192,67525,1,0,0:0:0:0:
402,192,67575,1,0,0:0:0:60:Snare.wav
475,192,67575,1,0,0:0:0:0:
36,192,67575,1,0,0:0:0:0:
475,192,67775,1,0,0:0:0:0:
109,192,67775,1,0,0:0:0:60:Kick Hard.wav
256,192,67875,1,0,0:0:0:80:Snare.wav
109,192,67875,1,0,0:0:0:0:
329,192,67875,1,0,0:0:0:0:
402,192,68075,1,0,0:0:0:60:Kick Hard.wav
36,192,68075,1,0,0:0:0:0:
182,192,68175,1,0,0:0:0:0:
402,192,68175,1,0,0:0:0:0:
256,192,68175,1,0,0:0:0:80:Snare.wav
475,192,68375,1,0,0:0:0:0:
109,192,68375,1,0,0:0:0:60:Kick Hard.wav
256,192,68475,1,0,0:0:0:80:Snare.wav
109,192,68475,1,0,0:0:0:0:
329,192,68475,1,0,0:0:0:0:
36,192,68675,1,0,0:0:0:0:
402,192,68675,1,0,0:0:0:60:Kick Hard.wav
402,192,68775,128,0,69075:0:0:0:40:EPing Hi.wav
256,192,68808,128,0,69075:0:0:0:40:EPing Hi.wav
109,192,68841,128,0,69075:0:0:0:40:EPing Hi.wav
36,192,68875,128,0,69075:0:0:0:40:EPing Hi.wav
329,192,69175,1,0,0:0:0:80:Snare.wav
475,192,69175,1,0,0:0:0:0:
36,192,69175,1,0,0:0:0:0:
182,192,69375,1,0,0:0:0:60:Kick Hard.wav
475,192,69375,1,0,0:0:0:0:
182,192,69475,1,0,0:0:0:0:
36,192,69475,1,0,0:0:0:0:
329,192,69475,1,0,0:0:0:80:Snare.wav
256,192,69575,1,0,0:0:0:0:
329,192,69675,1,0,0:0:0:0:
109,192,69675,1,0,0:0:0:60:Kick Hard.wav
36,192,69775,1,0,0:0:0:0:
475,192,69775,1,0,0:0:0:0:
329,192,69775,1,0,0:0:0:80:Snare.wav
182,192,69975,1,0,0:0:0:60:Kick Hard.wav
475,192,69975,1,0,0:0:0:0:
182,192,70075,1,0,0:0:0:0:
36,192,70075,1,0,0:0:0:0:
329,192,70075,1,0,0:0:0:80:Snare.wav
256,192,70175,1,0,0:0:0:0:
329,192,70275,1,0,0:0:0:0:
109,192,70275,1,0,0:0:0:60:Kick Hard.wav
36,192,70375,1,0,0:0:0:0:
475,192,70375,1,0,0:0:0:0:
329,192,70375,1,0,0:0:0:80:Snare.wav
329,192,70575,1,0,0:0:0:40:Kick Hard.wav
402,192,70575,1,0,0:0:0:0:
182,192,70625,1,0,0:0:0:40:Kick Hard.wav
109,192,70625,1,0,0:0:0:0:
402,192,70675,1,0,0:0:0:40:Kick Hard.wav
475,192,70675,1,0,0:0:0:0:
256,192,70725,1,0,0:0:0:40:Kick Hard.wav
329,192,70725,1,0,0:0:0:0:
182,192,70775,1,0,0:0:0:0:
109,192,70775,1,0,0:0:0:80:Snare.wav
36,192,70775,1,0,0:0:0:0:
475,192,70975,1,0,0:0:0:0:
182,192,70975,1,0,0:0:0:60:Kick Hard.wav
329,192,71075,1,0,0:0:0:80:Snare.wav
36,192,71075,1,0,0:0:0:0:
182,192,71075,1,0,0:0:0:0:
256,192,71175,1,0,0:0:0:0:
109,192,71275,1,0,0:0:0:60:Kick Hard.wav
329,192,71275,1,0,0:0:0:0:
329,192,71375,1,0,0:0:0:80:Snare.wav
475,192,71375,1,0,0:0:0:0:
36,192,71375,1,0,0:0:0:0:
475,192,71575,1,0,0:0:0:0:
182,192,71575,1,0,0:0:0:60:Kick Hard.wav
182,192,71675,1,0,0:0:0:0:
36,192,71675,1,0,0:0:0:0:
329,192,71675,1,0,0:0:0:80:Snare.wav
475,192,71775,128,0,71875:0:0:0:45:Whistle.wav
36,192,71775,128,0,71875:0:0:0:45:Whistle.wav
402,192,71775,128,0,71875:0:0:0:0:
109,192,71775,128,0,71875:0:0:0:0:
182,192,71975,128,0,72041:0:0:0:0:
329,192,71975,128,0,72041:0:0:0:0:
256,192,71975,128,0,72041:0:0:0:30:Ping pong.wav
182,192,72108,128,0,72175:0:0:0:0:
256,192,72108,128,0,72175:0:0:0:30:Ping pong.wav
329,192,72108,128,0,72175:0:0:0:0:
182,192,72241,128,0,72308:0:0:0:0:
256,192,72241,128,0,72308:0:0:0:30:Ping pong.wav
329,192,72241,128,0,72308:0:0:0:0:
475,192,72375,5,0,0:0:0:0:
36,192,72375,1,0,0:0:0:60:Kick Soft.wav
109,192,72408,1,0,0:0:0:60:Kick Soft.wav
182,192,72441,1,0,0:0:0:60:Kick Soft.wav
256,192,72475,1,0,0:0:0:60:Kick Soft.wav
329,192,72508,1,0,0:0:0:60:Kick Soft.wav
402,192,72541,1,0,0:0:0:60:Kick Soft.wav
109,192,72575,1,0,0:0:0:60:Kick Hard.wav
36,192,72575,1,0,0:0:0:0:
402,192,72675,1,0,0:0:0:0:
329,192,72675,1,0,0:0:0:60:Kick Hard.wav
36,192,72775,1,0,0:0:0:80:Snare.wav
475,192,72775,1,0,0:0:0:0:
182,192,72775,1,0,0:0:0:60:Kick Hard.wav
182,192,72875,1,0,0:0:0:60:Kick Hard.wav
36,192,72875,1,0,0:0:0:0:
402,192,72975,1,0,0:0:0:60:Kick Hard.wav
256,192,72975,1,0,0:0:0:0:
329,192,73075,1,0,0:0:0:0:
182,192,73075,1,0,0:0:0:60:Kick Hard.wav
475,192,73175,1,0,0:0:0:60:Kick Hard.wav
109,192,73175,1,0,0:0:0:0:
402,192,73175,1,0,0:0:0:80:Snare.wav
475,192,73275,1,0,0:0:0:0:
402,192,73275,1,0,0:0:0:60:Kick Hard.wav
36,192,73375,1,0,0:0:0:60:Kick Hard.wav
256,192,73375,1,0,0:0:0:0:
182,192,73475,1,0,0:0:0:60:Kick Hard.wav
402,192,73475,1,0,0:0:0:0:
475,192,73575,1,0,0:0:0:0:
329,192,73575,1,0,0:0:0:60:Kick Hard.wav
109,192,73575,1,0,0:0:0:80:Snare.wav
109,192,73675,1,0,0:0:0:60:Kick Hard.wav
256,192,73775,1,0,0:0:0:60:Kick Hard.wav
475,192,73775,1,0,0:0:0:0:
36,192,73875,1,0,0:0:0:60:Kick Hard.wav
475,192,73975,1,0,0:0:0:60:Kick Soft.wav
182,192,73975,1,0,0:0:0:0:
402,192,74008,1,0,0:0:0:60:Kick Soft.wav
329,192,74041,1,0,0:0:0:60:Kick Soft.wav
36,192,74075,1,0,0:0:0:60:Kick Soft.wav
109,192,74108,1,0,0:0:0:60:Kick Soft.wav
182,192,74141,1,0,0:0:0:60:Kick Soft.wav
256,192,74175,1,0,0:0:0:0:
475,192,74175,1,0,0:0:0:70:Kick Soft.wav
475,192,74275,1,0,0:0:0:70:Kick Soft.wav
329,192,74375,1,0,0:0:0:80:Snare.wav
36,192,74375,1,0,0:0:0:70:Kick Soft.wav
36,192,74475,1,0,0:0:0:70:Kick Soft.wav
182,192,74575,1,0,0:0:0:0:
402,192,74575,1,0,0:0:0:70:Kick Soft.wav
402,192,74675,1,0,0:0:0:70:Kick Soft.wav
109,192,74775,1,0,0:0:0:60:Kick Soft.wav
256,192,74775,1,0,0:0:0:50:Snare.wav
109,192,74875,1,0,0:0:0:60:Kick Soft.wav
329,192,74975,1,0,0:0:0:60:Kick Soft.wav
475,192,74975,1,0,0:0:0:0:
329,192,75075,1,0,0:0:0:60:Kick Soft.wav
402,192,75175,1,0,0:0:0:30:Snare.wav
182,192,75175,1,0,0:0:0:60:Kick Soft.wav
182,192,75275,1,0,0:0:0:60:Kick Soft.wav
256,192,75375,1,0,0:0:0:60:Kick Soft.wav
109,192,75375,1,0,0:0:0:0:
256,192,75475,1,0,0:0:0:60:Kick Soft.wav
36,192,75575,1,0,0:0:0:25:Snare.wav
475,192,75575,1,0,0:0:0:0:
109,192,75608,1,0,0:0:0:25:Snare.wav
182,192,75641,1,0,0:0:0:25:Snare.wav
329,192,75675,1,0,0:0:0:25:Snare.wav
402,192,75708,1,0,0:0:0:25:Snare.wav
475,192,75741,1,0,0:0:0:25:Snare.wav
256,192,75775,1,0,0:0:0:0:
36,192,75775,1,0,0:0:0:50:Kick Soft.wav
109,192,75825,1,0,0:0:0:50:Kick Soft.wav
182,192,75875,1,0,0:0:0:50:Kick Soft.wav
402,192,75925,1,0,0:0:0:50:Kick Soft.wav
329,192,75975,1,0,0:0:0:50:Kick Soft.wav
256,192,76025,1,0,0:0:0:50:Kick Soft.wav
109,192,76075,1,0,0:0:0:50:Kick Soft.wav
475,192,76125,1,0,0:0:0:50:Kick Soft.wav
402,192,76175,1,0,0:0:0:50:Kick Soft.wav
329,192,76225,1,0,0:0:0:50:Kick Soft.wav
182,192,76275,1,0,0:0:0:50:Kick Soft.wav
109,192,76325,1,0,0:0:0:50:Kick Soft.wav
256,192,76375,1,0,0:0:0:25:Snare.wav
36,192,76375,1,0,0:0:0:0:
329,192,76408,1,0,0:0:0:25:Snare.wav
402,192,76441,1,0,0:0:0:25:Snare.wav
109,192,76475,1,0,0:0:0:25:Snare.wav
182,192,76508,1,0,0:0:0:25:Snare.wav
256,192,76541,1,0,0:0:0:25:Snare.wav
475,192,76575,1,0,0:0:0:0:
329,192,76575,1,0,0:0:0:50:Kick Soft.wav
36,192,76625,1,0,0:0:0:50:Kick Soft.wav
109,192,76675,1,0,0:0:0:50:Kick Soft.wav
182,192,76725,1,0,0:0:0:50:Kick Soft.wav
402,192,76775,1,0,0:0:0:0:
256,192,76775,1,0,0:0:0:50:Kick Soft.wav
109,192,76825,1,0,0:0:0:50:Kick Soft.wav
182,192,76875,1,0,0:0:0:50:Kick Soft.wav
329,192,76925,1,0,0:0:0:50:Kick Soft.wav
402,192,76975,1,0,0:0:0:50:Kick Soft.wav
475,192,76975,1,0,0:0:0:0:
109,192,77025,1,0,0:0:0:50:Kick Soft.wav
256,192,77075,1,0,0:0:0:50:Kick Soft.wav
329,192,77125,1,0,0:0:0:50:Kick Soft.wav
36,192,77175,1,0,0:0:0:25:Snare.wav
475,192,77175,1,0,0:0:0:0:
109,192,77208,1,0,0:0:0:25:Snare.wav
182,192,77241,1,0,0:0:0:25:Snare.wav
256,192,77275,1,0,0:0:0:25:Snare.wav
329,192,77308,1,0,0:0:0:25:Snare.wav
402,192,77341,1,0,0:0:0:25:Snare.wav
109,192,77375,1,0,0:0:0:25:Snare.wav
182,192,77408,1,0,0:0:0:25:Snare.wav
256,192,77441,1,0,0:0:0:25:Snare.wav
329,192,77475,1,0,0:0:0:25:Snare.wav
402,192,77508,1,0,0:0:0:25:Snare.wav
182,192,77541,1,0,0:0:0:25:Snare.wav
109,192,77575,1,0,0:0:0:25:Snare.wav
36,192,77608,1,0,0:0:0:25:Snare.wav
475,192,77641,1,0,0:0:0:25:Snare.wav
402,192,77675,1,0,0:0:0:25:Snare.wav
329,192,77708,1,0,0:0:0:25:Snare.wav
256,192,77741,1,0,0:0:0:25:Snare.wav
36,192,77775,1,0,0:0:0:25:Snare.wav
109,192,77808,1,0,0:0:0:25:Snare.wav
182,192,77841,1,0,0:0:0:25:Snare.wav
329,192,77875,1,0,0:0:0:25:Snare.wav
402,192,77908,1,0,0:0:0:25:Snare.wav
475,192,77941,1,0,0:0:0:25:Snare.wav
36,192,77975,128,0,78075:0:0:0:0:
329,192,78075,128,0,78175:0:0:0:45:Whistle.wav
182,192,78175,128,0,78275:0:0:0:0:
475,192,78275,128,0,78375:0:0:0:45:Whistle.wav
256,192,78375,1,0,0:0:0:0:
109,192,78425,1,0,0:0:0:0:
402,192,78475,1,0,0:0:0:0:
182,192,78525,1,0,0:0:0:0:
329,192,78575,1,0,0:0:0:0:
256,192,78625,1,0,0:0:0:0:
182,192,78675,1,0,0:0:0:0:
329,192,78725,1,0,0:0:0:0:
402,192,78775,1,0,0:0:0:60:Kick Hard.wav
36,192,78775,1,0,0:0:0:0:
109,192,78775,1,0,0:0:0:60:Cymbal.wav
475,192,78775,1,0,0:0:0:0:
182,192,78825,1,0,0:0:0:0:
256,192,78875,1,0,0:0:0:0:
329,192,78925,1,0,0:0:0:0:
182,192,78975,1,0,0:0:0:60:EPing Lo.wav
109,192,78975,1,0,0:0:0:0:
475,192,79075,1,0,0:0:0:0:
402,192,79075,1,0,0:0:0:60:EPing Lo.wav
256,192,79175,1,0,0:0:0:0:
36,192,79175,1,0,0:0:0:0:
109,192,79175,1,0,0:0:0:60:Kick Hard.wav
329,192,79275,1,0,0:0:0:60:EPing Lo.wav
402,192,79325,1,0,0:0:0:60:EPing Lo.wav
329,192,79375,1,0,0:0:0:60:EPing Lo.wav
182,192,79375,1,0,0:0:0:0:
36,192,79475,1,0,0:0:0:0:
109,192,79475,1,0,0:0:0:60:EPing Lo.wav
475,192,79575,1,0,0:0:0:0:
402,192,79575,1,0,0:0:0:60:Kick Hard.wav
256,192,79575,1,0,0:0:0:0:
182,192,79675,1,0,0:0:0:60:EPing Lo.wav
109,192,79725,1,0,0:0:0:40:EPing Lo.wav
182,192,79775,1,0,0:0:0:60:EPing Lo.wav
329,192,79775,1,0,0:0:0:0:
402,192,79875,1,0,0:0:0:60:EPing Lo.wav
475,192,79875,1,0,0:0:0:0:
109,192,79975,1,0,0:0:0:60:Kick Hard.wav
36,192,79975,1,0,0:0:0:0:
256,192,79975,1,0,0:0:0:0:
329,192,80075,1,0,0:0:0:60:EPing Lo.wav
475,192,80075,1,0,0:0:0:0:
475,192,80175,1,0,0:0:0:0:
329,192,80175,1,0,0:0:0:60:EPing Lo.wav
182,192,80275,1,0,0:0:0:60:EPing Lo.wav
109,192,80275,1,0,0:0:0:0:
402,192,80375,1,0,0:0:0:60:Kick Hard.wav
475,192,80375,1,0,0:0:0:0:
36,192,80375,1,0,0:0:0:0:
109,192,80425,1,0,0:0:0:0:
256,192,80475,1,0,0:0:0:0:
329,192,80525,1,0,0:0:0:0:
402,192,80575,1,0,0:0:0:0:
36,192,80625,1,0,0:0:0:0:
109,192,80675,1,0,0:0:0:0:
182,192,80725,1,0,0:0:0:0:
256,192,80775,1,0,0:0:0:0:
402,192,80775,1,0,0:0:0:60:Kick Hard.wav
475,192,80775,1,0,0:0:0:0:
182,192,80875,1,0,0:0:0:60:EPing Lo.wav
109,192,80925,1,0,0:0:0:60:EPing Lo.wav
182,192,80975,1,0,0:0:0:60:EPing Lo.wav
329,192,80975,1,0,0:0:0:0:
402,192,81075,1,0,0:0:0:60:EPing Lo.wav
475,192,81075,1,0,0:0:0:0:
109,192,81175,1,0,0:0:0:60:Kick Hard.wav
36,192,81175,1,0,0:0:0:0:
256,192,81175,1,0,0:0:0:0:
329,192,81275,1,0,0:0:0:60:EPing Lo.wav
402,192,81325,1,0,0:0:0:60:EPing Lo.wav
329,192,81375,1,0,0:0:0:60:EPing Lo.wav
182,192,81375,1,0,0:0:0:0:
109,192,81475,1,0,0:0:0:60:EPing Lo.wav
36,192,81475,1,0,0:0:0:0:
475,192,81575,1,0,0:0:0:0:
256,192,81575,1,0,0:0:0:0:
402,192,81575,1,0,0:0:0:60:Kick Hard.wav
182,192,81675,1,0,0:0:0:60:EPing Lo.wav
36,192,81675,1,0,0:0:0:0:
36,192,81775,1,0,0:0:0:0:
182,192,81775,1,0,0:0:0:60:EPing Lo.wav
329,192,81775,1,0,0:0:0:0:
475,192,81975,1,0,0:0:0:0:
329,192,81975,1,0,0:0:0:0:
402,192,81975,1,0,0:0:0:60:Kick Hard.wav
36,192,81975,1,0,0:0:0:60:Cymbal.wav
256,192,82025,1,0,0:0:0:0:
182,192,82075,1,0,0:0:0:0:
109,192,82125,1,0,0:0:0:0:
182,192,82175,1,0,0:0:0:60:EPing Lo.wav
329,192,82175,1,0,0:0:0:0:
402,192,82275,1,0,0:0:0:60:EPing Lo.wav
475,192,82275,1,0,0:0:0:0:
256,192,82375,1,0,0:0:0:0:
36,192,82375,1,0,0:0:0:0:
109,192,82375,1,0,0:0:0:60:Kick Hard.wav
329,192,82475,1,0,0:0:0:60:EPing Lo.wav
402,192,82525,1,0,0:0:0:60:EPing Lo.wav
329,192,82575,1,0,0:0:0:60:EPing Lo.wav
182,192,82575,1,0,0:0:0:0:
36,192,82675,1,0,0:0:0:0:
109,192,82675,1,0,0:0:0:60:EPing Lo.wav
475,192,82775,1,0,0:0:0:0:
402,192,82775,1,0,0:0:0:60:Kick Hard.wav
256,192,82775,1,0,0:0:0:0:
182,192,82875,1,0,0:0:0:60:EPing Lo.wav
109,192,82925,1,0,0:0:0:60:EPing Lo.wav
182,192,82975,1,0,0:0:0:60:EPing Lo.wav
329,192,82975,1,0,0:0:0:0:
402,192,83075,1,0,0:0:0:60:EPing Lo.wav
475,192,83075,1,0,0:0:0:0:
109,192,83175,1,0,0:0:0:60:Kick Hard.wav
256,192,83175,1,0,0:0:0:0:
36,192,83175,1,0,0:0:0:0:
329,192,83275,1,0,0:0:0:60:EPing Lo.wav
475,192,83275,1,0,0:0:0:0:
329,192,83375,1,0,0:0:0:60:EPing Lo.wav
475,192,83375,1,0,0:0:0:0:
182,192,83475,1,0,0:0:0:60:EPing Lo.wav
109,192,83475,1,0,0:0:0:0:
402,192,83575,1,0,0:0:0:60:Kick Hard.wav
475,192,83575,1,0,0:0:0:0:
36,192,83575,1,0,0:0:0:0:
256,192,83575,1,0,0:0:0:0:
109,192,83625,1,0,0:0:0:0:
182,192,83675,1,0,0:0:0:0:
329,192,83725,1,0,0:0:0:0:
36,192,83775,1,0,0:0:0:0:
182,192,83825,1,0,0:0:0:0:
329,192,83875,1,0,0:0:0:0:
475,192,83925,1,0,0:0:0:0:
109,192,83975,128,0,84125:0:0:0:60:Kick Hard.wav
36,192,83975,128,0,84125:0:0:0:0:
402,192,83975,128,0,84125:0:0:0:70:Whistle.wav
402,192,84175,128,0,84325:0:0:0:70:Whistle.wav
36,192,84175,128,0,84275:0:0:0:30:Ping pong.wav
182,192,84275,1,0,0:0:0:30:Ping pong.wav
109,192,84375,128,0,84525:0:0:0:60:Kick Hard.wav
36,192,84375,128,0,84525:0:0:0:0:
402,192,84375,128,0,84525:0:0:0:70:Whistle.wav
402,192,84575,128,0,84725:0:0:0:70:Whistle.wav
36,192,84575,128,0,84675:0:0:0:30:Ping pong.wav
182,192,84675,1,0,0:0:0:30:Ping pong.wav
329,192,84775,1,0,0:0:0:60:Cymbal.wav
109,192,84775,1,0,0:0:0:0:
402,192,84825,1,0,0:0:0:0:
475,192,84875,1,0,0:0:0:0:
36,192,84925,1,0,0:0:0:0:
182,192,84975,1,0,0:0:0:0:
329,192,85025,1,0,0:0:0:0:
256,192,85075,1,0,0:0:0:0:
182,192,85125,1,0,0:0:0:0:
402,192,85175,1,0,0:0:0:60:Kick Hard.wav
475,192,85175,1,0,0:0:0:0:
109,192,85175,1,0,0:0:0:60:Cymbal.wav
36,192,85175,1,0,0:0:0:0:
256,192,85225,1,0,0:0:0:0:
329,192,85275,1,0,0:0:0:0:
402,192,85325,1,0,0:0:0:0:
475,192,85375,1,0,0:0:0:60:EPing Lo.wav
182,192,85375,1,0,0:0:0:0:
256,192,85475,1,0,0:0:0:60:EPing Lo.wav
109,192,85475,1,0,0:0:0:0:
329,192,85575,1,0,0:0:0:0:
402,192,85575,1,0,0:0:0:60:Kick Hard.wav
475,192,85575,1,0,0:0:0:0:
36,192,85675,1,0,0:0:0:60:EPing Lo.wav
182,192,85725,1,0,0:0:0:60:EPing Lo.wav
36,192,85775,1,0,0:0:0:60:EPing Lo.wav
329,192,85775,1,0,0:0:0:0:
256,192,85875,1,0,0:0:0:60:EPing Lo.wav
402,192,85875,1,0,0:0:0:0:
109,192,85975,1,0,0:0:0:60:Kick Hard.wav
182,192,85975,1,0,0:0:0:0:
36,192,85975,1,0,0:0:0:0:
475,192,86075,1,0,0:0:0:60:EPing Lo.wav
329,192,86125,1,0,0:0:0:60:EPing Lo.wav
475,192,86175,1,0,0:0:0:60:EPing Lo.wav
182,192,86175,1,0,0:0:0:0:
256,192,86275,1,0,0:0:0:60:EPing Lo.wav
109,192,86275,1,0,0:0:0:0:
475,192,86375,1,0,0:0:0:0:
329,192,86375,1,0,0:0:0:0:
402,192,86375,1,0,0:0:0:60:Kick Hard.wav
182,192,86475,1,0,0:0:0:60:EPing Lo.wav
36,192,86475,1,0,0:0:0:0:
36,192,86575,1,0,0:0:0:0:
182,192,86575,1,0,0:0:0:60:EPing Lo.wav
256,192,86675,1,0,0:0:0:60:EPing Lo.wav
109,192,86675,1,0,0:0:0:0:
475,192,86775,1,0,0:0:0:0:
402,192,86775,1,0,0:0:0:60:Kick Hard.wav
36,192,86775,1,0,0:0:0:0:
329,192,86825,1,0,0:0:0:0:
256,192,86875,1,0,0:0:0:0:
109,192,86925,1,0,0:0:0:0:
36,192,86975,1,0,0:0:0:0:
475,192,87025,1,0,0:0:0:0:
402,192,87075,1,0,0:0:0:0:
256,192,87125,1,0,0:0:0:0:
182,192,87175,1,0,0:0:0:60:Kick Hard.wav
109,192,87175,1,0,0:0:0:0:
36,192,87175,1,0,0:0:0:0:
475,192,87275,1,0,0:0:0:60:EPing Lo.wav
329,192,87325,1,0,0:0:0:60:EPing Lo.wav
182,192,87375,1,0,0:0:0:0:
475,192,87375,1,0,0:0:0:60:EPing Lo.wav
109,192,87475,1,0,0:0:0:0:
256,192,87475,1,0,0:0:0:60:EPing Lo.wav
402,192,87575,1,0,0:0:0:60:Kick Hard.wav
329,192,87575,1,0,0:0:0:0:
475,192,87575,1,0,0:0:0:0:
36,192,87675,1,0,0:0:0:60:EPing Lo.wav
182,192,87725,1,0,0:0:0:60:EPing Lo.wav
36,192,87775,1,0,0:0:0:60:EPing Lo.wav
329,192,87775,1,0,0:0:0:0:
256,192,87875,1,0,0:0:0:60:EPing Lo.wav
402,192,87875,1,0,0:0:0:0:
36,192,87975,1,0,0:0:0:0:
182,192,87975,1,0,0:0:0:0:
109,192,87975,1,0,0:0:0:60:Kick Hard.wav
329,192,88075,1,0,0:0:0:60:EPing Lo.wav
475,192,88075,1,0,0:0:0:0:
475,192,88175,1,0,0:0:0:0:
329,192,88175,1,0,0:0:0:60:EPing Lo.wav
182,192,88175,1,0,0:0:0:0:
36,192,88375,1,0,0:0:0:0:
402,192,88375,1,0,0:0:0:0:
256,192,88375,1,0,0:0:0:60:Kick Hard.wav
475,192,88463,1,0,0:0:0:30:Ping pong.wav
329,192,88508,1,0,0:0:0:30:Ping pong.wav
182,192,88575,1,0,0:0:0:0:
36,192,88575,1,0,0:0:0:0:
109,192,88575,1,0,0:0:0:60:Kick Hard.wav
329,192,88686,1,0,0:0:0:30:Ping pong.wav
182,192,88730,1,0,0:0:0:30:Ping pong.wav
475,192,88775,1,0,0:0:0:0:
402,192,88775,1,0,0:0:0:60:Kick Hard.wav
36,192,88775,1,0,0:0:0:0:
256,192,88908,1,0,0:0:0:60:EPing Lo.wav
109,192,88908,1,0,0:0:0:0:
402,192,88908,1,0,0:0:0:0:
402,192,89041,1,0,0:0:0:0:
256,192,89041,1,0,0:0:0:60:EPing Lo.wav
109,192,89041,1,0,0:0:0:0:
182,192,89175,1,0,0:0:0:60:Kick Hard.wav
329,192,89175,1,0,0:0:0:0:
36,192,89175,1,0,0:0:0:0:
256,192,89275,1,0,0:0:0:0:
402,192,89375,1,0,0:0:0:0:
475,192,89375,1,0,0:0:0:0:
329,192,89375,1,0,0:0:0:60:Kick Hard.wav
182,192,89475,1,0,0:0:0:60:Kick Hard.wav
109,192,89475,1,0,0:0:0:0:
329,192,89525,1,0,0:0:0:60:Kick Hard.wav
402,192,89525,1,0,0:0:0:0:
182,192,89575,128,0,89975:0:0:0:60:Kick Hard.wav
109,192,89575,128,0,89975:0:0:0:0:
36,192,89575,1,0,0:0:0:0:
475,192,89775,1,0,0:0:0:60:Kick Soft.wav
402,192,89825,1,0,0:0:0:60:Kick Soft.wav
329,192,89875,1,0,0:0:0:60:Kick Soft.wav
475,192,89925,1,0,0:0:0:60:Kick Soft.wav
256,192,89975,1,0,0:0:0:60:Cymbal.wav
402,192,89975,1,0,0:0:0:60:Kick Hard.wav
329,192,89975,128,0,90075:0:0:0:0:
36,192,89975,128,0,90075:0:0:0:0:
329,192,90175,128,0,90275:0:0:0:60:Kick Soft.wav
109,192,90175,128,0,90275:0:0:0:0:
256,192,90375,128,0,90575:0:0:0:0:
402,192,90375,128,0,90575:0:0:0:80:Snare.wav
109,192,90475,5,0,0:0:0:0:
109,192,90575,1,0,0:0:0:0:
329,192,90675,128,0,90875:0:0:0:0:
475,192,90675,128,0,90875:0:0:0:60:Kick Soft.wav
182,192,90775,1,0,0:0:0:0:
182,192,90875,1,0,0:0:0:0:
402,192,90975,128,0,91075:0:0:0:0:
475,192,90975,128,0,91075:0:0:0:60:Kick Soft.wav
256,192,91075,1,0,0:0:0:0:
256,192,91175,1,0,0:0:0:80:Snare.wav
475,192,91175,1,0,0:0:0:0:
36,192,91175,1,0,0:0:0:0:
475,192,91275,128,0,91475:0:0:0:0:
182,192,91275,128,0,91475:0:0:0:60:Kick Hard.wav
36,192,91275,128,0,91475:0:0:0:0:
329,192,91275,128,0,91475:0:0:0:60:Kick Hard.wav
475,192,91575,5,0,0:0:0:0:
182,192,91575,1,0,0:0:0:40:Cymbal.wav
402,192,91575,1,0,0:0:0:60:Kick Hard.wav
402,192,91675,1,0,0:0:0:60:Kick Hard.wav
475,192,91675,1,0,0:0:0:0:
182,192,91675,1,0,0:0:0:40:Cymbal.wav
256,192,91775,1,0,0:0:0:0:
36,192,91875,1,0,0:0:0:0:
109,192,91875,1,0,0:0:0:60:Kick Hard.wav
475,192,91875,1,0,0:0:0:40:Cymbal.wav
475,192,91975,1,0,0:0:0:0:
109,192,91975,1,0,0:0:0:60:Kick Hard.wav
36,192,91975,1,0,0:0:0:0:
329,192,92075,1,0,0:0:0:60:EPing Hi.wav
182,192,92125,1,0,0:0:0:60:EPing Hi.wav
329,192,92175,1,0,0:0:0:60:EPing Hi.wav
475,192,92175,1,0,0:0:0:0:
36,192,92275,1,0,0:0:0:0:
109,192,92275,1,0,0:0:0:60:EPing Hi.wav
402,192,92375,1,0,0:0:0:60:Kick Hard.wav
256,192,92375,1,0,0:0:0:0:
475,192,92375,1,0,0:0:0:0:
182,192,92475,1,0,0:0:0:60:EPing Hi.wav
329,192,92525,1,0,0:0:0:60:EPing Hi.wav
182,192,92575,1,0,0:0:0:60:EPing Hi.wav
36,192,92575,1,0,0:0:0:0:
475,192,92675,1,0,0:0:0:0:
402,192,92675,1,0,0:0:0:60:EPing Hi.wav
256,192,92775,1,0,0:0:0:0:
36,192,92775,1,0,0:0:0:0:
109,192,92775,1,0,0:0:0:60:Kick Hard.wav
329,192,92875,1,0,0:0:0:0:
475,192,92875,1,0,0:0:0:60:EPing Hi.wav
182,192,92975,1,0,0:0:0:0:
329,192,92975,1,0,0:0:0:60:EPing Hi.wav
182,192,93075,1,0,0:0:0:60:EPing Hi.wav
36,192,93075,1,0,0:0:0:0:
402,192,93175,1,0,0:0:0:60:Kick Hard.wav
256,192,93175,1,0,0:0:0:0:
475,192,93175,1,0,0:0:0:0:
36,192,93225,1,0,0:0:0:0:
109,192,93275,1,0,0:0:0:0:
182,192,93325,1,0,0:0:0:0:
329,192,93375,1,0,0:0:0:0:
109,192,93425,1,0,0:0:0:0:
256,192,93475,1,0,0:0:0:0:
329,192,93525,1,0,0:0:0:0:
475,192,93575,1,0,0:0:0:0:
36,192,93575,1,0,0:0:0:0:
402,192,93575,1,0,0:0:0:60:Kick Hard.wav
182,192,93675,1,0,0:0:0:60:EPing Hi.wav
329,192,93725,1,0,0:0:0:60:EPing Hi.wav
182,192,93775,1,0,0:0:0:60:EPing Hi.wav
36,192,93775,1,0,0:0:0:0:
475,192,93875,1,0,0:0:0:0:
402,192,93875,1,0,0:0:0:60:EPing Hi.wav
109,192,93975,1,0,0:0:0:60:Kick Hard.wav
256,192,93975,1,0,0:0:0:0:
36,192,93975,1,0,0:0:0:0:
329,192,94075,1,0,0:0:0:60:EPing Hi.wav
182,192,94125,1,0,0:0:0:60:EPing Hi.wav
329,192,94175,1,0,0:0:0:60:EPing Hi.wav
475,192,94175,1,0,0:0:0:0:
36,192,94275,1,0,0:0:0:0:
109,192,94275,1,0,0:0:0:60:EPing Hi.wav
256,192,94375,1,0,0:0:0:0:
475,192,94375,1,0,0:0:0:0:
402,192,94375,1,0,0:0:0:60:Kick Hard.wav
182,192,94475,1,0,0:0:0:60:EPing Hi.wav
36,192,94475,1,0,0:0:0:0:
329,192,94575,128,0,94675:0:0:0:60:Kick Hard.wav
475,192,94575,128,0,94675:0:0:0:0:
182,192,94575,128,0,94675:0:0:0:0:
256,192,94775,1,0,0:0:0:40:Cymbal.wav
402,192,94775,1,0,0:0:0:60:Kick Hard.wav
475,192,94775,1,0,0:0:0:0:
36,192,94775,1,0,0:0:0:0:
109,192,94825,1,0,0:0:0:0:
182,192,94875,1,0,0:0:0:0:
329,192,94925,1,0,0:0:0:60:EPing Hi.wav
182,192,94975,1,0,0:0:0:60:EPing Hi.wav
36,192,94975,1,0,0:0:0:0:
475,192,95075,1,0,0:0:0:0:
402,192,95075,1,0,0:0:0:60:EPing Hi.wav
256,192,95175,1,0,0:0:0:0:
109,192,95175,1,0,0:0:0:60:Kick Hard.wav
36,192,95175,1,0,0:0:0:0:
329,192,95275,1,0,0:0:0:60:EPing Hi.wav
182,192,95325,1,0,0:0:0:60:EPing Hi.wav
329,192,95375,1,0,0:0:0:60:EPing Hi.wav
475,192,95375,1,0,0:0:0:0:
36,192,95475,1,0,0:0:0:0:
109,192,95475,1,0,0:0:0:60:EPing Hi.wav
402,192,95575,1,0,0:0:0:60:Kick Hard.wav
256,192,95575,1,0,0:0:0:0:
475,192,95575,1,0,0:0:0:0:
182,192,95675,1,0,0:0:0:60:EPing Hi.wav
329,192,95725,1,0,0:0:0:60:EPing Hi.wav
182,192,95775,1,0,0:0:0:60:EPing Hi.wav
36,192,95775,1,0,0:0:0:0:
475,192,95875,1,0,0:0:0:0:
402,192,95875,1,0,0:0:0:60:EPing Hi.wav
256,192,95975,1,0,0:0:0:0:
36,192,95975,1,0,0:0:0:0:
109,192,95975,1,0,0:0:0:60:Kick Hard.wav
329,192,96075,1,0,0:0:0:0:
475,192,96075,1,0,0:0:0:60:EPing Hi.wav
329,192,96175,1,0,0:0:0:60:EPing Hi.wav
182,192,96175,1,0,0:0:0:0:
182,192,96275,1,0,0:0:0:60:EPing Hi.wav
36,192,96275,1,0,0:0:0:0:
329,192,96375,1,0,0:0:0:60:Kick Hard.wav
36,192,96375,1,0,0:0:0:0:
256,192,96375,1,0,0:0:0:0:
402,192,96375,1,0,0:0:0:0:
109,192,96425,1,0,0:0:0:0:
182,192,96475,1,0,0:0:0:0:
329,192,96525,1,0,0:0:0:0:
402,192,96575,1,0,0:0:0:60:Kick Hard.wav
36,192,96575,1,0,0:0:0:0:
475,192,96575,1,0,0:0:0:0:
109,192,96625,1,0,0:0:0:0:
256,192,96675,1,0,0:0:0:0:
329,192,96725,1,0,0:0:0:0:
402,192,96775,128,0,96975:0:0:0:0:
475,192,96775,1,0,0:0:0:60:Cymbal.wav
182,192,96775,1,0,0:0:0:60:Kick Hard.wav
109,192,96825,1,0,0:0:0:0:
182,192,96875,1,0,0:0:0:0:
256,192,96975,1,0,0:0:0:0:
36,192,97075,128,0,97275:0:0:0:0:
109,192,97075,1,0,0:0:0:60:Kick Hard.wav
329,192,97075,1,0,0:0:0:60:Cymbal.wav
402,192,97125,1,0,0:0:0:0:
329,192,97175,1,0,0:0:0:0:
256,192,97275,1,0,0:0:0:0:
475,192,97375,128,0,97475:0:0:0:0:
36,192,97375,1,0,0:0:0:60:Cymbal.wav
182,192,97375,1,0,0:0:0:60:Kick Hard.wav
329,192,97425,1,0,0:0:0:0:
182,192,97475,1,0,0:0:0:0:
475,192,97575,1,0,0:0:0:0:
109,192,97575,1,0,0:0:0:60:Cymbal.wav
402,192,97625,1,0,0:0:0:0:
256,192,97675,1,0,0:0:0:0:
182,192,97725,1,0,0:0:0:0:
402,192,97775,1,0,0:0:0:0:
329,192,97825,1,0,0:0:0:0:
182,192,97875,1,0,0:0:0:0:
109,192,97925,1,0,0:0:0:0:
36,192,97975,1,0,0:0:0:0:
256,192,97975,1,0,0:0:0:60:Cymbal.wav
402,192,97975,1,0,0:0:0:60:Kick Hard.wav
475,192,97975,1,0,0:0:0:0:
109,192,98075,1,0,0:0:0:60:EPing Lo.wav
402,192,98125,1,0,0:0:0:60:EPing Lo.wav
109,192,98175,1,0,0:0:0:60:EPing Lo.wav
402,192,98275,1,0,0:0:0:60:EPing Lo.wav
109,192,98475,1,0,0:0:0:60:EPing Lo.wav
402,192,98525,1,0,0:0:0:60:EPing Lo.wav
109,192,98575,1,0,0:0:0:60:EPing Lo.wav
402,192,98675,1,0,0:0:0:60:EPing Lo.wav
329,192,98775,1,0,0:0:0:0:
36,192,98775,1,0,0:0:0:0:
109,192,98775,1,0,0:0:0:80:Snare.wav
256,192,98875,1,0,0:0:0:60:Kick Hard.wav
475,192,98875,1,0,0:0:0:0:
109,192,98875,1,0,0:0:0:0:
402,192,98975,1,0,0:0:0:60:EPing Lo.wav
402,192,99075,1,0,0:0:0:60:EPing Lo.wav
475,192,99175,1,0,0:0:0:0:
256,192,99175,1,0,0:0:0:60:Kick Hard.wav
109,192,99175,1,0,0:0:0:60:Cymbal.wav
36,192,99175,1,0,0:0:0:0:
182,192,99275,1,0,0:0:0:60:EPing Lo.wav
182,192,99375,1,0,0:0:0:60:EPing Lo.wav
402,192,99475,1,0,0:0:0:60:Kick Hard.wav
475,192,99475,1,0,0:0:0:0:
109,192,99475,1,0,0:0:0:0:
329,192,99475,1,0,0:0:0:0:
402,192,99675,1,0,0:0:0:0:
256,192,99708,1,0,0:0:0:60:EPing Lo.wav
109,192,99708,1,0,0:0:0:0:
329,192,99775,1,0,0:0:0:60:Kick Hard.wav
36,192,99775,1,0,0:0:0:0:
475,192,99775,1,0,0:0:0:0:
256,192,99875,1,0,0:0:0:60:EPing Lo.wav
256,192,99975,1,0,0:0:0:60:EPing Lo.wav
402,192,100075,1,0,0:0:0:0:
475,192,100075,1,0,0:0:0:0:
36,192,100075,1,0,0:0:0:60:Kick Hard.wav
182,192,100175,1,0,0:0:0:60:EPing Lo.wav
402,192,100275,1,0,0:0:0:0:
329,192,100275,1,0,0:0:0:60:Kick Hard.wav
182,192,100275,1,0,0:0:0:0:
109,192,100375,1,0,0:0:0:0:
36,192,100375,1,0,0:0:0:0:
256,192,100375,1,0,0:0:0:80:Snare.wav
329,192,100475,1,0,0:0:0:60:EPing Hi.wav
475,192,100525,1,0,0:0:0:60:EPing Hi.wav
329,192,100575,1,0,0:0:0:60:EPing Hi.wav
182,192,100675,128,0,100875:0:0:0:60:EPing Hi.wav
36,192,100675,128,0,100875:0:0:0:0:
475,192,100875,128,0,101075:0:0:0:0:
402,192,100875,128,0,101075:0:0:0:60:EPing Lo.wav
109,192,100975,128,0,101075:0:0:0:60:EPing Hi.wav
36,192,100975,128,0,101075:0:0:0:0:
329,192,101175,1,0,0:0:0:60:Cymbal.wav
182,192,101175,1,0,0:0:0:60:Kick Hard.wav
475,192,101175,1,0,0:0:0:0:
36,192,101175,1,0,0:0:0:0:
109,192,101308,1,0,0:0:0:60:EPing Hi.wav
36,192,101308,1,0,0:0:0:0:
256,192,101375,1,0,0:0:0:60:EPing Hi.wav
402,192,101375,1,0,0:0:0:0:
402,192,101508,1,0,0:0:0:0:
475,192,101508,1,0,0:0:0:60:EPing Hi.wav
109,192,101575,1,0,0:0:0:0:
256,192,101575,1,0,0:0:0:60:EPing Hi.wav
329,192,101708,1,0,0:0:0:60:EPing Hi.wav
475,192,101708,1,0,0:0:0:0:
109,192,101775,1,0,0:0:0:0:
475,192,101841,1,0,0:0:0:0:
329,192,101841,1,0,0:0:0:60:EPing Hi.wav
36,192,101975,1,0,0:0:0:0:
402,192,101975,1,0,0:0:0:0:
182,192,101975,1,0,0:0:0:80:Snare.wav
36,192,102075,1,0,0:0:0:0:
475,192,102075,1,0,0:0:0:0:
256,192,102075,1,0,0:0:0:60:Kick Hard.wav
182,192,102175,1,0,0:0:0:0:
109,192,102175,1,0,0:0:0:0:
329,192,102241,1,0,0:0:0:40:EPing Hi.wav
402,192,102241,1,0,0:0:0:0:
256,192,102375,1,0,0:0:0:60:Cymbal.wav
329,192,102375,1,0,0:0:0:0:
475,192,102375,1,0,0:0:0:60:Kick Hard.wav
182,192,102375,1,0,0:0:0:0:
109,192,102508,1,0,0:0:0:60:EPing Hi.wav
36,192,102508,1,0,0:0:0:0:
36,192,102641,1,0,0:0:0:0:
109,192,102641,1,0,0:0:0:60:EPing Hi.wav
256,192,102675,1,0,0:0:0:60:Kick Hard.wav
402,192,102675,1,0,0:0:0:0:
475,192,102675,1,0,0:0:0:0:
182,192,102775,1,0,0:0:0:40:EPing Hi.wav
329,192,102775,1,0,0:0:0:0:
475,192,102908,1,0,0:0:0:0:
402,192,102908,1,0,0:0:0:60:EPing Hi.wav
109,192,102975,1,0,0:0:0:0:
256,192,102975,1,0,0:0:0:60:Kick Hard.wav
36,192,102975,1,0,0:0:0:0:
475,192,103075,1,0,0:0:0:0:
402,192,103075,1,0,0:0:0:60:EPing Hi.wav
329,192,103175,1,0,0:0:0:0:
109,192,103175,1,0,0:0:0:40:EPing Hi.wav
475,192,103275,1,0,0:0:0:0:
182,192,103275,1,0,0:0:0:0:
402,192,103275,1,0,0:0:0:60:Kick Hard.wav
256,192,103375,1,0,0:0:0:60:EPing Hi.wav
36,192,103375,1,0,0:0:0:0:
329,192,103475,1,0,0:0:0:0:
475,192,103475,1,0,0:0:0:0:
182,192,103475,1,0,0:0:0:60:Kick Hard.wav
475,192,103575,1,0,0:0:0:80:Snare.wav
36,192,103575,1,0,0:0:0:0:
109,192,103575,1,0,0:0:0:0:
182,192,103675,128,0,103775:0:0:0:45:Whistle.wav
329,192,103775,128,0,103875:0:0:0:0:
475,192,103875,128,0,103975:0:0:0:45:Whistle.wav
256,192,103975,1,0,0:0:0:0:
109,192,104025,1,0,0:0:0:0:
402,192,104075,1,0,0:0:0:0:
182,192,104125,1,0,0:0:0:0:
329,192,104175,1,0,0:0:0:0:
256,192,104225,1,0,0:0:0:0:
182,192,104275,1,0,0:0:0:0:
329,192,104325,1,0,0:0:0:0:
109,192,104375,1,0,0:0:0:60:Kick Hard.wav
402,192,104375,1,0,0:0:0:60:Cymbal.wav
475,192,104375,1,0,0:0:0:0:
36,192,104375,1,0,0:0:0:0:
329,192,104475,1,0,0:0:0:0:
182,192,104525,1,0,0:0:0:0:
256,192,104575,1,0,0:0:0:0:
402,192,104625,1,0,0:0:0:0:
329,192,104675,1,0,0:0:0:0:
182,192,104725,1,0,0:0:0:0:
109,192,104775,1,0,0:0:0:60:Kick Hard.wav
475,192,104775,1,0,0:0:0:0:
36,192,104775,128,0,104875:0:0:0:0:
182,192,104875,128,0,104975:0:0:0:70:Whistle.wav
109,192,104975,128,0,105175:0:0:0:70:Whistle.wav
329,192,104975,128,0,105075:0:0:0:0:
256,192,105075,128,0,105275:0:0:0:70:Whistle.wav
475,192,105175,1,0,0:0:0:60:Kick Hard.wav
36,192,105175,128,0,105375:0:0:0:0:
402,192,105175,128,0,105375:0:0:0:0:
182,192,105275,128,0,105475:0:0:0:70:Whistle.wav
256,192,105375,128,0,105575:0:0:0:70:Whistle.wav
402,192,105475,128,0,105675:0:0:0:70:Whistle.wav
36,192,105575,1,0,0:0:0:60:Kick Hard.wav
475,192,105575,128,0,105775:0:0:0:0:
109,192,105575,128,0,105675:0:0:0:0:
256,192,105675,128,0,105775:0:0:0:70:Whistle.wav
329,192,105775,128,0,105875:0:0:0:70:Whistle.wav
109,192,105775,1,0,0:0:0:0:
475,192,105875,128,0,105975:0:0:0:70:Whistle.wav
182,192,105975,1,0,0:0:0:60:Kick Hard.wav
256,192,105975,1,0,0:0:0:0:
36,192,105975,1,0,0:0:0:0:
329,192,106075,1,0,0:0:0:0:
182,192,106175,1,0,0:0:0:80:Hihat.wav
402,192,106175,1,0,0:0:0:0:
109,192,106275,1,0,0:0:0:0:
36,192,106275,1,0,0:0:0:0:
329,192,106375,1,0,0:0:0:60:Kick Hard.wav
475,192,106375,1,0,0:0:0:0:
256,192,106375,1,0,0:0:0:0:
109,192,106475,1,0,0:0:0:0:
182,192,106575,1,0,0:0:0:30:Ping pong.wav
329,192,106575,1,0,0:0:0:80:Hihat.wav
475,192,106675,1,0,0:0:0:0:
256,192,106775,1,0,0:0:0:0:
402,192,106775,1,0,0:0:0:60:Kick Hard.wav
109,192,106775,1,0,0:0:0:30:Ping pong.wav
256,192,106875,1,0,0:0:0:0:
109,192,106875,1,0,0:0:0:30:Ping pong.wav
329,192,106975,1,0,0:0:0:80:Hihat.wav
36,192,107075,1,0,0:0:0:0:
475,192,107075,1,0,0:0:0:30:Ping pong.wav
36,192,107175,128,0,107275:0:0:0:0:
256,192,107175,128,0,107275:0:0:0:60:Kick Hard.wav
475,192,107175,128,0,107275:0:0:0:30:Ping pong.wav
182,192,107375,1,0,0:0:0:30:Ping pong.wav
329,192,107425,1,0,0:0:0:30:Ping pong.wav
182,192,107475,1,0,0:0:0:30:Ping pong.wav
329,192,107525,1,0,0:0:0:0:
109,192,107575,1,0,0:0:0:60:Cymbal.wav
256,192,107575,1,0,0:0:0:60:Kick Hard.wav
36,192,107575,1,0,0:0:0:0:
475,192,107575,1,0,0:0:0:0:
402,192,107675,1,0,0:0:0:0:
329,192,107725,1,0,0:0:0:0:
109,192,107775,1,0,0:0:0:0:
182,192,107825,1,0,0:0:0:0:
256,192,107875,1,0,0:0:0:0:
402,192,107925,1,0,0:0:0:0:
475,192,107975,1,0,0:0:0:60:Kick Hard.wav
109,192,107975,128,0,108075:0:0:0:0:
36,192,107975,1,0,0:0:0:0:
256,192,108075,128,0,108175:0:0:0:70:Whistle.wav
109,192,108175,128,0,108375:0:0:0:0:
402,192,108175,128,0,108275:0:0:0:70:Whistle.wav
256,192,108275,128,0,108475:0:0:0:70:Whistle.wav
402,192,108375,128,0,108575:0:0:0:0:
475,192,108375,1,0,0:0:0:60:Kick Hard.wav
36,192,108375,128,0,108575:0:0:0:0:
182,192,108475,128,0,108675:0:0:0:70:Whistle.wav
329,192,108575,128,0,108775:0:0:0:70:Whistle.wav
475,192,108675,128,0,108875:0:0:0:70:Whistle.wav
109,192,108775,128,0,108875:0:0:0:0:
36,192,108775,1,0,0:0:0:0:
182,192,108775,1,0,0:0:0:60:Kick Hard.wav
256,192,108875,128,0,108975:0:0:0:70:Whistle.wav
402,192,108975,128,0,109075:0:0:0:70:Whistle.wav
36,192,108975,1,0,0:0:0:0:
182,192,109075,128,0,109175:0:0:0:70:Whistle.wav
329,192,109175,1,0,0:0:0:0:
402,192,109175,1,0,0:0:0:60:Kick Hard.wav
475,192,109175,1,0,0:0:0:0:
109,192,109275,1,0,0:0:0:0:
182,192,109375,1,0,0:0:0:0:
329,192,109375,1,0,0:0:0:80:Hihat.wav
475,192,109475,1,0,0:0:0:0:
256,192,109575,1,0,0:0:0:60:Kick Hard.wav
109,192,109575,1,0,0:0:0:30:Ping pong.wav
36,192,109575,1,0,0:0:0:0:
402,192,109625,1,0,0:0:0:30:Ping pong.wav
36,192,109675,1,0,0:0:0:30:Ping pong.wav
182,192,109725,1,0,0:0:0:30:Ping pong.wav
329,192,109775,1,0,0:0:0:30:Ping pong.wav
475,192,109775,1,0,0:0:0:80:Hihat.wav
256,192,109875,1,0,0:0:0:0:
109,192,109975,1,0,0:0:0:60:Kick Hard.wav
36,192,109975,1,0,0:0:0:0:
402,192,109975,1,0,0:0:0:0:
402,192,110075,1,0,0:0:0:0:
36,192,110075,1,0,0:0:0:0:
109,192,110075,1,0,0:0:0:60:Kick Hard.wav
256,192,110175,128,0,110275:0:0:0:0:
329,192,110175,128,0,110275:0:0:0:80:Hihat.wav
182,192,110275,1,0,0:0:0:60:Kick Hard.wav
36,192,110275,1,0,0:0:0:0:
475,192,110275,1,0,0:0:0:0:
36,192,110375,128,0,110475:0:0:0:0:
182,192,110375,128,0,110475:0:0:0:60:Kick Hard.wav
475,192,110375,128,0,110475:0:0:0:0:
329,192,110575,1,0,0:0:0:60:Kick Hard.wav
402,192,110575,1,0,0:0:0:0:
109,192,110625,1,0,0:0:0:0:
182,192,110625,1,0,0:0:0:60:Kick Hard.wav
329,192,110675,1,0,0:0:0:60:Kick Hard.wav
402,192,110675,1,0,0:0:0:0:
109,192,110725,1,0,0:0:0:0:
182,192,110725,1,0,0:0:0:60:Kick Hard.wav
402,192,110775,1,0,0:0:0:0:
329,192,110775,1,0,0:0:0:60:Kick Hard.wav
36,192,110775,128,0,110975:0:0:0:0:
256,192,110775,128,0,110975:0:0:0:60:Cymbal.wav
109,192,110975,1,0,0:0:0:0:
329,192,111075,1,0,0:0:0:60:Kick Hard.wav
402,192,111075,1,0,0:0:0:0:
182,192,111075,1,0,0:0:0:0:
36,192,111175,1,0,0:0:0:0:
402,192,111375,1,0,0:0:0:0:
329,192,111375,1,0,0:0:0:60:Kick Hard.wav
36,192,111375,1,0,0:0:0:0:
36,192,111575,1,0,0:0:0:0:
329,192,111675,1,0,0:0:0:60:Kick Hard.wav
402,192,111675,1,0,0:0:0:0:
109,192,111675,1,0,0:0:0:0:
182,192,111775,1,0,0:0:0:0:
182,192,111875,1,0,0:0:0:0:
402,192,111975,1,0,0:0:0:0:
329,192,111975,1,0,0:0:0:60:Kick Hard.wav
36,192,111975,1,0,0:0:0:0:
182,192,112075,1,0,0:0:0:0:
329,192,112175,1,0,0:0:0:60:Kick Soft.wav
475,192,112175,1,0,0:0:0:0:
109,192,112175,1,0,0:0:0:0:
256,192,112275,1,0,0:0:0:0:
182,192,112375,1,0,0:0:0:0:
402,192,112375,1,0,0:0:0:0:
329,192,112375,1,0,0:0:0:60:Kick Hard.wav
36,192,112575,1,0,0:0:0:0:
329,192,112675,1,0,0:0:0:60:Kick Hard.wav
402,192,112675,1,0,0:0:0:0:
36,192,112775,1,0,0:0:0:0:
109,192,112875,1,0,0:0:0:0:
402,192,112975,1,0,0:0:0:0:
329,192,112975,1,0,0:0:0:60:Kick Hard.wav
182,192,112975,1,0,0:0:0:0:
182,192,113075,1,0,0:0:0:0:
329,192,113275,1,0,0:0:0:60:Kick Hard.wav
402,192,113275,1,0,0:0:0:0:
109,192,113275,1,0,0:0:0:0:
36,192,113375,1,0,0:0:0:0:
36,192,113475,1,0,0:0:0:0:
402,192,113575,1,0,0:0:0:0:
329,192,113575,1,0,0:0:0:60:Kick Hard.wav
182,192,113575,1,0,0:0:0:0:
256,192,113675,1,0,0:0:0:0:
182,192,113775,1,0,0:0:0:30:Ping pong.wav
329,192,113775,128,0,113875:0:0:0:60:Kick Soft.wav
475,192,113775,128,0,113875:0:0:0:0:
36,192,113875,1,0,0:0:0:0:
109,192,113975,1,0,0:0:0:60:Cymbal.wav
182,192,113975,1,0,0:0:0:60:Kick Hard.wav
402,192,113975,128,0,114175:0:0:0:0:
475,192,113975,128,0,114175:0:0:0:0:
256,192,114175,1,0,0:0:0:0:
182,192,114275,1,0,0:0:0:60:Kick Hard.wav
109,192,114275,1,0,0:0:0:0:
475,192,114275,1,0,0:0:0:0:
329,192,114375,1,0,0:0:0:0:
109,192,114575,1,0,0:0:0:0:
182,192,114575,1,0,0:0:0:60:Kick Hard.wav
329,192,114575,1,0,0:0:0:0:
402,192,114675,1,0,0:0:0:0:
109,192,114875,1,0,0:0:0:60:Kick Hard.wav
329,192,114875,1,0,0:0:0:0:
36,192,114875,1,0,0:0:0:0:
256,192,114975,1,0,0:0:0:0:
475,192,114975,1,0,0:0:0:0:
402,192,114975,1,0,0:0:0:70:Kick Soft.wav
182,192,115075,1,0,0:0:0:60:Kick Hard.wav
36,192,115075,1,0,0:0:0:0:
329,192,115125,1,0,0:0:0:60:Kick Hard.wav
475,192,115125,1,0,0:0:0:0:
182,192,115175,1,0,0:0:0:60:Kick Hard.wav
36,192,115175,1,0,0:0:0:0:
402,192,115375,1,0,0:0:0:0:
329,192,115375,1,0,0:0:0:60:Kick Soft.wav
256,192,115425,1,0,0:0:0:60:Kick Soft.wav
109,192,115475,1,0,0:0:0:0:
182,192,115475,1,0,0:0:0:60:Kick Soft.wav
329,192,115525,1,0,0:0:0:60:Kick Soft.wav
402,192,115575,1,0,0:0:0:60:Kick Hard.wav
36,192,115575,1,0,0:0:0:60:Cymbal.wav
109,192,115575,128,0,115675:0:0:0:0:
475,192,115575,128,0,115675:0:0:0:0:
182,192,115775,128,0,115875:0:0:0:0:
475,192,115775,128,0,115875:0:0:0:60:Kick Soft.wav
256,192,115975,128,0,116175:0:0:0:0:
475,192,115975,128,0,116175:0:0:0:80:Snare.wav
109,192,116075,1,0,0:0:0:0:
109,192,116175,1,0,0:0:0:0:
402,192,116275,128,0,116475:0:0:0:60:Kick Soft.wav
182,192,116275,128,0,116475:0:0:0:0:
36,192,116375,1,0,0:0:0:0:
36,192,116475,1,0,0:0:0:0:
109,192,116575,128,0,116675:0:0:0:0:
329,192,116575,128,0,116675:0:0:0:60:Kick Soft.wav
475,192,116675,1,0,0:0:0:0:
256,192,116775,1,0,0:0:0:80:Snare.wav
109,192,116775,1,0,0:0:0:0:
475,192,116775,1,0,0:0:0:0:
256,192,116875,128,0,117075:0:0:0:60:Kick Hard.wav
402,192,116875,128,0,117075:0:0:0:0:
36,192,116875,128,0,117075:0:0:0:0:
329,192,117175,1,0,0:0:0:60:Kick Hard.wav
109,192,117175,1,0,0:0:0:0:
475,192,117175,128,0,117275:0:0:0:70:Whistle.wav
36,192,117375,128,0,117475:0:0:0:0:
402,192,117575,1,0,0:0:0:60:Kick Hard.wav
36,192,117575,1,0,0:0:0:60:Cymbal.wav
256,192,117575,1,0,0:0:0:0:
475,192,117575,1,0,0:0:0:0:
109,192,117675,1,0,0:0:0:0:
182,192,117725,1,0,0:0:0:0:
329,192,117775,1,0,0:0:0:0:
256,192,117825,1,0,0:0:0:0:
109,192,117875,1,0,0:0:0:0:
36,192,117925,1,0,0:0:0:0:
475,192,117975,1,0,0:0:0:0:
402,192,117975,1,0,0:0:0:60:Kick Hard.wav
329,192,117975,128,0,118075:0:0:0:0:
182,192,118075,128,0,118275:0:0:0:70:Whistle.wav
256,192,118175,128,0,118375:0:0:0:70:Whistle.wav
402,192,118275,128,0,118475:0:0:0:70:Whistle.wav
475,192,118375,128,0,118575:0:0:0:0:
36,192,118375,1,0,0:0:0:60:Kick Hard.wav
109,192,118375,128,0,118475:0:0:0:0:
182,192,118475,128,0,118575:0:0:0:70:Whistle.wav
329,192,118575,128,0,118675:0:0:0:70:Whistle.wav
36,192,118575,1,0,0:0:0:0:
109,192,118675,128,0,118775:0:0:0:70:Whistle.wav
182,192,118775,1,0,0:0:0:60:Kick Hard.wav
402,192,118775,1,0,0:0:0:0:
475,192,118775,1,0,0:0:0:0:
256,192,118875,1,0,0:0:0:0:
109,192,118975,1,0,0:0:0:0:
329,192,118975,1,0,0:0:0:80:Hihat.wav
182,192,119075,1,0,0:0:0:0:
475,192,119175,1,0,0:0:0:60:Kick Hard.wav
109,192,119175,1,0,0:0:0:0:
329,192,119175,1,0,0:0:0:0:
36,192,119275,1,0,0:0:0:0:
256,192,119375,1,0,0:0:0:30:Ping pong.wav
402,192,119375,1,0,0:0:0:80:Hihat.wav
109,192,119475,1,0,0:0:0:0:
329,192,119575,1,0,0:0:0:60:Kick Hard.wav
475,192,119575,1,0,0:0:0:0:
182,192,119575,1,0,0:0:0:30:Ping pong.wav
182,192,119675,1,0,0:0:0:30:Ping pong.wav
475,192,119675,1,0,0:0:0:0:
256,192,119775,1,0,0:0:0:80:Hihat.wav
402,192,119875,1,0,0:0:0:30:Ping pong.wav
109,192,119875,1,0,0:0:0:0:
36,192,119975,1,0,0:0:0:60:Kick Hard.wav
109,192,119975,128,0,120075:0:0:0:0:
402,192,119975,128,0,120075:0:0:0:30:Ping pong.wav
182,192,120175,1,0,0:0:0:30:Ping pong.wav
329,192,120225,1,0,0:0:0:0:
182,192,120275,1,0,0:0:0:0:
329,192,120325,1,0,0:0:0:0:
109,192,120375,1,0,0:0:0:60:Kick Hard.wav
36,192,120375,1,0,0:0:0:0:
475,192,120375,1,0,0:0:0:0:
402,192,120375,1,0,0:0:0:60:Cymbal.wav
256,192,120475,1,0,0:0:0:0:
329,192,120525,1,0,0:0:0:0:
402,192,120575,1,0,0:0:0:0:
36,192,120625,1,0,0:0:0:0:
182,192,120675,1,0,0:0:0:0:
256,192,120725,1,0,0:0:0:0:
402,192,120775,1,0,0:0:0:0:
475,192,120775,1,0,0:0:0:60:Kick Hard.wav
109,192,120775,128,0,120875:0:0:0:0:
256,192,120875,128,0,120975:0:0:0:70:Whistle.wav
402,192,120975,128,0,121075:0:0:0:70:Whistle.wav
182,192,120975,128,0,121175:0:0:0:0:
329,192,121075,128,0,121275:0:0:0:70:Whistle.wav
475,192,121175,128,0,121375:0:0:0:0:
36,192,121175,128,0,121375:0:0:0:0:
256,192,121175,1,0,0:0:0:60:Kick Hard.wav
109,192,121275,128,0,121475:0:0:0:70:Whistle.wav
256,192,121375,128,0,121575:0:0:0:70:Whistle.wav
402,192,121475,128,0,121675:0:0:0:70:Whistle.wav
36,192,121575,128,0,121675:0:0:0:0:
475,192,121575,128,0,121775:0:0:0:0:
182,192,121575,1,0,0:0:0:60:Kick Hard.wav
109,192,121675,128,0,121775:0:0:0:70:Whistle.wav
182,192,121775,128,0,121875:0:0:0:70:Whistle.wav
402,192,121775,1,0,0:0:0:0:
256,192,121875,128,0,121975:0:0:0:70:Whistle.wav
109,192,121975,1,0,0:0:0:60:Kick Hard.wav
329,192,121975,1,0,0:0:0:0:
475,192,121975,1,0,0:0:0:0:
329,192,122075,1,0,0:0:0:0:
402,192,122175,1,0,0:0:0:80:Snare.wav
36,192,122175,1,0,0:0:0:80:Hihat.wav
475,192,122175,1,0,0:0:0:0:
182,192,122175,1,0,0:0:0:60:Kick Hard.wav
36,192,122375,1,0,0:0:0:30:Ping pong.wav
402,192,122375,1,0,0:0:0:0:
329,192,122375,1,0,0:0:0:60:Kick Hard.wav
109,192,122425,1,0,0:0:0:30:Ping pong.wav
182,192,122475,1,0,0:0:0:30:Ping pong.wav
109,192,122525,1,0,0:0:0:30:Ping pong.wav
329,192,122575,1,0,0:0:0:80:Snare.wav
36,192,122575,1,0,0:0:0:30:Ping pong.wav
475,192,122575,1,0,0:0:0:80:Hihat.wav
256,192,122575,1,0,0:0:0:60:Kick Hard.wav
182,192,122775,1,0,0:0:0:60:Kick Hard.wav
109,192,122775,1,0,0:0:0:0:
329,192,122825,1,0,0:0:0:60:Kick Hard.wav
402,192,122825,1,0,0:0:0:0:
182,192,122875,1,0,0:0:0:60:Kick Hard.wav
109,192,122875,1,0,0:0:0:0:
329,192,122925,1,0,0:0:0:60:Kick Hard.wav
402,192,122925,1,0,0:0:0:0:
109,192,122975,128,0,123075:0:0:0:80:Snare.wav
36,192,122975,128,0,123075:0:0:0:80:Hihat.wav
182,192,122975,128,0,123075:0:0:0:60:Kick Hard.wav
256,192,123175,128,0,123475:0:0:0:60:Kick Hard.wav
36,192,123175,128,0,123475:0:0:0:70:Whistle.wav
475,192,123175,128,0,123475:0:0:0:70:Whistle.wav
329,192,123575,1,0,0:0:0:0:
475,192,123575,1,0,0:0:0:0:
109,192,123575,1,0,0:0:0:60:Cymbal.wav
256,192,123575,1,0,0:0:0:60:Kick Hard.wav
182,192,124375,1,0,0:0:0:0:
329,192,124375,1,0,0:0:0:80:Snare.wav
475,192,124375,1,0,0:0:0:0:
402,192,124475,1,0,0:0:0:60:Kick Soft.wav
182,192,124475,128,0,124675:0:0:0:0:
36,192,124475,128,0,124675:0:0:0:0:
475,192,124575,128,0,124775:0:0:0:70:Whistle.wav
256,192,124575,1,0,0:0:0:0:
329,192,124675,128,0,124775:0:0:0:70:Whistle.wav
402,192,124675,128,0,124775:0:0:0:0:
256,192,124775,1,0,0:0:0:0:
182,192,124775,1,0,0:0:0:60:Cymbal.wav
109,192,124775,1,0,0:0:0:60:Kick Hard.wav
36,192,124775,1,0,0:0:0:0:
402,192,124975,1,0,0:0:0:0:
109,192,125075,1,0,0:0:0:60:Kick Hard.wav
36,192,125075,1,0,0:0:0:0:
256,192,125075,1,0,0:0:0:0:
329,192,125175,1,0,0:0:0:0:
109,192,125375,1,0,0:0:0:60:Kick Hard.wav
329,192,125375,1,0,0:0:0:0:
36,192,125375,1,0,0:0:0:0:
402,192,125475,1,0,0:0:0:60:Kick Soft.wav
475,192,125475,1,0,0:0:0:0:
109,192,125675,1,0,0:0:0:60:Kick Hard.wav
36,192,125675,1,0,0:0:0:0:
402,192,125675,1,0,0:0:0:0:
329,192,125775,1,0,0:0:0:0:
256,192,125775,1,0,0:0:0:60:Kick Soft.wav
256,192,125875,1,0,0:0:0:60:Kick Hard.wav
329,192,125875,1,0,0:0:0:0:
475,192,125975,1,0,0:0:0:0:
36,192,125975,1,0,0:0:0:0:
182,192,125975,1,0,0:0:0:80:Snare.wav
109,192,126075,1,0,0:0:0:0:
256,192,126075,1,0,0:0:0:60:Kick Soft.wav
329,192,126175,1,0,0:0:0:0:
475,192,126275,1,0,0:0:0:0:
256,192,126375,1,0,0:0:0:60:Kick Soft.wav
109,192,126375,1,0,0:0:0:0:
402,192,126475,1,0,0:0:0:0:
36,192,126575,128,0,126675:0:0:0:0:
256,192,126575,128,0,126675:0:0:0:60:Kick Soft.wav
182,192,126775,1,0,0:0:0:60:Cymbal.wav
36,192,126775,1,0,0:0:0:0:
402,192,126775,1,0,0:0:0:60:Kick Hard.wav
475,192,126775,1,0,0:0:0:0:
329,192,126975,1,0,0:0:0:0:
402,192,127075,128,0,127275:0:0:0:70:Kick Soft.wav
475,192,127075,128,0,127275:0:0:0:0:
109,192,127075,1,0,0:0:0:0:
182,192,127175,1,0,0:0:0:0:
182,192,127275,1,0,0:0:0:0:
402,192,127375,128,0,127475:0:0:0:70:Kick Soft.wav
475,192,127375,128,0,127475:0:0:0:0:
36,192,127375,1,0,0:0:0:0:
182,192,127475,1,0,0:0:0:0:
109,192,127575,1,0,0:0:0:80:Snare.wav
36,192,127575,1,0,0:0:0:0:
402,192,127575,1,0,0:0:0:0:
36,192,127675,1,0,0:0:0:0:
256,192,127675,1,0,0:0:0:60:Kick Hard.wav
475,192,127675,1,0,0:0:0:0:
329,192,127775,1,0,0:0:0:0:
329,192,127875,1,0,0:0:0:0:
256,192,127975,1,0,0:0:0:60:Kick Hard.wav
182,192,127975,1,0,0:0:0:60:Cymbal.wav
475,192,127975,128,0,128175:0:0:0:0:
402,192,127975,128,0,128175:0:0:0:0:
109,192,128075,128,0,128175:0:0:0:0:
36,192,128175,128,0,128275:0:0:0:0:
329,192,128275,128,0,128475:0:0:0:0:
475,192,128275,128,0,128475:0:0:0:0:
182,192,128275,1,0,0:0:0:60:Kick Hard.wav
36,192,128375,128,0,128475:0:0:0:0:
402,192,128475,1,0,0:0:0:60:Kick Soft.wav
109,192,128475,128,0,128975:0:0:0:0:
329,192,128575,1,0,0:0:0:0:
256,192,128575,1,0,0:0:0:60:Kick Hard.wav
182,192,128575,128,0,128675:0:0:0:0:
475,192,128675,1,0,0:0:0:0:
36,192,128675,128,0,128875:0:0:0:0:
182,192,128775,128,0,129075:0:0:0:0:
329,192,128775,1,0,0:0:0:0:
402,192,128875,1,0,0:0:0:60:Kick Hard.wav
475,192,128875,1,0,0:0:0:0:
256,192,128875,128,0,129075:0:0:0:0:
36,192,128975,128,0,129475:0:0:0:0:
329,192,129075,1,0,0:0:0:0:
475,192,129075,1,0,0:0:0:60:Kick Hard.wav
109,192,129075,128,0,129475:0:0:0:0:
402,192,129175,1,0,0:0:0:80:Snare.wav
182,192,129175,128,0,129275:0:0:0:0:
256,192,129175,128,0,129475:0:0:0:0:
329,192,129275,128,0,129475:0:0:0:0:
475,192,129275,1,0,0:0:0:70:Kick Soft.wav
402,192,129375,128,0,129475:0:0:0:0:
182,192,129375,128,0,129475:0:0:0:0:
475,192,129475,1,0,0:0:0:0:
109,192,129575,1,0,0:0:0:0:
256,192,129575,1,0,0:0:0:80:Snare.wav
475,192,129608,1,0,0:0:0:0:
402,192,129641,1,0,0:0:0:0:
329,192,129675,1,0,0:0:0:0:
36,192,129708,1,0,0:0:0:0:
109,192,129741,1,0,0:0:0:0:
182,192,129775,1,0,0:0:0:0:
256,192,129808,1,0,0:0:0:0:
329,192,129841,1,0,0:0:0:0:
402,192,129875,1,0,0:0:0:0:
182,192,129908,1,0,0:0:0:0:
109,192,129941,1,0,0:0:0:0:
256,192,129975,1,0,0:0:0:35:Cymbal.wav
36,192,129975,1,0,0:0:0:35:Cymbal.wav
475,192,129975,1,0,0:0:0:35:Cymbal.wav
182,192,130475,128,0,130575:0:0:0:0:
256,192,130575,128,0,130675:0:0:0:0:
475,192,130675,128,0,130775:0:0:0:0:
109,192,130775,128,0,130975:0:0:0:0:
182,192,130875,128,0,131075:0:0:0:0:
402,192,130975,128,0,131175:0:0:0:0:
36,192,131075,128,0,131175:0:0:0:0:
109,192,131175,128,0,131275:0:0:0:0:
329,192,131275,128,0,131375:0:0:0:0:
182,192,132075,1,0,0:0:0:0:
182,192,132175,128,0,132375:0:0:0:45:Whistle.wav
329,192,132375,1,0,0:0:0:0:
329,192,132475,128,0,132675:0:0:0:45:Whistle.wav
182,192,132675,1,0,0:0:0:0:
182,192,132775,128,0,132975:0:0:0:45:Whistle.wav
329,192,132975,1,0,0:0:0:45:Whistle.wav
182,192,133025,1,0,0:0:0:45:Whistle.wav
329,192,133075,1,0,0:0:0:45:Whistle.wav
256,192,133125,1,0,0:0:0:0:
182,192,133675,128,0,133775:0:0:0:0:
329,192,133775,128,0,133875:0:0:0:0:
475,192,133875,128,0,133975:0:0:0:0:
109,192,133975,128,0,134175:0:0:0:0:
256,192,134075,128,0,134275:0:0:0:0:
402,192,134175,128,0,134375:0:0:0:0:
36,192,134275,128,0,134375:0:0:0:0:
182,192,134375,128,0,134475:0:0:0:0:
329,192,134475,128,0,134575:0:0:0:0:
256,192,134975,1,0,0:0:0:30:Ping pong.wav
402,192,135025,1,0,0:0:0:30:Ping pong.wav
109,192,135075,1,0,0:0:0:30:Ping pong.wav
256,192,135125,1,0,0:0:0:30:Ping pong.wav
402,192,135175,1,0,0:0:0:30:Ping pong.wav
109,192,135175,1,0,0:0:0:0:
329,192,135275,1,0,0:0:0:0:
182,192,135275,1,0,0:0:0:30:Ping pong.wav
329,192,135375,1,0,0:0:0:30:Ping pong.wav
182,192,135375,1,0,0:0:0:0:
109,192,135575,1,0,0:0:0:0:
329,192,135575,128,0,135775:0:0:0:45:Whistle.wav
475,192,135675,128,0,135775:0:0:0:30:Whistle.wav
109,192,135775,128,0,135875:0:0:0:0:
256,192,135975,128,0,136275:0:0:0:0:
402,192,135975,128,0,136275:0:0:0:45:Whistle.wav
36,192,136175,128,0,136275:0:0:0:0:
475,192,136375,5,0,0:0:0:60:Kick Soft.wav
36,192,136375,1,0,0:0:0:0:
402,192,136408,1,0,0:0:0:60:Kick Soft.wav
329,192,136441,1,0,0:0:0:60:Kick Soft.wav
256,192,136475,1,0,0:0:0:60:Kick Soft.wav
182,192,136508,1,0,0:0:0:60:Kick Soft.wav
109,192,136541,1,0,0:0:0:60:Kick Soft.wav
475,192,136575,1,0,0:0:0:0:
36,192,136575,1,0,0:0:0:60:Kick Hard.wav
182,192,136675,1,0,0:0:0:60:Kick Hard.wav
329,192,136675,1,0,0:0:0:0:
36,192,136775,1,0,0:0:0:80:Snare.wav
402,192,136775,1,0,0:0:0:60:Kick Hard.wav
475,192,136775,1,0,0:0:0:0:
402,192,136875,1,0,0:0:0:60:Kick Hard.wav
475,192,136875,1,0,0:0:0:0:
256,192,136975,1,0,0:0:0:60:Kick Hard.wav
109,192,136975,1,0,0:0:0:0:
329,192,137075,1,0,0:0:0:60:Kick Hard.wav
402,192,137075,1,0,0:0:0:0:
475,192,137175,1,0,0:0:0:80:Snare.wav
109,192,137175,1,0,0:0:0:0:
256,192,137175,1,0,0:0:0:60:Kick Hard.wav
109,192,137275,1,0,0:0:0:0:
256,192,137275,1,0,0:0:0:60:Kick Hard.wav
182,192,137375,1,0,0:0:0:60:Kick Hard.wav
329,192,137375,1,0,0:0:0:0:
36,192,137475,1,0,0:0:0:60:Kick Hard.wav
402,192,137475,1,0,0:0:0:0:
475,192,137575,1,0,0:0:0:0:
329,192,137575,1,0,0:0:0:60:Kick Hard.wav
109,192,137575,1,0,0:0:0:80:Snare.wav
329,192,137675,1,0,0:0:0:60:Kick Hard.wav
402,192,137775,1,0,0:0:0:0:
36,192,137775,1,0,0:0:0:60:Kick Hard.wav
109,192,137875,1,0,0:0:0:60:Kick Hard.wav
402,192,137975,1,0,0:0:0:0:
256,192,137975,1,0,0:0:0:60:Kick Soft.wav
182,192,138008,1,0,0:0:0:60:Kick Soft.wav
109,192,138041,1,0,0:0:0:60:Kick Soft.wav
36,192,138075,1,0,0:0:0:60:Kick Soft.wav
329,192,138108,1,0,0:0:0:60:Kick Soft.wav
402,192,138141,1,0,0:0:0:60:Kick Soft.wav
475,192,138175,1,0,0:0:0:60:Kick Soft.wav
182,192,138175,1,0,0:0:0:60:Kick Soft.wav
256,192,138275,1,0,0:0:0:60:Kick Soft.wav
329,192,138375,1,0,0:0:0:60:Kick Soft.wav
36,192,138375,1,0,0:0:0:80:Snare.wav
329,192,138475,1,0,0:0:0:60:Kick Soft.wav
182,192,138575,1,0,0:0:0:60:Kick Soft.wav
402,192,138575,1,0,0:0:0:0:
182,192,138675,1,0,0:0:0:60:Kick Soft.wav
109,192,138775,1,0,0:0:0:60:Kick Soft.wav
475,192,138775,1,0,0:0:0:50:Snare.wav
109,192,138875,1,0,0:0:0:60:Kick Soft.wav
402,192,138975,1,0,0:0:0:60:Kick Soft.wav
182,192,138975,1,0,0:0:0:0:
402,192,139075,1,0,0:0:0:60:Kick Soft.wav
475,192,139175,1,0,0:0:0:60:Kick Soft.wav
256,192,139175,1,0,0:0:0:30:Snare.wav
475,192,139275,1,0,0:0:0:60:Kick Soft.wav
329,192,139375,1,0,0:0:0:0:
36,192,139375,1,0,0:0:0:60:Kick Soft.wav
36,192,139475,1,0,0:0:0:60:Kick Soft.wav
475,192,139575,1,0,0:0:0:25:Snare.wav
182,192,139575,1,0,0:0:0:0:
402,192,139608,1,0,0:0:0:25:Snare.wav
329,192,139641,1,0,0:0:0:25:Snare.wav
109,192,139675,1,0,0:0:0:25:Snare.wav
182,192,139708,1,0,0:0:0:25:Snare.wav
256,192,139741,1,0,0:0:0:25:Snare.wav
36,192,139775,1,0,0:0:0:30:Kick Soft.wav
475,192,139775,1,0,0:0:0:0:
109,192,139825,1,0,0:0:0:30:Kick Soft.wav
182,192,139875,1,0,0:0:0:30:Kick Soft.wav
402,192,139925,1,0,0:0:0:30:Kick Soft.wav
329,192,139975,1,0,0:0:0:30:Kick Soft.wav
256,192,140025,1,0,0:0:0:30:Kick Soft.wav
36,192,140075,1,0,0:0:0:30:Kick Soft.wav
182,192,140125,1,0,0:0:0:30:Kick Soft.wav
329,192,140175,1,0,0:0:0:30:Kick Soft.wav
475,192,140225,1,0,0:0:0:30:Kick Soft.wav
109,192,140275,1,0,0:0:0:30:Kick Soft.wav
256,192,140325,1,0,0:0:0:30:Kick Soft.wav
402,192,140375,1,0,0:0:0:0:
36,192,140375,1,0,0:0:0:25:Snare.wav
109,192,140408,1,0,0:0:0:25:Snare.wav
182,192,140441,1,0,0:0:0:25:Snare.wav
475,192,140475,1,0,0:0:0:25:Snare.wav
402,192,140508,1,0,0:0:0:25:Snare.wav
329,192,140541,1,0,0:0:0:25:Snare.wav
256,192,140575,1,0,0:0:0:30:Kick Soft.wav
109,192,140575,1,0,0:0:0:0:
36,192,140625,1,0,0:0:0:30:Kick Soft.wav
329,192,140675,1,0,0:0:0:30:Kick Soft.wav
402,192,140725,1,0,0:0:0:30:Kick Soft.wav
475,192,140775,1,0,0:0:0:30:Kick Soft.wav
36,192,140775,1,0,0:0:0:25:Snare.wav
109,192,140800,5,0,0:0:0:25:Snare.wav
182,192,140825,1,0,0:0:0:25:Snare.wav
256,192,140850,1,0,0:0:0:25:Snare.wav
329,192,140875,1,0,0:0:0:30:Kick Soft.wav
36,192,140925,1,0,0:0:0:30:Kick Soft.wav
475,192,140975,1,0,0:0:0:25:Snare.wav
109,192,140975,1,0,0:0:0:0:
402,192,141000,1,0,0:0:0:25:Snare.wav
329,192,141025,1,0,0:0:0:25:Snare.wav
256,192,141050,1,0,0:0:0:25:Snare.wav
182,192,141075,1,0,0:0:0:30:Kick Soft.wav
475,192,141125,1,0,0:0:0:30:Kick Soft.wav
402,192,141175,1,0,0:0:0:30:Kick Soft.wav
36,192,141975,128,0,142075:0:0:0:0:
329,192,142075,128,0,142175:0:0:0:45:Whistle.wav
182,192,142175,128,0,142275:0:0:0:0:
475,192,142275,128,0,142375:0:0:0:45:Whistle.wav
256,192,142375,1,0,0:0:0:0:
109,192,142425,1,0,0:0:0:0:
402,192,142475,1,0,0:0:0:0:
182,192,142525,1,0,0:0:0:0:
329,192,142575,1,0,0:0:0:0:
256,192,142625,1,0,0:0:0:0:
182,192,142675,1,0,0:0:0:0:
329,192,142725,1,0,0:0:0:0:
402,192,142775,128,0,142975:0:0:0:60:Kick Hard.wav
475,192,142775,128,0,142975:0:0:0:0:
109,192,142775,128,0,142975:0:0:0:60:Cymbal.wav
36,192,142775,128,0,142975:0:0:0:0:
329,192,143175,1,0,0:0:0:0:
109,192,143175,1,0,0:0:0:0:
182,192,143225,1,0,0:0:0:0:
402,192,143275,1,0,0:0:0:0:
256,192,143275,1,0,0:0:0:0:
109,192,143325,1,0,0:0:0:0:
402,192,143375,1,0,0:0:0:0:
329,192,143375,1,0,0:0:0:0:
256,192,143425,1,0,0:0:0:0:
109,192,143475,1,0,0:0:0:0:
182,192,143475,1,0,0:0:0:0:
329,192,143525,1,0,0:0:0:0:
36,192,143575,1,0,0:0:0:80:Snare.wav
182,192,143575,1,0,0:0:0:0:
256,192,143575,1,0,0:0:0:0:
475,192,143675,1,0,0:0:0:60:Kick Soft.wav
329,192,143675,1,0,0:0:0:0:
182,192,143725,1,0,0:0:0:0:
475,192,143775,1,0,0:0:0:0:
329,192,143775,1,0,0:0:0:0:
256,192,143875,1,0,0:0:0:0:
109,192,143875,1,0,0:0:0:0:
36,192,143975,1,0,0:0:0:0:
475,192,143975,1,0,0:0:0:60:Kick Hard.wav
402,192,143975,1,0,0:0:0:0:
329,192,144075,1,0,0:0:0:0:
182,192,144075,1,0,0:0:0:0:
182,192,144175,1,0,0:0:0:0:
329,192,144175,1,0,0:0:0:0:
182,192,144275,128,0,144375:0:0:0:60:Kick Hard.wav
329,192,144275,128,0,144375:0:0:0:0:
182,192,144475,1,0,0:0:0:0:
329,192,144475,1,0,0:0:0:0:
402,192,144575,1,0,0:0:0:60:Kick Hard.wav
109,192,144575,1,0,0:0:0:0:
109,192,144675,1,0,0:0:0:0:
402,192,144675,1,0,0:0:0:0:
182,192,144775,1,0,0:0:0:0:
36,192,144775,1,0,0:0:0:60:Kick Hard.wav
475,192,144775,1,0,0:0:0:0:
402,192,144825,1,0,0:0:0:0:
109,192,144875,1,0,0:0:0:60:Kick Soft.wav
256,192,144875,1,0,0:0:0:0:
329,192,144925,1,0,0:0:0:0:
402,192,144975,1,0,0:0:0:0:
109,192,144975,1,0,0:0:0:0:
182,192,145025,1,0,0:0:0:0:
475,192,145075,1,0,0:0:0:60:Kick Soft.wav
256,192,145075,1,0,0:0:0:0:
36,192,145125,1,0,0:0:0:0:
475,192,145175,1,0,0:0:0:80:Snare.wav
329,192,145175,1,0,0:0:0:0:
182,192,145175,1,0,0:0:0:0:
36,192,145275,128,0,145875:0:0:0:0:
109,192,145325,128,0,145875:0:0:0:0:
475,192,145375,128,0,145575:0:0:0:60:Cymbal.wav
256,192,145375,128,0,145675:0:0:0:0:
402,192,145375,128,0,145575:0:0:0:60:Cymbal.wav
402,192,145675,128,0,145875:0:0:0:0:
182,192,145675,128,0,145875:0:0:0:60:Kick Hard.wav
329,192,145775,128,0,145875:0:0:0:0:
475,192,145775,128,0,145875:0:0:0:0:
109,192,145975,1,0,0:0:0:60:Kick Hard.wav
36,192,145975,1,0,0:0:0:0:
475,192,145975,1,0,0:0:0:0:
402,192,145975,1,0,0:0:0:60:Kick Hard.wav
36,192,146175,128,0,146275:0:0:0:0:
475,192,146175,128,0,146275:0:0:0:0:
256,192,146175,128,0,146275:0:0:0:70:Whistle.wav
475,192,146375,128,0,146675:0:0:0:0:
36,192,146375,128,0,146675:0:0:0:0:
256,192,146375,128,0,146675:0:0:0:70:Whistle.wav
475,192,146775,1,0,0:0:0:0:
256,192,146775,1,0,0:0:0:80:Snare.wav
36,192,146775,1,0,0:0:0:0:
109,192,146875,1,0,0:0:0:60:Kick Soft.wav
182,192,146875,1,0,0:0:0:0:
329,192,146925,1,0,0:0:0:0:
109,192,146975,1,0,0:0:0:0:
182,192,146975,1,0,0:0:0:0:
402,192,147075,1,0,0:0:0:0:
256,192,147075,1,0,0:0:0:0:
182,192,147175,1,0,0:0:0:0:
475,192,147175,1,0,0:0:0:60:Kick Hard.wav
36,192,147175,1,0,0:0:0:0:
402,192,147275,1,0,0:0:0:0:
109,192,147275,1,0,0:0:0:0:
109,192,147375,1,0,0:0:0:0:
402,192,147375,1,0,0:0:0:0:
109,192,147475,128,0,147575:0:0:0:0:
402,192,147475,128,0,147575:0:0:0:60:Kick Hard.wav
402,192,147675,1,0,0:0:0:0:
109,192,147675,1,0,0:0:0:0:
329,192,147775,1,0,0:0:0:0:
182,192,147775,1,0,0:0:0:60:Kick Hard.wav
182,192,147875,1,0,0:0:0:0:
329,192,147875,1,0,0:0:0:0:
256,192,147975,1,0,0:0:0:0:
475,192,147975,1,0,0:0:0:0:
36,192,147975,1,0,0:0:0:60:Kick Hard.wav
329,192,148025,1,0,0:0:0:0:
402,192,148075,1,0,0:0:0:0:
109,192,148075,1,0,0:0:0:60:Kick Soft.wav
182,192,148125,1,0,0:0:0:0:
402,192,148175,1,0,0:0:0:0:
256,192,148175,1,0,0:0:0:0:
182,192,148225,1,0,0:0:0:0:
109,192,148275,1,0,0:0:0:0:
329,192,148275,1,0,0:0:0:60:Kick Soft.wav
256,192,148325,1,0,0:0:0:0:
36,192,148375,1,0,0:0:0:0:
109,192,148375,1,0,0:0:0:0:
475,192,148375,1,0,0:0:0:80:Snare.wav
182,192,148475,128,0,149075:0:0:0:0:
109,192,148525,128,0,149075:0:0:0:0:
36,192,148575,128,0,149075:0:0:0:0:
329,192,148575,128,0,148975:0:0:0:60:Kick Hard.wav
475,192,148575,128,0,148925:0:0:0:0:
475,192,148975,1,0,0:0:0:0:
402,192,149025,1,0,0:0:0:0:
329,192,149075,1,0,0:0:0:0:
402,192,149125,1,0,0:0:0:0:
475,192,149175,128,0,149375:0:0:0:0:
256,192,149175,128,0,149375:0:0:0:60:Kick Hard.wav
36,192,149175,128,0,149375:0:0:0:0:
109,192,149175,128,0,149375:0:0:0:60:Cymbal.wav
475,192,149475,1,0,0:0:0:0:
36,192,149475,1,0,0:0:0:0:
182,192,149475,1,0,0:0:0:60:Kick Hard.wav
402,192,149575,128,0,149675:0:0:0:70:Whistle.wav
256,192,149575,128,0,149675:0:0:0:70:Whistle.wav
475,192,149775,128,0,149875:0:0:0:0:
109,192,149775,1,0,0:0:0:60:Kick Hard.wav
329,192,149775,128,0,149875:0:0:0:0:
36,192,149875,1,0,0:0:0:0:
329,192,149975,128,0,150075:0:0:0:70:Whistle.wav
182,192,149975,128,0,150075:0:0:0:70:Whistle.wav
109,192,150075,1,0,0:0:0:0:
36,192,150075,1,0,0:0:0:0:
475,192,150075,1,0,0:0:0:60:Kick Hard.wav
402,192,150175,128,0,150275:0:0:0:0:
256,192,150175,128,0,150275:0:0:0:0:
109,192,150375,128,0,150475:0:0:0:0:
475,192,150375,1,0,0:0:0:60:Kick Hard.wav
256,192,150375,1,0,0:0:0:70:Whistle.wav
329,192,150425,1,0,0:0:0:70:Whistle.wav
475,192,150475,1,0,0:0:0:70:Whistle.wav
402,192,150525,1,0,0:0:0:70:Whistle.wav
329,192,150575,128,0,150675:0:0:0:0:
36,192,150575,1,0,0:0:0:60:Kick Soft.wav
182,192,150575,128,0,150675:0:0:0:0:
109,192,150775,128,0,150875:0:0:0:70:Whistle.wav
256,192,150775,128,0,150875:0:0:0:70:Whistle.wav
475,192,150775,1,0,0:0:0:60:Kick Hard.wav
182,192,150975,128,0,151075:0:0:0:0:
329,192,150975,128,0,151075:0:0:0:0:
402,192,151075,1,0,0:0:0:60:Kick Hard.wav
475,192,151075,1,0,0:0:0:0:
256,192,151075,1,0,0:0:0:0:
36,192,151175,128,0,151275:0:0:0:70:Whistle.wav
182,192,151175,128,0,151275:0:0:0:70:Whistle.wav
256,192,151375,128,0,151475:0:0:0:0:
109,192,151375,128,0,151475:0:0:0:0:
402,192,151375,1,0,0:0:0:60:Kick Hard.wav
36,192,151475,1,0,0:0:0:0:
402,192,151575,128,0,151675:0:0:0:70:Whistle.wav
475,192,151575,128,0,151675:0:0:0:70:Whistle.wav
182,192,151675,1,0,0:0:0:60:Kick Hard.wav
109,192,151675,1,0,0:0:0:0:
36,192,151675,1,0,0:0:0:0:
402,192,151775,128,0,151875:0:0:0:0:
256,192,151775,128,0,151875:0:0:0:0:
475,192,151975,1,0,0:0:0:70:Whistle.wav
256,192,151975,1,0,0:0:0:60:Kick Hard.wav
109,192,151975,128,0,152075:0:0:0:0:
402,192,152025,1,0,0:0:0:70:Whistle.wav
182,192,152075,1,0,0:0:0:70:Whistle.wav
256,192,152125,1,0,0:0:0:70:Whistle.wav
109,192,152175,128,0,152275:0:0:0:0:
36,192,152175,128,0,152275:0:0:0:0:
329,192,152175,1,0,0:0:0:60:Kick Soft.wav
475,192,152375,128,0,152575:0:0:0:60:Kick Hard.wav
182,192,152375,128,0,152575:0:0:0:0:
109,192,152375,128,0,152575:0:0:0:60:Cymbal.wav
402,192,152375,128,0,152575:0:0:0:0:
182,192,152675,1,0,0:0:0:60:Kick Hard.wav
36,192,152675,1,0,0:0:0:0:
329,192,152675,1,0,0:0:0:0:
402,192,152775,128,0,152875:0:0:0:70:Whistle.wav
256,192,152775,128,0,152875:0:0:0:70:Whistle.wav
329,192,152975,128,0,153075:0:0:0:0:
475,192,152975,128,0,153075:0:0:0:0:
36,192,152975,1,0,0:0:0:60:Kick Hard.wav
182,192,153075,1,0,0:0:0:60:Kick Soft.wav
109,192,153175,128,0,153275:0:0:0:70:Whistle.wav
256,192,153175,128,0,153275:0:0:0:70:Whistle.wav
402,192,153275,1,0,0:0:0:60:Kick Hard.wav
475,192,153275,1,0,0:0:0:0:
36,192,153275,1,0,0:0:0:0:
329,192,153375,128,0,153475:0:0:0:0:
182,192,153375,128,0,153475:0:0:0:0:
475,192,153575,1,0,0:0:0:60:Kick Hard.wav
329,192,153575,1,0,0:0:0:70:Whistle.wav
109,192,153575,128,0,153675:0:0:0:0:
256,192,153625,1,0,0:0:0:70:Whistle.wav
329,192,153675,1,0,0:0:0:70:Whistle.wav
402,192,153725,1,0,0:0:0:70:Whistle.wav
182,192,153775,128,0,153875:0:0:0:0:
36,192,153775,128,0,153875:0:0:0:0:
109,192,153775,1,0,0:0:0:60:Kick Soft.wav
402,192,153975,128,0,154175:0:0:0:0:
475,192,153975,128,0,154175:0:0:0:0:
256,192,153975,128,0,154175:0:0:0:60:Kick Hard.wav
36,192,153975,128,0,154175:0:0:0:60:Cymbal.wav
182,192,154175,1,0,0:0:0:0:
329,192,154275,1,0,0:0:0:60:Kick Hard.wav
402,192,154275,1,0,0:0:0:0:
36,192,154275,1,0,0:0:0:0:
109,192,154275,1,0,0:0:0:60:Cymbal.wav
182,192,154375,1,0,0:0:0:0:
329,192,154475,1,0,0:0:0:0:
36,192,154475,1,0,0:0:0:0:
256,192,154475,1,0,0:0:0:60:Kick Hard.wav
402,192,154575,1,0,0:0:0:0:
329,192,154575,1,0,0:0:0:60:Kick Hard.wav
109,192,154575,1,0,0:0:0:0:
182,192,154675,1,0,0:0:0:0:
402,192,154675,1,0,0:0:0:60:Kick Hard.wav
475,192,154675,1,0,0:0:0:0:
329,192,154775,128,0,155475:0:0:0:0:
109,192,154775,128,0,155475:0:0:0:60:Kick Hard.wav
36,192,154775,128,0,155475:0:0:0:0:
402,192,155575,128,0,155875:0:0:0:60:Cymbal.wav
475,192,155575,128,0,155875:0:0:0:0:
109,192,155575,128,0,155875:0:0:0:0:
256,192,155575,128,0,155875:0:0:0:60:Kick Hard.wav
36,192,155675,128,0,155875:0:0:0:0:
182,192,155775,128,0,155875:0:0:0:0:
109,192,155975,128,0,156275:0:0:0:0:
475,192,155975,128,0,156275:0:0:0:0:
402,192,155975,128,0,156275:0:0:0:60:Cymbal.wav
256,192,155975,128,0,156275:0:0:0:60:Kick Hard.wav
182,192,156075,128,0,156275:0:0:0:0:
329,192,156175,128,0,156275:0:0:0:0:
402,192,156375,1,0,0:0:0:0:
182,192,156375,1,0,0:0:0:80:Snare.wav
36,192,156375,1,0,0:0:0:0:
256,192,156475,1,0,0:0:0:0:
475,192,156475,1,0,0:0:0:0:
109,192,156525,1,0,0:0:0:0:
256,192,156575,1,0,0:0:0:0:
475,192,156575,1,0,0:0:0:0:
182,192,156675,1,0,0:0:0:0:
329,192,156675,1,0,0:0:0:0:
475,192,156775,1,0,0:0:0:0:
256,192,156775,1,0,0:0:0:60:Kick Hard.wav
36,192,156775,1,0,0:0:0:0:
109,192,156875,1,0,0:0:0:0:
402,192,156875,1,0,0:0:0:0:
402,192,156975,1,0,0:0:0:0:
109,192,156975,1,0,0:0:0:0:
109,192,157075,128,0,157175:0:0:0:0:
402,192,157075,128,0,157175:0:0:0:60:Kick Soft.wav
402,192,157275,1,0,0:0:0:0:
109,192,157275,1,0,0:0:0:0:
182,192,157375,1,0,0:0:0:60:Kick Soft.wav
329,192,157375,1,0,0:0:0:0:
182,192,157475,1,0,0:0:0:0:
329,192,157475,1,0,0:0:0:0:
475,192,157575,1,0,0:0:0:60:Kick Hard.wav
109,192,157575,1,0,0:0:0:0:
256,192,157575,1,0,0:0:0:0:
402,192,157625,1,0,0:0:0:0:
182,192,157675,1,0,0:0:0:0:
109,192,157675,1,0,0:0:0:60:Kick Soft.wav
402,192,157725,1,0,0:0:0:0:
475,192,157775,1,0,0:0:0:0:
256,192,157775,1,0,0:0:0:0:
36,192,157825,1,0,0:0:0:0:
182,192,157875,1,0,0:0:0:0:
329,192,157875,1,0,0:0:0:60:Kick Soft.wav
475,192,157925,1,0,0:0:0:0:
182,192,157975,1,0,0:0:0:0:
109,192,157975,1,0,0:0:0:80:Snare.wav
36,192,157975,1,0,0:0:0:0:
402,192,158075,128,0,158675:0:0:0:0:
475,192,158125,128,0,158675:0:0:0:0:
256,192,158175,128,0,158475:0:0:0:0:
182,192,158175,128,0,158375:0:0:0:60:Cymbal.wav
36,192,158175,128,0,158375:0:0:0:60:Cymbal.wav
182,192,158475,128,0,158675:0:0:0:60:Kick Hard.wav
109,192,158475,128,0,158675:0:0:0:0:
36,192,158475,128,0,158675:0:0:0:0:
329,192,158475,128,0,158675:0:0:0:0:
475,192,158775,128,0,158875:0:0:0:0:
329,192,158775,128,0,158875:0:0:0:70:Whistle.wav
36,192,158775,128,0,158875:0:0:0:60:Cymbal.wav
256,192,158775,1,0,0:0:0:60:Kick Hard.wav
475,192,158975,128,0,159075:0:0:0:0:
36,192,158975,128,0,159075:0:0:0:60:Cymbal.wav
256,192,158975,128,0,159075:0:0:0:70:Whistle.wav
182,192,158975,1,0,0:0:0:60:Kick Hard.wav
182,192,159175,128,0,159475:0:0:0:70:Whistle.wav
36,192,159175,128,0,159475:0:0:0:60:Cymbal.wav
475,192,159175,128,0,159475:0:0:0:0:
329,192,159175,1,0,0:0:0:60:Kick Hard.wav
182,192,159575,1,0,0:0:0:80:Snare.wav
36,192,159575,1,0,0:0:0:0:
402,192,159575,1,0,0:0:0:0:
402,192,159675,128,0,159975:0:0:0:0:
256,192,159675,1,0,0:0:0:0:
182,192,159725,1,0,0:0:0:0:
256,192,159775,128,0,159975:0:0:0:0:
109,192,159775,1,0,0:0:0:0:
109,192,159875,128,0,159975:0:0:0:0:
329,192,159975,1,0,0:0:0:60:Kick Hard.wav
182,192,159975,1,0,0:0:0:0:
36,192,159975,1,0,0:0:0:0:
329,192,160075,1,0,0:0:0:0:
182,192,160075,1,0,0:0:0:0:
402,192,160175,1,0,0:0:0:0:
109,192,160175,1,0,0:0:0:0:
109,192,160275,128,0,160375:0:0:0:60:Kick Soft.wav
402,192,160275,128,0,160375:0:0:0:0:
402,192,160475,1,0,0:0:0:0:
109,192,160475,1,0,0:0:0:0:
182,192,160575,1,0,0:0:0:0:
475,192,160575,1,0,0:0:0:60:Kick Soft.wav
475,192,160675,1,0,0:0:0:0:
182,192,160675,1,0,0:0:0:0:
109,192,160775,1,0,0:0:0:0:
36,192,160775,1,0,0:0:0:0:
256,192,160775,1,0,0:0:0:60:Kick Hard.wav
402,192,160825,1,0,0:0:0:0:
329,192,160875,1,0,0:0:0:60:Kick Soft.wav
182,192,160875,1,0,0:0:0:0:
109,192,160925,1,0,0:0:0:0:
329,192,160975,1,0,0:0:0:0:
475,192,160975,1,0,0:0:0:0:
109,192,161025,1,0,0:0:0:0:
182,192,161075,1,0,0:0:0:0:
402,192,161075,1,0,0:0:0:60:Kick Soft.wav
329,192,161125,1,0,0:0:0:0:
109,192,161175,1,0,0:0:0:80:Snare.wav
256,192,161175,1,0,0:0:0:0:
36,192,161175,1,0,0:0:0:0:
329,192,161275,128,0,161875:0:0:0:0:
475,192,161325,128,0,161875:0:0:0:0:
256,192,161375,128,0,161875:0:0:0:0:
182,192,161375,128,0,161775:0:0:0:60:Kick Hard.wav
36,192,161375,128,0,161725:0:0:0:0:
36,192,161775,1,0,0:0:0:0:
109,192,161825,1,0,0:0:0:0:
182,192,161875,1,0,0:0:0:0:
109,192,161925,1,0,0:0:0:0:
402,192,161975,128,0,162175:0:0:0:60:Cymbal.wav
475,192,161975,128,0,162175:0:0:0:0:
256,192,161975,128,0,162175:0:0:0:60:Kick Hard.wav
36,192,161975,128,0,162175:0:0:0:0:
402,192,162275,1,0,0:0:0:0:
36,192,162275,1,0,0:0:0:0:
475,192,162275,1,0,0:0:0:60:Kick Hard.wav
329,192,162375,128,0,162475:0:0:0:70:Whistle.wav
256,192,162375,128,0,162475:0:0:0:70:Whistle.wav
402,192,162575,128,0,162675:0:0:0:0:
475,192,162575,128,0,162675:0:0:0:0:
109,192,162575,1,0,0:0:0:60:Kick Hard.wav
36,192,162675,1,0,0:0:0:0:
182,192,162775,128,0,162875:0:0:0:70:Whistle.wav
256,192,162775,128,0,162875:0:0:0:70:Whistle.wav
475,192,162875,1,0,0:0:0:0:
109,192,162875,1,0,0:0:0:0:
36,192,162875,1,0,0:0:0:60:Kick Hard.wav
329,192,162975,128,0,163075:0:0:0:0:
402,192,162975,128,0,163075:0:0:0:0:
402,192,163175,1,0,0:0:0:70:Whistle.wav
109,192,163175,128,0,163275:0:0:0:0:
182,192,163175,1,0,0:0:0:60:Kick Hard.wav
329,192,163225,1,0,0:0:0:70:Whistle.wav
475,192,163275,1,0,0:0:0:70:Whistle.wav
402,192,163325,1,0,0:0:0:70:Whistle.wav
256,192,163375,128,0,163475:0:0:0:0:
329,192,163375,128,0,163475:0:0:0:0:
36,192,163375,1,0,0:0:0:60:Kick Soft.wav
256,192,163575,128,0,163675:0:0:0:70:Whistle.wav
182,192,163575,128,0,163675:0:0:0:70:Whistle.wav
475,192,163575,1,0,0:0:0:60:Kick Hard.wav
109,192,163775,128,0,163875:0:0:0:0:
36,192,163775,128,0,163875:0:0:0:0:
402,192,163875,1,0,0:0:0:60:Kick Hard.wav
475,192,163875,1,0,0:0:0:0:
182,192,163875,1,0,0:0:0:0:
329,192,163975,128,0,164075:0:0:0:70:Whistle.wav
256,192,163975,128,0,164075:0:0:0:70:Whistle.wav
182,192,164175,128,0,164275:0:0:0:0:
109,192,164175,128,0,164275:0:0:0:0:
402,192,164175,1,0,0:0:0:60:Kick Hard.wav
256,192,164275,1,0,0:0:0:0:
329,192,164375,128,0,164475:0:0:0:70:Whistle.wav
475,192,164375,128,0,164475:0:0:0:70:Whistle.wav
182,192,164475,1,0,0:0:0:60:Kick Hard.wav
36,192,164475,1,0,0:0:0:0:
402,192,164475,1,0,0:0:0:0:
109,192,164575,128,0,164675:0:0:0:0:
256,192,164575,128,0,164675:0:0:0:0:
36,192,164775,1,0,0:0:0:60:Kick Hard.wav
402,192,164775,128,0,164875:0:0:0:0:
109,192,164775,1,0,0:0:0:70:Whistle.wav
256,192,164825,1,0,0:0:0:70:Whistle.wav
182,192,164875,1,0,0:0:0:70:Whistle.wav
329,192,164925,1,0,0:0:0:70:Whistle.wav
182,192,164975,128,0,165075:0:0:0:0:
36,192,164975,128,0,165075:0:0:0:0:
475,192,164975,1,0,0:0:0:60:Kick Soft.wav
329,192,165175,1,0,0:0:0:60:Kick Hard.wav
475,192,165175,1,0,0:0:0:0:
109,192,165175,1,0,0:0:0:0:
36,192,165175,1,0,0:0:0:0:
182,192,165275,128,0,165375:0:0:0:60:Kick Hard.wav
402,192,165275,128,0,165375:0:0:0:0:
475,192,165275,128,0,165375:0:0:0:0:
329,192,165475,128,0,165575:0:0:0:60:Kick Hard.wav
109,192,165475,128,0,165575:0:0:0:0:
36,192,165475,128,0,165575:0:0:0:0:
329,192,165675,1,0,0:0:0:0:
109,192,165675,1,0,0:0:0:0:
36,192,165675,1,0,0:0:0:60:Kick Hard.wav
109,192,165775,1,0,0:0:0:60:Kick Hard.wav
182,192,165775,1,0,0:0:0:0:
402,192,165775,1,0,0:0:0:0:
475,192,165875,128,0,165975:0:0:0:0:
182,192,165875,128,0,165975:0:0:0:60:Kick Hard.wav
256,192,165875,128,0,165975:0:0:0:0:
402,192,166075,128,0,166175:0:0:0:60:Kick Hard.wav
256,192,166075,128,0,166175:0:0:0:0:
109,192,166075,128,0,166175:0:0:0:0:
182,192,166275,1,0,0:0:0:0:
402,192,166275,1,0,0:0:0:0:
475,192,166275,1,0,0:0:0:60:Kick Hard.wav
329,192,166375,1,0,0:0:0:0:
402,192,166375,1,0,0:0:0:60:Kick Hard.wav
109,192,166375,1,0,0:0:0:0:
256,192,166475,128,0,166575:0:0:0:60:Kick Hard.wav
36,192,166475,128,0,166575:0:0:0:0:
329,192,166475,128,0,166575:0:0:0:0:
402,192,166575,1,0,0:0:0:0:
475,192,166575,1,0,0:0:0:60:Kick Soft.wav
182,192,166675,128,0,166775:0:0:0:60:Kick Hard.wav
256,192,166675,128,0,166775:0:0:0:0:
36,192,166675,128,0,166775:0:0:0:0:
329,192,166775,1,0,0:0:0:0:
402,192,166775,1,0,0:0:0:60:Kick Soft.wav
475,192,166875,1,0,0:0:0:0:
109,192,166875,1,0,0:0:0:0:
36,192,166875,1,0,0:0:0:60:Kick Hard.wav
109,192,166975,1,0,0:0:0:60:Kick Hard.wav
182,192,166975,1,0,0:0:0:0:
329,192,166975,1,0,0:0:0:0:
329,192,167075,1,0,0:0:0:0:
402,192,167075,1,0,0:0:0:60:Kick Hard.wav
182,192,167075,1,0,0:0:0:0:
36,192,167175,128,0,167275:0:0:0:0:
402,192,167175,128,0,167275:0:0:0:0:
475,192,167175,128,0,167275:0:0:0:60:Kick Hard.wav
182,192,167275,1,0,0:0:0:0:
256,192,167275,1,0,0:0:0:60:Kick Soft.wav
109,192,167375,128,0,167475:0:0:0:60:Kick Hard.wav
475,192,167375,128,0,167475:0:0:0:0:
36,192,167375,128,0,167475:0:0:0:0:
329,192,167475,1,0,0:0:0:0:
256,192,167475,1,0,0:0:0:60:Kick Soft.wav
475,192,167575,128,0,168375:0:0:0:0:
329,192,167575,128,0,168375:0:0:0:0:
402,192,167575,128,0,168375:0:0:0:70:Whistle.wav
36,192,167575,1,0,0:0:0:60:Kick Hard.wav
256,192,167675,1,0,0:0:0:70:Whistle.wav
182,192,167725,1,0,0:0:0:0:
256,192,167775,128,0,168275:0:0:0:70:Whistle.wav
182,192,167875,1,0,0:0:0:60:Whistle.wav
182,192,167975,128,0,168275:0:0:0:60:Whistle.wav
109,192,168075,1,0,0:0:0:40:Whistle.wav
109,192,168175,128,0,168275:0:0:0:40:Whistle.wav
36,192,168275,1,0,0:0:0:40:Whistle.wav
109,192,168375,1,0,0:0:0:0:
36,192,168375,1,0,0:0:0:60:Kick Hard.wav
256,192,168375,1,0,0:0:0:0:
182,192,168375,1,0,0:0:0:60:Cymbal.wav
256,192,168675,1,0,0:0:0:0:
329,192,168775,1,0,0:0:0:0:
256,192,168875,128,0,168975:0:0:0:0:
329,192,168975,128,0,169075:0:0:0:0:
475,192,169075,128,0,169175:0:0:0:0:
182,192,169175,128,0,169375:0:0:0:0:
256,192,169275,128,0,169475:0:0:0:0:
402,192,169375,128,0,169575:0:0:0:0:
109,192,169475,128,0,169575:0:0:0:0:
182,192,169575,128,0,169675:0:0:0:0:
329,192,169675,128,0,169775:0:0:0:0:
182,192,169775,1,0,0:0:0:0:
329,192,169875,1,0,0:0:0:0:
109,192,169975,1,0,0:0:0:0:
256,192,170275,1,0,0:0:0:0:
256,192,170475,1,0,0:0:0:0:
402,192,170575,1,0,0:0:0:0:
475,192,170675,128,0,170775:0:0:0:0:
182,192,170875,128,0,170975:0:0:0:0:
402,192,171075,128,0,171175:0:0:0:0:
109,192,171275,128,0,171375:0:0:0:0:
329,192,171475,128,0,171575:0:0:0:0:
36,192,171575,1,0,0:0:0:0:
256,192,171875,1,0,0:0:0:0:
329,192,171975,1,0,0:0:0:0:
256,192,172075,128,0,172175:0:0:0:0:
329,192,172175,128,0,172275:0:0:0:0:
475,192,172275,128,0,172375:0:0:0:0:
182,192,172375,128,0,172575:0:0:0:0:
256,192,172475,128,0,172675:0:0:0:0:
402,192,172575,128,0,172775:0:0:0:0:
109,192,172675,128,0,172775:0:0:0:0:
182,192,172775,128,0,172875:0:0:0:0:
329,192,172875,128,0,172975:0:0:0:0:
182,192,172975,1,0,0:0:0:0:
329,192,173075,1,0,0:0:0:0:
109,192,173175,1,0,0:0:0:0:
256,192,173475,1,0,0:0:0:0:
256,192,173675,1,0,0:0:0:0:
402,192,173775,1,0,0:0:0:0:
475,192,173875,128,0,173975:0:0:0:0:
182,192,174075,128,0,174175:0:0:0:0:
402,192,174275,128,0,174375:0:0:0:0:
109,192,174475,128,0,174575:0:0:0:0:
329,192,174675,128,0,174775:0:0:0:0:
36,192,174775,1,0,0:0:0:0:
256,192,175075,1,0,0:0:0:0:
329,192,175175,1,0,0:0:0:0:
256,192,175275,128,0,175375:0:0:0:0:
329,192,175375,128,0,175475:0:0:0:0:
475,192,175475,128,0,175575:0:0:0:0:
182,192,175575,128,0,175775:0:0:0:0:
256,192,175675,128,0,175875:0:0:0:0:
402,192,175775,128,0,175975:0:0:0:0:
109,192,175875,128,0,175975:0:0:0:0:
182,192,175975,128,0,176075:0:0:0:0:
329,192,176075,128,0,176175:0:0:0:0:
182,192,176175,1,0,0:0:0:0:
329,192,176275,1,0,0:0:0:0:
109,192,176375,1,0,0:0:0:0:
256,192,176675,1,0,0:0:0:0:
256,192,176875,1,0,0:0:0:0:
402,192,176975,1,0,0:0:0:0:
475,192,177075,128,0,177175:0:0:0:0:
182,192,177275,1,0,0:0:0:0:
402,192,177475,128,0,177575:0:0:0:0:
109,192,177675,1,0,0:0:0:0:
329,192,177875,128,0,177975:0:0:0:0:
256,192,178275,1,0,0:0:0:0:
329,192,178375,1,0,0:0:0:0:
256,192,178475,128,0,178575:0:0:0:0:
329,192,178575,128,0,178675:0:0:0:0:
475,192,178675,128,0,178775:0:0:0:0:
182,192,178775,128,0,178975:0:0:0:0:
256,192,178875,128,0,179075:0:0:0:0:
402,192,178975,128,0,179175:0:0:0:0:
109,192,179075,128,0,179175:0:0:0:0:
182,192,179175,128,0,179275:0:0:0:0:
329,192,179275,128,0,179375:0:0:0:0:
182,192,179375,1,0,0:0:0:0:
329,192,179475,1,0,0:0:0:0:
256,192,179875,1,0,0:0:0:0:
256,192,180075,1,0,0:0:0:0:
402,192,180175,1,0,0:0:0:0:
475,192,180275,1,0,0:0:0:0:
182,192,180475,1,0,0:0:0:0:
402,192,180675,1,0,0:0:0:0:
109,192,180875,1,0,0:0:0:0:
329,192,181075,1,0,0:0:0:0:
256,192,181675,128,0,181775:0:0:0:0:
329,192,181775,128,0,181875:0:0:0:0:
475,192,181875,128,0,181975:0:0:0:0:
182,192,181975,128,0,182175:0:0:0:0:
256,192,182075,128,0,182275:0:0:0:0:
402,192,182175,128,0,182375:0:0:0:0:
109,192,182275,128,0,182375:0:0:0:0:
182,192,182375,128,0,182475:0:0:0:0:
329,192,182475,128,0,182575:0:0:0:0:
182,192,184875,128,0,184975:0:0:0:0:
256,192,184975,128,0,185075:0:0:0:0:
402,192,185075,128,0,185175:0:0:0:0:
109,192,185175,128,0,185375:0:0:0:0:
182,192,185275,128,0,185475:0:0:0:0:
329,192,185375,128,0,185575:0:0:0:0:
36,192,185475,128,0,185575:0:0:0:0:
109,192,185575,128,0,185675:0:0:0:0:
256,192,185675,128,0,185775:0:0:0:0:
256,192,188075,128,0,188175:0:0:0:0:
329,192,188175,128,0,188275:0:0:0:0:
475,192,188275,128,0,188375:0:0:0:0:
182,192,188375,128,0,188575:0:0:0:0:
256,192,188475,128,0,188675:0:0:0:0:
402,192,188575,128,0,188775:0:0:0:0:
109,192,188675,128,0,188775:0:0:0:0:
182,192,188775,128,0,188875:0:0:0:0:
329,192,188875,128,0,188975:0:0:0:0:
182,192,191275,128,0,191375:0:0:0:0:
329,192,191375,128,0,191475:0:0:0:0:
475,192,191475,128,0,191575:0:0:0:0:
109,192,191575,128,0,191775:0:0:0:0:
256,192,191675,128,0,191875:0:0:0:0:
402,192,191775,128,0,191975:0:0:0:0:
36,192,191875,128,0,191975:0:0:0:0:
182,192,191975,128,0,192075:0:0:0:0:
329,192,192075,128,0,192175:0:0:0:0:
182,192,192875,128,0,192975:0:0:0:0:
256,192,192975,128,0,193075:0:0:0:0:
475,192,193075,128,0,193175:0:0:0:0:
109,192,193175,128,0,193375:0:0:0:0:
182,192,193275,128,0,193475:0:0:0:0:
402,192,193375,128,0,193575:0:0:0:0:
36,192,193475,128,0,193575:0:0:0:0:
109,192,193575,128,0,193675:0:0:0:0:
329,192,193675,128,0,193775:0:0:0:0:
256,192,194475,128,0,194575:0:0:0:0:
329,192,194575,128,0,194675:0:0:0:0:
475,192,194675,128,0,194775:0:0:0:0:
182,192,194775,128,0,194975:0:0:0:0:
256,192,194875,128,0,195075:0:0:0:0:
402,192,194975,128,0,195175:0:0:0:0:
109,192,195075,128,0,195175:0:0:0:0:
182,192,195175,128,0,195275:0:0:0:0:
329,192,195275,128,0,195375:0:0:0:0:
182,192,197675,128,0,197775:0:0:0:0:
329,192,197775,128,0,197875:0:0:0:0:
402,192,197875,128,0,197975:0:0:0:0:
109,192,197975,128,0,198175:0:0:0:0:
256,192,198075,128,0,198275:0:0:0:0:
329,192,198175,128,0,198375:0:0:0:0:
36,192,198275,128,0,198375:0:0:0:0:
182,192,198375,128,0,198475:0:0:0:0:
256,192,198475,128,0,198575:0:0:0:0:
256,192,200875,128,0,200975:0:0:0:0:
329,192,200975,128,0,201075:0:0:0:0:
475,192,201075,128,0,201175:0:0:0:0:
182,192,201175,128,0,201375:0:0:0:0:
256,192,201275,128,0,201475:0:0:0:0:
402,192,201375,128,0,201575:0:0:0:0:
109,192,201475,128,0,201575:0:0:0:0:
182,192,201575,128,0,201675:0:0:0:0:
329,192,201675,128,0,201775:0:0:0:0:
109,192,203441,1,0,0:0:0:0:
256,192,203541,1,0,0:0:0:0:
402,192,203575,1,0,0:0:0:0:
475,192,203575,1,0,0:0:0:0:
36,192,203608,1,0,0:0:0:0:
182,192,203641,1,0,0:0:0:0:
329,192,203675,1,0,0:0:0:0:
475,192,203708,1,0,0:0:0:0:
109,192,203775,1,0,0:0:0:0:
256,192,203841,1,0,0:0:0:0:
402,192,203908,1,0,0:0:0:0:
109,192,203975,1,0,0:0:0:0:
475,192,203975,128,0,205075:0:0:0:0:
36,192,203975,1,0,0:0:0:0:
36,192,204075,128,0,205075:0:0:0:0:
329,192,204075,1,0,0:0:0:30:Ping pong.wav
402,192,204075,1,0,0:0:0:0:
402,192,204200,128,0,205075:0:0:0:0:
256,192,204200,1,0,0:0:0:0:
182,192,204200,1,0,0:0:0:30:Ping pong.wav
109,192,204375,128,0,205075:0:0:0:0:
256,192,204375,1,0,0:0:0:30:Ping pong.wav
329,192,204375,1,0,0:0:0:0:
329,192,204575,1,0,0:0:0:0:
182,192,204675,1,0,0:0:0:30:Ping pong.wav
256,192,204775,1,0,0:0:0:30:Ping pong.wav
256,192,204875,128,0,205075:0:0:0:0:
182,192,204975,1,0,0:0:0:0:
329,192,205075,1,0,0:0:0:30:Ping pong.wav
329,192,205175,5,0,0:0:0:0:
182,192,205175,1,0,0:0:0:0:
36,192,205175,1,0,0:0:0:0:
475,192,205175,1,0,0:0:0:60:Kick Hard.wav
109,192,205375,1,0,0:0:0:30:Ping pong.wav
402,192,205375,1,0,0:0:0:0:
109,192,205575,1,0,0:0:0:30:Ping pong.wav
402,192,205575,1,0,0:0:0:0:
256,192,205775,1,0,0:0:0:0:
36,192,205775,1,0,0:0:0:0:
402,192,205875,1,0,0:0:0:0:
329,192,205875,1,0,0:0:0:30:Ping pong.wav
182,192,205975,1,0,0:0:0:0:
475,192,205975,1,0,0:0:0:0:
36,192,205975,1,0,0:0:0:50:Kick Soft.wav
475,192,206108,1,0,0:0:0:0:
329,192,206108,1,0,0:0:0:30:Ping pong.wav
329,192,206241,1,0,0:0:0:0:
182,192,206241,1,0,0:0:0:30:Ping pong.wav
109,192,206375,1,0,0:0:0:30:Ping pong.wav
182,192,206375,1,0,0:0:0:0:
109,192,206508,1,0,0:0:0:0:
402,192,206508,1,0,0:0:0:30:Ping pong.wav
402,192,206641,1,0,0:0:0:0:
182,192,206641,1,0,0:0:0:30:Ping pong.wav
256,192,206708,1,0,0:0:0:30:Ping pong.wav
329,192,206775,128,0,206975:0:0:0:0:
36,192,206775,128,0,206975:0:0:0:90:fm3_f#4.wav
109,192,206775,1,0,0:0:0:60:Kick Hard.wav
475,192,206775,1,0,0:0:0:60:Cymbal.wav
182,192,206775,128,0,206975:0:0:0:0:
182,192,207075,128,0,207275:0:0:0:90:fm3_g#4.wav
36,192,207075,128,0,207275:0:0:0:0:
402,192,207075,128,0,207275:0:0:0:0:
256,192,207375,128,0,207575:0:0:0:90:fm3_a4.wav
36,192,207375,128,0,207575:0:0:0:0:
475,192,207375,128,0,207575:0:0:0:0:
475,192,207675,128,0,207875:0:0:0:90:fm3_e5.wav
329,192,207675,128,0,207875:0:0:0:0:
182,192,207675,128,0,207875:0:0:0:0:
475,192,207975,128,0,208175:0:0:0:0:
182,192,207975,128,0,208175:0:0:0:90:fm3_c#5.wav
109,192,207975,128,0,208175:0:0:0:0:
329,192,208375,128,0,208575:0:0:0:0:
182,192,208375,128,0,208575:0:0:0:0:
36,192,208375,128,0,208575:0:0:0:90:fm3_f#4.wav
182,192,208675,128,0,208875:0:0:0:90:fm3_g#4.wav
36,192,208675,128,0,208875:0:0:0:0:
402,192,208675,128,0,208875:0:0:0:0:
256,192,208975,128,0,209175:0:0:0:90:fm3_a4.wav
36,192,208975,128,0,209175:0:0:0:0:
475,192,208975,128,0,209175:0:0:0:0:
475,192,209275,128,0,209475:0:0:0:90:fm3_e5.wav
329,192,209275,128,0,209475:0:0:0:0:
182,192,209275,128,0,209475:0:0:0:0:
475,192,209575,1,0,0:0:0:0:
182,192,209575,1,0,0:0:0:90:fm3_c#5.wav
109,192,209575,1,0,0:0:0:0:
329,192,209675,128,0,209875:0:0:0:0:
402,192,209675,128,0,209875:0:0:0:60:Cymbal.wav
109,192,209675,128,0,209875:0:0:0:0:
36,192,209675,128,0,209875:0:0:0:60:Kick Hard.wav
329,192,209975,128,0,210075:0:0:0:0:
402,192,209975,128,0,210075:0:0:0:60:Cymbal.wav
109,192,209975,128,0,210075:0:0:0:90:fm3_f#4.wav
36,192,209975,128,0,210075:0:0:0:60:Kick Hard.wav
402,192,210175,1,0,0:0:0:60:Cymbal.wav
329,192,210175,1,0,0:0:0:0:
109,192,210175,1,0,0:0:0:0:
36,192,210175,1,0,0:0:0:60:Kick Hard.wav
402,192,210275,128,0,210475:0:0:0:0:
475,192,210275,128,0,210475:0:0:0:90:fm3_f#5.wav
256,192,210275,128,0,210475:0:0:0:0:
329,192,210575,128,0,210775:0:0:0:0:
182,192,210575,128,0,210775:0:0:0:0:
402,192,210575,128,0,210775:0:0:0:90:fm3_f5.wav
109,192,210875,128,0,211075:0:0:0:0:
256,192,210875,128,0,211075:0:0:0:0:
329,192,210875,128,0,211075:0:0:0:90:fm3_c#5.wav
36,192,211175,128,0,211375:0:0:0:0:
182,192,211175,128,0,211375:0:0:0:0:
256,192,211175,128,0,211375:0:0:0:90:fm3_a#4.wav
109,192,211575,1,0,0:0:0:90:fm3_f#4.wav
36,192,211575,1,0,0:0:0:0:
182,192,211575,1,0,0:0:0:0:
256,192,211675,1,0,0:0:0:60:Cymbal.wav
109,192,211675,1,0,0:0:0:0:
329,192,211675,1,0,0:0:0:60:Kick Hard.wav
475,192,211675,1,0,0:0:0:0:
402,192,211875,1,0,0:0:0:0:
475,192,211875,1,0,0:0:0:90:fm3_f#5.wav
256,192,211875,1,0,0:0:0:0:
329,192,211975,1,0,0:0:0:60:Cymbal.wav
256,192,211975,1,0,0:0:0:0:
109,192,211975,1,0,0:0:0:60:Kick Hard.wav
36,192,211975,1,0,0:0:0:0:
402,192,212175,1,0,0:0:0:90:fm3_f5.wav
182,192,212175,1,0,0:0:0:0:
329,192,212175,1,0,0:0:0:0:
402,192,212275,1,0,0:0:0:0:
256,192,212275,1,0,0:0:0:0:
36,192,212275,1,0,0:0:0:60:Cymbal.wav
475,192,212275,1,0,0:0:0:60:Kick Hard.wav
256,192,212475,1,0,0:0:0:90:fm3_c#5.wav
109,192,212475,1,0,0:0:0:0:
329,192,212475,1,0,0:0:0:0:
329,192,212575,128,0,212675:0:0:0:60:Cymbal.wav
475,192,212575,128,0,212675:0:0:0:0:
182,192,212575,128,0,212675:0:0:0:60:Kick Hard.wav
36,192,212575,128,0,212675:0:0:0:0:
36,192,212775,128,0,212875:0:0:0:30:Ping pong.wav
475,192,212775,128,0,212875:0:0:0:90:fm3_a#4.wav
402,192,212800,128,0,212875:0:0:0:30:Ping pong.wav
109,192,212800,128,0,212875:0:0:0:0:
182,192,212825,128,0,212875:0:0:0:30:Ping pong.wav
329,192,212825,128,0,212875:0:0:0:0:
256,192,212975,1,0,0:0:0:50:Kick Soft.wav
182,192,213000,1,0,0:0:0:50:Kick Soft.wav
109,192,213025,1,0,0:0:0:50:Kick Soft.wav
36,192,213050,1,0,0:0:0:50:Kick Soft.wav
256,192,213075,1,0,0:0:0:50:Kick Soft.wav
329,192,213100,1,0,0:0:0:50:Kick Soft.wav
402,192,213125,1,0,0:0:0:50:Kick Soft.wav
475,192,213150,1,0,0:0:0:50:Kick Soft.wav
329,192,213175,128,0,213375:0:0:0:60:Cymbal.wav
36,192,213175,128,0,213375:0:0:0:90:fm3_f#4.wav
109,192,213175,1,0,0:0:0:60:Kick Hard.wav
182,192,213175,128,0,213375:0:0:0:0:
182,192,213475,128,0,213675:0:0:0:90:fm3_g#4.wav
36,192,213475,128,0,213675:0:0:0:0:
402,192,213475,128,0,213675:0:0:0:0:
256,192,213775,128,0,213975:0:0:0:90:fm3_a4.wav
36,192,213775,128,0,213975:0:0:0:0:
475,192,213775,128,0,213975:0:0:0:0:
475,192,214075,128,0,214275:0:0:0:90:fm3_e5.wav
329,192,214075,128,0,214275:0:0:0:0:
182,192,214075,128,0,214275:0:0:0:0:
475,192,214375,128,0,214575:0:0:0:0:
182,192,214375,128,0,214575:0:0:0:90:fm3_c#5.wav
109,192,214375,128,0,214575:0:0:0:0:
329,192,214775,128,0,214975:0:0:0:0:
182,192,214775,128,0,214975:0:0:0:0:
36,192,214775,128,0,214975:0:0:0:90:fm3_f#4.wav
182,192,215075,128,0,215275:0:0:0:90:fm3_g#4.wav
36,192,215075,128,0,215275:0:0:0:0:
402,192,215075,128,0,215275:0:0:0:0:
256,192,215375,128,0,215575:0:0:0:90:fm3_a4.wav
36,192,215375,128,0,215575:0:0:0:0:
475,192,215375,128,0,215575:0:0:0:0:
475,192,215675,128,0,215875:0:0:0:90:fm3_e5.wav
329,192,215675,128,0,215875:0:0:0:0:
182,192,215675,128,0,215875:0:0:0:0:
475,192,215975,1,0,0:0:0:0:
182,192,215975,1,0,0:0:0:90:fm3_c#5.wav
109,192,215975,1,0,0:0:0:0:
329,192,216075,128,0,216275:0:0:0:0:
402,192,216075,128,0,216275:0:0:0:60:Cymbal.wav
109,192,216075,128,0,216275:0:0:0:0:
36,192,216075,128,0,216275:0:0:0:60:Kick Hard.wav
329,192,216375,128,0,216475:0:0:0:0:
402,192,216375,128,0,216475:0:0:0:60:Cymbal.wav
109,192,216375,128,0,216475:0:0:0:90:fm3_f#4.wav
36,192,216375,128,0,216475:0:0:0:60:Kick Hard.wav
109,192,216575,1,0,0:0:0:0:
36,192,216575,1,0,0:0:0:60:Kick Hard.wav
402,192,216575,1,0,0:0:0:60:Cymbal.wav
329,192,216575,1,0,0:0:0:0:
109,192,216675,1,0,0:0:0:0:
475,192,216675,1,0,0:0:0:0:
256,192,216675,1,0,0:0:0:0:
329,192,216875,128,0,216975:0:0:0:60:Cymbal.wav
402,192,216875,128,0,216975:0:0:0:0:
36,192,216875,128,0,216975:0:0:0:0:
182,192,216875,128,0,216975:0:0:0:60:Kick Hard.wav
329,192,217075,128,0,217175:0:0:0:60:Cymbal.wav
402,192,217075,128,0,217175:0:0:0:0:
182,192,217075,128,0,217175:0:0:0:60:Kick Hard.wav
36,192,217075,128,0,217175:0:0:0:0:
256,192,217275,128,0,217475:0:0:0:0:
402,192,217275,128,0,217475:0:0:0:0:
475,192,217275,128,0,217475:0:0:0:90:fm3_e5.wav
329,192,217575,128,0,217775:0:0:0:90:fm3_b4.wav
182,192,217575,128,0,217775:0:0:0:0:
109,192,217575,128,0,217775:0:0:0:0:
36,192,217975,128,0,218175:0:0:0:0:
109,192,217975,128,0,218175:0:0:0:90:fm3_f#4.wav
256,192,217975,128,0,218175:0:0:0:0:
475,192,218275,128,0,218475:0:0:0:90:fm3_c#5.wav
329,192,218275,128,0,218475:0:0:0:0:
182,192,218275,128,0,218475:0:0:0:0:
402,192,218575,128,0,218775:0:0:0:0:
256,192,218575,128,0,218775:0:0:0:90:fm3_b4.wav
109,192,218575,128,0,218775:0:0:0:0:
329,192,218775,128,0,219075:0:0:0:0:
182,192,218775,128,0,219075:0:0:0:45:Whistle.wav
329,192,219175,1,0,0:0:0:45:Whistle.wav
182,192,219175,1,0,0:0:0:0:
182,192,219275,1,0,0:0:0:45:Whistle.wav
329,192,219275,1,0,0:0:0:0:
402,192,219375,1,0,0:0:0:45:Whistle.wav
109,192,219375,1,0,0:0:0:0:
109,192,219475,1,0,0:0:0:45:Whistle.wav
402,192,219475,1,0,0:0:0:0:
475,192,219575,1,0,0:0:0:80:Snare.wav
256,192,219575,128,0,219675:0:0:0:0:
36,192,219575,128,0,219675:0:0:0:90:fm3_f#4.wav
182,192,219775,1,0,0:0:0:0:
402,192,219775,1,0,0:0:0:60:Kick Hard.wav
182,192,219875,128,0,219975:0:0:0:90:fm3_g#4.wav
36,192,219875,128,0,219975:0:0:0:0:
475,192,219875,1,0,0:0:0:80:Snare.wav
329,192,219975,1,0,0:0:0:0:
256,192,220075,1,0,0:0:0:0:
109,192,220075,1,0,0:0:0:60:Kick Hard.wav
256,192,220175,128,0,220275:0:0:0:90:fm3_a4.wav
402,192,220175,128,0,220275:0:0:0:0:
475,192,220175,1,0,0:0:0:80:Snare.wav
329,192,220375,1,0,0:0:0:0:
182,192,220375,1,0,0:0:0:60:Kick Hard.wav
36,192,220475,1,0,0:0:0:80:Snare.wav
329,192,220475,128,0,220575:0:0:0:90:fm3_e5.wav
475,192,220475,128,0,220575:0:0:0:0:
109,192,220575,1,0,0:0:0:0:
256,192,220675,1,0,0:0:0:0:
402,192,220675,1,0,0:0:0:60:Kick Hard.wav
256,192,220775,128,0,220875:0:0:0:90:fm3_c#5.wav
109,192,220775,128,0,220875:0:0:0:80:Snare.wav
36,192,220775,128,0,220875:0:0:0:0:
256,192,220975,1,0,0:0:0:40:Kick Hard.wav
329,192,220975,1,0,0:0:0:0:
109,192,221025,1,0,0:0:0:40:Kick Hard.wav
182,192,221025,1,0,0:0:0:0:
329,192,221075,1,0,0:0:0:40:Kick Hard.wav
402,192,221075,1,0,0:0:0:0:
182,192,221125,1,0,0:0:0:40:Kick Hard.wav
256,192,221125,1,0,0:0:0:0:
109,192,221175,128,0,221275:0:0:0:90:fm3_f#4.wav
475,192,221175,128,0,221275:0:0:0:0:
36,192,221175,1,0,0:0:0:80:Snare.wav
182,192,221375,1,0,0:0:0:0:
402,192,221375,1,0,0:0:0:60:Kick Hard.wav
36,192,221475,128,0,221575:0:0:0:0:
182,192,221475,128,0,221575:0:0:0:90:fm3_g#4.wav
475,192,221475,1,0,0:0:0:80:Snare.wav
329,192,221575,1,0,0:0:0:0:
36,192,221675,1,0,0:0:0:60:Kick Hard.wav
402,192,221675,1,0,0:0:0:0:
402,192,221775,128,0,221875:0:0:0:90:fm3_a4.wav
256,192,221775,128,0,221875:0:0:0:0:
109,192,221775,1,0,0:0:0:80:Snare.wav
329,192,221975,1,0,0:0:0:0:
109,192,221975,1,0,0:0:0:60:Kick Hard.wav
329,192,222075,128,0,222175:0:0:0:90:fm3_e5.wav
475,192,222075,128,0,222175:0:0:0:0:
36,192,222075,1,0,0:0:0:80:Snare.wav
182,192,222175,1,0,0:0:0:0:
329,192,222275,1,0,0:0:0:60:Kick Hard.wav
109,192,222275,1,0,0:0:0:0:
109,192,222375,128,0,222675:0:0:0:40:EPing Hi.wav
256,192,222408,128,0,222675:0:0:0:40:EPing Hi.wav
402,192,222441,128,0,222675:0:0:0:40:EPing Hi.wav
475,192,222475,128,0,222675:0:0:0:40:EPing Hi.wav
402,192,222775,1,0,0:0:0:80:Snare.wav
36,192,222775,128,0,222875:0:0:0:90:fm3_f#4.wav
256,192,222775,128,0,222875:0:0:0:0:
475,192,222975,1,0,0:0:0:0:
182,192,222975,1,0,0:0:0:60:Kick Hard.wav
109,192,223075,1,0,0:0:0:80:Snare.wav
329,192,223075,128,0,223175:0:0:0:0:
475,192,223075,128,0,223175:0:0:0:90:fm3_f#5.wav
256,192,223175,1,0,0:0:0:0:
182,192,223275,1,0,0:0:0:0:
36,192,223275,1,0,0:0:0:60:Kick Hard.wav
182,192,223375,128,0,223475:0:0:0:90:fm3_f5.wav
402,192,223375,128,0,223475:0:0:0:0:
475,192,223375,1,0,0:0:0:80:Snare.wav
329,192,223575,1,0,0:0:0:0:
182,192,223575,1,0,0:0:0:60:Kick Hard.wav
329,192,223675,128,0,223775:0:0:0:90:fm3_c#5.wav
109,192,223675,128,0,223775:0:0:0:0:
475,192,223675,1,0,0:0:0:80:Snare.wav
256,192,223775,1,0,0:0:0:0:
36,192,223875,1,0,0:0:0:0:
402,192,223875,1,0,0:0:0:60:Kick Hard.wav
36,192,223975,128,0,224075:0:0:0:90:fm3_a#4.wav
475,192,223975,128,0,224075:0:0:0:0:
182,192,223975,128,0,224075:0:0:0:80:Snare.wav
182,192,224175,1,0,0:0:0:0:
329,192,224175,1,0,0:0:0:40:Kick Hard.wav
109,192,224225,1,0,0:0:0:0:
36,192,224225,1,0,0:0:0:40:Kick Hard.wav
329,192,224275,1,0,0:0:0:0:
402,192,224275,1,0,0:0:0:40:Kick Hard.wav
182,192,224325,1,0,0:0:0:40:Kick Hard.wav
109,192,224325,1,0,0:0:0:0:
402,192,224375,128,0,224475:0:0:0:0:
256,192,224375,128,0,224475:0:0:0:90:fm3_f#4.wav
475,192,224375,1,0,0:0:0:80:Snare.wav
329,192,224575,1,0,0:0:0:0:
109,192,224575,1,0,0:0:0:60:Kick Hard.wav
475,192,224675,128,0,224775:0:0:0:0:
329,192,224675,128,0,224775:0:0:0:90:fm3_f#5.wav
36,192,224675,1,0,0:0:0:80:Snare.wav
182,192,224775,1,0,0:0:0:0:
402,192,224875,1,0,0:0:0:0:
36,192,224875,1,0,0:0:0:60:Kick Hard.wav
182,192,224975,128,0,225075:0:0:0:0:
402,192,224975,128,0,225075:0:0:0:90:fm3_f5.wav
475,192,224975,1,0,0:0:0:80:Snare.wav
109,192,225175,1,0,0:0:0:0:
256,192,225175,1,0,0:0:0:60:Kick Hard.wav
329,192,225275,1,0,0:0:0:90:fm3_c#5.wav
109,192,225275,1,0,0:0:0:80:Snare.wav
182,192,225375,128,0,225475:0:0:0:0:
329,192,225375,128,0,225475:0:0:0:0:
475,192,225375,128,0,225475:0:0:0:45:Whistle.wav
36,192,225375,128,0,225475:0:0:0:45:Whistle.wav
182,192,225575,128,0,225641:0:0:0:0:
329,192,225575,128,0,225641:0:0:0:0:
256,192,225575,128,0,225641:0:0:0:30:Ping pong.wav
329,192,225708,128,0,225775:0:0:0:0:
182,192,225708,128,0,225775:0:0:0:0:
256,192,225708,128,0,225775:0:0:0:30:Ping pong.wav
182,192,225841,128,0,225908:0:0:0:0:
329,192,225841,128,0,225908:0:0:0:0:
256,192,225841,128,0,225908:0:0:0:30:Ping pong.wav
36,192,225975,1,0,0:0:0:0:
475,192,225975,1,0,0:0:0:60:Kick Soft.wav
402,192,226008,1,0,0:0:0:60:Kick Soft.wav
329,192,226041,1,0,0:0:0:60:Kick Soft.wav
256,192,226075,1,0,0:0:0:60:Kick Soft.wav
182,192,226108,1,0,0:0:0:60:Kick Soft.wav
109,192,226141,1,0,0:0:0:60:Kick Soft.wav
475,192,226175,1,0,0:0:0:0:
402,192,226175,1,0,0:0:0:60:Kick Hard.wav
256,192,226275,1,0,0:0:0:0:
36,192,226275,1,0,0:0:0:60:Kick Hard.wav
182,192,226375,1,0,0:0:0:0:
475,192,226375,1,0,0:0:0:60:Kick Hard.wav
329,192,226375,1,0,0:0:0:80:Snare.wav
475,192,226475,1,0,0:0:0:0:
329,192,226475,1,0,0:0:0:60:Kick Hard.wav
36,192,226575,1,0,0:0:0:0:
109,192,226575,1,0,0:0:0:60:Kick Hard.wav
256,192,226675,1,0,0:0:0:0:
475,192,226675,1,0,0:0:0:60:Kick Hard.wav
402,192,226775,1,0,0:0:0:0:
109,192,226775,1,0,0:0:0:60:Kick Hard.wav
182,192,226775,1,0,0:0:0:80:Snare.wav
109,192,226875,1,0,0:0:0:0:
182,192,226875,1,0,0:0:0:60:Kick Hard.wav
36,192,226975,1,0,0:0:0:0:
329,192,226975,1,0,0:0:0:60:Kick Hard.wav
402,192,227075,1,0,0:0:0:0:
182,192,227075,1,0,0:0:0:60:Kick Hard.wav
109,192,227175,1,0,0:0:0:60:Kick Hard.wav
475,192,227175,1,0,0:0:0:80:Snare.wav
475,192,227275,1,0,0:0:0:60:Kick Hard.wav
256,192,227375,1,0,0:0:0:0:
36,192,227375,1,0,0:0:0:60:Kick Hard.wav
182,192,227475,1,0,0:0:0:60:Kick Hard.wav
329,192,227575,1,0,0:0:0:60:Kick Soft.wav
475,192,227575,1,0,0:0:0:0:
36,192,227608,1,0,0:0:0:60:Kick Soft.wav
109,192,227641,1,0,0:0:0:60:Kick Soft.wav
182,192,227675,1,0,0:0:0:60:Kick Soft.wav
329,192,227708,1,0,0:0:0:60:Kick Soft.wav
402,192,227741,1,0,0:0:0:60:Kick Soft.wav
256,192,227775,1,0,0:0:0:0:
475,192,227775,1,0,0:0:0:70:Kick Soft.wav
109,192,227875,1,0,0:0:0:70:Kick Soft.wav
109,192,227975,1,0,0:0:0:70:Kick Soft.wav
475,192,227975,1,0,0:0:0:80:Snare.wav
329,192,228075,1,0,0:0:0:70:Kick Soft.wav
402,192,228175,1,0,0:0:0:0:
182,192,228175,1,0,0:0:0:70:Kick Soft.wav
182,192,228275,1,0,0:0:0:70:Kick Soft.wav
256,192,228375,1,0,0:0:0:70:Kick Soft.wav
36,192,228375,1,0,0:0:0:50:Snare.wav
475,192,228475,1,0,0:0:0:70:Kick Soft.wav
36,192,228575,1,0,0:0:0:0:
475,192,228575,1,0,0:0:0:70:Kick Soft.wav
329,192,228675,1,0,0:0:0:70:Kick Soft.wav
109,192,228775,1,0,0:0:0:70:Kick Soft.wav
402,192,228775,1,0,0:0:0:30:Snare.wav
109,192,228875,1,0,0:0:0:70:Kick Soft.wav
475,192,228975,1,0,0:0:0:0:
256,192,228975,1,0,0:0:0:70:Kick Soft.wav
182,192,229075,1,0,0:0:0:70:Kick Soft.wav
36,192,229175,1,0,0:0:0:0:
475,192,229175,1,0,0:0:0:25:Snare.wav
402,192,229208,1,0,0:0:0:25:Snare.wav
329,192,229241,1,0,0:0:0:25:Snare.wav
109,192,229275,1,0,0:0:0:25:Snare.wav
182,192,229308,1,0,0:0:0:25:Snare.wav
256,192,229341,1,0,0:0:0:25:Snare.wav
475,192,229375,1,0,0:0:0:0:
402,192,229375,1,0,0:0:0:50:Kick Soft.wav
36,192,229425,1,0,0:0:0:50:Kick Soft.wav
109,192,229475,1,0,0:0:0:50:Kick Soft.wav
182,192,229525,1,0,0:0:0:50:Kick Soft.wav
329,192,229575,1,0,0:0:0:50:Kick Soft.wav
109,192,229625,1,0,0:0:0:50:Kick Soft.wav
182,192,229675,1,0,0:0:0:50:Kick Soft.wav
256,192,229725,1,0,0:0:0:50:Kick Soft.wav
402,192,229775,1,0,0:0:0:50:Kick Soft.wav
329,192,229825,1,0,0:0:0:50:Kick Soft.wav
182,192,229875,1,0,0:0:0:50:Kick Soft.wav
109,192,229925,1,0,0:0:0:50:Kick Soft.wav
402,192,229975,1,0,0:0:0:25:Snare.wav
36,192,229975,1,0,0:0:0:0:
329,192,230008,1,0,0:0:0:25:Snare.wav
256,192,230041,1,0,0:0:0:25:Snare.wav
182,192,230075,1,0,0:0:0:25:Snare.wav
475,192,230108,1,0,0:0:0:25:Snare.wav
402,192,230141,1,0,0:0:0:25:Snare.wav
329,192,230175,1,0,0:0:0:0:
109,192,230175,1,0,0:0:0:0:
182,192,230225,1,0,0:0:0:50:Kick Soft.wav
256,192,230275,1,0,0:0:0:50:Kick Soft.wav
329,192,230325,1,0,0:0:0:50:Kick Soft.wav
109,192,230375,1,0,0:0:0:50:Kick Soft.wav
36,192,230375,1,0,0:0:0:0:
402,192,230425,1,0,0:0:0:50:Kick Soft.wav
329,192,230475,1,0,0:0:0:50:Kick Soft.wav
256,192,230525,1,0,0:0:0:50:Kick Soft.wav
109,192,230575,1,0,0:0:0:50:Kick Soft.wav
475,192,230575,1,0,0:0:0:50:Kick Soft.wav
402,192,230625,1,0,0:0:0:50:Kick Soft.wav
256,192,230675,1,0,0:0:0:50:Kick Soft.wav
182,192,230725,1,0,0:0:0:50:Kick Soft.wav
36,192,230775,1,0,0:0:0:0:
475,192,230775,1,0,0:0:0:25:Snare.wav
402,192,230808,1,0,0:0:0:25:Snare.wav
329,192,230841,1,0,0:0:0:25:Snare.wav
256,192,230875,1,0,0:0:0:25:Snare.wav
182,192,230908,1,0,0:0:0:25:Snare.wav
109,192,230941,1,0,0:0:0:25:Snare.wav
475,192,230975,1,0,0:0:0:0:
36,192,230975,1,0,0:0:0:25:Snare.wav
402,192,231008,1,0,0:0:0:25:Snare.wav
329,192,231041,1,0,0:0:0:25:Snare.wav
109,192,231075,1,0,0:0:0:25:Snare.wav
182,192,231108,1,0,0:0:0:25:Snare.wav
256,192,231141,1,0,0:0:0:25:Snare.wav
402,192,231175,1,0,0:0:0:25:Snare.wav
475,192,231175,1,0,0:0:0:0:
36,192,231208,1,0,0:0:0:25:Snare.wav
109,192,231241,1,0,0:0:0:25:Snare.wav
182,192,231275,1,0,0:0:0:25:Snare.wav
329,192,231308,1,0,0:0:0:25:Snare.wav
402,192,231341,5,0,0:0:0:25:Snare.wav
475,192,231375,1,0,0:0:0:0:
36,192,231375,1,0,0:0:0:25:Snare.wav
109,192,231408,1,0,0:0:0:25:Snare.wav
182,192,231441,5,0,0:0:0:25:Snare.wav
256,192,231475,5,0,0:0:0:25:Snare.wav
329,192,231508,5,0,0:0:0:25:Snare.wav
402,192,231541,5,0,0:0:0:25:Snare.wav
36,192,231575,128,0,231675:0:0:0:0:
475,192,231575,1,0,0:0:0:0:
329,192,231675,128,0,231775:0:0:0:45:Whistle.wav
182,192,231775,128,0,231875:0:0:0:0:
475,192,231875,128,0,231975:0:0:0:45:Whistle.wav
256,192,231975,128,0,232041:0:0:0:80:Snare.wav
109,192,232025,1,0,0:0:0:0:
402,192,232075,1,0,0:0:0:0:
182,192,232125,1,0,0:0:0:0:
329,192,232175,1,0,0:0:0:0:
256,192,232225,1,0,0:0:0:0:
182,192,232275,1,0,0:0:0:0:
329,192,232325,1,0,0:0:0:0:
402,192,232375,128,0,232675:0:0:0:60:Cymbal.wav
36,192,232375,128,0,232575:0:0:0:90:fm3_f#4.wav
475,192,232375,1,0,0:0:0:60:Kick Hard.wav
109,192,232375,1,0,0:0:0:0:
256,192,232575,128,0,232675:0:0:0:0:
36,192,232675,1,0,0:0:0:0:
109,192,232675,128,0,232875:0:0:0:90:fm3_g#4.wav
329,192,232775,128,0,232875:0:0:0:0:
475,192,232775,1,0,0:0:0:60:Kick Hard.wav
256,192,232775,1,0,0:0:0:0:
182,192,232875,1,0,0:0:0:0:
402,192,232975,1,0,0:0:0:90:fm3_a4.wav
109,192,232975,1,0,0:0:0:0:
182,192,233075,128,0,233375:0:0:0:0:
402,192,233075,128,0,233175:0:0:0:0:
109,192,233175,1,0,0:0:0:0:
256,192,233175,1,0,0:0:0:60:Kick Hard.wav
36,192,233175,1,0,0:0:0:0:
475,192,233275,1,0,0:0:0:90:fm3_e5.wav
329,192,233275,1,0,0:0:0:0:
256,192,233375,128,0,233475:0:0:0:0:
475,192,233375,128,0,233475:0:0:0:0:
36,192,233475,1,0,0:0:0:0:
182,192,233475,1,0,0:0:0:0:
109,192,233575,128,0,233775:0:0:0:60:Kick Hard.wav
329,192,233575,128,0,233775:0:0:0:90:fm3_c#5.wav
475,192,233575,128,0,233775:0:0:0:0:
182,192,233775,1,0,0:0:0:0:
256,192,233875,1,0,0:0:0:0:
36,192,233975,1,0,0:0:0:0:
109,192,233975,128,0,234175:0:0:0:90:fm3_f#4.wav
402,192,233975,1,0,0:0:0:60:Kick Hard.wav
475,192,233975,128,0,234275:0:0:0:0:
256,192,234175,128,0,234275:0:0:0:0:
329,192,234275,128,0,234475:0:0:0:90:fm3_g#4.wav
109,192,234275,1,0,0:0:0:0:
36,192,234375,128,0,234475:0:0:0:0:
182,192,234375,1,0,0:0:0:60:Kick Hard.wav
475,192,234375,1,0,0:0:0:0:
256,192,234475,1,0,0:0:0:0:
402,192,234575,1,0,0:0:0:90:fm3_a4.wav
36,192,234575,1,0,0:0:0:0:
402,192,234675,128,0,234975:0:0:0:0:
182,192,234675,128,0,234775:0:0:0:0:
36,192,234775,1,0,0:0:0:0:
329,192,234775,1,0,0:0:0:60:Kick Hard.wav
256,192,234775,1,0,0:0:0:0:
109,192,234875,1,0,0:0:0:90:fm3_e5.wav
475,192,234875,1,0,0:0:0:0:
256,192,234975,128,0,235075:0:0:0:0:
109,192,234975,128,0,235075:0:0:0:0:
329,192,235075,1,0,0:0:0:0:
475,192,235075,1,0,0:0:0:0:
36,192,235175,128,0,235375:0:0:0:90:fm3_c#5.wav
256,192,235175,128,0,235375:0:0:0:60:Kick Hard.wav
402,192,235175,128,0,235375:0:0:0:0:
182,192,235375,1,0,0:0:0:0:
329,192,235475,1,0,0:0:0:0:
109,192,235575,128,0,235875:0:0:0:90:fm3_f#4.wav
475,192,235575,1,0,0:0:0:60:Kick Hard.wav
402,192,235575,128,0,235775:0:0:0:0:
256,192,235575,1,0,0:0:0:0:
329,192,235775,128,0,235875:0:0:0:0:
475,192,235875,128,0,236075:0:0:0:90:fm3_f#5.wav
36,192,235875,128,0,235975:0:0:0:0:
109,192,235975,1,0,0:0:0:60:Kick Hard.wav
256,192,235975,128,0,236075:0:0:0:0:
182,192,235975,1,0,0:0:0:0:
36,192,236075,1,0,0:0:0:0:
182,192,236175,1,0,0:0:0:0:
402,192,236175,1,0,0:0:0:90:fm3_f5.wav
402,192,236275,128,0,236375:0:0:0:0:
256,192,236275,128,0,236575:0:0:0:0:
36,192,236375,1,0,0:0:0:60:Kick Hard.wav
475,192,236375,128,0,236475:0:0:0:0:
182,192,236375,1,0,0:0:0:0:
109,192,236475,1,0,0:0:0:90:fm3_c#5.wav
329,192,236475,128,0,236675:0:0:0:0:
109,192,236575,128,0,236675:0:0:0:0:
475,192,236575,128,0,236675:0:0:0:0:
256,192,236675,1,0,0:0:0:0:
36,192,236675,1,0,0:0:0:0:
109,192,236775,128,0,236975:0:0:0:90:fm3_a#4.wav
182,192,236775,128,0,236975:0:0:0:60:Kick Hard.wav
402,192,236775,128,0,236975:0:0:0:0:
256,192,236975,1,0,0:0:0:0:
109,192,237075,1,0,0:0:0:0:
36,192,237175,1,0,0:0:0:60:Kick Hard.wav
256,192,237175,128,0,237475:0:0:0:90:fm3_f#4.wav
402,192,237175,128,0,237375:0:0:0:0:
475,192,237175,1,0,0:0:0:0:
475,192,237375,128,0,237475:0:0:0:0:
36,192,237375,1,0,0:0:0:0:
109,192,237475,128,0,237675:0:0:0:0:
329,192,237475,128,0,237575:0:0:0:90:fm3_f#5.wav
182,192,237575,1,0,0:0:0:60:Kick Hard.wav
475,192,237575,128,0,237675:0:0:0:0:
402,192,237575,1,0,0:0:0:0:
329,192,237675,1,0,0:0:0:0:
36,192,237775,1,0,0:0:0:90:fm3_f5.wav
475,192,237775,1,0,0:0:0:0:
256,192,237775,1,0,0:0:0:0:
36,192,237875,128,0,238275:0:0:0:0:
182,192,237875,128,0,237975:0:0:0:0:
475,192,237975,1,0,0:0:0:0:
256,192,237975,1,0,0:0:0:60:Kick Hard.wav
402,192,237975,1,0,0:0:0:0:
109,192,238075,1,0,0:0:0:0:
329,192,238075,1,0,0:0:0:90:fm3_c#5.wav
329,192,238175,128,0,238275:0:0:0:0:
475,192,238175,128,0,238275:0:0:0:0:
256,192,238275,1,0,0:0:0:0:
182,192,238275,1,0,0:0:0:0:
475,192,238375,128,0,238575:0:0:0:60:Kick Hard.wav
109,192,238375,128,0,238575:0:0:0:90:fm3_a#4.wav
402,192,238375,128,0,238575:0:0:0:0:
256,192,238575,1,0,0:0:0:0:
402,192,238675,1,0,0:0:0:0:
475,192,238775,128,0,238875:0:0:0:0:
182,192,238775,128,0,238875:0:0:0:60:Kick Hard.wav
36,192,238775,128,0,238875:0:0:0:0:
329,192,238775,128,0,238875:0:0:0:0:
36,192,238975,128,0,239075:0:0:0:0:
329,192,238975,128,0,239075:0:0:0:60:Kick Hard.wav
475,192,238975,128,0,239075:0:0:0:0:
182,192,238975,128,0,239075:0:0:0:0:
475,192,239175,1,0,0:0:0:0:
36,192,239175,1,0,0:0:0:0:
182,192,239175,1,0,0:0:0:60:Kick Hard.wav
329,192,239175,128,0,239275:0:0:0:0:
109,192,239275,1,0,0:0:0:0:
256,192,239375,1,0,0:0:0:90:fm3_a4.wav
402,192,239375,1,0,0:0:0:0:
475,192,239475,128,0,239875:0:0:0:0:
256,192,239475,128,0,239575:0:0:0:0:
36,192,239575,1,0,0:0:0:60:Kick Hard.wav
329,192,239575,1,0,0:0:0:0:
109,192,239575,1,0,0:0:0:0:
402,192,239675,1,0,0:0:0:0:
182,192,239675,1,0,0:0:0:90:fm3_e5.wav
182,192,239775,128,0,239875:0:0:0:0:
329,192,239775,128,0,239875:0:0:0:0:
256,192,239875,1,0,0:0:0:0:
36,192,239875,1,0,0:0:0:0:
402,192,239975,128,0,240175:0:0:0:60:Kick Hard.wav
109,192,239975,128,0,240175:0:0:0:90:fm3_c#5.wav
182,192,239975,128,0,240175:0:0:0:0:
475,192,240175,1,0,0:0:0:0:
329,192,240275,1,0,0:0:0:0:
402,192,240375,128,0,240575:0:0:0:0:
182,192,240375,128,0,240675:0:0:0:90:fm3_f#4.wav
36,192,240375,1,0,0:0:0:60:Kick Hard.wav
256,192,240375,1,0,0:0:0:0:
329,192,240575,128,0,240675:0:0:0:0:
109,192,240675,128,0,240875:0:0:0:90:fm3_g#4.wav
402,192,240675,128,0,240775:0:0:0:0:
256,192,240775,1,0,0:0:0:60:Kick Hard.wav
475,192,240775,128,0,240875:0:0:0:0:
36,192,240775,1,0,0:0:0:0:
329,192,240875,1,0,0:0:0:0:
402,192,240975,1,0,0:0:0:0:
182,192,240975,1,0,0:0:0:90:fm3_a4.wav
182,192,241075,128,0,241175:0:0:0:0:
329,192,241075,128,0,241475:0:0:0:0:
109,192,241175,1,0,0:0:0:0:
402,192,241175,1,0,0:0:0:60:Kick Hard.wav
475,192,241175,1,0,0:0:0:0:
256,192,241275,1,0,0:0:0:0:
36,192,241275,1,0,0:0:0:90:fm3_e5.wav
36,192,241375,128,0,241475:0:0:0:0:
109,192,241375,128,0,241475:0:0:0:0:
402,192,241475,1,0,0:0:0:0:
475,192,241475,1,0,0:0:0:0:
182,192,241575,128,0,241775:0:0:0:0:
36,192,241575,128,0,241775:0:0:0:50:Kick Hard.wav
256,192,241575,128,0,241775:0:0:0:90:fm3_c#5.wav
402,192,241775,128,0,241875:0:0:0:0:
475,192,241775,128,0,241875:0:0:0:0:
109,192,241975,1,0,0:0:0:60:Kick Hard.wav
329,192,241975,1,0,0:0:0:0:
36,192,241975,1,0,0:0:0:0:
109,192,242075,1,0,0:0:0:0:
402,192,242075,1,0,0:0:0:0:
182,192,242075,1,0,0:0:0:60:Kick Hard.wav
256,192,242175,1,0,0:0:0:60:Kick Hard.wav
475,192,242175,1,0,0:0:0:0:
182,192,242175,1,0,0:0:0:0:
475,192,242375,128,0,242575:0:0:0:0:
36,192,242375,128,0,242675:0:0:0:0:
329,192,242375,128,0,242575:0:0:0:60:EPing Lo.wav
182,192,242375,128,0,242675:0:0:0:0:
402,192,242575,128,0,242675:0:0:0:0:
256,192,242675,128,0,242775:0:0:0:0:
475,192,242775,1,0,0:0:0:0:
36,192,242775,1,0,0:0:0:60:Kick Hard.wav
402,192,242775,128,0,242875:0:0:0:0:
109,192,242775,128,0,242875:0:0:0:0:
109,192,242975,1,0,0:0:0:0:
329,192,242975,1,0,0:0:0:0:
402,192,242975,1,0,0:0:0:60:Kick Hard.wav
182,192,242975,1,0,0:0:0:0:
256,192,243175,128,0,243475:0:0:0:60:EPing Lo.wav
36,192,243175,128,0,243475:0:0:0:0:
475,192,243175,128,0,243575:0:0:0:0:
182,192,243375,128,0,243475:0:0:0:0:
329,192,243475,128,0,243575:0:0:0:0:
182,192,243575,1,0,0:0:0:80:Snare.wav
36,192,243575,1,0,0:0:0:0:
402,192,243575,1,0,0:0:0:90:fm3_f#4.wav
109,192,243575,1,0,0:0:0:60:Cymbal.wav
182,192,243675,1,0,0:0:0:0:
329,192,243775,1,0,0:0:0:0:
109,192,243875,1,0,0:0:0:60:Cymbal.wav
182,192,243875,1,0,0:0:0:80:Snare.wav
36,192,243875,1,0,0:0:0:0:
475,192,243875,1,0,0:0:0:90:fm3_c#5.wav
182,192,243975,1,0,0:0:0:0:
329,192,244075,1,0,0:0:0:0:
182,192,244175,1,0,0:0:0:80:Snare.wav
109,192,244175,1,0,0:0:0:60:Cymbal.wav
36,192,244175,1,0,0:0:0:0:
402,192,244175,1,0,0:0:0:90:fm3_b4.wav
329,192,244375,1,0,0:0:0:0:
402,192,244375,1,0,0:0:0:0:
182,192,244375,1,0,0:0:0:80:Snare.wav
329,192,244475,1,0,0:0:0:90:fm3_a5.wav
109,192,244475,1,0,0:0:0:80:Snare.wav
256,192,244475,1,0,0:0:0:60:Cymbal.wav
109,192,244575,1,0,0:0:0:0:
36,192,244575,1,0,0:0:0:0:
256,192,244675,1,0,0:0:0:80:Snare.wav
475,192,244675,1,0,0:0:0:0:
402,192,244675,1,0,0:0:0:0:
402,192,244775,1,0,0:0:0:60:Cymbal.wav
329,192,244775,1,0,0:0:0:80:Snare.wav
182,192,244775,1,0,0:0:0:90:fm3_e5.wav
109,192,244975,1,0,0:0:0:0:
182,192,244975,1,0,0:0:0:40:Kick Hard.wav
329,192,245025,1,0,0:0:0:40:Kick Hard.wav
402,192,245025,1,0,0:0:0:0:
109,192,245075,1,0,0:0:0:40:Kick Hard.wav
36,192,245075,1,0,0:0:0:0:
256,192,245125,1,0,0:0:0:40:Kick Hard.wav
182,192,245125,1,0,0:0:0:0:
402,192,245175,1,0,0:0:0:60:Kick Hard.wav
329,192,245175,128,0,245375:0:0:0:0:
475,192,245175,128,0,245475:0:0:0:90:fm3_f#4.wav
36,192,245175,1,0,0:0:0:60:Cymbal.wav
109,192,245275,1,0,0:0:0:0:
182,192,245375,128,0,245475:0:0:0:0:
402,192,245475,128,0,245675:0:0:0:90:fm3_g#4.wav
109,192,245475,128,0,245575:0:0:0:0:
36,192,245575,128,0,245675:0:0:0:0:
182,192,245575,1,0,0:0:0:60:Kick Hard.wav
256,192,245575,128,0,245675:0:0:0:0:
475,192,245675,128,0,245775:0:0:0:0:
329,192,245775,1,0,0:0:0:90:fm3_a4.wav
182,192,245775,1,0,0:0:0:0:
109,192,245875,128,0,246275:0:0:0:0:
329,192,245875,128,0,245975:0:0:0:0:
182,192,245975,128,0,246075:0:0:0:0:
475,192,245975,1,0,0:0:0:0:
256,192,245975,1,0,0:0:0:60:Kick Hard.wav
402,192,246075,1,0,0:0:0:90:fm3_e5.wav
36,192,246075,1,0,0:0:0:0:
402,192,246175,128,0,246275:0:0:0:0:
256,192,246175,128,0,246275:0:0:0:0:
475,192,246275,1,0,0:0:0:0:
182,192,246275,1,0,0:0:0:0:
329,192,246375,128,0,246575:0:0:0:0:
256,192,246375,128,0,246575:0:0:0:90:fm3_c#5.wav
36,192,246375,128,0,246575:0:0:0:60:Kick Hard.wav
182,192,246575,1,0,0:0:0:0:
329,192,246675,1,0,0:0:0:0:
475,192,246775,1,0,0:0:0:60:Kick Hard.wav
182,192,246775,1,0,0:0:0:0:
402,192,246775,128,0,247075:0:0:0:0:
36,192,246775,128,0,247175:0:0:0:90:fm3_f#4.wav
109,192,246875,1,0,0:0:0:0:
256,192,246975,128,0,247075:0:0:0:0:
329,192,247075,128,0,247275:0:0:0:90:fm3_g#4.wav
109,192,247075,128,0,247175:0:0:0:0:
182,192,247175,1,0,0:0:0:60:Kick Hard.wav
475,192,247175,128,0,247275:0:0:0:0:
402,192,247175,128,0,247275:0:0:0:0:
109,192,247275,128,0,247375:0:0:0:0:
256,192,247375,1,0,0:0:0:0:
402,192,247375,1,0,0:0:0:90:fm3_a4.wav
36,192,247475,128,0,247875:0:0:0:0:
402,192,247475,128,0,247575:0:0:0:0:
256,192,247575,1,0,0:0:0:0:
109,192,247575,1,0,0:0:0:0:
475,192,247575,1,0,0:0:0:60:Kick Hard.wav
182,192,247675,1,0,0:0:0:90:fm3_e5.wav
402,192,247675,1,0,0:0:0:0:
182,192,247775,128,0,247875:0:0:0:0:
329,192,247775,128,0,247875:0:0:0:0:
402,192,247875,1,0,0:0:0:0:
109,192,247875,1,0,0:0:0:0:
256,192,247975,128,0,248075:0:0:0:0:
182,192,247975,128,0,248075:0:0:0:0:
475,192,247975,128,0,248075:0:0:0:90:fm3_c#5.wav
329,192,247975,128,0,248075:0:0:0:60:Kick Hard.wav
475,192,248175,128,0,248275:0:0:0:0:
329,192,248175,128,0,248275:0:0:0:60:Kick Hard.wav
182,192,248175,128,0,248275:0:0:0:0:
109,192,248175,128,0,248275:0:0:0:0:
109,192,248375,128,0,248475:0:0:0:0:
36,192,248375,128,0,248475:0:0:0:0:
256,192,248375,128,0,248475:0:0:0:60:Kick Hard.wav
402,192,248375,128,0,248475:0:0:0:0:
109,192,248575,128,0,248675:0:0:0:0:
36,192,248575,128,0,248675:0:0:0:0:
256,192,248575,128,0,248675:0:0:0:60:Kick Hard.wav
402,192,248575,128,0,248675:0:0:0:0:
256,192,248775,1,0,0:0:0:60:Kick Hard.wav
36,192,248775,1,0,0:0:0:0:
402,192,248775,128,0,248875:0:0:0:0:
109,192,248775,128,0,248875:0:0:0:0:
475,192,248875,1,0,0:0:0:0:
182,192,248975,1,0,0:0:0:0:
329,192,248975,1,0,0:0:0:90:fm3_f5.wav
36,192,249075,128,0,249175:0:0:0:0:
329,192,249075,128,0,249475:0:0:0:0:
475,192,249175,1,0,0:0:0:0:
182,192,249175,128,0,249275:0:0:0:0:
402,192,249175,1,0,0:0:0:60:Kick Hard.wav
36,192,249275,128,0,249475:0:0:0:0:
256,192,249275,1,0,0:0:0:90:fm3_c#5.wav
475,192,249375,128,0,249475:0:0:0:0:
256,192,249375,128,0,249475:0:0:0:0:
182,192,249475,1,0,0:0:0:0:
109,192,249475,1,0,0:0:0:0:
402,192,249575,128,0,249775:0:0:0:90:fm3_a#4.wav
329,192,249575,128,0,249775:0:0:0:0:
36,192,249575,128,0,249775:0:0:0:60:Kick Hard.wav
182,192,249775,1,0,0:0:0:0:
329,192,249875,1,0,0:0:0:0:
402,192,249975,1,0,0:0:0:80:Snare.wav
475,192,249975,1,0,0:0:0:0:
36,192,249975,1,0,0:0:0:90:fm3_f#4.wav
256,192,249975,1,0,0:0:0:60:Cymbal.wav
36,192,250075,1,0,0:0:0:0:
329,192,250175,1,0,0:0:0:0:
36,192,250275,1,0,0:0:0:0:
109,192,250275,1,0,0:0:0:80:Snare.wav
475,192,250275,1,0,0:0:0:90:fm3_f#5.wav
256,192,250275,1,0,0:0:0:60:Cymbal.wav
475,192,250375,1,0,0:0:0:0:
182,192,250475,1,0,0:0:0:0:
36,192,250575,1,0,0:0:0:0:
256,192,250575,1,0,0:0:0:60:Cymbal.wav
402,192,250575,1,0,0:0:0:90:fm3_f5.wav
475,192,250575,1,0,0:0:0:80:Snare.wav
402,192,250675,1,0,0:0:0:0:
182,192,250775,1,0,0:0:0:0:
475,192,250875,1,0,0:0:0:0:
256,192,250875,1,0,0:0:0:60:Cymbal.wav
109,192,250875,1,0,0:0:0:90:fm3_c#5.wav
36,192,250875,1,0,0:0:0:80:Snare.wav
109,192,250975,1,0,0:0:0:0:
329,192,251075,1,0,0:0:0:0:
402,192,251175,1,0,0:0:0:80:Snare.wav
475,192,251175,1,0,0:0:0:0:
36,192,251175,1,0,0:0:0:90:fm3_a#4.wav
256,192,251175,1,0,0:0:0:60:Cymbal.wav
182,192,251208,1,0,0:0:0:0:
109,192,251241,1,0,0:0:0:0:
182,192,251375,1,0,0:0:0:0:
329,192,251375,1,0,0:0:0:0:
402,192,251575,1,0,0:0:0:60:Cymbal.wav
475,192,251575,1,0,0:0:0:60:Kick Hard.wav
109,192,251575,128,0,251641:0:0:0:0:
36,192,251575,128,0,251641:0:0:0:60:Whistle.wav
256,192,251875,128,0,251941:0:0:0:0:
182,192,251875,128,0,251941:0:0:0:60:Whistle.wav
256,192,252175,128,0,252241:0:0:0:60:Whistle.wav
402,192,252175,128,0,252241:0:0:0:0:
329,192,252375,1,0,0:0:0:0:
182,192,252375,1,0,0:0:0:80:Snare.wav
36,192,252375,1,0,0:0:0:0:
182,192,252475,1,0,0:0:0:0:
256,192,252475,1,0,0:0:0:60:Kick Hard.wav
402,192,252475,128,0,252675:0:0:0:0:
475,192,252475,128,0,252675:0:0:0:90:fm3_e5.wav
329,192,252775,1,0,0:0:0:90:fm3_c#5.wav
475,192,252775,1,0,0:0:0:0:
256,192,252775,1,0,0:0:0:60:Kick Hard.wav
109,192,252775,1,0,0:0:0:0:
182,192,252975,1,0,0:0:0:0:
182,192,253075,1,0,0:0:0:0:
36,192,253075,1,0,0:0:0:60:Kick Hard.wav
402,192,253075,1,0,0:0:0:0:
256,192,253175,1,0,0:0:0:0:
256,192,253375,1,0,0:0:0:0:
109,192,253375,1,0,0:0:0:60:Kick Hard.wav
475,192,253375,1,0,0:0:0:0:
329,192,253575,1,0,0:0:0:0:
329,192,253675,1,0,0:0:0:0:
475,192,253675,1,0,0:0:0:60:Kick Hard.wav
36,192,253675,1,0,0:0:0:0:
256,192,253775,1,0,0:0:0:0:
475,192,253875,1,0,0:0:0:0:
329,192,253875,1,0,0:0:0:60:Kick Hard.wav
36,192,253875,1,0,0:0:0:0:
402,192,253975,1,0,0:0:0:0:
36,192,253975,1,0,0:0:0:0:
182,192,253975,1,0,0:0:0:80:Snare.wav
329,192,254075,1,0,0:0:0:0:
182,192,254175,1,0,0:0:0:0:
402,192,254375,1,0,0:0:0:0:
109,192,254375,1,0,0:0:0:0:
256,192,254475,1,0,0:0:0:0:
329,192,254575,1,0,0:0:0:0:
182,192,254625,1,0,0:0:0:0:
329,192,254675,1,0,0:0:0:0:
402,192,254725,1,0,0:0:0:0:
475,192,254775,1,0,0:0:0:0:
256,192,254775,1,0,0:0:0:60:Kick Hard.wav
36,192,254775,128,0,255575:0:0:0:90:fm3_f#4.wav
329,192,254975,1,0,0:0:0:0:
182,192,254975,1,0,0:0:0:0:
475,192,255075,1,0,0:0:0:90:fm3_b4.wav
256,192,255175,1,0,0:0:0:0:
109,192,255275,128,0,255375:0:0:0:0:
329,192,255375,128,0,255575:0:0:0:90:fm3_a4.wav
402,192,255375,1,0,0:0:0:0:
182,192,255475,128,0,255575:0:0:0:0:
256,192,255475,1,0,0:0:0:0:
402,192,255575,1,0,0:0:0:0:
475,192,255575,1,0,0:0:0:0:
109,192,255575,1,0,0:0:0:80:Snare.wav
256,192,255675,128,0,255875:0:0:0:50:Kick Soft.wav
475,192,255675,128,0,255875:0:0:0:90:fm3_e5.wav
36,192,255675,128,0,255875:0:0:0:0:
402,192,255975,1,0,0:0:0:0:
36,192,255975,1,0,0:0:0:60:Kick Hard.wav
256,192,255975,1,0,0:0:0:0:
109,192,256075,1,0,0:0:0:60:Kick Hard.wav
256,192,256075,1,0,0:0:0:0:
475,192,256075,1,0,0:0:0:0:
182,192,256175,128,0,256275:0:0:0:60:Kick Hard.wav
329,192,256175,128,0,256275:0:0:0:0:
475,192,256175,128,0,256275:0:0:0:0:
182,192,256375,1,0,0:0:0:0:
36,192,256375,1,0,0:0:0:0:
402,192,256375,1,0,0:0:0:0:
256,192,256375,1,0,0:0:0:60:Kick Hard.wav
329,192,257975,1,0,0:0:0:60:Kick Hard.wav
475,192,257975,1,0,0:0:0:0:
109,192,257975,1,0,0:0:0:60:Cymbal.wav
36,192,257975,1,0,0:0:0:0:
256,192,258175,1,0,0:0:0:0:
182,192,258175,1,0,0:0:0:40:Kick Hard.wav
329,192,258225,1,0,0:0:0:40:Kick Hard.wav
402,192,258225,1,0,0:0:0:0:
182,192,258275,1,0,0:0:0:0:
109,192,258275,1,0,0:0:0:40:Kick Hard.wav
256,192,258325,1,0,0:0:0:40:Kick Hard.wav
329,192,258325,1,0,0:0:0:0:
402,192,258375,1,0,0:0:0:0:
36,192,258375,1,0,0:0:0:60:Kick Hard.wav
475,192,258375,1,0,0:0:0:0:
36,192,258475,1,0,0:0:0:60:Kick Hard.wav
256,192,258475,1,0,0:0:0:0:
182,192,258475,1,0,0:0:0:0:
475,192,258675,1,0,0:0:0:0:
329,192,258675,1,0,0:0:0:60:Kick Hard.wav
109,192,258675,1,0,0:0:0:0:
402,192,258875,1,0,0:0:0:60:Kick Hard.wav
109,192,258875,1,0,0:0:0:0:
36,192,258875,1,0,0:0:0:0:
36,192,258975,1,0,0:0:0:0:
109,192,258975,1,0,0:0:0:0:
402,192,258975,1,0,0:0:0:60:Kick Hard.wav
109,192,259175,1,0,0:0:0:0:
36,192,259175,1,0,0:0:0:0:
329,192,259175,1,0,0:0:0:60:Kick Hard.wav
256,192,259275,1,0,0:0:0:60:Kick Hard.wav
475,192,259275,1,0,0:0:0:0:
402,192,259275,1,0,0:0:0:0:
182,192,259375,1,0,0:0:0:60:Kick Hard.wav
36,192,259375,1,0,0:0:0:0:
329,192,259375,1,0,0:0:0:0:
329,192,259475,1,0,0:0:0:0:
182,192,259475,1,0,0:0:0:60:Kick Hard.wav
36,192,259475,1,0,0:0:0:0:
109,192,259675,1,0,0:0:0:60:Kick Hard.wav
402,192,259675,1,0,0:0:0:0:
475,192,259675,1,0,0:0:0:0:
329,192,259775,1,0,0:0:0:0:
182,192,259775,1,0,0:0:0:60:Kick Hard.wav
36,192,259775,1,0,0:0:0:0:
256,192,259875,1,0,0:0:0:60:Kick Hard.wav
109,192,259875,1,0,0:0:0:0:
475,192,259875,1,0,0:0:0:0:
329,192,259975,1,0,0:0:0:60:Kick Hard.wav
36,192,259975,1,0,0:0:0:0:
182,192,259975,1,0,0:0:0:0:
256,192,260075,1,0,0:0:0:0:
475,192,260075,1,0,0:0:0:0:
402,192,260075,1,0,0:0:0:60:Kick Hard.wav
256,192,260175,1,0,0:0:0:0:
402,192,260175,1,0,0:0:0:60:Kick Hard.wav
475,192,260175,1,0,0:0:0:0:
475,192,260375,1,0,0:0:0:0:
256,192,260375,1,0,0:0:0:60:Kick Hard.wav
109,192,260375,1,0,0:0:0:0:
36,192,260475,1,0,0:0:0:0:
182,192,260475,1,0,0:0:0:60:Kick Hard.wav
402,192,260475,1,0,0:0:0:0:
402,192,260575,1,0,0:0:0:0:
182,192,260575,1,0,0:0:0:60:Kick Hard.wav
36,192,260575,1,0,0:0:0:0:
256,192,260775,1,0,0:0:0:50:Kick Soft.wav
36,192,260775,1,0,0:0:0:0:
329,192,260825,1,0,0:0:0:50:Kick Soft.wav
109,192,260875,1,0,0:0:0:50:Kick Soft.wav
402,192,260875,1,0,0:0:0:0:
182,192,260925,1,0,0:0:0:50:Kick Soft.wav
475,192,260975,1,0,0:0:0:50:Kick Soft.wav
256,192,260975,1,0,0:0:0:0:
475,192,261075,1,0,0:0:0:50:Kick Soft.wav
256,192,261075,1,0,0:0:0:0:
36,192,261175,1,0,0:0:0:60:Cymbal.wav
329,192,261175,1,0,0:0:0:60:Kick Hard.wav
402,192,261175,128,0,261375:0:0:0:0:
109,192,261175,128,0,261475:0:0:0:90:fm3_f#4.wav
182,192,261275,1,0,0:0:0:0:
329,192,261375,128,0,261475:0:0:0:80:Hihat.wav
36,192,261475,128,0,261675:0:0:0:0:
475,192,261475,1,0,0:0:0:90:fm3_f#5.wav
182,192,261575,1,0,0:0:0:60:Kick Hard.wav
475,192,261575,128,0,261675:0:0:0:0:
256,192,261575,128,0,261675:0:0:0:0:
402,192,261675,1,0,0:0:0:0:
256,192,261775,1,0,0:0:0:90:fm3_f5.wav
109,192,261775,1,0,0:0:0:80:Hihat.wav
256,192,261875,128,0,262275:0:0:0:0:
475,192,261875,128,0,261975:0:0:0:0:
402,192,261975,1,0,0:0:0:60:Kick Hard.wav
36,192,261975,1,0,0:0:0:0:
182,192,261975,128,0,262175:0:0:0:0:
329,192,262075,1,0,0:0:0:90:fm3_c#5.wav
109,192,262075,128,0,262175:0:0:0:0:
329,192,262175,128,0,262275:0:0:0:0:
475,192,262175,128,0,262275:0:0:0:80:Hihat.wav
36,192,262275,1,0,0:0:0:0:
109,192,262275,1,0,0:0:0:0:
182,192,262375,128,0,262575:0:0:0:60:Kick Hard.wav
402,192,262375,128,0,262575:0:0:0:90:fm3_a#4.wav
475,192,262375,128,0,262575:0:0:0:0:
36,192,262575,1,0,0:0:0:80:Hihat.wav
182,192,262675,1,0,0:0:0:0:
329,192,262775,128,0,263075:0:0:0:0:
109,192,262775,128,0,262975:0:0:0:90:fm3_f#4.wav
475,192,262775,1,0,0:0:0:0:
256,192,262775,1,0,0:0:0:60:Kick Hard.wav
402,192,262875,1,0,0:0:0:0:
182,192,262975,128,0,263075:0:0:0:80:Hihat.wav
402,192,263075,128,0,263275:0:0:0:0:
36,192,263075,1,0,0:0:0:90:fm3_f#5.wav
256,192,263175,128,0,263275:0:0:0:0:
36,192,263175,128,0,263275:0:0:0:0:
475,192,263175,1,0,0:0:0:60:Kick Hard.wav
182,192,263275,1,0,0:0:0:0:
329,192,263375,1,0,0:0:0:90:fm3_f5.wav
109,192,263375,1,0,0:0:0:80:Hihat.wav
329,192,263475,128,0,263575:0:0:0:0:
475,192,263475,128,0,263875:0:0:0:0:
182,192,263575,1,0,0:0:0:60:Kick Hard.wav
256,192,263575,1,0,0:0:0:0:
36,192,263575,1,0,0:0:0:0:
109,192,263675,1,0,0:0:0:0:
329,192,263675,128,0,263775:0:0:0:90:fm3_c#5.wav
182,192,263775,1,0,0:0:0:80:Hihat.wav
402,192,263775,128,0,263875:0:0:0:0:
109,192,263875,1,0,0:0:0:0:
36,192,263875,1,0,0:0:0:60:Kick Hard.wav
256,192,263875,1,0,0:0:0:0:
402,192,263975,1,0,0:0:0:90:fm3_a#4.wav
475,192,263975,1,0,0:0:0:0:
109,192,264008,1,0,0:0:0:0:
182,192,264041,1,0,0:0:0:0:
256,192,264075,1,0,0:0:0:0:
329,192,264108,1,0,0:0:0:0:
402,192,264141,1,0,0:0:0:0:
36,192,264175,1,0,0:0:0:60:Kick Hard.wav
109,192,264175,1,0,0:0:0:0:
475,192,264175,1,0,0:0:0:80:Hihat.wav
329,192,264375,1,0,0:0:0:40:Kick Hard.wav
402,192,264375,1,0,0:0:0:0:
182,192,264425,1,0,0:0:0:40:Kick Hard.wav
109,192,264425,1,0,0:0:0:0:
402,192,264475,1,0,0:0:0:40:Kick Hard.wav
475,192,264475,1,0,0:0:0:0:
329,192,264525,1,0,0:0:0:0:
256,192,264525,1,0,0:0:0:40:Kick Hard.wav
182,192,264575,1,0,0:0:0:60:Kick Hard.wav
36,192,264575,1,0,0:0:0:0:
475,192,264675,1,0,0:0:0:0:
256,192,264675,1,0,0:0:0:0:
402,192,264675,1,0,0:0:0:60:Kick Hard.wav
182,192,264775,1,0,0:0:0:40:Kick Hard.wav
109,192,264775,1,0,0:0:0:0:
402,192,264825,1,0,0:0:0:40:Kick Hard.wav
329,192,264825,1,0,0:0:0:0:
109,192,264875,1,0,0:0:0:0:
36,192,264875,1,0,0:0:0:40:Kick Hard.wav
256,192,264925,1,0,0:0:0:0:
182,192,264925,1,0,0:0:0:40:Kick Hard.wav
329,192,264975,1,0,0:0:0:60:Kick Hard.wav
475,192,264975,1,0,0:0:0:0:
109,192,265075,1,0,0:0:0:60:Kick Hard.wav
256,192,265075,1,0,0:0:0:0:
36,192,265075,1,0,0:0:0:0:
475,192,265275,1,0,0:0:0:0:
329,192,265275,1,0,0:0:0:0:
402,192,265275,1,0,0:0:0:60:Kick Hard.wav
256,192,265375,1,0,0:0:0:0:
109,192,265375,1,0,0:0:0:40:Kick Hard.wav
329,192,265425,1,0,0:0:0:40:Kick Hard.wav
402,192,265425,1,0,0:0:0:0:
36,192,265475,1,0,0:0:0:40:Kick Hard.wav
182,192,265475,1,0,0:0:0:0:
256,192,265525,1,0,0:0:0:40:Kick Hard.wav
329,192,265525,1,0,0:0:0:0:
475,192,265575,1,0,0:0:0:0:
402,192,265575,1,0,0:0:0:60:Kick Hard.wav
256,192,265675,1,0,0:0:0:0:
109,192,265675,1,0,0:0:0:60:Kick Hard.wav
36,192,265675,1,0,0:0:0:0:
402,192,265775,1,0,0:0:0:60:Kick Hard.wav
475,192,265775,1,0,0:0:0:0:
182,192,265775,1,0,0:0:0:0:
402,192,265875,1,0,0:0:0:60:Kick Hard.wav
475,192,265875,1,0,0:0:0:0:
109,192,265875,1,0,0:0:0:0:
36,192,265975,1,0,0:0:0:0:
182,192,265975,1,0,0:0:0:0:
329,192,265975,1,0,0:0:0:60:Kick Hard.wav
402,192,266075,1,0,0:0:0:0:
256,192,266075,1,0,0:0:0:60:Kick Hard.wav
109,192,266075,1,0,0:0:0:0:
109,192,266175,1,0,0:0:0:0:
402,192,266175,1,0,0:0:0:0:
256,192,266175,1,0,0:0:0:60:Kick Hard.wav
329,192,266375,1,0,0:0:0:0:
475,192,266375,1,0,0:0:0:0:
36,192,266375,1,0,0:0:0:60:Kick Hard.wav
475,192,266475,1,0,0:0:0:0:
329,192,266475,1,0,0:0:0:0:
36,192,266475,1,0,0:0:0:60:Kick Hard.wav
256,192,266675,1,0,0:0:0:0:
329,192,266675,1,0,0:0:0:40:Kick Hard.wav
402,192,266725,1,0,0:0:0:40:Kick Hard.wav
475,192,266725,1,0,0:0:0:0:
109,192,266775,1,0,0:0:0:60:Kick Hard.wav
256,192,266775,1,0,0:0:0:0:
36,192,266775,1,0,0:0:0:0:
329,192,266950,1,0,0:0:0:0:
182,192,266950,1,0,0:0:0:60:Kick Hard.wav
109,192,266950,1,0,0:0:0:0:
182,192,267075,1,0,0:0:0:0:
402,192,267075,1,0,0:0:0:0:
256,192,267075,1,0,0:0:0:60:Kick Hard.wav
329,192,267175,1,0,0:0:0:50:Kick Soft.wav
475,192,267175,1,0,0:0:0:0:
475,192,267325,1,0,0:0:0:0:
182,192,267325,1,0,0:0:0:50:Kick Soft.wav
36,192,267475,1,0,0:0:0:50:Kick Soft.wav
475,192,267475,1,0,0:0:0:0:
36,192,267575,1,0,0:0:0:0:
109,192,267575,1,0,0:0:0:60:Cymbal.wav
256,192,267575,1,0,0:0:0:60:Kick Hard.wav
182,192,267675,1,0,0:0:0:0:
475,192,267675,1,0,0:0:0:0:
329,192,267675,1,0,0:0:0:60:Kick Hard.wav
402,192,267775,1,0,0:0:0:0:
256,192,267775,1,0,0:0:0:60:Kick Hard.wav
109,192,267775,1,0,0:0:0:0:
329,192,267975,128,0,268275:0:0:0:60:EPing Lo.wav
475,192,267975,128,0,268275:0:0:0:0:
109,192,267975,128,0,268275:0:0:0:0:
402,192,268375,1,0,0:0:0:0:
182,192,268375,1,0,0:0:0:60:Kick Hard.wav
36,192,268375,1,0,0:0:0:0:
182,192,268475,1,0,0:0:0:0:
402,192,268575,1,0,0:0:0:0:
475,192,268575,1,0,0:0:0:60:Kick Hard.wav
256,192,268575,1,0,0:0:0:0:
329,192,268775,128,0,269075:0:0:0:60:EPing Lo.wav
109,192,268775,128,0,269075:0:0:0:0:
36,192,268775,128,0,269075:0:0:0:0:
402,192,269175,1,0,0:0:0:0:
475,192,269175,1,0,0:0:0:0:
109,192,269175,1,0,0:0:0:80:Snare.wav
329,192,269375,1,0,0:0:0:60:Kick Hard.wav
182,192,269375,1,0,0:0:0:0:
36,192,269375,1,0,0:0:0:0:
329,192,269475,1,0,0:0:0:0:
182,192,269475,1,0,0:0:0:80:Snare.wav
475,192,269475,1,0,0:0:0:0:
256,192,269575,1,0,0:0:0:0:
109,192,269675,1,0,0:0:0:60:Kick Hard.wav
402,192,269675,1,0,0:0:0:0:
329,192,269675,1,0,0:0:0:0:
109,192,269775,1,0,0:0:0:0:
402,192,269775,1,0,0:0:0:80:Snare.wav
182,192,269775,1,0,0:0:0:0:
256,192,269975,1,0,0:0:0:60:Kick Hard.wav
36,192,269975,1,0,0:0:0:0:
475,192,269975,1,0,0:0:0:0:
182,192,270025,128,0,270275:0:0:0:45:Whistle.wav
329,192,270075,128,0,270275:0:0:0:45:Whistle.wav
182,192,270375,1,0,0:0:0:0:
329,192,270375,1,0,0:0:0:45:Whistle.wav
329,192,270475,1,0,0:0:0:0:
182,192,270475,1,0,0:0:0:45:Whistle.wav
402,192,270575,1,0,0:0:0:45:Whistle.wav
109,192,270575,1,0,0:0:0:0:
402,192,270675,1,0,0:0:0:0:
109,192,270675,1,0,0:0:0:45:Whistle.wav
475,192,270775,1,0,0:0:0:0:
256,192,270775,1,0,0:0:0:60:Kick Hard.wav
36,192,270775,1,0,0:0:0:60:Cymbal.wav
182,192,270775,1,0,0:0:0:0:
402,192,270875,1,0,0:0:0:0:
329,192,270875,1,0,0:0:0:60:Kick Hard.wav
109,192,270875,1,0,0:0:0:0:
256,192,270975,1,0,0:0:0:60:Kick Hard.wav
475,192,270975,1,0,0:0:0:0:
36,192,270975,1,0,0:0:0:0:
475,192,271075,1,0,0:0:0:0:
256,192,271075,1,0,0:0:0:60:Kick Hard.wav
36,192,271075,1,0,0:0:0:0:
256,192,271275,1,0,0:0:0:40:Kick Hard.wav
109,192,271275,1,0,0:0:0:0:
402,192,271325,1,0,0:0:0:40:Kick Hard.wav
475,192,271325,1,0,0:0:0:0:
329,192,271375,1,0,0:0:0:60:Kick Hard.wav
36,192,271375,1,0,0:0:0:0:
182,192,271375,1,0,0:0:0:0:
256,192,271475,1,0,0:0:0:60:Kick Hard.wav
402,192,271475,1,0,0:0:0:0:
475,192,271475,1,0,0:0:0:0:
109,192,271575,1,0,0:0:0:0:
36,192,271575,1,0,0:0:0:0:
329,192,271575,1,0,0:0:0:60:Kick Hard.wav
329,192,271675,1,0,0:0:0:60:Kick Hard.wav
109,192,271675,1,0,0:0:0:0:
36,192,271675,1,0,0:0:0:0:
329,192,271875,1,0,0:0:0:40:Kick Hard.wav
475,192,271875,1,0,0:0:0:0:
182,192,271925,1,0,0:0:0:40:Kick Hard.wav
256,192,271925,1,0,0:0:0:0:
109,192,271975,1,0,0:0:0:0:
36,192,271975,1,0,0:0:0:60:Kick Hard.wav
402,192,271975,1,0,0:0:0:0:
182,192,272075,1,0,0:0:0:60:Kick Hard.wav
329,192,272075,1,0,0:0:0:0:
475,192,272075,1,0,0:0:0:0:
329,192,272175,1,0,0:0:0:60:Kick Hard.wav
475,192,272175,1,0,0:0:0:0:
182,192,272175,1,0,0:0:0:0:
329,192,272375,1,0,0:0:0:0:
182,192,272375,1,0,0:0:0:40:Kick Hard.wav
36,192,272375,1,0,0:0:0:0:
402,192,272441,1,0,0:0:0:40:Kick Hard.wav
475,192,272441,1,0,0:0:0:0:
182,192,272508,1,0,0:0:0:40:Kick Hard.wav
109,192,272508,1,0,0:0:0:0:
256,192,272575,1,0,0:0:0:0:
329,192,272575,1,0,0:0:0:0:
475,192,272575,1,0,0:0:0:40:Kick Hard.wav
109,192,272641,1,0,0:0:0:0:
36,192,272641,1,0,0:0:0:40:Kick Hard.wav
329,192,272708,1,0,0:0:0:0:
182,192,272708,1,0,0:0:0:40:Kick Hard.wav
402,192,272775,1,0,0:0:0:60:Kick Hard.wav
475,192,272775,1,0,0:0:0:0:
36,192,272775,1,0,0:0:0:0:
402,192,272875,1,0,0:0:0:60:Kick Hard.wav
475,192,272875,1,0,0:0:0:0:
36,192,272875,1,0,0:0:0:0:
256,192,272975,1,0,0:0:0:0:
109,192,273075,1,0,0:0:0:60:Kick Hard.wav
36,192,273075,1,0,0:0:0:0:
402,192,273075,1,0,0:0:0:0:
329,192,273175,1,0,0:0:0:60:Kick Hard.wav
36,192,273175,1,0,0:0:0:0:
109,192,273175,1,0,0:0:0:0:
329,192,273308,1,0,0:0:0:0:
182,192,273308,1,0,0:0:0:60:Kick Hard.wav
475,192,273308,1,0,0:0:0:0:
182,192,273441,1,0,0:0:0:0:
402,192,273441,1,0,0:0:0:0:
36,192,273441,1,0,0:0:0:60:Kick Hard.wav
109,192,273575,1,0,0:0:0:0:
256,192,273575,1,0,0:0:0:60:Kick Hard.wav
475,192,273575,1,0,0:0:0:0:
36,192,273575,1,0,0:0:0:0:
182,192,273775,1,0,0:0:0:50:Kick Soft.wav
329,192,273825,1,0,0:0:0:50:Kick Soft.wav
402,192,273875,1,0,0:0:0:50:Kick Soft.wav
329,192,273925,1,0,0:0:0:50:Kick Soft.wav
109,192,273975,1,0,0:0:0:60:Kick Hard.wav
475,192,273975,128,0,274275:0:0:0:0:
36,192,273975,1,0,0:0:0:60:Cymbal.wav
256,192,273975,128,0,274175:0:0:0:90:fm3_f#4.wav
402,192,274075,1,0,0:0:0:0:
182,192,274175,128,0,274275:0:0:0:80:Hihat.wav
36,192,274275,1,0,0:0:0:90:fm3_f#5.wav
402,192,274275,128,0,274475:0:0:0:0:
256,192,274375,128,0,274475:0:0:0:0:
329,192,274375,1,0,0:0:0:60:Kick Hard.wav
36,192,274375,128,0,274475:0:0:0:0:
182,192,274475,1,0,0:0:0:0:
475,192,274575,1,0,0:0:0:90:fm3_f5.wav
109,192,274575,1,0,0:0:0:80:Hihat.wav
475,192,274675,128,0,275075:0:0:0:0:
256,192,274675,128,0,274775:0:0:0:0:
109,192,274775,1,0,0:0:0:60:Kick Hard.wav
402,192,274775,1,0,0:0:0:0:
36,192,274775,128,0,275075:0:0:0:0:
329,192,274875,128,0,274975:0:0:0:0:
182,192,274875,1,0,0:0:0:90:fm3_c#5.wav
182,192,274975,128,0,275075:0:0:0:0:
109,192,274975,128,0,275075:0:0:0:80:Hihat.wav
402,192,275075,1,0,0:0:0:0:
329,192,275075,1,0,0:0:0:0:
36,192,275175,128,0,275375:0:0:0:90:fm3_a#4.wav
256,192,275175,128,0,275375:0:0:0:60:Kick Hard.wav
182,192,275175,128,0,275375:0:0:0:0:
402,192,275375,1,0,0:0:0:80:Hihat.wav
256,192,275475,1,0,0:0:0:0:
329,192,275575,128,0,275775:0:0:0:90:fm3_f#4.wav
402,192,275575,128,0,275775:0:0:0:0:
109,192,275575,128,0,275775:0:0:0:80:Snare.wav
36,192,275575,128,0,275775:0:0:0:60:Kick Hard.wav
182,192,275675,128,0,275775:0:0:0:0:
256,192,275775,128,0,275875:0:0:0:80:Hihat.wav
475,192,275875,128,0,276075:0:0:0:0:
109,192,275875,128,0,276075:0:0:0:80:Snare.wav
402,192,275875,128,0,276075:0:0:0:90:fm3_f#5.wav
36,192,275875,128,0,276075:0:0:0:60:Kick Hard.wav
256,192,275975,128,0,276075:0:0:0:0:
329,192,276075,128,0,276175:0:0:0:0:
182,192,276175,128,0,276375:0:0:0:80:Snare.wav
402,192,276175,128,0,276375:0:0:0:90:fm3_f5.wav
475,192,276175,128,0,276375:0:0:0:80:Hihat.wav
109,192,276175,128,0,276375:0:0:0:60:Kick Hard.wav
329,192,276275,128,0,276375:0:0:0:0:
256,192,276475,1,0,0:0:0:80:Snare.wav
402,192,276475,1,0,0:0:0:60:Kick Hard.wav
475,192,276475,1,0,0:0:0:0:
109,192,276475,1,0,0:0:0:90:fm3_c#5.wav
182,192,276575,128,0,276675:0:0:0:80:Hihat.wav
36,192,276575,128,0,276675:0:0:0:0:
475,192,276575,128,0,276675:0:0:0:0:
475,192,276775,1,0,0:0:0:0:
36,192,276775,1,0,0:0:0:90:fm3_a#4.wav
109,192,276775,1,0,0:0:0:80:Snare.wav
402,192,276808,1,0,0:0:0:0:
329,192,276841,1,0,0:0:0:0:
256,192,276875,1,0,0:0:0:0:
182,192,276908,1,0,0:0:0:0:
109,192,276941,1,0,0:0:0:0:
36,192,276975,1,0,0:0:0:0:
475,192,276975,1,0,0:0:0:60:Kick Soft.wav
256,192,277025,1,0,0:0:0:60:Kick Soft.wav
329,192,277075,1,0,0:0:0:60:Kick Soft.wav
402,192,277125,1,0,0:0:0:60:Kick Soft.wav
36,192,277175,1,0,0:0:0:0:
109,192,277175,1,0,0:0:0:60:Kick Soft.wav
475,192,277175,1,0,0:0:0:0:
182,192,277208,1,0,0:0:0:60:Kick Soft.wav
256,192,277241,1,0,0:0:0:60:Kick Soft.wav
329,192,277275,1,0,0:0:0:60:Kick Soft.wav
402,192,277308,1,0,0:0:0:60:Kick Soft.wav
475,192,277341,1,0,0:0:0:60:Kick Soft.wav
36,192,277375,1,0,0:0:0:0:
182,192,277375,1,0,0:0:0:60:Kick Hard.wav
329,192,277475,1,0,0:0:0:60:Kick Hard.wav
475,192,277475,1,0,0:0:0:0:
256,192,277575,1,0,0:0:0:60:Kick Hard.wav
109,192,277575,1,0,0:0:0:0:
36,192,277575,1,0,0:0:0:80:Snare.wav
109,192,277675,1,0,0:0:0:0:
256,192,277675,1,0,0:0:0:60:Kick Hard.wav
475,192,277775,1,0,0:0:0:60:Kick Hard.wav
402,192,277775,1,0,0:0:0:0:
256,192,277875,1,0,0:0:0:0:
36,192,277875,1,0,0:0:0:60:Kick Hard.wav
109,192,277975,1,0,0:0:0:80:Snare.wav
475,192,277975,1,0,0:0:0:0:
329,192,277975,1,0,0:0:0:60:Kick Hard.wav
475,192,278075,1,0,0:0:0:0:
329,192,278075,1,0,0:0:0:60:Kick Hard.wav
182,192,278175,1,0,0:0:0:60:Kick Hard.wav
36,192,278175,1,0,0:0:0:0:
256,192,278275,1,0,0:0:0:0:
402,192,278275,1,0,0:0:0:60:Kick Hard.wav
109,192,278375,1,0,0:0:0:0:
36,192,278375,1,0,0:0:0:60:Kick Hard.wav
329,192,278375,1,0,0:0:0:80:Snare.wav
36,192,278475,1,0,0:0:0:60:Kick Hard.wav
109,192,278475,1,0,0:0:0:0:
256,192,278575,1,0,0:0:0:60:Kick Hard.wav
475,192,278575,1,0,0:0:0:0:
182,192,278675,1,0,0:0:0:60:Kick Hard.wav
36,192,278675,1,0,0:0:0:0:
475,192,278775,1,0,0:0:0:0:
402,192,278775,1,0,0:0:0:0:
109,192,278775,1,0,0:0:0:60:Kick Soft.wav
182,192,278808,1,0,0:0:0:60:Kick Soft.wav
256,192,278841,1,0,0:0:0:60:Kick Soft.wav
329,192,278875,1,0,0:0:0:60:Kick Soft.wav
36,192,278908,1,0,0:0:0:60:Kick Soft.wav
109,192,278941,1,0,0:0:0:60:Kick Soft.wav
182,192,278975,1,0,0:0:0:60:Kick Hard.wav
402,192,278975,1,0,0:0:0:0:
475,192,279075,1,0,0:0:0:0:
329,192,279075,1,0,0:0:0:60:Kick Hard.wav
36,192,279175,1,0,0:0:0:60:Kick Hard.wav
256,192,279175,1,0,0:0:0:0:
109,192,279175,1,0,0:0:0:80:Snare.wav
256,192,279275,1,0,0:0:0:0:
36,192,279275,1,0,0:0:0:60:Kick Hard.wav
475,192,279375,1,0,0:0:0:60:Kick Hard.wav
402,192,279375,1,0,0:0:0:0:
256,192,279475,1,0,0:0:0:0:
109,192,279475,1,0,0:0:0:60:Kick Hard.wav
182,192,279575,1,0,0:0:0:80:Snare.wav
402,192,279575,1,0,0:0:0:60:Kick Hard.wav
329,192,279575,1,0,0:0:0:0:
329,192,279675,1,0,0:0:0:0:
402,192,279675,1,0,0:0:0:60:Kick Hard.wav
109,192,279775,1,0,0:0:0:0:
36,192,279775,1,0,0:0:0:60:Kick Hard.wav
256,192,279875,1,0,0:0:0:60:Kick Hard.wav
475,192,279875,1,0,0:0:0:0:
402,192,279975,1,0,0:0:0:80:Snare.wav
182,192,279975,1,0,0:0:0:60:Kick Hard.wav
36,192,279975,1,0,0:0:0:0:
36,192,280075,1,0,0:0:0:0:
182,192,280075,1,0,0:0:0:60:Kick Hard.wav
329,192,280175,1,0,0:0:0:60:Kick Hard.wav
475,192,280175,1,0,0:0:0:0:
256,192,280275,1,0,0:0:0:60:Kick Hard.wav
109,192,280275,1,0,0:0:0:0:
402,192,280375,1,0,0:0:0:0:
36,192,280375,1,0,0:0:0:25:Snare.wav
475,192,280375,1,0,0:0:0:0:
109,192,280408,1,0,0:0:0:25:Snare.wav
182,192,280441,1,0,0:0:0:25:Snare.wav
256,192,280475,1,0,0:0:0:25:Snare.wav
475,192,280508,1,0,0:0:0:25:Snare.wav
402,192,280541,1,0,0:0:0:25:Snare.wav
329,192,280575,1,0,0:0:0:0:
36,192,280575,1,0,0:0:0:50:Kick Soft.wav
109,192,280625,1,0,0:0:0:50:Kick Soft.wav
256,192,280675,1,0,0:0:0:50:Kick Soft.wav
402,192,280725,1,0,0:0:0:50:Kick Soft.wav
475,192,280775,1,0,0:0:0:0:
36,192,280775,1,0,0:0:0:50:Kick Soft.wav
109,192,280825,1,0,0:0:0:50:Kick Soft.wav
182,192,280875,1,0,0:0:0:50:Kick Soft.wav
256,192,280925,1,0,0:0:0:50:Kick Soft.wav
475,192,280975,1,0,0:0:0:50:Kick Soft.wav
402,192,280975,1,0,0:0:0:0:
329,192,281025,1,0,0:0:0:50:Kick Soft.wav
182,192,281075,1,0,0:0:0:50:Kick Soft.wav
109,192,281125,1,0,0:0:0:50:Kick Soft.wav
256,192,281175,1,0,0:0:0:25:Snare.wav
36,192,281175,1,0,0:0:0:0:
329,192,281208,1,0,0:0:0:25:Snare.wav
402,192,281241,1,0,0:0:0:25:Snare.wav
475,192,281275,1,0,0:0:0:25:Snare.wav
36,192,281308,1,0,0:0:0:25:Snare.wav
109,192,281341,1,0,0:0:0:25:Snare.wav
182,192,281375,1,0,0:0:0:0:
402,192,281375,1,0,0:0:0:50:Kick Soft.wav
329,192,281425,1,0,0:0:0:50:Kick Soft.wav
256,192,281475,1,0,0:0:0:50:Kick Soft.wav
109,192,281525,1,0,0:0:0:50:Kick Soft.wav
475,192,281575,1,0,0:0:0:25:Snare.wav
36,192,281575,1,0,0:0:0:0:
402,192,281608,1,0,0:0:0:25:Snare.wav
329,192,281641,1,0,0:0:0:25:Snare.wav
182,192,281675,1,0,0:0:0:25:Snare.wav
109,192,281708,1,0,0:0:0:25:Snare.wav
36,192,281741,1,0,0:0:0:25:Snare.wav
402,192,281775,1,0,0:0:0:0:
475,192,281775,1,0,0:0:0:25:Snare.wav
256,192,281808,1,0,0:0:0:25:Snare.wav
182,192,281841,1,0,0:0:0:25:Snare.wav
109,192,281875,1,0,0:0:0:25:Snare.wav
329,192,281908,1,0,0:0:0:25:Snare.wav
402,192,281941,1,0,0:0:0:25:Snare.wav
36,192,281975,1,0,0:0:0:0:
182,192,281975,1,0,0:0:0:0:
475,192,281975,1,0,0:0:0:25:Snare.wav
36,192,282375,1,0,0:0:0:25:EPing Lo.wav
182,192,282425,1,0,0:0:0:25:EPing Lo.wav
329,192,282475,1,0,0:0:0:25:EPing Lo.wav
36,192,282575,1,0,0:0:0:30:EPing Lo.wav
256,192,282625,1,0,0:0:0:30:EPing Lo.wav
402,192,282675,1,0,0:0:0:30:EPing Lo.wav
109,192,282775,1,0,0:0:0:35:EPing Lo.wav
256,192,282825,1,0,0:0:0:35:EPing Lo.wav
402,192,282875,1,0,0:0:0:35:EPing Lo.wav
109,192,282975,1,0,0:0:0:40:EPing Lo.wav
256,192,283025,1,0,0:0:0:40:EPing Lo.wav
475,192,283075,1,0,0:0:0:40:EPing Lo.wav
109,192,283175,1,0,0:0:0:50:EPing Lo.wav
329,192,283225,1,0,0:0:0:50:EPing Lo.wav
475,192,283275,1,0,0:0:0:50:EPing Lo.wav
36,192,283375,1,0,0:0:0:0:
109,192,283375,1,0,0:0:0:60:EPing Lo.wav
329,192,283425,1,0,0:0:0:60:EPing Lo.wav
182,192,283425,1,0,0:0:0:0:
475,192,283475,1,0,0:0:0:60:EPing Lo.wav
402,192,283475,1,0,0:0:0:0:
256,192,283575,1,0,0:0:0:0:
182,192,283575,1,0,0:0:0:60:Kick Hard.wav
36,192,283575,1,0,0:0:0:0:
109,192,283575,1,0,0:0:0:60:Cymbal.wav
329,192,283675,1,0,0:0:0:50:EPing Lo.wav
402,192,283725,1,0,0:0:0:50:EPing Lo.wav
329,192,283775,1,0,0:0:0:50:EPing Lo.wav
182,192,283775,1,0,0:0:0:0:
109,192,283875,1,0,0:0:0:50:EPing Lo.wav
36,192,283875,1,0,0:0:0:0:
256,192,283975,1,0,0:0:0:0:
402,192,283975,1,0,0:0:0:60:Kick Hard.wav
475,192,283975,1,0,0:0:0:0:
182,192,284075,1,0,0:0:0:50:EPing Lo.wav
36,192,284075,1,0,0:0:0:0:
36,192,284175,1,0,0:0:0:0:
182,192,284175,1,0,0:0:0:50:EPing Lo.wav
329,192,284275,1,0,0:0:0:50:EPing Lo.wav
475,192,284275,1,0,0:0:0:0:
256,192,284375,1,0,0:0:0:0:
109,192,284375,1,0,0:0:0:60:Kick Hard.wav
36,192,284375,1,0,0:0:0:0:
329,192,284475,1,0,0:0:0:50:EPing Lo.wav
475,192,284525,1,0,0:0:0:50:EPing Lo.wav
329,192,284575,1,0,0:0:0:50:EPing Lo.wav
182,192,284575,1,0,0:0:0:0:
109,192,284675,1,0,0:0:0:0:
256,192,284675,1,0,0:0:0:50:EPing Lo.wav
36,192,284775,128,0,284875:0:0:0:60:Cymbal.wav
182,192,284775,128,0,284875:0:0:0:0:
402,192,284775,128,0,284875:0:0:0:60:Kick Hard.wav
475,192,284775,128,0,284875:0:0:0:0:
182,192,284975,128,0,285175:0:0:0:0:
36,192,284975,128,0,285175:0:0:0:60:Cymbal.wav
402,192,284975,128,0,285175:0:0:0:60:Kick Hard.wav
329,192,285375,1,0,0:0:0:60:Kick Soft.wav
329,192,285475,1,0,0:0:0:60:Kick Soft.wav
182,192,285575,1,0,0:0:0:60:Kick Soft.wav
182,192,285675,1,0,0:0:0:60:Kick Soft.wav
329,192,285775,1,0,0:0:0:0:
402,192,285775,1,0,0:0:0:60:Kick Hard.wav
402,192,285875,1,0,0:0:0:60:Kick Hard.wav
182,192,285975,1,0,0:0:0:0:
109,192,285975,1,0,0:0:0:60:Kick Hard.wav
109,192,286075,1,0,0:0:0:60:Kick Hard.wav
402,192,286175,1,0,0:0:0:0:
475,192,286175,1,0,0:0:0:60:Kick Hard.wav
402,192,286275,1,0,0:0:0:0:
475,192,286275,1,0,0:0:0:60:Kick Hard.wav
256,192,286375,1,0,0:0:0:0:
109,192,286425,1,0,0:0:0:0:
402,192,286475,1,0,0:0:0:0:
182,192,286525,1,0,0:0:0:0:
329,192,286575,1,0,0:0:0:0:
256,192,286625,1,0,0:0:0:0:
182,192,286675,1,0,0:0:0:0:
329,192,286725,1,0,0:0:0:0:
402,192,286775,1,0,0:0:0:60:Cymbal.wav
475,192,286775,1,0,0:0:0:0:
36,192,286775,1,0,0:0:0:0:
109,192,286775,1,0,0:0:0:60:Kick Hard.wav
256,192,286875,1,0,0:0:0:50:EPing Lo.wav
329,192,286925,1,0,0:0:0:50:EPing Lo.wav
182,192,286975,1,0,0:0:0:0:
109,192,286975,1,0,0:0:0:50:EPing Lo.wav
329,192,287075,1,0,0:0:0:0:
475,192,287075,1,0,0:0:0:50:EPing Lo.wav
109,192,287175,1,0,0:0:0:60:Kick Hard.wav
182,192,287175,1,0,0:0:0:0:
36,192,287175,1,0,0:0:0:0:
256,192,287275,1,0,0:0:0:50:EPing Lo.wav
402,192,287275,1,0,0:0:0:0:
402,192,287375,1,0,0:0:0:0:
256,192,287375,1,0,0:0:0:50:EPing Lo.wav
109,192,287475,1,0,0:0:0:50:EPing Lo.wav
36,192,287475,1,0,0:0:0:0:
329,192,287575,1,0,0:0:0:0:
402,192,287575,1,0,0:0:0:0:
475,192,287575,1,0,0:0:0:60:Kick Hard.wav
182,192,287675,1,0,0:0:0:50:EPing Lo.wav
36,192,287725,1,0,0:0:0:50:EPing Lo.wav
256,192,287775,1,0,0:0:0:50:EPing Lo.wav
402,192,287775,1,0,0:0:0:0:
109,192,287875,1,0,0:0:0:0:
182,192,287875,1,0,0:0:0:50:EPing Lo.wav
256,192,287975,1,0,0:0:0:0:
329,192,287975,1,0,0:0:0:60:Kick Hard.wav
475,192,287975,1,0,0:0:0:0:
36,192,288025,1,0,0:0:0:0:
109,192,288075,1,0,0:0:0:0:
182,192,288125,1,0,0:0:0:0:
402,192,288175,1,0,0:0:0:0:
329,192,288225,1,0,0:0:0:0:
256,192,288275,1,0,0:0:0:0:
182,192,288325,1,0,0:0:0:0:
402,192,288375,1,0,0:0:0:0:
36,192,288375,1,0,0:0:0:0:
109,192,288375,1,0,0:0:0:60:Kick Hard.wav
475,192,288475,1,0,0:0:0:50:Ping pong.wav
329,192,288525,1,0,0:0:0:50:Ping pong.wav
36,192,288575,1,0,0:0:0:0:
182,192,288575,1,0,0:0:0:50:Ping pong.wav
329,192,288675,1,0,0:0:0:50:Ping pong.wav
402,192,288725,1,0,0:0:0:50:Ping pong.wav
256,192,288775,1,0,0:0:0:60:Kick Hard.wav
182,192,288775,1,0,0:0:0:0:
475,192,288775,1,0,0:0:0:50:Ping pong.wav
109,192,288875,128,0,288975:0:0:0:50:Ping pong.wav
36,192,288875,128,0,288975:0:0:0:0:
256,192,288975,1,0,0:0:0:0:
475,192,288975,1,0,0:0:0:50:Ping pong.wav
402,192,289025,1,0,0:0:0:50:Ping pong.wav
36,192,289075,128,0,289175:0:0:0:50:Ping pong.wav
182,192,289075,128,0,289175:0:0:0:0:
256,192,289175,1,0,0:0:0:0:
329,192,289175,1,0,0:0:0:60:Kick Hard.wav
402,192,289175,1,0,0:0:0:0:
36,192,289275,1,0,0:0:0:0:
329,192,289325,1,0,0:0:0:0:
256,192,289325,1,0,0:0:0:60:Kick Hard.wav
182,192,289325,1,0,0:0:0:0:
475,192,289375,1,0,0:0:0:0:
256,192,289475,1,0,0:0:0:0:
182,192,289475,1,0,0:0:0:60:Kick Hard.wav
109,192,289475,1,0,0:0:0:0:
402,192,289575,1,0,0:0:0:60:Kick Hard.wav
329,192,289575,1,0,0:0:0:0:
475,192,289575,1,0,0:0:0:0:
36,192,289608,1,0,0:0:0:0:
109,192,289641,1,0,0:0:0:0:
256,192,289675,1,0,0:0:0:0:
329,192,289708,128,0,290075:0:0:0:0:
402,192,289741,128,0,290075:0:0:0:0:
475,192,289775,128,0,290075:0:0:0:0:
182,192,289808,128,0,290075:0:0:0:0:
109,192,289841,128,0,290075:0:0:0:0:
36,192,289875,128,0,290075:0:0:0:0:
475,192,290175,1,0,0:0:0:0:
256,192,290175,1,0,0:0:0:0:
329,192,290175,1,0,0:0:0:60:Cymbal.wav
109,192,290175,1,0,0:0:0:60:Kick Hard.wav
182,192,290275,1,0,0:0:0:0:
36,192,290275,1,0,0:0:0:0:
329,192,290375,1,0,0:0:0:50:EPing Hi.wav
402,192,290375,1,0,0:0:0:0:
329,192,290475,1,0,0:0:0:50:EPing Hi.wav
402,192,290475,1,0,0:0:0:0:
109,192,290575,1,0,0:0:0:60:Kick Hard.wav
36,192,290575,1,0,0:0:0:0:
256,192,290575,1,0,0:0:0:0:
256,192,290675,1,0,0:0:0:0:
109,192,290675,1,0,0:0:0:60:Kick Hard.wav
36,192,290675,1,0,0:0:0:0:
329,192,290775,1,0,0:0:0:0:
402,192,290775,1,0,0:0:0:60:Kick Hard.wav
475,192,290775,1,0,0:0:0:0:
182,192,290875,1,0,0:0:0:50:EPing Lo.wav
109,192,290925,1,0,0:0:0:50:EPing Lo.wav
182,192,290975,1,0,0:0:0:50:EPing Lo.wav
329,192,290975,1,0,0:0:0:0:
256,192,291075,1,0,0:0:0:0:
402,192,291075,1,0,0:0:0:50:EPing Lo.wav
182,192,291175,1,0,0:0:0:0:
36,192,291175,1,0,0:0:0:60:Kick Hard.wav
109,192,291175,1,0,0:0:0:0:
475,192,291225,1,0,0:0:0:0:
402,192,291275,1,0,0:0:0:0:
329,192,291325,1,0,0:0:0:0:
109,192,291375,1,0,0:0:0:0:
182,192,291425,1,0,0:0:0:0:
256,192,291475,1,0,0:0:0:0:
329,192,291525,1,0,0:0:0:0:
36,192,291575,1,0,0:0:0:0:
402,192,291575,1,0,0:0:0:0:
475,192,291575,1,0,0:0:0:60:Kick Hard.wav
329,192,291708,1,0,0:0:0:0:
256,192,291708,1,0,0:0:0:80:Snare.wav
109,192,291708,1,0,0:0:0:0:
109,192,291841,1,0,0:0:0:0:
256,192,291841,1,0,0:0:0:80:Snare.wav
329,192,291841,1,0,0:0:0:0:
182,192,291975,1,0,0:0:0:60:Kick Hard.wav
36,192,291975,1,0,0:0:0:0:
475,192,291975,1,0,0:0:0:0:
329,192,292108,1,0,0:0:0:0:
402,192,292108,1,0,0:0:0:80:Snare.wav
109,192,292108,1,0,0:0:0:0:
256,192,292175,1,0,0:0:0:0:
329,192,292241,1,0,0:0:0:0:
402,192,292241,1,0,0:0:0:80:Snare.wav
109,192,292241,1,0,0:0:0:0:
182,192,292375,1,0,0:0:0:0:
256,192,292375,1,0,0:0:0:60:Kick Hard.wav
475,192,292375,1,0,0:0:0:0:
109,192,292508,1,0,0:0:0:0:
36,192,292508,1,0,0:0:0:80:Snare.wav
402,192,292508,1,0,0:0:0:0:
36,192,292641,1,0,0:0:0:80:Snare.wav
109,192,292641,1,0,0:0:0:0:
402,192,292641,1,0,0:0:0:0:
475,192,292775,128,0,292875:0:0:0:0:
329,192,292775,128,0,292875:0:0:0:60:Kick Hard.wav
109,192,292775,128,0,292875:0:0:0:0:
475,192,292975,128,0,293175:0:0:0:0:
402,192,292975,128,0,293175:0:0:0:0:
256,192,292975,128,0,293175:0:0:0:60:Kick Hard.wav
109,192,292975,128,0,293175:0:0:0:80:Cymbal.wav
402,192,293375,1,0,0:0:0:60:Snare.wav
475,192,293375,1,0,0:0:0:0:
256,192,293375,1,0,0:0:0:60:Kick Hard.wav
109,192,293375,1,0,0:0:0:0:
182,192,293475,1,0,0:0:0:50:EPing Lo.wav
109,192,293525,1,0,0:0:0:50:EPing Lo.wav
36,192,293575,1,0,0:0:0:0:
329,192,293575,1,0,0:0:0:50:EPing Lo.wav
329,192,293675,1,0,0:0:0:50:EPing Lo.wav
475,192,293675,1,0,0:0:0:0:
256,192,293775,1,0,0:0:0:0:
182,192,293775,1,0,0:0:0:60:Snare.wav
36,192,293775,1,0,0:0:0:60:Kick Hard.wav
109,192,293775,1,0,0:0:0:0:
402,192,293875,128,0,294075:0:0:0:45:Whistle.wav
475,192,293875,128,0,294075:0:0:0:45:Whistle.wav
182,192,294075,1,0,0:0:0:0:
256,192,294125,1,0,0:0:0:0:
475,192,294175,1,0,0:0:0:0:
329,192,294175,1,0,0:0:0:60:Kick Hard.wav
402,192,294175,1,0,0:0:0:0:
36,192,294275,1,0,0:0:0:0:
182,192,294275,1,0,0:0:0:60:Kick Hard.wav
329,192,294325,1,0,0:0:0:60:Kick Hard.wav
402,192,294325,1,0,0:0:0:0:
182,192,294375,1,0,0:0:0:60:Kick Hard.wav
36,192,294375,1,0,0:0:0:0:
256,192,294425,1,0,0:0:0:0:
329,192,294475,1,0,0:0:0:0:
402,192,294525,1,0,0:0:0:0:
475,192,294575,1,0,0:0:0:0:
109,192,294575,1,0,0:0:0:0:
182,192,294625,1,0,0:0:0:0:
256,192,294675,1,0,0:0:0:0:
329,192,294725,1,0,0:0:0:0:
402,192,294775,1,0,0:0:0:0:
109,192,294775,1,0,0:0:0:60:Kick Hard.wav
36,192,294775,1,0,0:0:0:0:
256,192,294875,1,0,0:0:0:0:
182,192,294975,1,0,0:0:0:60:Kick Soft.wav
402,192,294975,1,0,0:0:0:0:
109,192,295041,1,0,0:0:0:0:
36,192,295108,1,0,0:0:0:0:
256,192,295175,1,0,0:0:0:80:Snare.wav
329,192,295175,1,0,0:0:0:0:
475,192,295175,1,0,0:0:0:0:
182,192,295241,1,0,0:0:0:0:
256,192,295308,1,0,0:0:0:0:
329,192,295375,1,0,0:0:0:0:
402,192,295441,1,0,0:0:0:0:
36,192,295475,1,0,0:0:0:60:Kick Soft.wav
109,192,295475,128,0,295575:0:0:0:0:
256,192,295508,1,0,0:0:0:0:
329,192,295575,1,0,0:0:0:0:
182,192,295575,128,0,295675:0:0:0:0:
475,192,295641,1,0,0:0:0:0:
36,192,295675,128,0,295875:0:0:0:0:
329,192,295708,1,0,0:0:0:0:
402,192,295775,1,0,0:0:0:0:
109,192,295775,128,0,295875:0:0:0:60:Kick Soft.wav
475,192,295841,1,0,0:0:0:0:
182,192,295875,128,0,295975:0:0:0:0:
402,192,295908,1,0,0:0:0:0:
36,192,295975,1,0,0:0:0:80:Snare.wav
329,192,295975,1,0,0:0:0:0:
109,192,295975,1,0,0:0:0:0:
402,192,296075,128,0,296275:0:0:0:60:Cymbal.wav
256,192,296075,128,0,296275:0:0:0:60:Kick Hard.wav
182,192,296075,128,0,296275:0:0:0:0:
36,192,296075,128,0,296275:0:0:0:0:
329,192,296475,1,0,0:0:0:50:EPing Hi.wav
182,192,296525,1,0,0:0:0:50:EPing Hi.wav
329,192,296575,1,0,0:0:0:50:EPing Hi.wav
109,192,296625,1,0,0:0:0:50:EPing Hi.wav
256,192,296675,1,0,0:0:0:50:EPing Hi.wav
109,192,296725,1,0,0:0:0:50:EPing Hi.wav
329,192,296775,1,0,0:0:0:50:EPing Hi.wav
475,192,296775,1,0,0:0:0:0:
329,192,296875,1,0,0:0:0:50:EPing Hi.wav
475,192,296875,1,0,0:0:0:0:
256,192,296975,1,0,0:0:0:0:
182,192,296975,1,0,0:0:0:60:Kick Hard.wav
36,192,296975,1,0,0:0:0:80:Cymbal.wav
402,192,297075,128,0,297275:0:0:0:0:
182,192,297075,128,0,297275:0:0:0:0:
475,192,297275,1,0,0:0:0:0:
109,192,297275,1,0,0:0:0:60:Kick Hard.wav
36,192,297275,1,0,0:0:0:0:
36,192,297375,1,0,0:0:0:0:
475,192,297375,1,0,0:0:0:0:
109,192,297375,1,0,0:0:0:60:Kick Hard.wav
256,192,297475,1,0,0:0:0:0:
402,192,297575,1,0,0:0:0:60:Kick Hard.wav
475,192,297575,1,0,0:0:0:0:
109,192,297575,1,0,0:0:0:0:
475,192,297675,1,0,0:0:0:0:
402,192,297675,1,0,0:0:0:60:Kick Hard.wav
109,192,297675,1,0,0:0:0:0:
36,192,297775,1,0,0:0:0:60:Whistle.wav
182,192,297800,1,0,0:0:0:0:
256,192,297825,1,0,0:0:0:0:
329,192,297875,1,0,0:0:0:60:Kick Hard.wav
475,192,297875,1,0,0:0:0:0:
402,192,297875,1,0,0:0:0:0:
329,192,297975,1,0,0:0:0:60:Kick Hard.wav
402,192,297975,1,0,0:0:0:0:
475,192,297975,1,0,0:0:0:0:
36,192,298025,1,0,0:0:0:60:Whistle.wav
109,192,298050,1,0,0:0:0:0:
256,192,298075,1,0,0:0:0:0:
402,192,298175,1,0,0:0:0:0:
475,192,298175,1,0,0:0:0:0:
109,192,298225,1,0,0:0:0:60:Whistle.wav
182,192,298250,1,0,0:0:0:0:
329,192,298275,1,0,0:0:0:0:
475,192,298375,1,0,0:0:0:0:
36,192,298375,1,0,0:0:0:60:Kick Hard.wav
109,192,298375,1,0,0:0:0:0:
256,192,298475,1,0,0:0:0:60:Whistle.wav
329,192,298575,1,0,0:0:0:50:Kick Soft.wav
182,192,298625,1,0,0:0:0:50:Kick Soft.wav
329,192,298675,1,0,0:0:0:50:Kick Soft.wav
109,192,298775,1,0,0:0:0:0:
36,192,298775,1,0,0:0:0:0:
256,192,298775,1,0,0:0:0:60:Kick Hard.wav
256,192,298875,1,0,0:0:0:60:Kick Hard.wav
109,192,298875,1,0,0:0:0:0:
36,192,298875,1,0,0:0:0:0:
475,192,298975,128,0,299075:0:0:0:0:
329,192,298975,128,0,299075:0:0:0:0:
182,192,299075,1,0,0:0:0:0:
109,192,299075,1,0,0:0:0:60:Kick Hard.wav
36,192,299075,1,0,0:0:0:0:
256,192,299175,128,0,299275:0:0:0:0:
475,192,299175,1,0,0:0:0:0:
36,192,299275,128,0,299575:0:0:0:0:
182,192,299275,128,0,299375:0:0:0:0:
475,192,299375,128,0,299575:0:0:0:60:Kick Hard.wav
402,192,299400,128,0,299575:0:0:0:0:
329,192,299425,128,0,299575:0:0:0:0:
256,192,299475,128,0,299575:0:0:0:0:
109,192,299475,128,0,299575:0:0:0:0:
329,192,299675,1,0,0:0:0:50:EPing Hi.wav
109,192,299675,1,0,0:0:0:0:
182,192,299725,1,0,0:0:0:50:EPing Hi.wav
402,192,299775,1,0,0:0:0:50:EPing Hi.wav
256,192,299825,1,0,0:0:0:50:EPing Hi.wav
109,192,299875,1,0,0:0:0:50:EPing Hi.wav
256,192,299925,1,0,0:0:0:50:EPing Hi.wav
329,192,299975,1,0,0:0:0:50:EPing Hi.wav
475,192,299975,1,0,0:0:0:0:
475,192,300075,1,0,0:0:0:0:
329,192,300075,1,0,0:0:0:50:EPing Hi.wav
402,192,300175,1,0,0:0:0:0:
36,192,300175,1,0,0:0:0:60:Kick Hard.wav
182,192,300175,128,0,300275:0:0:0:0:
109,192,300175,128,0,300275:0:0:0:0:
256,192,300275,128,0,300475:0:0:0:0:
329,192,300275,128,0,300475:0:0:0:0:
475,192,300275,128,0,300475:0:0:0:0:
36,192,300475,1,0,0:0:0:0:
109,192,300475,1,0,0:0:0:60:Kick Hard.wav
402,192,300475,1,0,0:0:0:0:
475,192,300575,1,0,0:0:0:0:
182,192,300575,1,0,0:0:0:0:
256,192,300575,1,0,0:0:0:60:Kick Hard.wav
109,192,300675,1,0,0:0:0:0:
402,192,300675,1,0,0:0:0:60:Kick Hard.wav
329,192,300675,1,0,0:0:0:0:
109,192,300775,1,0,0:0:0:0:
329,192,300775,1,0,0:0:0:0:
402,192,300775,1,0,0:0:0:60:Kick Hard.wav
182,192,300875,1,0,0:0:0:0:
109,192,300925,1,0,0:0:0:0:
475,192,300975,1,0,0:0:0:0:
329,192,300975,1,0,0:0:0:0:
36,192,300975,1,0,0:0:0:60:Kick Hard.wav
36,192,301075,1,0,0:0:0:0:
256,192,301175,1,0,0:0:0:60:Kick Hard.wav
475,192,301175,1,0,0:0:0:0:
109,192,301175,1,0,0:0:0:0:
256,192,301275,1,0,0:0:0:0:
182,192,301375,1,0,0:0:0:0:
402,192,301375,1,0,0:0:0:60:Kick Hard.wav
36,192,301375,1,0,0:0:0:0:
402,192,301475,1,0,0:0:0:0:
256,192,301575,1,0,0:0:0:60:Kick Hard.wav
475,192,301575,1,0,0:0:0:0:
182,192,301575,1,0,0:0:0:0:
109,192,301675,1,0,0:0:0:0:
109,192,301775,1,0,0:0:0:0:
402,192,301875,1,0,0:0:0:0:
256,192,301875,1,0,0:0:0:60:Kick Hard.wav
36,192,301875,1,0,0:0:0:0:
475,192,301975,1,0,0:0:0:0:
475,192,302075,1,0,0:0:0:0:
329,192,302175,1,0,0:0:0:0:
182,192,302175,1,0,0:0:0:60:Kick Hard.wav
36,192,302175,1,0,0:0:0:0:
402,192,302375,128,0,302675:0:0:0:0:
329,192,302400,128,0,302675:0:0:0:0:
182,192,302425,128,0,302675:0:0:0:0:
109,192,302450,128,0,302675:0:0:0:0:
475,192,302775,1,0,0:0:0:80:Cymbal.wav
402,192,302775,1,0,0:0:0:0:
182,192,302775,1,0,0:0:0:60:Kick Hard.wav
36,192,302775,1,0,0:0:0:0:
329,192,302875,1,0,0:0:0:50:EPing Hi.wav
256,192,302925,1,0,0:0:0:50:EPing Hi.wav
182,192,302975,1,0,0:0:0:50:EPing Hi.wav
329,192,303025,1,0,0:0:0:50:EPing Hi.wav
402,192,303075,1,0,0:0:0:50:EPing Hi.wav
329,192,303125,1,0,0:0:0:50:EPing Hi.wav
109,192,303175,1,0,0:0:0:50:EPing Hi.wav
36,192,303175,1,0,0:0:0:0:
256,192,303275,1,0,0:0:0:0:
475,192,303275,1,0,0:0:0:50:EPing Hi.wav
256,192,303375,1,0,0:0:0:0:
475,192,303375,1,0,0:0:0:50:EPing Hi.wav
402,192,303475,1,0,0:0:0:50:EPing Hi.wav
109,192,303475,1,0,0:0:0:0:
256,192,303575,1,0,0:0:0:60:Snare.wav
36,192,303575,1,0,0:0:0:0:
475,192,303575,1,0,0:0:0:0:
109,192,303675,1,0,0:0:0:50:EPing Hi.wav
329,192,303675,128,0,303875:0:0:0:60:Kick Hard.wav
475,192,303675,128,0,303875:0:0:0:0:
182,192,303775,1,0,0:0:0:50:EPing Hi.wav
36,192,303775,1,0,0:0:0:0:
36,192,303875,1,0,0:0:0:0:
182,192,303875,1,0,0:0:0:50:EPing Hi.wav
402,192,303975,1,0,0:0:0:60:Kick Hard.wav
475,192,303975,1,0,0:0:0:0:
109,192,303975,1,0,0:0:0:80:Cymbal.wav
182,192,304025,1,0,0:0:0:0:
256,192,304075,1,0,0:0:0:0:
329,192,304125,1,0,0:0:0:0:
402,192,304175,1,0,0:0:0:0:
36,192,304175,1,0,0:0:0:0:
109,192,304275,1,0,0:0:0:0:
256,192,304275,1,0,0:0:0:60:Kick Hard.wav
475,192,304275,1,0,0:0:0:0:
329,192,304375,1,0,0:0:0:50:Kick Soft.wav
256,192,304425,1,0,0:0:0:50:Kick Soft.wav
182,192,304475,1,0,0:0:0:50:Kick Soft.wav
402,192,304475,1,0,0:0:0:0:
109,192,304575,1,0,0:0:0:60:Kick Hard.wav
36,192,304575,1,0,0:0:0:0:
475,192,304575,1,0,0:0:0:0:
256,192,304675,1,0,0:0:0:50:Kick Soft.wav
329,192,304725,1,0,0:0:0:50:Kick Soft.wav
402,192,304775,1,0,0:0:0:50:Kick Soft.wav
182,192,304825,1,0,0:0:0:50:Kick Soft.wav
475,192,304875,1,0,0:0:0:0:
109,192,304875,1,0,0:0:0:60:Kick Hard.wav
36,192,304875,1,0,0:0:0:0:
329,192,304975,1,0,0:0:0:0:
256,192,305025,1,0,0:0:0:0:
182,192,305075,1,0,0:0:0:60:Kick Hard.wav
109,192,305075,1,0,0:0:0:0:
475,192,305075,1,0,0:0:0:0:
475,192,305175,1,0,0:0:0:0:
329,192,305175,1,0,0:0:0:80:Snare.wav
256,192,305175,128,0,305575:0:0:0:0:
182,192,305275,128,0,305375:0:0:0:0:
36,192,305375,128,0,305575:0:0:0:0:
475,192,305375,128,0,305575:0:0:0:0:
402,192,305375,128,0,305575:0:0:0:0:
182,192,305475,128,0,305575:0:0:0:60:Whistle.wav
109,192,305475,128,0,305575:0:0:0:0:
329,192,305775,128,0,305875:0:0:0:60:Whistle.wav
256,192,305975,1,0,0:0:0:0:
109,192,305975,1,0,0:0:0:60:Kick Hard.wav
36,192,305975,1,0,0:0:0:0:
475,192,305975,1,0,0:0:0:60:Cymbal.wav
329,192,306025,1,0,0:0:0:0:
182,192,306075,1,0,0:0:0:50:EPing Hi.wav
256,192,306125,1,0,0:0:0:50:EPing Hi.wav
402,192,306175,1,0,0:0:0:50:EPing Hi.wav
182,192,306225,1,0,0:0:0:50:EPing Hi.wav
109,192,306275,1,0,0:0:0:50:EPing Hi.wav
182,192,306325,1,0,0:0:0:50:EPing Hi.wav
329,192,306375,1,0,0:0:0:50:EPing Hi.wav
475,192,306375,1,0,0:0:0:0:
109,192,306475,1,0,0:0:0:0:
36,192,306475,1,0,0:0:0:50:EPing Hi.wav
36,192,306575,1,0,0:0:0:50:EPing Hi.wav
109,192,306575,1,0,0:0:0:0:
475,192,306675,1,0,0:0:0:50:EPing Hi.wav
329,192,306675,1,0,0:0:0:0:
402,192,306775,1,0,0:0:0:0:
256,192,306775,1,0,0:0:0:0:
109,192,306775,1,0,0:0:0:60:Snare.wav
256,192,306875,1,0,0:0:0:50:EPing Hi.wav
182,192,306875,128,0,307075:0:0:0:60:Kick Hard.wav
36,192,306875,128,0,307075:0:0:0:0:
329,192,306975,1,0,0:0:0:50:EPing Hi.wav
475,192,306975,1,0,0:0:0:0:
329,192,307075,1,0,0:0:0:50:EPing Hi.wav
475,192,307075,1,0,0:0:0:0:
402,192,307175,1,0,0:0:0:80:Cymbal.wav
256,192,307175,1,0,0:0:0:0:
36,192,307175,1,0,0:0:0:0:
109,192,307175,1,0,0:0:0:60:Kick Hard.wav
182,192,307275,1,0,0:0:0:0:
329,192,307325,1,0,0:0:0:0:
182,192,307375,1,0,0:0:0:0:
256,192,307475,1,0,0:0:0:0:
402,192,307475,1,0,0:0:0:60:Kick Hard.wav
475,192,307475,1,0,0:0:0:0:
36,192,307575,1,0,0:0:0:50:Kick Soft.wav
109,192,307625,1,0,0:0:0:50:Kick Soft.wav
182,192,307675,1,0,0:0:0:50:Kick Soft.wav
329,192,307675,1,0,0:0:0:0:
109,192,307775,1,0,0:0:0:0:
36,192,307775,1,0,0:0:0:60:Kick Hard.wav
475,192,307775,1,0,0:0:0:0:
256,192,307875,1,0,0:0:0:0:
402,192,307875,1,0,0:0:0:0:
182,192,307975,1,0,0:0:0:0:
109,192,308075,1,0,0:0:0:0:
329,192,308075,1,0,0:0:0:60:Kick Hard.wav
475,192,308075,1,0,0:0:0:0:
109,192,308175,1,0,0:0:0:0:
402,192,308175,1,0,0:0:0:0:
475,192,308275,1,0,0:0:0:0:
256,192,308275,1,0,0:0:0:0:
182,192,308275,1,0,0:0:0:60:Kick Hard.wav
256,192,308375,1,0,0:0:0:0:
402,192,308375,1,0,0:0:0:60:Snare.wav
36,192,308375,128,0,308475:0:0:0:0:
329,192,308475,128,0,308575:0:0:0:0:
182,192,308575,128,0,308675:0:0:0:0:
475,192,308675,128,0,308775:0:0:0:0:
36,192,308775,1,0,0:0:0:0:
109,192,308808,1,0,0:0:0:0:
182,192,308841,1,0,0:0:0:0:
475,192,308875,1,0,0:0:0:0:
402,192,308908,1,0,0:0:0:0:
329,192,308941,1,0,0:0:0:0:
109,192,308975,1,0,0:0:0:0:
182,192,309008,1,0,0:0:0:0:
256,192,309041,1,0,0:0:0:0:
402,192,309075,1,0,0:0:0:0:
329,192,309108,1,0,0:0:0:0:
182,192,309141,1,0,0:0:0:0:
36,192,309175,1,0,0:0:0:60:Cymbal.wav
109,192,309175,1,0,0:0:0:0:
402,192,309175,1,0,0:0:0:0:
256,192,309175,1,0,0:0:0:60:Kick Hard.wav
475,192,309175,1,0,0:0:0:60:Cymbal.wav
