osu file format v14

[General]
AudioFilename: audio.mp3
AudioLeadIn: 0
PreviewTime: 84526
Countdown: 0
SampleSet: Normal
StackLeniency: 0.6
Mode: 0
LetterboxInBreaks: 0
WidescreenStoryboard: 0

[Editor]
Bookmarks: 28512,144824,147528,182938,198676
DistanceSpacing: 1
BeatDivisor: 4
GridSize: 8
TimelineZoom: 4.899999

[Metadata]
Title:FLYING OUT TO THE SKY (covered by Nanahira, moimoi, Nana Takahashi)
TitleUnicode:FLYING OUT TO THE SKY (covered by ななひら, moimoi, Nana Takahashi)
Artist:Camellia
ArtistUnicode:かめりあ
Creator:Sotarks
Version:NiNo's INSANE
Source:SOUND VOLTEX II -infinite infection-
Tags:japanese metal rock video game kamelcamellia かめるかめりあ cametek 3leep KCCD-04 mayumi morinaga 森永真由美 c90 comiket cover vocaloid zola project original song contest ii iii gravity wars iv heavenly haven SDVX long ver すりーぷ! Confetto Sleep! BEMANI KONAMI reform kujinn browiec kuki1537 snownino_ armin a_r_m_i_n ayyri eiri- yasuho Cynplytholowazy -gn junior ft. feat
BeatmapID:2534930
BeatmapSetID:1212452

[Difficulty]
HPDrainRate:5
CircleSize:4
OverallDifficulty:8.5
ApproachRate:9.2
SliderMultiplier:1.8
SliderTickRate:1

[Events]
//Background and Video events
0,0,"bg.jpg",0,0
//Break Periods
2,104460,106724
2,233312,235576
//Storyboard Layer 0 (Background)
//Storyboard Layer 1 (Fail)
//Storyboard Layer 2 (Pass)
//Storyboard Layer 3 (Foreground)
//Storyboard Layer 4 (Overlay)
//Storyboard Sound Samples

[TimingPoints]
-2,245.901639344262,4,1,22,42,1,0
1104,-100,4,1,22,62,0,0
20653,-100,4,1,22,72,0,0
37129,-200,4,1,22,72,0,0
37313,-200,4,1,22,5,0,0
37375,-100,4,1,22,72,0,0
40694,-133.333333333333,4,1,22,72,0,0
41309,-100,4,1,22,72,0,0
68358,-400,4,1,22,72,0,0
68727,-400,4,1,22,5,0,0
68850,-90.9090909090909,4,1,22,82,0,1
84588,-90.9090909090909,4,1,22,92,0,1
100325,-100,4,1,22,72,0,0
100387,-100,4,1,22,42,0,0
104260,-100,4,1,22,62,0,0
115571,-200,4,1,22,62,0,0
116002,-200,4,1,22,62,0,0
116063,-100,4,1,22,72,0,0
145571,-100,4,1,22,62,0,0
147047,-200,4,1,22,72,0,0
147477,-200,4,1,22,5,0,0
147538,-100,4,1,22,82,0,0
155407,-100,4,1,22,72,0,0
165182,-100,4,1,22,62,0,0
167211,-100,4,1,22,72,0,0
170530,-133.333333333333,4,1,22,72,0,0
171145,-100,4,1,22,72,0,0
198194,-400,4,1,22,72,0,0
198563,-200,4,1,22,5,0,0
198686,-90.9090909090909,4,1,22,82,0,1
214424,-90.9090909090909,4,1,22,92,0,1
230161,-100,4,1,22,72,0,0
233112,-100,4,1,22,5,0,0
234096,-100,4,1,22,52,0,0
236186,-100,4,1,22,62,0,0
245899,-100,4,1,22,82,0,0
248727,-100,4,1,22,72,0,0
253768,-100,4,1,22,82,0,0
257579,-100,4,1,22,72,0,0
259670,-100,4,1,22,82,0,0
259916,-95.2380952380952,4,1,22,82,0,0
260161,-90.9090909090909,4,1,22,82,0,0
260407,-86.9565217391304,4,1,22,82,0,0
260653,-83.3333333333333,4,1,22,82,0,0
260899,-80,4,1,22,82,0,0
261145,-76.9230769230769,4,1,22,82,0,0
261391,-74.0740740740741,4,1,22,82,0,0
261637,-100,4,1,22,82,0,0
263481,-100,4,1,22,72,0,0
263543,-100,4,1,22,52,0,0

[Colours]
Combo1 : 255,91,136
Combo2 : 219,230,230
Combo3 : 190,205,224
Combo4 : 174,255,253
Combo5 : 83,135,255
Combo6 : 255,247,187
Combo7 : 243,211,137
Combo8 : 225,51,95

[HitObjects]
171,225,858,5,4,0:3:0:0:
171,225,920,1,4,0:3:0:0:
171,225,981,1,4,1:2:0:0:
190,117,1104,2,0,L|187:59,2,45,8|8|8,0:2|0:2|0:2,0:0:0:0:
163,238,1350,1,8,0:3:0:0:
256,170,1473,2,0,L|282:118,2,45,8|8|8,0:2|0:2|0:2,0:0:0:0:
155,251,1719,1,4,0:3:0:0:
286,248,1842,2,0,L|334:216,2,45,8|8|8,0:2|0:2|0:2,0:0:0:0:
147,264,2088,1,8,0:3:0:0:
272,330,2211,2,0,L|330:327,2,45,8|8|8,0:2|0:2|0:2,0:0:0:0:
182,347,2457,6,0,L|72:341,1,90,8|4,0:2|0:3,0:2:0:0:
57,259,2702,2,0,L|146:263,1,90,8|4,0:2|0:3,0:0:0:0:
258,194,2948,101,4,1:2:0:0:
147,161,3071,2,0,L|102:158,2,45,8|8|8,0:2|0:2|0:2,0:0:0:0:
276,191,3317,1,8,0:3:0:0:
214,107,3440,2,8,L|176:82,2,45,8|8|8,0:2|0:2|0:2,0:2:0:0:
291,187,3686,1,4,0:3:0:0:
299,93,3809,2,0,L|278:52,2,45,8|8|8,0:2|0:2|0:2,0:0:0:0:
308,183,4055,1,4,0:3:0:0:
379,123,4178,2,0,L|381:78,2,45,8|8|8,0:2|0:2|0:2,0:0:0:0:
448,192,4424,6,0,L|451:261,2,60,4|4|4,0:3|0:3|0:3,0:0:0:0:
368,271,4670,2,0,L|364:340,2,60,4|4|4,0:3|0:3|0:3,0:0:0:0:
276,236,4916,102,0,P|232:252|176:243,1,90,6|0,0:2|0:2,0:2:0:0:
220,163,5161,1,0,0:2:0:0:
281,226,5284,6,0,P|237:242|181:233,1,90,6|0,0:2|0:2,0:2:0:0:
225,153,5529,1,0,0:2:0:0:
286,216,5653,102,0,P|242:232|186:223,1,90,6|0,0:2|0:2,0:2:0:0:
230,143,5898,1,0,0:2:0:0:
291,206,6022,6,0,P|247:222|191:213,1,90,6|0,0:2|0:2,0:0:0:0:
235,133,6267,1,0,0:2:0:0:
296,196,6391,102,0,P|252:212|196:203,1,90,6|0,0:2|0:2,0:2:0:0:
240,123,6636,1,0,0:2:0:0:
315,75,6760,5,6,0:2:0:0:
256,192,6821,12,8,8358,0:2:0:0:
196,131,8850,102,0,L|188:227,1,90,6|0,0:2|0:2,0:2:0:0:
289,184,9096,1,0,0:2:0:0:
207,125,9219,6,0,L|199:221,1,90,6|0,0:2|0:2,0:2:0:0:
300,178,9465,1,0,0:2:0:0:
218,119,9588,102,0,L|210:215,1,90,6|0,0:2|0:2,0:2:0:0:
311,172,9834,1,0,0:2:0:0:
229,113,9956,6,0,L|221:209,1,90,6|0,0:2|0:2,0:0:0:0:
322,166,10202,1,0,0:2:0:0:
240,107,10325,102,0,L|232:203,1,90,6|0,0:2|0:2,0:2:0:0:
333,160,10571,1,0,0:2:0:0:
251,101,10694,5,6,0:2:0:0:
256,192,10756,12,0,11678,0:0:0:0:
413,106,11801,101,8,1:2:0:0:
326,82,11923,1,4,0:3:0:0:
326,82,11985,1,4,0:3:0:0:
326,82,12047,2,0,L|318:178,1,90,8|8,0:2|0:3,0:0:0:0:
244,201,12293,2,0,L|249:249,1,45,4|0,0:3|0:0,0:0:0:0:
169,230,12416,2,0,L|174:278,1,45,4|4,0:3|0:3,0:0:0:0:
94,259,12538,2,0,L|102:355,1,90,12|0,0:2|0:0,0:2:0:0:
28,196,12784,5,6,0:2:0:0:
115,170,12907,2,0,L|117:117,2,45,0|0|0,0:2|0:0|0:2,0:0:0:0:
38,190,13153,101,6,0:2:0:0:
125,164,13276,2,0,L|127:111,2,45,0|0|0,0:2|0:0|0:2,0:0:0:0:
48,184,13522,5,6,0:2:0:0:
135,158,13645,2,0,L|137:105,2,45,0|0|0,0:2|0:0|0:2,0:0:0:0:
58,178,13891,101,6,0:2:0:0:
145,152,14014,2,0,L|147:99,2,45,0|0|0,0:2|0:0|0:2,0:0:0:0:
68,172,14260,5,6,0:2:0:0:
155,146,14383,2,0,L|157:93,2,45,0|0|0,0:2|0:0|0:2,0:0:0:0:
78,166,14629,101,6,0:2:0:0:
256,192,14690,12,12,16473,0:3:0:0:
242,114,16719,5,6,0:2:0:0:
289,189,16842,2,0,L|353:183,2,45,0|0|0,0:0|0:0|0:2,0:0:0:0:
233,122,17088,101,6,0:2:0:0:
280,197,17211,2,0,L|344:191,2,45,0|0|0,0:0|0:0|0:2,0:0:0:0:
224,130,17456,5,6,0:2:0:0:
271,205,17579,2,0,L|335:199,2,45,0|0|0,0:0|0:0|0:2,0:0:0:0:
215,138,17826,101,6,0:2:0:0:
262,213,17949,2,0,L|326:207,2,45,0|0|0,0:2|0:0|0:2,0:0:0:0:
206,146,18194,5,6,0:2:0:0:
253,221,18317,2,0,L|317:215,2,45,0|0|0,0:0|0:0|0:2,0:0:0:0:
197,154,18563,101,6,0:2:0:0:
256,192,18625,12,8,20407,0:2:0:0:
243,108,20653,22,0,L|132:100,1,90,6|0,0:2|0:2,0:2:0:0:
63,90,20899,2,0,P|75:135|77:191,1,90,8|2,0:2|0:2,0:0:0:0:
165,202,21145,2,0,P|153:247|151:303,1,90,0|2,0:2|0:2,0:0:0:0:
186,373,21391,1,8,0:2:0:0:
267,335,21514,2,0,B|310:308|310:308|453:327,1,180,0|0,0:2|0:2,0:0:0:0:
416,236,21883,2,0,L|301:221,1,90,8|2,0:2|0:2,0:0:0:0:
236,216,22129,2,0,P|254:163|256:116,1,90,0|0,0:2|0:2,0:0:0:0:
240,40,22375,1,10,0:2:0:0:
326,71,22497,1,2,0:2:0:0:
171,98,22620,6,0,P|115:91|68:99,1,90,2|0,0:2|0:2,0:2:0:0:
17,158,22866,2,0,P|34:207|38:260,1,90,8|2,0:2|0:2,0:0:0:0:
99,311,23112,2,0,P|114:268|120:224,1,90,0|2,0:2|0:2,0:0:0:0:
202,188,23358,1,8,0:2:0:0:
245,266,23481,2,0,P|299:252|352:254,1,90,0|2,0:2|0:2,0:0:0:0:
190,189,23727,1,0,0:2:0:0:
245,117,23850,2,0,P|299:131|352:129,1,90,8|2,0:2|0:2,0:0:0:0:
419,159,24096,2,0,P|429:209|421:255,1,90,0|0,0:2|0:2,0:0:0:0:
333,251,24342,1,14,0:2:0:0:
333,251,24465,1,2,0:2:0:0:
382,325,24588,102,0,P|434:334|476:327,1,90,6|0,0:2|0:2,0:2:0:0:
292,329,24834,2,0,P|247:323|203:332,1,90,8|2,0:2|0:2,0:0:0:0:
116,355,25079,2,0,P|123:303|109:255,1,90,0|2,0:2|0:2,0:0:0:0:
31,229,25325,1,8,0:2:0:0:
53,141,25448,2,0,B|76:78|76:78|203:88,1,180,0|0,0:2|0:2,0:0:0:0:
276,107,25817,2,0,L|257:210,1,90,8|2,0:2|0:2,0:0:0:0:
373,265,26063,2,0,L|354:162,1,90,0|0,0:2|0:2,0:0:0:0:
391,92,26309,1,10,0:2:0:0:
445,164,26432,1,2,0:2:0:0:
480,80,26555,6,0,P|461:34|415:6,1,90,2|0,0:2|0:0,0:2:0:0:
337,20,26801,2,0,L|239:28,1,90,8|2,0:2|0:2,0:0:0:0:
186,94,27047,2,0,L|88:86,1,90,0|2,0:2|0:2,0:0:0:0:
26,28,27293,1,8,0:2:0:0:
10,117,27416,1,0,0:2:0:0:
80,175,27538,102,0,L|64:263,1,90,2|0,0:2|0:2,0:2:0:0:
152,278,27784,2,0,L|167:189,1,90,8|2,0:2|0:2,0:0:0:0:
254,203,28030,1,0,0:2:0:0:
239,292,28152,1,8,0:2:0:0:
341,217,28276,1,10,0:2:0:0:
326,306,28398,1,10,0:2:0:0:
428,231,28522,6,0,L|443:142,1,90,6|0,0:2|0:0,0:2:0:0:
462,53,28768,2,0,P|405:56|364:41,1,90,8|2,0:2|0:2,0:0:0:0:
287,18,29014,1,0,0:2:0:0:
254,101,29137,1,2,0:2:0:0:
167,73,29260,2,0,P|122:57|70:57,1,90,8|0,0:2|0:2,0:0:0:0:
32,132,29506,2,0,B|60:179|60:179|39:308,1,180,2|8,0:2|0:2,0:2:0:0:
166,189,29875,2,0,B|138:236|138:236|159:365,1,180,2|0,0:2|0:2,0:2:0:0:
246,377,30243,1,10,0:2:0:0:
257,287,30366,1,2,0:2:0:0:
345,305,30489,102,0,P|396:318|445:310,1,90,2|0,0:2|0:2,0:2:0:0:
488,242,30735,2,0,L|477:136,1,90,8|2,0:2|0:2,0:0:0:0:
449,66,30981,1,0,0:2:0:0:
370,110,31104,2,0,P|324:121|260:111,1,90,2|8,0:2|0:2,0:0:0:0:
202,73,31350,1,0,0:2:0:0:
127,123,31473,2,0,P|152:167|165:303,1,180,2|8,0:2|0:2,0:2:0:0:
259,354,31842,2,0,P|258:303|283:262,1,90,2|0,0:2|0:2,0:2:0:0:
434,362,32088,5,12,0:2:0:0:
340,328,32211,1,10,0:2:0:0:
469,255,32334,102,0,P|459:207|333:188,1,180,14|0,0:2|0:0,0:0:0:0:
287,108,32702,2,0,P|297:60|293:13,1,90,8|2,0:2|0:2,0:0:0:0:
204,9,32948,1,0,0:2:0:0:
141,73,33071,2,0,L|148:175,1,90,2|8,0:2|0:2,0:0:0:0:
82,226,33317,1,0,0:2:0:0:
145,290,33440,2,0,B|193:258|193:258|332:277,1,180,2|8,0:2|0:2,0:2:0:0:
214,346,33809,2,0,B|262:378|262:378|401:359,1,180,2|0,0:2|0:2,0:2:0:0:
491,329,34178,2,0,L|486:373,3,45,10|8|4|4,0:2|0:3|0:3|0:3,0:0:0:0:
470,307,34424,6,0,L|460:202,1,90,6|0,0:2|0:2,0:2:0:0:
380,175,34670,1,0,0:2:0:0:
379,279,34793,2,0,L|369:174,1,90,6|0,0:2|0:2,0:2:0:0:
289,147,35038,1,0,0:2:0:0:
288,251,35161,2,0,L|278:146,1,90,6|0,0:2|0:2,0:2:0:0:
198,119,35407,1,0,0:2:0:0:
197,223,35530,2,0,L|187:118,1,90,6|0,0:2|0:0,0:2:0:0:
107,91,35776,1,0,0:2:0:0:
105,182,35899,2,0,L|100:235,3,45,2|0|4|4,0:2|0:0|0:3|0:3,0:0:0:0:
54,208,36145,2,0,L|45:118,1,90,12|0,0:2|0:2,0:0:0:0:
118,64,36391,101,0,0:0:0:0:
175,133,36514,2,0,L|170:177,2,45,8|8|8,0:2|0:2|0:2,0:0:0:0:
240,71,36760,1,8,2:2:0:0:
297,140,36883,1,8,2:2:0:0:
362,78,37006,1,8,2:2:0:0:
419,147,37129,6,0,L|411:230,1,67.5,12|0,2:3|0:0,0:0:0:0:
397,299,37375,6,0,P|344:289|298:294,1,90,6|0,0:2|0:2,0:2:0:0:
246,357,37620,2,0,P|201:359|157:349,1,90,10|0,0:2|0:2,0:2:0:0:
70,323,37866,2,0,L|79:220,1,90,2|0,0:2|0:2,0:0:0:0:
30,156,38112,1,10,0:2:0:0:
110,113,38235,2,0,P|156:104|206:111,1,90,2|0,0:2|0:2,0:2:0:0:
288,119,38481,2,0,P|260:167|252:204,1,90,2|8,0:2|0:2,0:0:0:0:
161,205,38727,2,0,P|182:246|200:377,1,180,2|2,0:2|0:2,0:2:0:0:
290,374,39096,1,10,0:2:0:0:
272,285,39219,1,2,0:2:0:0:
362,281,39342,70,0,L|466:278,1,90,2|0,0:2|0:2,0:0:0:0:
494,198,39588,2,0,P|479:153|483:104,1,90,10|0,0:2|0:2,0:0:0:0:
494,21,39834,1,2,0:2:0:0:
404,18,39957,2,0,P|389:63|393:112,1,90,2|8,0:2|0:2,0:2:0:0:
358,188,40202,2,0,L|258:180,1,90,2|0,0:2|0:2,0:2:0:0:
212,109,40448,2,0,L|112:117,1,90,2|8,0:2|0:2,0:0:0:0:
356,203,40694,38,0,L|273:196,1,67.5000025749208,0|0,0:2|0:2,0:0:0:0:
213,125,40940,2,0,L|143:130,1,67.5000025749208,0|8,0:2|0:2,0:0:0:0:
63,163,41186,1,0,0:2:0:0:
130,222,41309,70,0,L|219:214,1,90,2|0,0:2|0:2,0:0:0:0:
280,281,41555,2,0,P|261:330|257:382,1,90,10|0,0:2|0:2,0:0:0:0:
365,361,41801,1,2,0:2:0:0:
363,270,41924,1,2,0:2:0:0:
450,292,42047,2,0,P|443:247|426:206,1,90,10|2,0:2|0:2,0:0:0:0:
366,138,42293,2,0,B|409:173|409:173|487:155|487:155|506:102,1,180,2|10,0:2|0:2,0:2:0:0:
423,73,42661,2,0,B|380:38|380:38|302:56|302:56|283:109,1,180,2|2,0:2|0:2,0:2:0:0:
215,153,43030,2,0,P|235:198|236:243,1,90,10|0,0:2|0:2,0:0:0:0:
180,309,43276,38,0,L|301:317,1,90,2|0,0:2|0:2,0:2:0:0:
138,218,43522,2,0,L|17:226,1,90,10|0,0:2|0:2,0:2:0:0:
215,153,43768,1,2,0:2:0:0:
215,153,43891,1,0,0:2:0:0:
173,62,44014,2,0,L|52:70,1,90,10|0,0:2|0:2,0:0:0:0:
268,8,44260,2,0,P|271:57|292:108,1,90,2|2,0:2|0:2,0:0:0:0:
369,124,44506,2,0,P|363:79|345:38,1,90,10|2,0:2|0:2,0:0:0:0:
300,183,44752,69,10,0:3:0:0:
385,212,44875,1,8,0:2:0:0:
316,271,44997,1,8,0:2:0:0:
401,300,45120,1,8,0:2:0:0:
332,359,45243,38,0,L|237:354,1,90,6|0,0:2|0:2,0:2:0:0:
152,367,45489,2,0,P|160:308|155:272,1,90,10|0,0:2|0:2,0:2:0:0:
75,237,45735,2,0,P|67:178|72:142,1,90,2|0,0:2|0:2,0:0:0:0:
156,117,45981,1,10,0:2:0:0:
241,85,46104,2,0,P|244:129|237:174,1,90,2|0,0:2|0:2,0:2:0:0:
339,238,46350,2,0,P|331:193|334:149,1,90,2|8,0:2|0:2,0:0:0:0:
422,305,46596,2,0,P|377:285|232:275,1,180,2|2,0:2|0:2,0:2:0:0:
164,308,46965,1,8,0:2:0:0:
177,218,47088,1,2,0:2:0:0:
93,254,47211,70,0,P|50:270|0:268,1,90,2|0,0:2|0:2,0:0:0:0:
123,141,47457,2,0,P|166:125|216:127,1,90,10|0,0:2|0:2,0:0:0:0:
39,177,47702,1,2,0:2:0:0:
50,87,47825,2,0,P|57:41|84:0,1,90,2|8,0:2|0:2,0:2:0:0:
163,39,48071,2,0,P|230:23|368:35,1,180,2|2,0:2|0:2,0:2:0:0:
476,132,48440,2,0,P|386:138|298:120,1,180,8|0,0:2|0:2,0:2:0:0:
203,142,48809,1,0,0:2:0:0:
246,233,48932,2,0,P|302:229|347:212,1,90,8|0,0:2|0:2,0:2:0:0:
145,224,49178,38,0,L|139:319,1,90,2|0,0:2|0:2,0:0:0:0:
102,133,49424,2,0,L|96:38,1,90,10|0,0:2|0:2,0:0:0:0:
203,142,49670,1,2,0:2:0:0:
197,52,49793,1,0,0:2:0:0:
304,151,49916,2,0,L|298:56,1,90,10|0,0:2|0:2,0:0:0:0:
347,242,50161,2,0,L|341:337,1,90,2|2,0:2|0:2,0:0:0:0:
405,160,50407,1,10,0:2:0:0:
447,250,50530,2,0,L|441:339,1,90,2|0,0:2|0:2,0:2:0:0:
505,152,50776,2,0,L|499:62,2,90,2|10|2,0:2|0:2|0:2,0:0:0:0:
405,160,51145,70,0,B|359:143|359:143|310:152,1,90,2|0,0:2|0:2,0:0:0:0:
260,232,51391,2,0,B|306:249|306:249|355:240,1,90,10|0,0:2|0:2,0:0:0:0:
447,250,51637,1,2,0:2:0:0:
390,319,51760,2,0,B|298:335|298:335|196:298,1,180,2|2,0:2|0:2,0:0:0:0:
170,227,52129,1,0,0:0:0:0:
102,287,52252,2,0,L|104:351,2,45,8|8|8,0:2|0:2|0:2,0:0:0:0:
56,209,52497,1,8,0:2:0:0:
10,131,52620,2,0,L|13:31,1,90,8|8,0:2|0:3,0:0:0:0:
192,39,52866,1,4,0:3:0:0:
100,130,52989,1,8,0:2:0:0:
190,129,53112,54,0,L|289:132,1,90,4|0,0:2|0:2,0:2:0:0:
370,130,53358,2,0,P|352:177|346:219,1,90,10|0,0:2|0:2,0:2:0:0:
279,277,53604,2,0,P|297:324|303:366,1,90,2|0,0:2|0:2,0:0:0:0:
437,242,53850,2,0,P|419:289|413:331,1,90,10|0,0:2|0:2,0:2:0:0:
346,216,54096,1,2,0:2:0:0:
255,190,54219,2,0,P|247:145|231:103,1,90,2|8,0:2|0:2,0:0:0:0:
159,48,54465,2,0,P|142:89|128:229,1,180,2|0,0:2|0:2,0:2:0:0:
46,263,54834,2,0,P|62:304|69:349,1,90,8|0,0:2|0:2,0:0:0:0:
157,369,55079,37,0,0:2:0:0:
236,207,55325,2,0,P|281:216|338:209,1,90,10|0,0:2|0:2,0:2:0:0:
411,184,55571,2,0,L|402:93,1,90,2|0,0:2|0:2,0:0:0:0:
339,28,55817,2,0,P|294:19|237:26,1,90,10|0,0:2|0:2,0:2:0:0:
167,58,56063,1,2,0:2:0:0:
238,112,56186,2,0,P|283:121|340:114,1,90,2|8,0:2|0:2,0:0:0:0:
155,148,56432,2,0,P|160:176|159:247,1,90,2|0,0:2|0:2,0:2:0:0:
109,311,56678,2,0,P|149:282|291:292,1,180,2|0,0:2|0:2,0:0:0:0:
345,339,57047,70,0,B|314:298|314:298|327:164,1,180,2|8,0:2|0:2,0:2:0:0:
406,272,57416,2,0,B|437:231|437:231|424:97,1,180,2|0,0:2|0:2,0:2:0:0:
358,41,57784,2,0,B|311:74|311:74|183:57,1,180,10|0,0:2|0:2,0:0:0:0:
104,26,58153,1,0,0:2:0:0:
48,96,58276,2,0,P|65:143|73:193,1,90,10|0,0:2|0:2,0:0:0:0:
115,262,58522,2,0,P|147:223|186:191,1,90,2|0,0:2|0:2,0:0:0:0:
225,121,58768,2,0,P|175:112|128:94,1,90,10|0,0:2|0:2,0:2:0:0:
329,79,59014,38,0,P|311:120|302:280,1,180,2|8,0:2|0:2,0:2:0:0:
348,328,59383,1,0,0:2:0:0:
243,383,59506,2,0,P|225:342|216:182,1,180,2|8,0:2|0:2,0:0:0:0:
225,121,59875,1,0,0:2:0:0:
125,210,59997,1,8,0:2:0:0:
138,98,60120,2,0,P|97:75|52:66,1,90,8|12,0:2|0:3,0:0:0:0:
24,149,60366,1,8,0:2:0:0:
201,34,60489,70,0,P|242:11|287:2,1,90,6|0,0:2|0:0,0:2:0:0:
125,210,60735,2,0,P|111:260|110:309,1,90,6|0,0:2|0:0,0:2:0:0:
323,281,60981,37,4,0:2:0:0:
323,281,61227,2,0,P|277:264|224:265,1,90,10|0,0:2|0:2,0:2:0:0:
396,341,61473,2,0,P|411:293|407:243,1,90,2|0,0:2|0:2,0:0:0:0:
330,104,61719,2,0,P|329:148|343:191,1,90,10|0,0:2|0:2,0:2:0:0:
421,134,61965,1,2,0:2:0:0:
400,44,62088,2,0,P|359:22|303:12,1,90,2|8,0:2|0:2,0:0:0:0:
223,18,62334,2,0,P|233:68|235:209,1,180,2|0,0:2|0:2,0:2:0:0:
184,270,62702,1,8,0:2:0:0:
184,270,62825,1,0,0:2:0:0:
53,199,62948,70,0,P|105:189|162:188,1,90,0|0,0:2|0:2,0:2:0:0:
90,303,63194,2,0,P|45:300|1:291,1,90,10|0,0:2|0:2,0:2:0:0:
184,270,63440,2,0,P|195:326|199:372,1,90,2|0,0:2|0:2,0:0:0:0:
282,292,63686,2,0,P|287:247|296:203,1,90,10|0,0:2|0:2,0:2:0:0:
318,121,63932,1,2,0:2:0:0:
201,68,64055,2,0,P|210:112|215:156,1,90,2|8,0:2|0:2,0:0:0:0:
137,208,64301,1,2,0:2:0:0:
83,134,64424,2,0,L|86:86,2,45,8|8|10,0:2|0:2|0:2,0:0:0:0:
4,185,64670,2,0,L|11:303,1,90,8|4,0:3|0:3,0:2:0:0:
92,382,64916,102,0,P|110:338|115:287,1,90,14|4,0:2|0:3,0:0:0:0:
137,208,65161,1,4,0:3:0:0:
217,354,65284,6,0,P|210:306|189:260,1,90,14|8,0:2|0:3,0:0:0:0:
151,188,65530,1,8,0:3:0:0:
311,267,65653,102,0,P|281:229|240:199,1,90,14|4,0:2|0:3,0:0:0:0:
165,168,65899,1,4,0:3:0:0:
348,144,66022,6,0,P|303:126|252:120,1,90,14|0,0:2|0:0,0:2:0:0:
179,148,66268,1,0,0:2:0:0:
144,67,66391,102,0,L|140:21,2,45,8|8|8,0:3|0:3|0:3,0:0:0:0:
61,95,66637,2,0,L|57:141,2,45,4|4|4,0:3|0:3|0:3,0:0:0:0:
11,209,66883,6,0,L|18:309,1,90,14|4,0:2|0:3,0:0:0:0:
81,363,67129,1,4,0:3:0:0:
98,185,67252,102,0,L|105:285,1,90,14|8,0:2|0:3,0:0:0:0:
168,339,67498,1,8,0:3:0:0:
185,161,67620,6,0,L|192:261,1,90,14|4,0:2|0:3,0:0:0:0:
255,315,67866,1,4,0:3:0:0:
272,137,67989,102,0,L|279:237,1,90,14|8,0:2|0:3,0:0:0:0:
342,291,68235,1,8,0:3:0:0:
359,113,68358,6,0,B|366:147|366:147|363:184,1,67.5,14|0,0:2|2:2,0:2:0:0:
283,63,68850,22,0,B|327:24|327:24|486:38,1,198.000006042481,6|8,0:2|0:2,0:2:0:0:
508,106,69219,1,0,0:2:0:0:
434,153,69342,2,0,B|420:203|420:203|429:259,1,99.0000030212403,6|8,0:3|0:3,0:0:0:0:
467,330,69588,1,8,0:2:0:0:
390,360,69711,2,0,B|297:319|297:319|185:340,1,198.000006042481,2|0,0:2|0:2,0:0:0:0:
118,241,70079,2,0,B|171:234|171:234|213:254,1,99.0000030212403,8|0,0:2|0:2,0:2:0:0:
37,277,70325,2,0,B|30:227|30:227|50:182,1,99.0000030212403,6|8,0:3|0:3,0:0:0:0:
95,114,70571,1,8,0:2:0:0:
141,46,70694,6,0,B|189:72|189:72|350:47,1,198.000006042481,2|0,0:2|0:2,0:0:0:0:
418,23,71063,2,0,B|407:72|407:72|423:129,1,99.0000030212403,8|0,0:2|0:2,0:2:0:0:
342,232,71309,2,0,B|353:183|353:183|337:126,1,99.0000030212403,6|10,0:3|0:3,0:0:0:0:
261,185,71555,1,10,0:2:0:0:
290,314,71678,2,0,L|515:302,1,198.000006042481,2|0,0:2|0:2,0:0:0:0:
467,226,72047,2,0,B|456:177|456:177|472:120,1,99.0000030212403,8|0,0:2|0:2,0:2:0:0:
483,51,72293,2,0,L|384:56,1,99.0000030212403,6|10,0:3|0:3,0:0:0:0:
310,105,72538,1,14,0:2:0:0:
273,24,72661,1,2,0:2:0:0:
199,72,72784,102,0,P|146:81|96:74,1,99.0000030212403,0|0,0:3|0:2,0:2:0:0:
11,41,73030,2,0,L|19:145,1,99.0000030212403,10|0,0:2|0:2,0:2:0:0:
73,211,73276,2,0,L|65:309,2,99.0000030212403,6|8|10,0:3|0:3|0:2,0:0:0:0:
148,160,73645,1,0,0:2:0:0:
203,232,73768,2,0,B|252:220|252:220|309:227,1,99.0000030212403,10|6,0:3|0:3,0:0:0:0:
368,296,74014,1,10,0:2:0:0:
439,228,74137,2,0,B|408:171|408:171|427:36,1,198.000006042481,2|8,0:2|0:3,0:2:0:0:
309,0,74506,2,0,L|325:112,1,99.0000030212403,8|0,0:2|0:2,0:2:0:0:
269,171,74752,5,8,0:3:0:0:
198,116,74875,2,0,P|148:103|97:107,2,99.0000030212403,4|10|0,0:3|0:2|0:2,0:0:0:0:
186,205,75243,1,6,0:3:0:0:
257,260,75366,1,8,0:3:0:0:
245,349,75489,2,0,P|196:359|145:352,1,99.0000030212403,10|0,0:2|0:2,0:0:0:0:
78,312,75735,2,0,B|54:178|54:178|100:129,1,198.000006042481,6|10,0:3|0:2,0:2:0:0:
159,240,76104,2,0,B|183:106|183:106|137:57,1,198.000006042481,2|8,0:2|0:2,0:2:0:0:
255,22,76473,1,8,0:2:0:0:
269,111,76596,1,8,0:2:0:0:
382,20,76719,102,0,B|339:65|339:65|363:199,1,198.000006042481,6|8,0:2|0:2,0:2:0:0:
436,249,77088,1,0,0:2:0:0:
369,316,77211,2,0,B|319:298|319:298|263:308,1,99.0000030212403,6|8,0:3|0:3,0:0:0:0:
198,356,77457,1,8,0:2:0:0:
129,295,77579,2,0,B|162:250|162:250|146:101,1,198.000006042481,2|0,0:2|0:2,0:0:0:0:
264,185,77948,2,0,B|233:152|233:152|225:85,1,99.0000030212403,8|0,0:2|0:2,0:2:0:0:
314,65,78194,2,0,B|345:98|345:98|353:165,1,99.0000030212403,6|8,0:3|0:3,0:0:0:0:
338,243,78440,1,8,0:2:0:0:
431,236,78563,6,0,P|458:181|448:47,1,198.000006042481,2|0,0:2|0:2,0:0:0:0:
330,0,78932,2,0,P|317:52|322:105,1,99.0000030212403,8|0,0:2|0:2,0:2:0:0:
232,179,79178,2,0,P|234:129|222:82,1,99.0000030212403,6|10,0:3|0:3,0:0:0:0:
148,33,79424,1,10,0:2:0:0:
50,74,79547,2,0,P|62:134|70:275,1,198.000006042481,2|0,0:2|0:2,0:0:0:0:
163,347,79916,2,0,P|164:297|173:248,1,99.0000030212403,8|0,0:2|0:2,0:2:0:0:
232,179,80161,1,6,0:3:0:0:
349,300,80284,2,0,P|297:312|237:308,1,99.0000030212403,10|12,0:3|0:2,0:0:0:0:
430,187,80530,102,0,P|408:234|400:390,1,198.000006042481,2|0,0:2|0:2,0:0:0:0:
324,208,80899,2,0,P|311:166|309:106,1,99.0000030212403,10|0,0:2|0:2,0:2:0:0:
254,262,81145,2,0,P|241:304|239:363,1,99.0000030212403,6|8,0:3|0:3,0:0:0:0:
179,214,81391,1,10,0:2:0:0:
109,268,81514,1,0,0:2:0:0:
34,220,81637,2,0,P|21:178|19:118,1,99.0000030212403,10|6,0:3|0:3,0:0:0:0:
47,39,81883,1,10,0:2:0:0:
110,137,82006,2,0,P|177:117|327:121,1,198.000006042481,2|8,0:2|0:3,0:2:0:0:
383,4,82375,2,0,P|324:10|275:29,1,99.0000030212403,8|0,0:2|0:2,0:2:0:0:
393,161,82620,6,0,L|398:96,2,66.0000020141602,4|4|4,0:3|0:3|0:3,0:0:0:0:
327,215,82866,2,0,L|331:280,2,66.0000020141602,4|4|4,0:3|0:3|0:3,0:0:0:0:
258,164,83112,2,0,L|262:98,2,66.0000020141602,4|4|4,0:3|0:3|0:3,0:0:0:0:
191,217,83358,2,0,L|195:282,2,66.0000020141602,4|4|4,0:3|0:3|0:3,0:0:0:0:
122,166,83604,101,12,0:2:0:0:
44,265,83727,2,0,L|36:166,1,99.0000030212403,8|0,0:2|0:2,0:2:0:0:
68,26,83973,2,0,B|58:53|29:75|29:75|98:58|172:73,1,198.000006042481,12|8,0:2|0:2,0:2:0:0:
309,35,84342,1,8,0:2:0:0:
253,119,84465,1,8,0:2:0:0:
400,83,84588,102,0,B|383:131|383:131|398:194,1,99.0000030212403,14|0,0:2|0:2,0:0:0:0:
477,239,84834,2,0,B|494:191|494:191|479:128,1,99.0000030212403,8|0,0:2|0:2,0:0:0:0:
389,271,85079,1,10,0:2:0:0:
460,331,85202,1,0,0:2:0:0:
372,363,85325,2,0,L|268:358,1,99.0000030212403,8|2,0:2|0:2,0:0:0:0:
201,293,85571,6,0,B|246:265|246:265|309:262,1,99.0000030212403,8|0,0:2|0:2,0:0:0:0:
142,372,85817,2,0,B|97:344|97:344|34:341,1,99.0000030212403,8|0,0:2|0:2,0:0:0:0:
141,215,86063,1,10,0:2:0:0:
201,293,86186,1,0,0:2:0:0:
200,136,86309,2,0,B|146:121|146:121|87:131,1,99.0000030212403,8|2,0:2|0:2,0:0:0:0:
295,190,86555,102,0,L|292:77,1,99.0000030212403,8|0,0:2|0:2,0:0:0:0:
398,24,86801,2,0,L|395:137,1,99.0000030212403,8|0,0:2|0:2,0:0:0:0:
411,211,87047,1,10,0:2:0:0:
479,153,87170,1,2,0:2:0:0:
495,242,87293,2,0,B|481:290|481:290|493:345,1,99.0000030212403,10|2,0:2|0:2,0:0:0:0:
307,358,87538,6,0,L|413:349,1,99.0000030212403,8|0,0:2|0:2,0:0:0:0:
238,287,87784,2,0,L|132:278,1,99.0000030212403,8|0,0:2|0:2,0:0:0:0:
121,154,88030,1,10,0:2:0:0:
192,207,88153,1,2,0:2:0:0:
174,83,88276,1,14,0:2:0:0:
245,136,88399,1,2,0:2:0:0:
256,49,88522,102,0,B|302:33|302:33|361:45,1,99.0000030212403,12|2,0:2|0:2,0:0:0:0:
440,138,88768,2,0,B|394:122|394:122|335:134,1,99.0000030212403,10|0,0:2|0:2,0:0:0:0:
375,303,89014,1,10,0:2:0:0:
386,210,89137,1,0,0:2:0:0:
300,247,89260,2,0,L|195:237,1,99.0000030212403,10|0,0:2|0:2,0:0:0:0:
121,314,89506,6,0,P|118:257|77:100,1,198.000006042481,10|8,0:2|0:2,0:0:0:0:
29,46,89875,1,2,0:2:0:0:
165,12,89997,2,0,P|177:61|174:136,1,99.0000030212403,8|0,0:2|0:2,0:0:0:0:
235,183,90243,1,8,0:2:0:0:
272,98,90366,1,0,0:2:0:0:
327,178,90489,102,0,P|373:162|421:169,1,99.0000030212403,8|2,0:2|0:2,0:0:0:0:
290,263,90735,2,0,P|244:278|192:270,1,99.0000030212403,10|0,0:2|0:2,0:0:0:0:
382,258,90981,1,10,0:2:0:0:
345,343,91104,1,0,0:2:0:0:
441,335,91227,2,0,P|471:288|469:231,1,99.0000030212403,10|0,0:2|0:2,0:0:0:0:
485,125,91473,6,0,B|437:160|437:160|298:140,1,198.000006042481,10|10,0:2|0:2,0:0:0:0:
235,74,91842,1,2,0:2:0:0:
192,158,91965,2,0,P|200:218|198:274,1,99.0000030212403,4|8,0:3|0:2,0:0:0:0:
126,323,92211,1,8,0:2:0:0:
108,235,92334,1,8,0:2:0:0:
90,147,92457,102,0,L|70:32,1,99.0000030212403,14|0,0:2|0:2,0:0:0:0:
202,9,92702,2,0,L|182:124,1,99.0000030212403,8|0,0:2|0:2,0:0:0:0:
244,174,92948,1,10,0:2:0:0:
286,95,93071,1,0,0:2:0:0:
345,163,93194,2,0,L|325:278,1,99.0000030212403,8|2,0:2|0:2,0:0:0:0:
260,377,93440,6,0,L|240:262,1,99.0000030212403,8|0,0:2|0:2,0:0:0:0:
433,178,93686,2,0,L|413:293,1,99.0000030212403,8|0,0:2|0:2,0:0:0:0:
358,344,93932,1,10,0:2:0:0:
328,260,94055,1,0,0:2:0:0:
243,279,94178,2,0,P|187:290|137:281,1,99.0000030212403,8|2,0:2|0:2,0:0:0:0:
62,250,94424,102,0,L|74:136,1,99.0000030212403,8|0,0:2|0:2,0:0:0:0:
161,139,94670,2,0,L|149:25,1,99.0000030212403,8|0,0:2|0:2,0:0:0:0:
233,4,94916,1,10,0:2:0:0:
259,88,95038,1,2,0:2:0:0:
341,52,95161,2,0,P|398:43|441:49,1,99.0000030212403,10|2,0:2|0:2,0:0:0:0:
483,126,95407,6,0,B|458:171|458:171|464:232,1,99.0000030212403,8|0,0:2|0:2,0:0:0:0:
353,172,95653,2,0,B|378:217|378:217|372:278,1,99.0000030212403,8|0,0:2|0:2,0:0:0:0:
266,320,95899,1,10,0:2:0:0:
290,235,96022,1,2,0:2:0:0:
192,275,96145,1,14,0:2:0:0:
216,190,96268,1,2,0:2:0:0:
118,230,96391,102,0,P|103:285|101:339,1,99.0000030212403,8|2,0:2|0:2,0:0:0:0:
30,214,96637,2,0,P|26:164|12:117,1,99.0000030212403,14|0,0:2|0:2,0:0:0:0:
101,38,96883,1,10,0:2:0:0:
99,127,97006,1,0,0:2:0:0:
178,85,97129,2,0,P|236:75|287:85,1,99.0000030212403,14|0,0:2|0:2,0:0:0:0:
383,128,97375,6,0,P|365:75|364:28,1,99.0000030212403,10|0,0:2|0:2,0:0:0:0:
453,56,97620,1,12,0:2:0:0:
469,176,97743,2,0,L|267:168,1,198.000006042481,2|0,0:2|0:2,0:0:0:0:
225,91,98112,2,0,L|124:95,1,99.0000030212403,12|0,0:2|0:2,0:0:0:0:
56,148,98358,102,0,L|62:223,2,66.0000020141602,8|4|4,0:2|0:3|0:3,0:0:0:0:
140,175,98604,2,0,L|134:250,2,66.0000020141602,4|4|4,0:3|0:3|0:3,0:0:0:0:
224,202,98850,2,0,L|230:277,2,66.0000020141602,4|4|4,0:3|0:3|0:3,0:0:0:0:
308,229,99096,2,0,L|302:304,2,66.0000020141602,4|4|4,0:3|0:3|0:3,0:0:0:0:
392,256,99342,5,12,0:2:0:0:
444,173,99465,2,0,B|406:131|406:131|356:116,1,99.0000030212403,8|0,0:2|0:2,0:2:0:0:
308,229,99711,2,0,B|336:129|336:129|290:25,1,198.000006042481,12|8,0:2|0:3,0:2:0:0:
210,81,100079,2,0,B|193:130|193:130|204:186,1,99.0000030212403,0|4,0:0|0:3,0:0:0:0:
102,136,100325,5,6,0:2:0:0:
256,192,100387,12,4,104260,0:2:0:0:
234,113,107334,6,0,L|229:56,2,45,4|4|8,0:3|0:3|0:2,0:0:0:0:
296,177,107579,1,8,0:2:0:0:
208,200,107702,2,0,L|106:193,1,90,10|8,0:3|0:3,0:0:0:0:
29,172,107948,2,0,P|41:226|39:283,1,90,6|4,0:3|0:3,0:0:0:0:
21,349,108194,101,6,0:2:0:0:
256,192,108256,12,4,112129,0:2:0:0:
166,201,113112,5,0,0:2:0:0:
222,131,113235,2,0,L|216:80,2,45,8|8|8,0:2|0:2|0:2,0:0:0:0:
278,202,113481,1,8,0:2:0:0:
334,132,113604,2,0,L|321:21,1,90,8|4,0:3|0:3,0:0:0:0:
414,218,113850,2,0,L|427:107,1,90,4|0,0:2|0:0,0:2:0:0:
350,306,114096,101,4,0:2:0:0:
350,306,115325,6,0,L|356:363,3,45,4|4|4|4,0:3|0:3|0:3|0:3,0:0:0:0:
322,272,115571,2,0,P|284:247|280:326,1,157.5,12|0,0:2|2:2,0:3:0:0:
182,349,116063,70,0,L|125:358,3,45,6|0|0|0,0:2|0:2|0:2|0:2,0:0:0:0:
143,274,116309,2,0,L|89:253,3,45,10|0|0|0,0:2|0:2|0:2|0:2,0:0:0:0:
146,189,116555,2,0,L|109:144,3,45,2|0|0|0,0:2|0:2|0:2|0:2,0:0:0:0:
191,117,116801,2,0,L|182:59,3,45,10|0|0|0,0:2|0:2|0:2|0:2,0:0:0:0:
266,77,117047,2,0,P|309:66|367:69,1,90,2|0,0:2|0:2,0:0:0:0:
442,111,117293,1,8,0:2:0:0:
367,157,117416,2,0,B|371:212|412:235|412:235|371:254|362:306,1,180,0|0,0:2|0:0,0:0:0:0:
298,365,117784,2,0,P|275:323|279:268,1,90,8|0,0:2|0:0,0:0:0:0:
284,191,118030,5,0,0:0:0:0:
201,227,118153,1,0,0:0:0:0:
211,137,118276,2,0,L|216:26,1,90,10|0,0:2|0:0,0:0:0:0:
128,173,118522,2,0,L|123:62,1,90,2|0,0:2|0:2,0:0:0:0:
45,209,118768,2,0,L|40:320,1,90,10|0,0:2|0:2,0:0:0:0:
123,359,119014,2,0,B|192:346|192:346|241:368|241:368|316:355,1,180,2|8,0:2|0:2,0:2:0:0:
428,280,119383,2,0,B|359:293|359:293|310:271|310:271|235:284,1,180,2|0,0:2|0:2,0:2:0:0:
171,245,119752,2,0,P|174:180|166:147,1,90,8|0,0:2|0:2,0:0:0:0:
109,87,119997,6,0,P|169:125|192:22,1,180,2|8,0:2|0:2,0:2:0:0:
411,78,120366,2,0,P|351:40|328:143,1,180,2|0,0:2|0:2,0:2:0:0:
258,215,120735,2,0,L|461:201,1,180,10|0,0:2|0:2,0:2:0:0:
192,299,121104,2,0,L|395:313,1,180,2|0,0:2|0:2,0:2:0:0:
466,316,121473,2,0,P|458:264|466:220,1,90,2|0,0:2|0:2,0:2:0:0:
368,118,121719,2,0,P|376:170|368:214,1,90,10|0,0:2|0:2,0:2:0:0:
197,164,121965,102,0,L|307:160,1,90,2|0,0:2|0:2,0:0:0:0:
289,256,122211,1,8,0:2:0:0:
199,259,122334,2,0,L|109:262,1,90,2|0,0:2|0:2,0:0:0:0:
107,172,122579,1,0,0:2:0:0:
197,164,122702,2,0,L|307:160,1,90,10|0,0:2|0:2,0:0:0:0:
366,204,122948,2,0,P|325:160|410:90,1,180,2|8,0:2|0:2,0:2:0:0:
465,276,123317,2,0,P|506:205|439:156,1,180,0|8,0:0|0:2,0:0:0:0:
354,292,123686,1,8,0:2:0:0:
366,204,123809,1,8,0:2:0:0:
284,238,123932,6,0,B|248:260|248:260|183:249,1,90,4|0,0:2|0:2,0:2:0:0:
118,236,124178,2,0,L|106:288,3,45,8|0|0|0,0:2|0:2|0:2|0:2,0:0:0:0:
134,154,124424,2,0,L|82:142,3,45,0|0|0|0,0:2|0:2|0:2|0:2,0:0:0:0:
216,170,124670,2,0,L|228:118,3,45,8|0|0|0,0:2|0:2|0:2|0:2,0:0:0:0:
200,252,124916,86,0,L|291:273,1,90,2|0,0:2|0:2,0:0:0:0:
375,292,125161,2,0,L|395:204,1,90,8|0,0:2|0:2,0:0:0:0:
415,117,125407,2,0,L|327:96,1,90,2|0,0:2|0:2,0:0:0:0:
240,77,125653,2,0,L|219:164,1,90,8|0,0:2|0:2,0:0:0:0:
123,189,125899,2,0,L|102:101,1,90,2|0,0:2|0:2,0:0:0:0:
200,252,126145,2,0,L|179:339,1,90,8|0,0:2|0:2,0:0:0:0:
292,185,126391,2,0,L|312:272,1,90,2|0,0:2|0:2,0:0:0:0:
394,348,126637,2,0,L|414:260,1,90,8|0,0:2|0:2,0:0:0:0:
492,163,126883,22,0,P|444:165|460:58,1,180,2|8,0:2|0:2,0:2:0:0:
352,18,127252,1,0,0:0:0:0:
243,84,127375,2,0,P|320:109|292:185,1,180,0|8,0:2|0:2,0:0:0:0:
151,160,127743,1,0,0:2:0:0:
132,236,127866,2,0,B|174:246|210:210|210:210|227:257|278:269,1,180,2|8,0:2|0:2,0:2:0:0:
438,219,128235,2,0,B|395:208|359:244|359:244|342:197|291:185,1,180,2|0,0:2|0:2,0:2:0:0:
346,109,128604,2,0,P|386:132|441:131,1,90,10|0,0:2|0:2,0:2:0:0:
287,9,128850,102,0,P|305:96|292:185,1,180,2|8,0:2|0:2,0:2:0:0:
218,232,129219,1,0,0:2:0:0:
130,168,129342,2,0,P|181:154|221:133,1,90,0|0,0:2|0:2,0:0:0:0:
129,70,129588,2,0,P|88:50|44:39,1,90,8|2,0:2|0:2,0:0:0:0:
6,125,129834,2,0,P|24:169|32:313,1,180,2|8,0:2|0:2,0:2:0:0:
268,358,130325,2,0,P|215:344|164:346,1,90,2|2,0:2|0:2,0:0:0:0:
328,281,130571,2,0,P|372:279|415:266,1,90,10|2,0:2|0:2,0:0:0:0:
499,225,130817,6,0,P|487:176|486:131,1,90,2|10,0:2|0:2,0:0:0:0:
495,88,131002,1,8,0:2:0:0:
499,92,131063,2,0,P|447:97|395:85,1,90,10|8,0:2|0:3,0:0:0:0:
337,35,131309,1,6,0:3:0:0:
327,124,131432,1,10,0:2:0:0:
254,69,131555,1,10,0:3:0:0:
244,158,131678,1,4,0:3:0:0:
171,103,131801,6,0,P|125:87|71:201,1,180,6|8,0:2|0:2,0:2:0:0:
40,265,132170,1,0,0:2:0:0:
128,283,132293,2,0,P|180:271|231:274,1,90,2|0,0:2|0:2,0:2:0:0:
274,375,132538,2,0,P|229:374|185:363,1,90,8|2,0:2|0:2,0:0:0:0:
372,370,132784,2,0,P|355:324|335:177,1,180,2|8,0:2|0:2,0:2:0:0:
400,131,133153,1,0,0:2:0:0:
346,58,133276,2,0,P|299:50|252:51,1,90,0|0,0:2|0:2,0:0:0:0:
157,28,133522,2,0,P|165:79|163:130,1,90,8|0,0:2|0:2,0:2:0:0:
72,188,133768,102,0,P|71:143|79:98,1,90,0|0,0:2|0:0,0:2:0:0:
255,234,134014,2,0,P|255:189|247:144,1,90,8|0,0:2|0:2,0:0:0:0:
166,291,134260,2,0,P|228:277|368:286,1,180,2|8,0:2|0:2,0:0:0:0:
418,331,134629,1,0,0:2:0:0:
484,270,134752,2,0,P|478:223|480:175,1,90,2|0,0:2|0:2,0:2:0:0:
393,82,134997,2,0,P|387:129|389:177,1,90,10|0,0:2|0:2,0:2:0:0:
297,189,135243,2,0,P|251:175|192:168,1,90,2|0,0:2|0:2,0:0:0:0:
142,88,135489,2,0,P|186:81|229:67,1,90,10|0,0:2|0:2,0:2:0:0:
62,31,135735,6,0,P|53:87|54:129,1,90,4|4,0:3|0:3,0:0:0:0:
0,195,135981,2,0,P|9:251|8:293,1,90,10|0,0:2|0:2,0:2:0:0:
13,375,136227,2,0,P|66:364|208:360,1,180,2|8,0:2|0:2,0:2:0:0:
282,361,136596,1,0,0:2:0:0:
273,271,136719,2,0,P|220:260|163:260,1,90,2|0,0:2|0:2,0:2:0:0:
73,242,136965,2,0,P|136:251|131:152,1,180,10|0,0:2|0:2,0:2:0:0:
50,153,137334,1,0,0:2:0:0:
98,77,137457,2,0,P|142:69|191:39,1,90,10|0,0:2|0:2,0:0:0:0:
290,0,137702,102,0,P|273:45|266:202,1,180,2|8,0:2|0:2,0:2:0:0:
302,253,138071,1,0,0:2:0:0:
384,201,138194,2,0,P|379:153|364:109,1,90,0|0,0:2|0:2,0:2:0:0:
485,30,138440,2,0,P|471:72|467:117,1,90,8|0,0:2|0:2,0:2:0:0:
376,20,138686,2,0,P|326:3|282:0,1,90,0|0,0:2|0:2,0:0:0:0:
191,112,138932,2,0,P|235:107|277:91,1,90,8|0,0:2|0:2,0:0:0:0:
137,41,139178,5,0,0:2:0:0:
102,123,139301,1,8,0:2:0:0:
191,112,139424,1,10,0:2:0:0:
156,194,139547,1,8,0:2:0:0:
245,183,139670,86,0,P|296:179|351:186,1,90,4|2,0:2|0:2,0:0:0:0:
422,206,139916,2,0,P|399:252|366:296,1,90,10|2,0:2|0:2,0:0:0:0:
326,357,140161,2,0,B|275:352|251:309|251:309|236:356|183:364,1,180,2|8,0:2|0:2,0:0:0:0:
98,374,140530,1,0,0:2:0:0:
52,296,140653,2,0,P|67:251|72:207,1,90,0|0,0:2|0:2,0:2:0:0:
122,133,140899,1,8,0:2:0:0:
191,189,141022,1,0,0:2:0:0:
241,113,141145,2,0,P|287:102|348:102,1,90,2|0,0:2|0:2,0:0:0:0:
408,206,141391,2,0,P|363:203|319:193,1,90,10|2,0:2|0:2,0:0:0:0:
482,137,141637,22,0,P|459:184|452:328,1,180,2|8,0:2|0:2,0:2:0:0:
374,362,142006,1,0,0:2:0:0:
254,321,142129,2,0,P|263:259|363:290,1,180,2|8,0:2|0:2,0:2:0:0:
374,362,142497,1,0,0:2:0:0:
358,272,142620,2,0,P|347:218|348:165,1,90,0|0,0:2|0:2,0:2:0:0:
361,94,142866,1,10,0:2:0:0:
272,79,142989,1,0,0:2:0:0:
257,168,143112,2,0,P|207:178|166:178,1,90,2|0,0:2|0:2,0:0:0:0:
90,71,143358,2,0,P|134:71|178:81,1,90,14|2,0:2|0:2,0:0:0:0:
66,163,143604,102,0,P|78:208|97:349,1,180,6|8,0:2|0:2,0:2:0:0:
182,367,143973,1,0,0:2:0:0:
226,291,144096,2,0,P|283:281|328:285,1,90,0|0,0:2|0:2,0:0:0:0:
394,358,144342,2,0,P|354:332|439:308,1,180,10|0,0:2|0:2,0:0:0:0:
498,223,144711,1,0,0:2:0:0:
429,164,144834,2,0,P|379:178|331:178,1,90,8|0,0:2|0:2,0:2:0:0:
311,26,145079,2,0,P|348:62|372:103,1,90,0|0,0:2|0:2,0:0:0:0:
251,198,145325,2,0,P|263:147|287:106,1,90,12|0,0:2|0:2,0:0:0:0:
212,59,145571,6,0,L|216:-1,2,60,8|4|4,0:2|2:3|2:3,0:0:0:0:
126,95,145817,2,0,L|122:35,2,60,4|4|4,2:3|2:3|2:3,0:0:0:0:
229,144,146063,2,0,L|233:84,2,60,8|4|4,0:2|0:3|0:3,0:0:0:0:
143,180,146309,2,0,L|139:120,2,60,4|4|4,0:3|0:3|0:3,0:0:0:0:
246,229,146555,2,0,L|250:169,2,60,10|4|4,0:2|0:3|0:3,0:0:0:0:
160,265,146801,2,0,L|156:205,2,60,4|4|4,0:3|0:3|0:3,0:0:0:0:
232,329,147047,38,0,B|292:323|292:323|325:344|325:344|385:337,1,157.5,12|0,0:2|2:2,0:2:0:0:
471,329,147538,22,0,L|468:389,3,45,6|0|0|0,0:2|0:2|0:2|0:2,0:0:0:0:
415,260,147784,1,8,0:2:0:0:
414,248,147845,1,0,0:2:0:0:
413,237,147906,1,0,0:2:0:0:
413,226,147968,1,0,0:2:0:0:
412,215,148030,2,0,L|409:155,3,45,2|0|0|0,0:2|0:2|0:2|0:2,0:0:0:0:
495,204,148276,1,8,0:2:0:0:
496,192,148337,1,0,0:2:0:0:
497,181,148398,1,0,0:2:0:0:
497,170,148460,1,0,0:2:0:0:
498,159,148522,6,0,L|501:99,3,45,2|0|0|0,0:2|0:2|0:2|0:2,0:0:0:0:
418,145,148768,2,0,L|390:91,3,45,8|0|0|0,0:2|0:2|0:2|0:2,0:0:0:0:
341,172,149014,2,0,L|290:139,3,45,2|0|0|0,0:2|0:2|0:2|0:2,0:0:0:0:
288,234,149260,2,0,L|227:230,3,45,8|0|0|0,0:2|0:2|0:2|0:2,0:0:0:0:
273,314,149506,102,0,L|219:341,3,45,2|0|0|0,0:2|0:2|0:2|0:2,0:0:0:0:
358,288,149752,1,8,0:2:0:0:
357,299,149813,1,0,0:2:0:0:
356,310,149874,1,0,0:2:0:0:
356,321,149936,1,0,0:2:0:0:
355,332,149997,2,0,L|351:392,3,45,2|0|0|0,0:2|0:2|0:2|0:2,0:0:0:0:
442,336,150243,1,8,0:2:0:0:
441,325,150304,1,0,0:2:0:0:
440,314,150365,1,0,0:2:0:0:
440,303,150427,1,0,0:2:0:0:
439,291,150489,22,0,L|435:230,2,60,2|0|0,0:2|0:0|0:0,0:2:0:0:
361,276,150735,2,0,L|357:215,2,60,10|0|0,0:2|0:0|0:0,0:2:0:0:
283,261,150981,2,0,L|279:200,2,60,2|0|0,0:2|0:0|0:0,0:2:0:0:
205,246,151227,2,0,P|175:261|106:260,1,90,14|0,0:2|0:0,0:2:0:0:
48,312,151473,102,0,B|86:268|86:268|77:138,1,180,2|8,0:2|0:2,0:0:0:0:
205,246,151842,2,0,B|167:202|167:202|176:72,1,180,2|0,0:2|0:2,0:0:0:0:
290,22,152211,2,0,P|274:74|273:120,1,90,10|0,0:2|0:2,0:0:0:0:
359,170,152457,2,0,P|288:139|305:213,1,180,2|8,0:2|0:2,0:0:0:0:
371,258,152825,1,0,0:2:0:0:
457,234,152948,2,0,P|465:176|462:134,1,90,0|0,0:2|0:2,0:2:0:0:
466,54,153194,2,0,L|367:44,1,90,12|4,0:3|0:3,0:0:0:0:
290,22,153440,6,0,B|244:55|244:55|261:199,1,180,2|10,0:2|0:2,0:2:0:0:
293,261,153809,1,0,0:2:0:0:
206,284,153932,2,0,P|149:273|119:245,1,90,2|0,0:2|0:2,0:0:0:0:
96,167,154178,2,0,P|153:156|183:128,1,90,8|2,0:2|0:2,0:0:0:0:
108,76,154424,101,0,0:2:0:0:
14,198,154547,2,0,B|11:156|11:156|24:110,1,90,8|8,0:2|0:2,0:0:0:0:
54,279,154793,1,4,0:3:0:0:
133,237,154916,1,4,0:3:0:0:
258,328,155038,2,0,B|220:336|220:336|173:318,1,90,8|4,0:2|0:3,0:0:0:0:
227,241,155284,1,4,0:3:0:0:
320,254,155407,6,0,P|310:204|312:157,1,90,6|0,0:2|0:2,0:2:0:0:
420,107,155653,2,0,P|420:151|410:195,1,90,10|0,0:2|0:2,0:0:0:0:
332,42,155899,2,0,P|380:31|431:11,1,90,2|0,0:2|0:2,0:0:0:0:
236,8,156145,2,0,P|235:52|245:96,1,90,10|0,0:2|0:2,0:0:0:0:
143,188,156391,2,0,P|142:143|152:99,1,90,2|0,0:2|0:2,0:0:0:0:
235,244,156637,2,0,P|204:279|156:317,1,90,10|0,0:2|0:2,0:0:0:0:
322,176,156883,2,0,P|336:220|345:280,1,90,2|0,0:2|0:2,0:0:0:0:
430,344,157129,2,0,P|437:299|452:257,1,90,10|2,0:2|0:2,0:0:0:0:
502,155,157375,102,0,P|451:152|476:52,1,180,2|8,0:2|0:2,0:2:0:0:
276,19,157743,2,0,P|327:22|302:122,1,180,2|0,0:2|0:2,0:2:0:0:
284,212,158112,2,0,P|328:204|388:214,1,90,8|0,0:2|0:2,0:0:0:0:
419,302,158358,2,0,P|374:307|330:299,1,90,0|0,0:2|0:2,0:0:0:0:
215,362,158604,2,0,P|233:290|153:307,1,180,10|2,0:2|0:2,0:2:0:0:
82,359,158973,1,0,0:2:0:0:
59,186,159096,2,0,P|45:235|41:280,1,90,12|0,0:2|0:2,0:0:0:0:
160,200,159342,6,0,B|160:155|123:112|123:112|161:144|222:131,1,180,6|8,0:2|0:2,0:2:0:0:
282,79,159711,1,0,0:2:0:0:
336,159,159834,2,0,P|317:199|305:254,1,90,0|0,0:2|0:2,0:0:0:0:
462,309,160079,2,0,P|451:265|432:224,1,90,8|0,0:2|0:2,0:0:0:0:
310,381,160325,2,0,P|342:350|368:313,1,90,0|0,0:2|0:2,0:2:0:0:
236,314,160571,2,0,P|193:297|129:292,1,90,8|0,0:2|0:2,0:2:0:0:
27,249,160817,86,0,L|21:204,3,45,0|0|0|0,0:2|0:2|0:2|0:2,0:0:0:0:
105,208,161063,2,0,L|122:166,3,45,8|0|0|0,0:2|0:2|0:2|0:2,0:0:0:0:
193,211,161309,2,0,L|229:184,3,45,0|0|0|0,0:2|0:2|0:2|0:2,0:0:0:0:
267,257,161555,2,0,L|381:243,1,90,8|0,0:2|0:2,0:2:0:0:
470,229,161801,6,0,L|476:290,3,45,2|0|0|0,0:2|0:2|0:2|0:2,0:0:0:0:
390,183,162047,2,0,L|384:244,3,45,8|0|0|0,0:2|0:2|0:2|0:2,0:0:0:0:
486,136,162293,2,0,L|496:238,1,90,2|0,0:2|0:2,0:0:0:0:
407,93,162538,2,0,L|417:-9,1,90,8|0,0:2|0:2,0:0:0:0:
321,124,162784,5,2,0:3:0:0:
252,65,162907,1,8,0:2:0:0:
166,96,163030,1,8,0:2:0:0:
97,37,163153,1,8,0:2:0:0:
25,160,163276,102,0,L|19:59,1,90,4|4,0:2|0:3,0:0:0:0:
108,33,163522,1,4,0:3:0:0:
36,156,163645,6,0,L|30:55,1,90,4|8,0:2|0:3,0:0:0:0:
119,29,163891,1,8,0:3:0:0:
47,152,164014,102,0,L|41:51,1,90,4|4,0:2|0:3,0:0:0:0:
130,25,164260,1,4,0:3:0:0:
58,148,164383,6,0,L|52:47,1,90,4|8,0:2|0:3,0:0:0:0:
141,21,164629,1,8,0:3:0:0:
69,144,164752,102,0,L|63:43,1,90,0|4,0:2|0:3,0:0:0:0:
152,17,164998,1,8,0:3:0:0:
80,140,165120,5,4,0:2:0:0:
256,192,165182,12,4,166227,0:3:0:0:
199,137,166350,6,0,L|136:127,2,45,8|8|8,0:2|0:2|0:2,0:0:0:0:
274,86,166596,1,8,0:2:0:0:
300,246,166719,2,0,P|318:205|322:161,1,90,14|0,0:2|0:0,0:2:0:0:
182,239,166965,2,0,P|185:283|203:324,1,90,14|0,0:2|0:0,0:2:0:0:
287,360,167211,38,0,L|403:353,1,90,6|0,0:2|0:2,0:2:0:0:
418,273,167457,2,0,L|534:280,1,90,10|0,0:2|0:2,0:2:0:0:
488,190,167702,2,0,B|448:148|448:148|471:21,1,180,2|10,0:2|0:2,0:0:0:0:
381,48,168071,2,0,P|326:60|285:61,1,90,2|0,0:2|0:2,0:2:0:0:
234,131,168317,2,0,P|179:119|138:118,1,90,2|8,0:2|0:2,0:0:0:0:
57,141,168563,2,0,P|45:202|44:247,1,90,2|0,0:2|0:2,0:2:0:0:
122,274,168809,2,0,P|134:335|135:380,2,90,2|10|2,0:2|0:2|0:2,0:0:0:0:
212,273,169178,54,0,P|255:255|310:252,1,90,2|0,0:2|0:2,0:0:0:0:
356,319,169424,2,0,P|399:337|454:340,1,90,10|0,0:2|0:2,0:0:0:0:
499,270,169670,1,2,0:2:0:0:
434,206,169793,2,0,P|418:159|418:101,1,90,2|8,0:2|0:2,0:2:0:0:
445,33,170038,2,0,L|345:43,1,90,2|0,0:2|0:2,0:2:0:0:
304,117,170284,2,0,L|204:107,1,90,2|8,0:2|0:2,0:0:0:0:
447,13,170530,54,0,L|353:23,1,67.5000025749208,0|0,0:2|0:2,0:0:0:0:
306,98,170776,2,0,L|229:90,1,67.5000025749208,0|8,0:2|0:2,0:0:0:0:
165,30,171022,1,0,0:2:0:0:
90,80,171145,54,0,P|96:132|91:179,1,90,2|0,0:2|0:2,0:0:0:0:
170,216,171391,2,0,P|164:268|169:315,1,90,10|0,0:2|0:2,0:0:0:0:
260,207,171637,2,0,P|263:162|257:117,1,90,2|2,0:2|0:2,0:0:0:0:
323,274,171883,1,10,0:2:0:0:
409,250,172006,2,0,P|405:200|421:66,1,180,2|0,0:2|0:2,0:0:0:0:
350,12,172375,1,10,0:2:0:0:
278,66,172497,2,0,P|231:55|172:50,1,90,2|0,0:2|0:2,0:2:0:0:
103,22,172743,2,0,P|161:57|94:128,1,180,2|0,0:2|0:2,0:0:0:0:
36,186,173112,54,0,P|18:236|16:277,1,90,2|0,0:2|0:2,0:2:0:0:
99,307,173358,2,0,P|117:257|119:216,1,90,10|0,0:2|0:2,0:2:0:0:
107,130,173604,1,2,0:2:0:0:
190,164,173727,2,0,P|256:158|398:161,1,180,2|2,0:2|0:2,0:0:0:0:
427,228,174096,2,0,P|412:273|405:322,1,90,2|0,0:2|0:2,0:0:0:0:
329,363,174342,2,0,P|321:318|307:276,1,90,10|2,0:2|0:2,0:0:0:0:
218,257,174588,53,10,0:3:0:0:
201,345,174711,1,8,0:2:0:0:
131,238,174834,1,8,0:2:0:0:
114,326,174957,1,8,0:2:0:0:
44,219,175079,54,0,P|50:163|48:117,1,90,6|0,0:2|0:2,0:2:0:0:
23,42,175325,2,0,L|131:56,1,90,10|0,0:2|0:2,0:2:0:0:
169,123,175571,2,0,L|277:109,1,90,2|0,0:2|0:2,0:0:0:0:
319,44,175817,1,10,0:2:0:0:
380,109,175940,2,0,P|374:164|378:210,1,90,2|0,0:2|0:2,0:2:0:0:
455,242,176186,2,0,P|461:297|457:343,1,90,2|8,0:2|0:2,0:0:0:0:
373,363,176432,2,0,L|280:354,1,90,2|0,0:2|0:2,0:2:0:0:
192,347,176678,2,0,B|253:266|128:251|210:160,1,180,2|2,0:2|0:2,0:0:0:0:
190,89,177047,54,0,P|255:88|293:73,1,90,2|0,0:2|0:2,0:0:0:0:
361,44,177293,2,0,L|355:143,1,90,10|0,0:2|0:2,0:0:0:0:
428,187,177538,2,0,P|383:167|375:268,1,180,2|8,0:2|0:2,0:0:0:0:
395,345,177907,2,0,L|285:351,1,90,2|0,0:2|0:2,0:2:0:0:
251,276,178153,2,0,B|229:296|218:331|218:331|212:261|189:186,1,180,2|2,0:2|0:2,0:0:0:0:
115,179,178522,2,0,P|125:126|121:80,1,90,0|2,0:2|0:2,0:0:0:0:
217,12,178768,2,0,P|215:56|224:100,1,90,8|0,0:2|0:2,0:2:0:0:
289,164,179014,54,0,L|400:155,1,90,2|0,0:2|0:2,0:0:0:0:
469,151,179260,2,0,P|470:195|461:239,1,90,10|0,0:2|0:2,0:0:0:0:
418,320,179506,1,2,0:2:0:0:
349,261,179629,1,0,0:2:0:0:
306,342,179752,2,0,P|253:350|205:344,1,90,10|0,0:2|0:2,0:0:0:0:
132,315,179997,2,0,L|138:218,1,90,2|2,0:2|0:2,0:0:0:0:
55,187,180243,2,0,L|61:90,1,90,10|2,0:2|0:2,0:0:0:0:
108,19,180489,1,0,0:2:0:0:
177,76,180612,2,0,P|240:59|379:60,1,180,2|2,0:2|0:2,0:0:0:0:
346,238,180981,54,0,P|323:191|314:138,1,90,2|0,0:2|0:2,0:0:0:0:
446,234,181227,2,0,P|435:277|415:317,1,90,10|0,0:2|0:2,0:0:0:0:
333,358,181473,2,0,P|281:333|139:323,1,180,2|8,0:2|0:2,0:0:0:0:
73,344,181842,1,2,0:2:0:0:
95,256,181965,1,0,0:0:0:0:
8,281,182088,2,0,L|-9:333,2,45,8|8|8,0:2|0:2|0:2,0:0:0:0:
30,193,182334,1,8,0:2:0:0:
95,256,182457,2,0,L|197:249,1,90,8|8,0:2|0:3,0:0:0:0:
117,168,182702,1,4,0:3:0:0:
30,193,182825,1,8,0:2:0:0:
204,143,182948,69,4,0:2:0:0:
204,143,183194,2,0,P|272:140|312:130,1,90,10|0,0:2|0:2,0:2:0:0:
380,110,183440,2,0,L|373:221,1,90,2|0,0:2|0:2,0:0:0:0:
465,199,183686,2,0,L|472:310,1,90,10|0,0:2|0:2,0:2:0:0:
505,372,183932,1,2,0:2:0:0:
415,361,184055,2,0,P|368:349|296:352,1,90,2|8,0:2|0:2,0:0:0:0:
238,368,184301,2,0,P|293:347|215:290,1,180,2|0,0:2|0:2,0:2:0:0:
151,247,184670,2,0,P|163:204|188:166,1,90,8|0,0:2|0:2,0:0:0:0:
267,121,184916,53,0,0:2:0:0:
267,121,185161,2,0,L|374:126,1,90,10|0,0:2|0:2,0:2:0:0:
403,202,185407,2,0,L|510:197,1,90,2|0,0:2|0:2,0:0:0:0:
498,288,185653,2,0,L|408:292,1,90,10|0,0:2|0:2,0:2:0:0:
339,352,185899,1,2,0:2:0:0:
271,291,186022,2,0,P|275:228|270:195,1,90,2|8,0:2|0:2,0:0:0:0:
343,146,186268,2,0,P|290:111|259:98,1,90,2|0,0:2|0:2,0:2:0:0:
179,73,186514,2,0,P|237:64|361:0,1,180,2|0,0:2|0:2,0:0:0:0:
436,12,186883,54,0,B|422:66|422:66|437:206,1,180,2|8,0:2|0:2,0:2:0:0:
343,146,187252,2,0,B|357:200|357:200|342:340,1,180,2|0,0:2|0:2,0:2:0:0:
263,364,187620,2,0,P|241:317|131:349,1,180,10|0,0:2|0:2,0:0:0:0:
48,367,187989,1,0,0:2:0:0:
16,282,188112,2,0,P|25:227|24:187,1,90,10|0,0:2|0:2,0:0:0:0:
103,148,188358,2,0,P|94:93|95:53,1,90,2|0,0:2|0:2,0:0:0:0:
179,25,188604,2,0,L|293:35,1,90,10|0,0:2|0:2,0:2:0:0:
284,122,188850,54,0,B|333:91|333:91|472:124,1,180,2|8,0:2|0:2,0:2:0:0:
438,209,189219,1,0,0:2:0:0:
351,187,189342,2,0,B|302:218|302:218|163:185,1,180,2|8,0:2|0:2,0:0:0:0:
176,99,189711,1,0,0:2:0:0:
86,108,189834,2,0,P|75:171|75:220,1,90,8|8,0:2|0:2,0:0:0:0:
131,266,190079,1,12,0:3:0:0:
183,189,190202,1,8,0:2:0:0:
238,348,190325,54,0,P|234:298|241:253,1,90,6|0,0:2|0:0,0:2:0:0:
290,92,190571,2,0,P|295:136|291:181,1,90,6|0,0:2|0:0,0:2:0:0:
346,249,190817,53,4,0:2:0:0:
346,249,191063,2,0,L|441:253,1,90,10|0,0:2|0:2,0:2:0:0:
291,181,191309,2,0,L|201:177,1,90,2|0,0:2|0:2,0:0:0:0:
110,177,191555,2,0,P|121:119|119:81,1,90,10|0,0:2|0:2,0:2:0:0:
67,14,191801,1,2,0:2:0:0:
156,6,191924,2,0,L|257:16,1,90,2|8,0:2|0:2,0:0:0:0:
274,100,192170,2,0,P|281:42|392:52,1,180,2|0,0:2|0:2,0:2:0:0:
433,112,192538,2,0,P|415:161|414:209,1,90,8|0,0:2|0:2,0:0:0:0:
431,287,192784,54,0,L|317:279,1,90,0|0,0:2|0:2,0:2:0:0:
293,203,193030,2,0,L|179:211,1,90,10|0,0:2|0:2,0:2:0:0:
129,262,193276,2,0,P|106:214|98:172,1,90,2|0,0:2|0:2,0:0:0:0:
24,125,193522,2,0,P|54:81|86:53,1,90,10|0,0:2|0:2,0:2:0:0:
163,18,193768,1,10,0:2:0:0:
236,115,193891,2,0,P|243:67|280:20,1,90,10|8,0:2|0:2,0:0:0:0:
354,18,194137,1,2,0:2:0:0:
324,103,194260,1,8,0:2:0:0:
412,88,194383,1,10,0:2:0:0:
382,173,194506,2,0,L|388:269,1,90,8|4,0:3|0:3,0:0:0:0:
422,346,194752,102,0,P|371:350|332:333,1,90,14|4,0:2|0:3,0:0:0:0:
298,253,194997,1,4,0:3:0:0:
417,337,195120,6,0,P|366:341|327:324,1,90,14|8,0:2|0:3,0:0:0:0:
293,244,195365,1,8,0:3:0:0:
412,328,195489,102,0,P|361:332|322:315,1,90,14|4,0:2|0:3,0:0:0:0:
288,235,195734,1,4,0:3:0:0:
407,319,195858,6,0,P|356:323|317:306,1,90,14|0,0:2|0:0,0:2:0:0:
283,226,196103,1,0,0:2:0:0:
402,310,196227,102,0,L|346:305,2,45,8|8|0,0:3|0:3|0:0,0:0:0:0:
278,217,196473,2,0,L|334:222,2,45,8|8|0,0:3|0:3|0:0,0:0:0:0:
188,261,196719,6,0,L|202:147,1,90,14|4,0:2|0:3,0:0:0:0:
277,124,196965,1,4,0:3:0:0:
182,254,197088,102,0,L|196:140,1,90,14|8,0:2|0:3,0:0:0:0:
271,117,197334,1,8,0:3:0:0:
176,247,197457,6,0,L|190:133,1,90,14|4,0:2|0:3,0:0:0:0:
265,110,197703,1,4,0:3:0:0:
170,240,197825,102,0,L|184:126,1,90,14|8,0:2|0:3,0:0:0:0:
259,103,198071,1,8,0:3:0:0:
164,233,198194,6,0,B|162:200|162:200|172:165,1,67.5,14|0,0:2|2:2,0:2:0:0:
261,284,198686,22,0,B|179:331|179:331|71:299,1,198.000006042481,6|8,0:2|0:2,0:2:0:0:
26,229,199055,1,0,0:2:0:0:
81,158,199178,2,0,P|82:105|60:51,1,99.0000030212403,6|8,0:3|0:3,0:0:0:0:
148,24,199424,1,8,0:2:0:0:
207,90,199547,2,0,B|258:60|258:60|417:75,1,198.000006042481,2|0,0:2|0:2,0:0:0:0:
463,132,199916,2,0,P|436:180|428:223,1,99.0000030212403,8|0,0:2|0:2,0:2:0:0:
374,323,200161,2,0,P|347:275|339:232,1,99.0000030212403,6|8,0:3|0:3,0:0:0:0:
258,177,200407,1,8,0:2:0:0:
207,315,200530,6,0,P|190:255|69:257,1,198.000006042481,2|0,0:2|0:2,0:0:0:0:
31,173,200899,2,0,L|45:59,1,99.0000030212403,8|0,0:2|0:2,0:2:0:0:
138,0,201145,2,0,L|150:98,1,99.0000030212403,6|10,0:3|0:3,0:0:0:0:
200,172,201391,1,10,0:2:0:0:
276,122,201514,2,0,B|346:117|346:117|382:142|382:142|478:136,1,198.000006042481,2|0,0:2|0:2,0:0:0:0:
512,249,201883,2,0,L|408:241,1,99.0000030212403,8|0,0:2|0:2,0:2:0:0:
325,222,202129,1,6,0:3:0:0:
352,306,202252,2,0,P|309:341|245:348,1,99.0000030212403,10|14,0:3|0:2,0:0:0:0:
178,359,202497,1,2,0:2:0:0:
157,276,202620,102,0,P|149:226|154:175,1,99.0000030212403,0|0,0:3|0:2,0:2:0:0:
56,96,202866,2,0,P|60:145|52:193,1,99.0000030212403,10|0,0:2|0:2,0:2:0:0:
159,78,203112,2,0,P|218:53|268:51,1,99.0000030212403,6|8,0:3|0:3,0:0:0:0:
337,178,203358,2,0,P|288:171|243:149,1,99.0000030212403,10|0,0:2|0:2,0:0:0:0:
417,109,203604,2,0,P|438:155|449:218,1,99.0000030212403,10|6,0:3|0:3,0:0:0:0:
419,287,203850,1,10,0:2:0:0:
333,262,203973,2,0,B|302:269|282:286|282:286|246:271|206:271|206:271|192:244|162:218,1,198.000006042481,2|8,0:2|0:3,0:2:0:0:
78,206,204342,2,0,P|87:150|86:104,1,99.0000030212403,8|0,0:2|0:2,0:2:0:0:
177,17,204588,6,0,P|176:66|185:115,1,99.0000030212403,8|4,0:3|0:3,0:0:0:0:
279,174,204834,2,0,P|287:125|287:75,1,99.0000030212403,10|0,0:2|0:2,0:0:0:0:
391,18,205079,2,0,P|390:67|399:116,1,99.0000030212403,6|8,0:3|0:3,0:0:0:0:
448,190,205325,2,0,P|449:239|440:288,1,99.0000030212403,10|0,0:2|0:2,0:0:0:0:
373,348,205571,2,0,P|337:311|203:334,1,198.000006042481,6|10,0:3|0:2,0:2:0:0:
120,363,205940,2,0,L|138:152,1,198.000006042481,2|8,0:2|0:2,0:2:0:0:
178,86,206309,1,8,0:2:0:0:
244,145,206432,1,8,0:2:0:0:
286,66,206555,102,0,B|341:50|341:50|486:76,1,198.000006042481,6|8,0:2|0:2,0:2:0:0:
502,161,206924,1,0,0:2:0:0:
416,187,207047,2,0,P|393:240|390:284,1,99.0000030212403,6|8,0:3|0:3,0:0:0:0:
466,327,207293,1,8,0:2:0:0:
388,370,207416,2,0,B|301:323|300:406|186:349,1,198.000006042481,2|0,0:2|0:2,0:0:0:0:
219,199,207784,2,0,P|251:253|255:306,1,99.0000030212403,8|0,0:2|0:2,0:2:0:0:
109,369,208030,2,0,P|118:320|146:279,1,99.0000030212403,6|8,0:3|0:3,0:0:0:0:
129,191,208276,1,8,0:2:0:0:
219,199,208399,6,0,P|285:202|289:84,1,198.000006042481,2|0,0:2|0:2,0:0:0:0:
384,60,208768,2,0,P|405:108|408:165,1,99.0000030212403,8|0,0:2|0:2,0:2:0:0:
493,185,209014,2,0,P|472:233|469:290,1,99.0000030212403,6|10,0:3|0:3,0:0:0:0:
460,368,209260,1,10,0:2:0:0:
380,281,209383,2,0,B|360:334|368:379|368:379|333:347|256:340,1,198.000006042481,2|0,0:2|0:2,0:0:0:0:
218,275,209752,2,0,P|168:283|128:319,1,99.0000030212403,8|0,0:2|0:2,0:2:0:0:
70,377,209997,1,6,0:3:0:0:
35,294,210120,2,0,L|47:173,1,99.0000030212403,10|12,0:3|0:2,0:0:0:0:
105,101,210366,102,0,P|109:150|232:128,1,198.000006042481,2|0,0:2|0:2,0:0:0:0:
310,112,210735,2,0,P|304:45|291:12,1,99.0000030212403,10|0,0:2|0:2,0:2:0:0:
404,115,210981,2,0,P|388:161|386:211,1,99.0000030212403,6|8,0:3|0:3,0:0:0:0:
409,297,211227,2,0,P|362:291|294:300,1,99.0000030212403,10|0,0:2|0:2,0:0:0:0:
249,361,211473,1,10,0:3:0:0:
160,370,211596,2,0,P|153:320|138:274,1,99.0000030212403,6|10,0:3|0:2,0:0:0:0:
48,280,211842,2,0,P|66:228|62:80,1,198.000006042481,2|8,0:2|0:3,0:2:0:0:
165,58,212211,2,0,P|182:110|185:153,1,99.0000030212403,8|0,0:2|0:2,0:2:0:0:
221,235,212457,6,0,L|213:305,2,66.0000020141602,4|4|4,0:3|0:3|0:3,0:0:0:0:
274,161,212702,2,0,L|330:202,2,66.0000020141602,4|4|4,0:3|0:3|0:3,0:0:0:0:
236,78,212948,2,0,L|300:49,2,66.0000020141602,4|4|4,0:3|0:3|0:3,0:0:0:0:
145,69,213194,2,0,L|153:0,2,66.0000020141602,4|4|4,0:3|0:3|0:3,0:0:0:0:
92,143,213440,101,12,0:2:0:0:
156,247,213563,2,0,P|175:201|184:153,1,99.0000030212403,8|0,0:2|0:2,0:2:0:0:
69,298,213809,2,0,P|123:284|279:297,1,198.000006042481,12|8,0:2|0:2,0:2:0:0:
328,353,214178,1,8,0:2:0:0:
349,266,214301,1,8,0:2:0:0:
432,357,214424,102,0,P|445:307|448:251,1,99.0000030212403,14|0,0:2|0:2,0:0:0:0:
365,168,214670,2,0,P|352:218|349:274,1,99.0000030212403,8|0,0:2|0:2,0:0:0:0:
297,338,214916,1,10,0:2:0:0:
260,257,215038,1,0,0:2:0:0:
209,330,215161,2,0,P|152:338|106:325,1,99.0000030212403,8|2,0:2|0:2,0:0:0:0:
29,292,215407,6,0,L|40:191,1,99.0000030212403,8|0,0:2|0:2,0:0:0:0:
126,170,215653,2,0,L|115:69,1,99.0000030212403,8|0,0:2|0:2,0:0:0:0:
183,13,215899,1,10,0:2:0:0:
238,82,216022,1,0,0:2:0:0:
306,24,216145,2,0,P|360:16|405:25,1,99.0000030212403,8|2,0:2|0:2,0:0:0:0:
463,90,216391,102,0,P|448:147|448:204,1,99.0000030212403,8|0,0:2|0:2,0:0:0:0:
368,293,216637,2,0,P|365:243|351:196,1,99.0000030212403,8|0,0:2|0:2,0:0:0:0:
265,171,216883,1,10,0:2:0:0:
255,259,217006,1,2,0:2:0:0:
169,234,217129,2,0,P|163:182|150:135,1,99.0000030212403,10|2,0:2|0:2,0:0:0:0:
126,50,217375,6,0,L|248:37,1,99.0000030212403,8|0,0:2|0:2,0:0:0:0:
298,89,217620,2,0,L|420:102,1,99.0000030212403,8|0,0:2|0:2,0:0:0:0:
473,145,217866,1,10,0:2:0:0:
395,188,217989,1,2,0:2:0:0:
471,233,218112,1,14,0:2:0:0:
393,276,218235,1,2,0:2:0:0:
469,321,218358,102,0,P|430:358|374:364,1,99.0000030212403,12|2,0:2|0:2,0:0:0:0:
312,232,218604,2,0,P|351:195|407:189,1,99.0000030212403,10|0,0:2|0:2,0:0:0:0:
315,319,218850,2,0,L|211:311,1,99.0000030212403,10|0,0:2|0:2,0:0:0:0:
146,254,219096,1,10,0:2:0:0:
213,195,219219,1,0,0:2:0:0:
143,138,219342,6,0,P|132:81|138:31,1,99.0000030212403,10|0,0:2|0:2,0:0:0:0:
223,21,219588,1,8,0:2:0:0:
280,136,219711,2,0,P|323:96|467:109,1,198.000006042481,2|0,0:2|0:2,0:0:0:0:
482,184,220079,2,0,P|466:232|463:287,1,99.0000030212403,8|0,0:2|0:2,0:0:0:0:
380,358,220325,102,0,P|364:310|361:255,1,99.0000030212403,8|2,0:2|0:2,0:0:0:0:
283,216,220571,1,10,0:2:0:0:
255,300,220694,1,0,0:2:0:0:
178,255,220817,2,0,P|172:204|178:154,1,99.0000030212403,10|0,0:2|0:2,0:0:0:0:
85,268,221063,2,0,P|79:319|85:369,1,99.0000030212403,10|0,0:2|0:2,0:0:0:0:
12,191,221309,6,0,P|61:177|14:62,1,198.000006042481,10|10,0:2|0:2,0:0:0:0:
127,12,221678,2,0,B|171:49|180:110|180:110|211:79|266:75,1,198.000006042481,2|8,0:2|0:2,0:0:0:0:
337,111,222047,1,8,0:2:0:0:
266,165,222170,1,8,0:2:0:0:
348,200,222293,102,0,L|458:210,1,99.0000030212403,14|0,0:2|0:2,0:0:0:0:
437,297,222538,2,0,L|338:288,1,99.0000030212403,8|0,0:2|0:2,0:0:0:0:
256,253,222784,1,10,0:2:0:0:
246,341,222907,1,0,0:2:0:0:
164,306,223030,2,0,P|110:289|51:289,1,99.0000030212403,8|2,0:2|0:2,0:0:0:0:
29,185,223276,6,0,P|78:181|125:166,1,99.0000030212403,8|0,0:2|0:2,0:0:0:0:
212,105,223522,2,0,L|220:220,1,99.0000030212403,8|0,0:2|0:2,0:0:0:0:
309,97,223768,1,10,0:2:0:0:
315,195,223890,1,0,0:2:0:0:
408,91,224014,2,0,L|416:206,1,99.0000030212403,8|2,0:2|0:2,0:0:0:0:
497,225,224260,102,0,L|490:323,1,99.0000030212403,8|0,0:2|0:2,0:0:0:0:
315,195,224506,2,0,L|321:96,1,99.0000030212403,8|0,0:2|0:2,0:0:0:0:
274,284,224752,1,10,0:2:0:0:
218,203,224875,1,2,0:2:0:0:
177,292,224997,2,0,P|132:271|77:267,1,99.0000030212403,10|2,0:2|0:2,0:0:0:0:
22,172,225243,6,0,P|71:167|115:146,1,99.0000030212403,8|0,0:2|0:2,0:0:0:0:
190,69,225489,2,0,P|145:48|96:43,1,99.0000030212403,8|0,0:2|0:2,0:0:0:0:
243,140,225735,1,10,0:2:0:0:
278,58,225858,1,2,0:2:0:0:
325,175,225981,1,14,0:2:0:0:
360,93,226104,1,2,0:2:0:0:
413,164,226227,102,0,P|432:214|437:267,1,99.0000030212403,8|2,0:2|0:2,0:0:0:0:
319,365,226473,2,0,P|325:316|343:270,1,99.0000030212403,14|0,0:2|0:2,0:0:0:0:
229,227,226719,1,10,0:2:0:0:
237,315,226842,1,0,0:2:0:0:
142,253,226965,2,0,P|148:204|166:158,1,99.0000030212403,14|0,0:2|0:2,0:0:0:0:
190,69,227211,6,0,L|79:71,1,99.0000030212403,10|0,0:2|0:2,0:0:0:0:
254,8,227457,1,12,0:2:0:0:
325,59,227579,2,0,B|305:129|305:129|320:163|320:163|298:260,1,198.000006042481,2|0,0:2|0:2,0:0:0:0:
155,350,227948,2,0,L|131:245,1,99.0000030212403,12|0,0:2|0:2,0:0:0:0:
215,237,228194,102,0,L|237:140,2,66.0000020141602,8|4|4,0:2|0:3|0:3,0:0:0:0:
300,248,228440,2,0,L|314:312,2,66.0000020141602,4|4|4,0:3|0:3|0:3,0:0:0:0:
386,250,228686,2,0,L|408:153,2,66.0000020141602,4|4|4,0:3|0:3|0:3,0:0:0:0:
471,261,228932,2,0,L|485:325,2,66.0000020141602,4|4|4,0:3|0:3|0:3,0:0:0:0:
504,176,229178,5,12,0:2:0:0:
440,112,229301,2,0,B|390:106|390:106|340:126,1,99.0000030212403,8|0,0:2|0:2,0:2:0:0:
287,57,229547,2,0,B|376:20|376:20|496:36,1,198.000006042481,12|8,0:2|0:3,0:2:0:0:
405,191,229916,2,0,B|359:209|359:209|309:203,1,99.0000030212403,0|4,0:0|0:3,0:0:0:0:
253,137,230161,21,6,0:2:0:0:
256,192,230223,12,0,233112,0:0:0:0:
177,163,236186,102,0,L|172:105,2,45,4|4|8,0:3|0:3|0:2,0:0:0:0:
249,225,236432,1,8,0:2:0:0:
249,225,236555,2,0,L|240:327,1,90,12|8,0:3|0:2,0:0:0:0:
316,159,236801,2,0,L|307:56,2,90,8|8|12,0:2|0:2|0:3,0:0:0:0:
388,221,237170,1,8,0:2:0:0:
388,221,237293,2,0,P|452:220|494:201,1,90,8|8,0:2|0:2,0:0:0:0:
486,309,237538,2,0,P|422:310|380:329,1,90,6|10,0:3|0:3,0:0:0:0:
309,339,237784,2,0,L|296:233,1,90,10|6,0:3|0:3,0:0:0:0:
220,371,238030,38,4,B|189:331|189:331|53:345,1,180,6|8,0:3|0:3,0:3:0:0:
20,262,238399,1,0,0:2:0:0:
20,262,238522,2,0,P|41:203|42:165,1,90,4|8,0:3|0:3,0:0:0:0:
120,129,238768,2,0,P|99:70|98:32,1,90,4|4,0:3|0:3,0:0:0:0:
182,12,239014,2,0,L|291:34,1,90,6|8,0:3|0:3,0:0:0:0:
353,64,239260,2,0,B|339:94|313:110|313:110|310:173|310:173|335:191|350:232,1,180,4|8,0:3|0:3,0:2:0:0:
394,290,239629,1,4,0:3:0:0:
318,338,239752,2,0,P|272:323|229:323,1,90,4|4,0:3|0:3,0:0:0:0:
146,354,239997,101,10,0:3:0:0:
146,354,240243,2,0,P|201:326|120:285,1,180,8|8,0:3|0:3,0:2:0:0:
47,295,240612,1,4,0:3:0:0:
26,207,240735,2,0,P|32:152|26:111,1,90,8|4,0:3|0:3,0:0:0:0:
117,104,240981,2,0,P|111:49|117:8,1,90,6|4,0:3|0:3,0:0:0:0:
206,19,241227,2,0,B|286:69|291:-8|400:45,1,180,8|4,0:3|0:3,0:2:0:0:
453,89,241596,1,4,0:3:0:0:
399,161,241719,2,0,P|349:176|293:175,1,90,8|8,0:3|0:3,0:0:0:0:
230,136,241965,5,10,0:3:0:0:
230,136,242211,2,0,B|281:174|281:174|259:303,1,180,8|8,0:3|0:3,0:2:0:0:
204,358,242579,1,4,0:3:0:0:
131,304,242702,2,0,P|138:249|137:200,1,90,4|8,0:3|0:3,0:0:0:0:
55,177,242948,2,0,P|48:122|49:73,1,90,2|4,0:2|0:3,0:2:0:0:
230,136,243194,101,8,0:2:0:0:
137,214,243317,1,8,0:3:0:0:
137,214,243563,1,8,0:3:0:0:
202,276,243686,2,0,L|306:284,1,90,4|4,0:3|0:3,0:0:0:0:
359,343,243932,6,0,B|386:259|386:259|463:335,1,180,6|4,0:2|0:3,0:0:0:0:
512,160,244301,2,0,B|485:244|485:244|408:168,1,180,4|4,0:2|0:3,0:0:0:0:
328,176,244670,2,0,P|327:125|310:81,1,90,4|8,0:2|0:3,0:0:0:0:
244,30,244916,1,8,0:3:0:0:
214,172,245038,102,0,P|208:119|109:148,1,180,4|4,0:2|0:3,0:0:0:0:
83,222,245407,2,0,P|89:275|188:246,1,180,4|4,0:2|0:2,0:0:0:0:
214,172,245776,1,0,0:0:0:0:
286,225,245899,54,0,L|301:283,2,60,2|0|0,0:2|0:2|0:2,0:0:0:0:
361,134,246145,1,8,0:2:0:0:
361,134,246227,1,0,0:2:0:0:
361,134,246309,1,0,0:2:0:0:
361,134,246391,2,0,L|368:75,2,60,2|0|0,0:2|0:2|0:2,0:0:0:0:
445,209,246637,1,10,0:2:0:0:
445,209,246719,1,0,0:2:0:0:
445,209,246801,1,0,0:2:0:0:
445,209,246883,6,0,L|452:283,3,60,2|0|0|8,0:2|0:2|0:2|0:2,0:0:0:0:
363,238,247211,2,0,L|334:300,4,60,2|0|0|0|0,0:2|0:2|0:2|0:2|0:2,0:0:0:0:
277,222,247620,2,0,L|223:259,2,60,10|0|0,0:2|0:2|0:2,0:0:0:0:
210,165,247866,6,0,L|107:173,1,90,0|2,0:2|0:2,0:0:0:0:
111,82,248112,2,0,L|200:74,1,90,10|2,0:2|0:2,0:0:0:0:
289,66,248358,2,0,L|378:58,1,90,2|2,0:2|0:2,0:0:0:0:
388,149,248604,2,0,L|298:156,1,90,10|2,0:2|0:2,0:0:0:0:
210,165,248850,101,0,0:0:0:0:
210,165,249096,1,8,0:2:0:0:
273,228,249219,1,0,0:2:0:0:
191,266,249342,2,0,L|125:284,2,60,2|0|0,0:2|0:2|0:2,0:0:0:0:
256,315,249588,2,0,L|210:366,2,60,12|0|0,0:2|0:2|0:2,0:0:0:0:
336,324,249834,6,0,L|323:391,2,60,6|0|0,0:2|0:2|0:2,0:0:0:0:
415,258,250079,1,8,0:2:0:0:
415,258,250161,1,0,0:2:0:0:
415,258,250243,1,0,0:2:0:0:
415,258,250325,2,0,L|396:181,2,60,2|0|0,0:2|0:2|0:2,0:0:0:0:
307,198,250571,2,0,L|323:128,2,60,8|0|0,0:2|0:2|0:2,0:0:0:0:
226,248,250817,102,0,L|242:321,5,60,2|0|0|8|0|0,0:2|0:2|0:2|0:2|0:2|0:2,0:0:0:0:
148,200,251309,2,0,L|167:103,1,90,2|0,0:2|0:2,0:0:0:0:
56,245,251555,2,0,L|69:304,1,45,10|0,0:2|0:0,0:0:0:0:
1,196,251678,2,0,L|14:136,1,45,2|0,0:2|0:0,0:0:0:0:
27,66,251801,6,0,B|124:26|122:96|214:55,1,180,0|8,0:2|0:2,0:0:0:0:
283,18,252170,1,0,0:2:0:0:
351,76,252293,2,0,B|315:127|315:127|327:255,1,180,2|8,0:2|0:2,0:2:0:0:
386,310,252661,1,0,0:2:0:0:
310,359,252784,2,0,L|127:345,1,180,2|8,0:2|0:2,0:0:0:0:
39,350,253153,2,0,P|53:289|49:255,1,90,0|2,0:2|0:2,0:0:0:0:
86,179,253399,1,8,0:2:0:0:
158,232,253522,1,8,0:2:0:0:
194,149,253645,1,8,0:2:0:0:
266,202,253768,86,0,L|258:269,3,45,6|0|0|0,0:2|0:2|0:2|0:2,0:0:0:0:
334,158,254014,2,0,L|360:220,3,45,8|0|2|0,0:2|0:2|0:2|0:2,0:0:0:0:
370,85,254260,2,0,L|424:125,3,45,0|0|0|0,0:2|0:2|0:2|0:2,0:0:0:0:
364,3,254506,2,0,L|430:11,3,45,10|0|0|0,0:2|0:2|0:2|0:2,0:0:0:0:
286,49,254752,6,0,L|219:57,3,45,2|0|0|0,0:2|0:2|0:2|0:2,0:0:0:0:
269,130,254997,2,0,L|214:170,3,45,8|0|0|0,0:2|0:2|0:2|0:2,0:0:0:0:
294,208,255243,2,0,L|267:270,3,45,2|0|0|0,0:2|0:2|0:2|0:2,0:0:0:0:
355,263,255489,2,0,L|362:329,3,45,8|0|0|0,0:2|0:2|0:2|0:2,0:0:0:0:
434,225,255735,102,0,L|439:113,1,90,2|0,0:2|0:2,0:0:0:0:
348,67,255981,1,8,0:2:0:0:
348,78,256042,1,0,0:2:0:0:
349,89,256103,1,0,0:2:0:0:
349,100,256165,1,0,0:2:0:0:
350,111,256227,2,0,L|352:166,3,45,2|0|0|0,0:2|0:2|0:2|0:2,0:0:0:0:
266,95,256473,2,0,L|268:39,3,45,8|0|0|0,0:2|0:2|0:2|0:2,0:0:0:0:
193,144,256719,22,0,L|195:199,3,45,2|0|0|0,0:2|0:2|0:2|0:2,0:2:0:0:
120,95,256965,2,0,L|122:39,2,45,8|0|0,0:2|0:0|0:2,0:0:0:0:
54,158,257211,1,2,0:2:0:0:
23,0,257334,2,0,B|5:38|5:38|11:97,1,90,14|0,0:2|0:2,0:2:0:0:
109,201,257579,102,0,B|54:157|54:157|59:293,1,180,14|0,0:2|0:2,0:2:0:0:
48,355,257948,2,0,P|112:348|157:358,1,90,8|0,0:2|0:2,0:2:0:0:
197,284,258194,2,0,P|261:291|306:281,1,90,0|0,0:2|0:2,0:2:0:0:
374,266,258440,2,0,L|369:168,1,90,10|0,0:2|0:2,0:0:0:0:
390,50,258686,6,0,B|352:83|352:83|222:61,1,180,2|10,0:2|0:2,0:2:0:0:
100,72,259055,2,0,P|148:64|186:181,1,180,2|0,0:2|0:2,0:2:0:0:
120,208,259424,1,8,0:2:0:0:
119,219,259485,1,8,0:2:0:0:
118,230,259546,1,4,0:3:0:0:
118,241,259608,1,4,0:3:0:0:
117,252,259670,86,0,L|114:306,3,45,6|0|0|0,1:2|3:3|3:3|3:3,0:0:0:0:
195,283,259916,2,0,L|231:323,3,47.2499985580445,0|0|6|0,3:3|3:3|1:3|3:3,0:0:0:0:
272,249,260161,2,0,L|325:252,3,49.5000015106202,0|0|0|0,3:3|3:3|3:3|3:3,0:0:0:0:
303,171,260407,2,0,L|343:134,3,51.7500009870529,6|0|0|0,1:3|3:3|3:3|3:3,0:0:0:0:
269,94,260653,2,0,L|271:36,3,53.9999983520508,0|0|6|0,3:3|3:3|1:3|3:3,0:0:0:0:
191,63,260899,2,0,L|151:18,3,56.25,0|0|0|0,3:3|3:3|3:3|3:3,0:0:0:0:
114,97,261145,2,0,L|53:93,3,58.4999973220826,6|4|4|4,1:3|3:3|3:3|3:3,0:0:0:0:
83,175,261391,2,0,L|33:218,3,60.7500002317429,8|0|0|0,3:2|1:3|1:3|1:3,0:0:0:0:
117,252,261637,54,0,P|157:272|229:268,1,90,6|4,0:2|0:3,0:0:0:0:
249,198,261883,1,4,0:3:0:0:
126,244,262006,6,0,P|166:264|238:260,1,90,6|8,0:2|0:3,0:0:0:0:
258,190,262252,1,8,0:3:0:0:
135,236,262375,102,0,P|175:256|247:252,1,90,6|4,0:2|0:3,0:0:0:0:
267,182,262621,1,4,0:3:0:0:
144,228,262743,6,0,P|184:248|256:244,1,90,6|8,0:2|0:3,0:0:0:0:
276,174,262989,1,8,0:3:0:0:
153,220,263112,102,0,P|193:240|265:236,1,90,6|4,0:2|0:3,0:0:0:0:
285,166,263358,1,4,0:3:0:0:
162,212,263481,21,6,0:2:0:0:
