osu file format v14

[General]
AudioFilename: audio.mp3
AudioLeadIn: 0
PreviewTime: 84526
Countdown: 0
SampleSet: Normal
StackLeniency: 0.7
Mode: 1
LetterboxInBreaks: 0
WidescreenStoryboard: 0

[Editor]
Bookmarks: -2,4916,8850,12784,16719,20653,24588,28522,32334,37375,41309,45243,49178,53112,57047,60981,64916,68850,83604,84588,100325,104260,108194,112129,116063,119997,123932,127866,131801,135735,139670,143604,147538,151473,155407,159342,163276,167211,171145,175079,179014,182948,186883,190817,194752,198686,213440,214424,230161,234096,238030,241965,245899,263481
DistanceSpacing: 1.2
BeatDivisor: 4
GridSize: 32
TimelineZoom: 2.4

[Metadata]
Title:FLYING OUT TO THE SKY (covered by Nanahira, moimoi, Nana Takahashi)
TitleUnicode:FLYING OUT TO THE SKY (covered by ななひら, moimoi, Nana Takahashi)
Artist:Camellia
ArtistUnicode:かめりあ
Creator:Sotarks
Version:Ayyri's ONI
Source:SOUND VOLTEX II -infinite infection-
Tags:japanese metal rock video game kamelcamellia かめるかめりあ cametek 3leep KCCD-04 mayumi morinaga 森永真由美 c90 comiket cover vocaloid zola project original song contest ii iii gravity wars iv heavenly haven SDVX long ver すりーぷ! Confetto Sleep! BEMANI KONAMI reform kujinn browiec kuki1537 snownino_ armin a_r_m_i_n ayyri eiri- yasuho Cynplytholowazy -gn junior ft. feat
BeatmapID:2554521
BeatmapSetID:1212452

[Difficulty]
HPDrainRate:5
CircleSize:2
OverallDifficulty:6
ApproachRate:10
SliderMultiplier:1.4
SliderTickRate:1

[Events]
//Background and Video events
0,0,"bg.jpg",0,0
//Break Periods
//Storyboard Layer 0 (Background)
//Storyboard Layer 1 (Fail)
//Storyboard Layer 2 (Pass)
//Storyboard Layer 3 (Foreground)
//Storyboard Layer 4 (Overlay)
//Storyboard Sound Samples

[TimingPoints]
-2,245.901639344262,4,1,0,80,1,0
68850,-100,4,1,0,80,0,1
83604,-100,4,1,0,80,0,0
84588,-100,4,1,0,80,0,1
100325,-100,4,1,0,80,0,0
198686,-100,4,1,0,80,0,1
213440,-100,4,1,0,80,0,0
214424,-100,4,1,0,80,0,1
230161,-100,4,1,0,80,0,0
245899,-100,4,1,0,80,0,1
263481,-100,4,1,0,80,0,0

[Colours]
Combo1 : 255,91,136
Combo2 : 219,230,230
Combo3 : 190,205,224
Combo4 : 174,255,253
Combo5 : 83,135,255
Combo6 : 255,247,187
Combo7 : 243,211,137
Combo8 : 225,51,95

[HitObjects]
256,192,858,5,0,0:0:0:0:
256,192,920,1,0,0:0:0:0:
256,192,981,1,12,0:0:0:0:
256,192,1104,1,8,0:0:0:0:
256,192,1227,1,8,0:0:0:0:
256,192,1350,1,0,0:0:0:0:
256,192,1473,1,8,0:0:0:0:
256,192,1596,1,8,0:0:0:0:
256,192,1719,1,0,0:0:0:0:
256,192,1842,1,8,0:0:0:0:
256,192,1965,1,8,0:0:0:0:
256,192,2088,1,0,0:0:0:0:
256,192,2211,1,8,0:0:0:0:
256,192,2334,1,8,0:0:0:0:
256,192,2457,1,8,0:0:0:0:
256,192,2702,1,8,0:0:0:0:
256,192,2948,1,12,0:0:0:0:
256,192,3071,1,8,0:0:0:0:
256,192,3194,1,8,0:0:0:0:
256,192,3317,1,0,0:0:0:0:
256,192,3440,1,8,0:0:0:0:
256,192,3563,1,8,0:0:0:0:
256,192,3686,1,0,0:0:0:0:
256,192,3809,1,8,0:0:0:0:
256,192,3932,1,8,0:0:0:0:
256,192,4055,1,4,0:0:0:0:
256,192,4178,1,8,0:0:0:0:
256,192,4301,1,8,0:0:0:0:
256,192,4424,1,0,0:0:0:0:
256,192,4506,1,0,0:0:0:0:
256,192,4588,1,0,0:0:0:0:
256,192,4670,1,8,0:0:0:0:
256,192,4916,1,4,0:0:0:0:
256,192,5038,1,0,0:0:0:0:
256,192,5161,1,0,0:0:0:0:
256,192,5284,1,12,0:0:0:0:
256,192,5407,1,0,0:0:0:0:
256,192,5530,1,0,0:0:0:0:
256,192,5653,1,4,0:0:0:0:
256,192,5776,1,0,0:0:0:0:
256,192,5899,1,0,0:0:0:0:
256,192,6022,1,12,0:0:0:0:
256,192,6145,1,0,0:0:0:0:
256,192,6268,1,0,0:0:0:0:
256,192,6391,1,4,0:0:0:0:
256,192,6514,1,0,0:0:0:0:
256,192,6637,1,0,0:0:0:0:
256,192,6760,1,12,0:0:0:0:
256,192,8194,1,0,0:0:0:0:
256,192,8276,1,0,0:0:0:0:
256,192,8358,1,8,0:0:0:0:
256,192,8850,1,4,0:0:0:0:
256,192,8973,1,0,0:0:0:0:
256,192,9096,1,0,0:0:0:0:
256,192,9219,1,12,0:0:0:0:
256,192,9342,1,0,0:0:0:0:
256,192,9465,1,0,0:0:0:0:
256,192,9588,1,4,0:0:0:0:
256,192,9711,1,0,0:0:0:0:
256,192,9834,1,0,0:0:0:0:
256,192,9957,1,12,0:0:0:0:
256,192,10079,1,0,0:0:0:0:
256,192,10202,1,0,0:0:0:0:
256,192,10325,1,4,0:0:0:0:
256,192,10448,1,0,0:0:0:0:
256,192,10571,1,0,0:0:0:0:
256,192,10694,1,12,0:0:0:0:
256,192,11801,1,8,0:0:0:0:
256,192,11924,1,0,0:0:0:0:
256,192,12047,1,8,0:0:0:0:
256,192,12170,1,0,0:0:0:0:
256,192,12416,1,0,0:0:0:0:
256,192,12538,1,8,0:0:0:0:
256,192,12784,1,4,0:0:0:0:
256,192,12907,1,0,0:0:0:0:
256,192,13030,1,0,0:0:0:0:
256,192,13153,1,12,0:0:0:0:
256,192,13276,1,0,0:0:0:0:
256,192,13399,1,0,0:0:0:0:
256,192,13522,1,4,0:0:0:0:
256,192,13645,1,0,0:0:0:0:
256,192,13768,1,0,0:0:0:0:
256,192,13891,1,12,0:0:0:0:
256,192,14014,1,0,0:0:0:0:
256,192,14137,1,0,0:0:0:0:
256,192,14260,1,4,0:0:0:0:
256,192,14383,1,0,0:0:0:0:
256,192,14506,1,0,0:0:0:0:
256,192,14629,1,12,0:0:0:0:
256,192,14997,1,8,0:0:0:0:
256,192,15182,1,0,0:0:0:0:
256,192,15366,1,8,0:0:0:0:
256,192,15551,1,0,0:0:0:0:
256,192,15735,1,8,0:0:0:0:
256,192,15920,1,0,0:0:0:0:
256,192,16104,1,8,0:0:0:0:
256,192,16227,1,0,0:0:0:0:
256,192,16350,1,0,0:0:0:0:
256,192,16473,1,8,0:0:0:0:
256,192,16719,1,4,0:0:0:0:
256,192,16842,1,0,0:0:0:0:
256,192,16965,1,0,0:0:0:0:
256,192,17088,1,12,0:0:0:0:
256,192,17211,1,0,0:0:0:0:
256,192,17334,1,0,0:0:0:0:
256,192,17457,1,4,0:0:0:0:
256,192,17579,1,0,0:0:0:0:
256,192,17702,1,0,0:0:0:0:
256,192,17825,1,12,0:0:0:0:
256,192,17948,1,0,0:0:0:0:
256,192,18071,1,0,0:0:0:0:
256,192,18194,1,4,0:0:0:0:
256,192,18317,1,0,0:0:0:0:
256,192,18440,1,0,0:0:0:0:
256,192,18563,1,12,0:0:0:0:
256,192,19670,1,0,0:0:0:0:
256,192,19793,1,0,0:0:0:0:
256,192,19916,1,8,0:0:0:0:
256,192,20038,1,8,0:0:0:0:
256,192,20161,1,4,0:0:0:0:
256,192,20407,1,12,0:0:0:0:
256,192,20653,1,4,0:0:0:0:
256,192,20776,1,0,0:0:0:0:
256,192,20899,1,8,0:0:0:0:
256,192,21145,1,0,0:0:0:0:
256,192,21268,1,0,0:0:0:0:
256,192,21391,1,8,0:0:0:0:
256,192,21514,1,0,0:0:0:0:
256,192,21637,1,0,0:0:0:0:
256,192,21760,1,0,0:0:0:0:
256,192,21883,1,8,0:0:0:0:
256,192,22129,1,0,0:0:0:0:
256,192,22252,1,0,0:0:0:0:
256,192,22375,1,8,0:0:0:0:
256,192,22620,1,0,0:0:0:0:
256,192,22743,1,0,0:0:0:0:
256,192,22866,1,8,0:0:0:0:
256,192,22989,1,0,0:0:0:0:
256,192,23112,1,0,0:0:0:0:
256,192,23235,1,0,0:0:0:0:
256,192,23358,1,8,0:0:0:0:
256,192,23604,1,0,0:0:0:0:
256,192,23727,1,0,0:0:0:0:
256,192,23850,1,8,0:0:0:0:
256,192,24096,1,0,0:0:0:0:
256,192,24219,1,0,0:0:0:0:
256,192,24342,1,12,0:0:0:0:
256,192,24465,1,0,0:0:0:0:
256,192,24588,1,4,0:0:0:0:
256,192,24711,1,0,0:0:0:0:
256,192,24834,1,8,0:0:0:0:
256,192,25079,1,0,0:0:0:0:
256,192,25202,1,0,0:0:0:0:
256,192,25325,1,8,0:0:0:0:
256,192,25571,1,0,0:0:0:0:
256,192,25694,1,0,0:0:0:0:
256,192,25817,1,8,0:0:0:0:
256,192,25940,1,0,0:0:0:0:
256,192,26063,1,0,0:0:0:0:
256,192,26186,1,0,0:0:0:0:
256,192,26309,1,8,0:0:0:0:
256,192,26555,1,0,0:0:0:0:
256,192,26678,1,0,0:0:0:0:
256,192,26801,1,8,0:0:0:0:
256,192,27047,1,0,0:0:0:0:
256,192,27170,1,0,0:0:0:0:
256,192,27293,1,8,0:0:0:0:
256,192,27416,1,0,0:0:0:0:
256,192,27538,1,0,0:0:0:0:
256,192,27661,1,0,0:0:0:0:
256,192,27784,1,8,0:0:0:0:
256,192,28030,1,0,0:0:0:0:
256,192,28153,1,0,0:0:0:0:
256,192,28276,1,8,0:0:0:0:
256,192,28399,1,8,0:0:0:0:
256,192,28522,1,4,0:0:0:0:
256,192,28645,1,0,0:0:0:0:
256,192,28768,1,8,0:0:0:0:
256,192,29014,1,0,0:0:0:0:
256,192,29137,1,0,0:0:0:0:
256,192,29260,1,8,0:0:0:0:
256,192,29383,1,0,0:0:0:0:
256,192,29506,1,0,0:0:0:0:
256,192,29629,1,0,0:0:0:0:
256,192,29752,1,8,0:0:0:0:
256,192,29998,1,0,0:0:0:0:
256,192,30121,1,0,0:0:0:0:
256,192,30244,1,8,0:0:0:0:
256,192,30489,1,0,0:0:0:0:
256,192,30612,1,0,0:0:0:0:
256,192,30735,1,8,0:0:0:0:
256,192,30858,1,0,0:0:0:0:
256,192,30981,1,0,0:0:0:0:
256,192,31104,1,0,0:0:0:0:
256,192,31227,1,8,0:0:0:0:
256,192,31473,1,0,0:0:0:0:
256,192,31596,1,0,0:0:0:0:
256,192,31719,1,8,0:0:0:0:
256,192,31965,1,0,0:0:0:0:
256,192,32088,1,12,0:0:0:0:
256,192,32211,1,0,0:0:0:0:
256,192,32334,1,4,0:0:0:0:
256,192,32703,1,8,0:0:0:0:
256,192,32948,1,0,0:0:0:0:
256,192,33071,1,0,0:0:0:0:
256,192,33194,1,8,0:0:0:0:
256,192,33440,1,0,0:0:0:0:
256,192,33563,1,0,0:0:0:0:
256,192,33686,1,8,0:0:0:0:
256,192,33809,1,0,0:0:0:0:
256,192,33932,1,0,0:0:0:0:
256,192,34055,1,0,0:0:0:0:
256,192,34178,1,8,0:0:0:0:
256,192,34239,1,8,0:0:0:0:
256,192,34301,1,0,0:0:0:0:
256,192,34424,1,12,0:0:0:0:
256,192,34547,1,0,0:0:0:0:
256,192,34670,1,0,0:0:0:0:
256,192,34793,1,12,0:0:0:0:
256,192,34916,1,0,0:0:0:0:
256,192,35038,1,0,0:0:0:0:
256,192,35161,1,12,0:0:0:0:
256,192,35284,1,0,0:0:0:0:
256,192,35407,1,0,0:0:0:0:
256,192,35530,1,12,0:0:0:0:
256,192,35653,1,0,0:0:0:0:
256,192,35776,1,0,0:0:0:0:
256,192,35899,1,0,0:0:0:0:
256,192,35961,1,0,0:0:0:0:
256,192,36022,1,0,0:0:0:0:
256,192,36084,1,0,0:0:0:0:
256,192,36145,1,8,0:0:0:0:
256,192,36268,1,0,0:0:0:0:
256,192,36514,1,8,0:0:0:0:
256,192,36575,1,8,0:0:0:0:
256,192,36637,1,8,0:0:0:0:
256,192,36760,1,8,0:0:0:0:
256,192,36883,1,8,0:0:0:0:
256,192,37006,1,8,0:0:0:0:
256,192,37129,1,0,0:0:0:0:
256,192,37375,1,4,0:0:0:0:
256,192,37497,1,0,0:0:0:0:
256,192,37620,1,8,0:0:0:0:
256,192,37866,1,0,0:0:0:0:
256,192,37989,1,0,0:0:0:0:
256,192,38112,1,8,0:0:0:0:
256,192,38235,1,0,0:0:0:0:
256,192,38481,1,0,0:0:0:0:
256,192,38604,1,8,0:0:0:0:
256,192,38727,1,0,0:0:0:0:
256,192,38973,1,0,0:0:0:0:
256,192,39096,1,8,0:0:0:0:
256,192,39219,1,0,0:0:0:0:
256,192,39342,1,0,0:0:0:0:
256,192,39403,1,0,0:0:0:0:
256,192,39465,1,0,0:0:0:0:
256,192,39588,1,8,0:0:0:0:
256,192,39711,1,0,0:0:0:0:
256,192,39834,1,8,0:0:0:0:
256,192,39957,1,8,0:0:0:0:
256,192,40202,1,8,0:0:0:0:
256,192,40325,1,0,0:0:0:0:
256,192,40448,1,8,0:0:0:0:
256,192,40694,1,8,0:0:0:0:
256,192,40817,1,0,0:0:0:0:
256,192,40940,1,8,0:0:0:0:
256,192,41186,1,8,0:0:0:0:
256,192,41309,1,0,0:0:0:0:
256,192,41432,1,0,0:0:0:0:
256,192,41555,1,8,0:0:0:0:
256,192,41678,1,0,0:0:0:0:
256,192,41801,1,0,0:0:0:0:
256,192,41862,1,0,0:0:0:0:
256,192,41924,1,0,0:0:0:0:
256,192,42047,1,8,0:0:0:0:
256,192,42170,1,0,0:0:0:0:
256,192,42293,1,0,0:0:0:0:
256,192,42538,1,8,0:0:0:0:
256,192,42661,1,0,0:0:0:0:
256,192,42907,1,0,0:0:0:0:
256,192,43030,1,8,0:0:0:0:
256,192,43153,1,0,0:0:0:0:
256,192,43276,1,0,0:0:0:0:
256,192,43522,1,8,0:0:0:0:
256,192,43768,1,0,0:0:0:0:
256,192,43891,1,0,0:0:0:0:
256,192,44014,1,8,0:0:0:0:
256,192,44137,1,0,0:0:0:0:
256,192,44260,1,0,0:0:0:0:
256,192,44321,1,0,0:0:0:0:
256,192,44383,1,0,0:0:0:0:
256,192,44506,1,8,0:0:0:0:
256,192,44752,1,0,0:0:0:0:
256,192,44875,1,8,0:0:0:0:
256,192,44997,1,8,0:0:0:0:
256,192,45120,1,8,0:0:0:0:
256,192,45243,1,4,0:0:0:0:
256,192,45365,1,0,0:0:0:0:
256,192,45488,1,8,0:0:0:0:
256,192,45734,1,0,0:0:0:0:
256,192,45857,1,0,0:0:0:0:
256,192,45980,1,8,0:0:0:0:
256,192,46103,1,0,0:0:0:0:
256,192,46349,1,0,0:0:0:0:
256,192,46472,1,8,0:0:0:0:
256,192,46595,1,0,0:0:0:0:
256,192,46841,1,0,0:0:0:0:
256,192,46964,1,8,0:0:0:0:
256,192,47087,1,0,0:0:0:0:
256,192,47210,1,0,0:0:0:0:
256,192,47271,1,0,0:0:0:0:
256,192,47333,1,0,0:0:0:0:
256,192,47456,1,8,0:0:0:0:
256,192,47579,1,0,0:0:0:0:
256,192,47702,1,8,0:0:0:0:
256,192,47825,1,8,0:0:0:0:
256,192,48070,1,8,0:0:0:0:
256,192,48193,1,0,0:0:0:0:
256,192,48316,1,8,0:0:0:0:
256,192,48562,1,8,0:0:0:0:
256,192,48685,1,0,0:0:0:0:
256,192,48808,1,8,0:0:0:0:
256,192,49054,1,8,0:0:0:0:
256,192,49177,1,0,0:0:0:0:
256,192,49239,1,0,0:0:0:0:
256,192,49300,1,0,0:0:0:0:
256,192,49423,1,8,0:0:0:0:
256,192,49546,1,0,0:0:0:0:
256,192,49669,1,8,0:0:0:0:
256,192,49792,1,8,0:0:0:0:
256,192,49916,1,0,0:0:0:0:
256,192,50038,1,8,0:0:0:0:
256,192,50100,1,8,0:0:0:0:
256,192,50161,1,0,0:0:0:0:
256,192,50284,1,0,0:0:0:0:
256,192,50406,1,8,0:0:0:0:
256,192,50529,1,0,0:0:0:0:
256,192,50775,1,0,0:0:0:0:
256,192,50898,1,8,0:0:0:0:
256,192,51021,1,0,0:0:0:0:
256,192,51144,1,0,0:0:0:0:
256,192,51207,1,0,0:0:0:0:
256,192,51268,1,0,0:0:0:0:
256,192,51390,1,8,0:0:0:0:
256,192,51514,1,0,0:0:0:0:
256,192,51636,1,8,0:0:0:0:
256,192,51759,1,8,0:0:0:0:
256,192,52005,1,8,0:0:0:0:
256,192,52128,1,0,0:0:0:0:
256,192,52251,1,8,0:0:0:0:
256,192,52313,1,8,0:0:0:0:
256,192,52374,1,8,0:0:0:0:
256,192,52497,1,8,0:0:0:0:
256,192,52620,1,8,0:0:0:0:
256,192,52743,1,8,0:0:0:0:
256,192,52866,1,0,0:0:0:0:
256,192,52989,1,8,0:0:0:0:
256,192,53112,1,4,0:0:0:0:
256,192,53358,1,8,0:0:0:0:
256,192,53481,1,0,0:0:0:0:
256,192,53604,1,0,0:0:0:0:
256,192,53666,1,0,0:0:0:0:
256,192,53727,1,0,0:0:0:0:
256,192,53850,1,8,0:0:0:0:
256,192,54096,1,0,0:0:0:0:
256,192,54219,1,8,0:0:0:0:
256,192,54465,1,8,0:0:0:0:
256,192,54588,1,0,0:0:0:0:
256,192,54711,1,0,0:0:0:0:
256,192,54834,1,8,0:0:0:0:
256,192,54957,1,0,0:0:0:0:
256,192,55079,1,0,0:0:0:0:
256,192,55141,1,0,0:0:0:0:
256,192,55202,1,0,0:0:0:0:
256,192,55325,1,8,0:0:0:0:
256,192,55571,1,0,0:0:0:0:
256,192,55694,1,0,0:0:0:0:
256,192,55817,1,8,0:0:0:0:
256,192,56063,1,0,0:0:0:0:
256,192,56186,1,8,0:0:0:0:
256,192,56432,1,8,0:0:0:0:
256,192,56555,1,0,0:0:0:0:
256,192,56678,1,0,0:0:0:0:
256,192,56801,1,8,0:0:0:0:
256,192,56924,1,0,0:0:0:0:
256,192,57047,1,0,0:0:0:0:
256,192,57108,1,0,0:0:0:0:
256,192,57170,1,0,0:0:0:0:
256,192,57293,1,8,0:0:0:0:
256,192,57416,1,0,0:0:0:0:
256,192,57661,1,0,0:0:0:0:
256,192,57784,1,8,0:0:0:0:
256,192,57907,1,0,0:0:0:0:
256,192,58030,1,0,0:0:0:0:
256,192,58276,1,8,0:0:0:0:
256,192,58399,1,0,0:0:0:0:
256,192,58522,1,0,0:0:0:0:
256,192,58584,1,0,0:0:0:0:
256,192,58645,1,0,0:0:0:0:
256,192,58768,1,8,0:0:0:0:
256,192,59014,1,0,0:0:0:0:
256,192,59075,1,0,0:0:0:0:
256,192,59137,1,0,0:0:0:0:
256,192,59260,1,8,0:0:0:0:
256,192,59383,1,0,0:0:0:0:
256,192,59506,1,0,0:0:0:0:
256,192,59567,1,0,0:0:0:0:
256,192,59629,1,0,0:0:0:0:
256,192,59752,1,8,0:0:0:0:
256,192,59875,1,0,0:0:0:0:
256,192,59997,1,8,0:0:0:0:
256,192,60120,1,8,0:0:0:0:
256,192,60243,1,0,0:0:0:0:
256,192,60366,1,8,0:0:0:0:
256,192,60489,1,4,0:0:0:0:
256,192,60735,1,12,0:0:0:0:
256,192,60981,1,4,0:0:0:0:
256,192,61227,1,8,0:0:0:0:
256,192,61350,1,0,0:0:0:0:
256,192,61473,1,0,0:0:0:0:
256,192,61535,1,0,0:0:0:0:
256,192,61596,1,0,0:0:0:0:
256,192,61719,1,8,0:0:0:0:
256,192,61842,1,0,0:0:0:0:
256,192,61965,1,0,0:0:0:0:
256,192,62088,1,8,0:0:0:0:
256,192,62334,1,8,0:0:0:0:
256,192,62457,1,0,0:0:0:0:
256,192,62580,1,0,0:0:0:0:
256,192,62703,1,8,0:0:0:0:
256,192,62826,1,0,0:0:0:0:
256,192,62948,1,0,0:0:0:0:
256,192,63010,1,0,0:0:0:0:
256,192,63071,1,0,0:0:0:0:
256,192,63194,1,8,0:0:0:0:
256,192,63440,1,0,0:0:0:0:
256,192,63563,1,0,0:0:0:0:
256,192,63686,1,8,0:0:0:0:
256,192,63809,1,0,0:0:0:0:
256,192,63932,1,0,0:0:0:0:
256,192,64055,1,8,0:0:0:0:
256,192,64301,1,0,0:0:0:0:
256,192,64424,1,8,0:0:0:0:
256,192,64485,1,8,0:0:0:0:
256,192,64547,1,8,0:0:0:0:
256,192,64670,1,0,0:0:0:0:
256,192,64793,1,0,0:0:0:0:
256,192,64916,1,12,0:0:0:0:
256,192,65038,1,0,0:0:0:0:
256,192,65161,1,0,0:0:0:0:
256,192,65284,1,12,0:0:0:0:
256,192,65407,1,0,0:0:0:0:
256,192,65530,1,0,0:0:0:0:
256,192,65653,1,12,0:0:0:0:
256,192,65776,1,0,0:0:0:0:
256,192,65899,1,0,0:0:0:0:
256,192,66022,1,12,0:0:0:0:
256,192,66268,1,0,0:0:0:0:
256,192,66391,1,0,0:0:0:0:
256,192,66452,1,0,0:0:0:0:
256,192,66514,1,0,0:0:0:0:
256,192,66637,1,0,0:0:0:0:
256,192,66698,1,0,0:0:0:0:
256,192,66760,1,0,0:0:0:0:
256,192,66883,1,12,0:0:0:0:
256,192,67006,1,0,0:0:0:0:
256,192,67129,1,0,0:0:0:0:
256,192,67252,1,12,0:0:0:0:
256,192,67375,1,0,0:0:0:0:
256,192,67497,1,0,0:0:0:0:
256,192,67620,1,12,0:0:0:0:
256,192,67743,1,0,0:0:0:0:
256,192,67866,1,0,0:0:0:0:
256,192,67989,1,12,0:0:0:0:
256,192,68112,1,0,0:0:0:0:
256,192,68235,1,0,0:0:0:0:
256,192,68358,1,12,0:0:0:0:
256,192,68850,1,4,0:0:0:0:
256,192,69096,1,8,0:0:0:0:
256,192,69219,1,0,0:0:0:0:
256,192,69342,1,0,0:0:0:0:
256,192,69465,1,0,0:0:0:0:
256,192,69588,1,8,0:0:0:0:
256,192,69711,1,0,0:0:0:0:
256,192,69772,1,0,0:0:0:0:
256,192,69834,1,0,0:0:0:0:
256,192,69957,1,0,0:0:0:0:
256,192,70079,1,8,0:0:0:0:
256,192,70325,1,0,0:0:0:0:
256,192,70448,1,0,0:0:0:0:
256,192,70571,1,8,0:0:0:0:
256,192,70694,1,0,0:0:0:0:
256,192,70756,1,0,0:0:0:0:
256,192,70817,1,0,0:0:0:0:
256,192,70940,1,0,0:0:0:0:
256,192,71063,1,8,0:0:0:0:
256,192,71309,1,0,0:0:0:0:
256,192,71432,1,0,0:0:0:0:
256,192,71555,1,8,0:0:0:0:
256,192,71678,1,8,0:0:0:0:
256,192,71739,1,8,0:0:0:0:
256,192,71801,1,8,0:0:0:0:
256,192,71924,1,0,0:0:0:0:
256,192,72047,1,8,0:0:0:0:
256,192,72293,1,8,0:0:0:0:
256,192,72416,1,0,0:0:0:0:
256,192,72538,1,12,0:0:0:0:
256,192,72661,1,0,0:0:0:0:
256,192,72784,1,0,0:0:0:0:
256,192,72846,1,0,0:0:0:0:
256,192,72907,1,0,0:0:0:0:
256,192,73030,1,8,0:0:0:0:
256,192,73276,1,0,0:0:0:0:
256,192,73399,1,0,0:0:0:0:
256,192,73522,1,8,0:0:0:0:
256,192,73645,1,0,0:0:0:0:
256,192,73768,1,0,0:0:0:0:
256,192,73829,1,0,0:0:0:0:
256,192,73891,1,0,0:0:0:0:
256,192,74014,1,8,0:0:0:0:
256,192,74137,1,0,0:0:0:0:
256,192,74383,1,0,0:0:0:0:
256,192,74506,1,8,0:0:0:0:
256,192,74629,1,0,0:0:0:0:
256,192,74690,1,0,0:0:0:0:
256,192,74752,1,0,0:0:0:0:
256,192,74875,1,0,0:0:0:0:
256,192,74997,1,8,0:0:0:0:
256,192,75120,1,0,0:0:0:0:
256,192,75243,1,0,0:0:0:0:
256,192,75366,1,0,0:0:0:0:
256,192,75489,1,8,0:0:0:0:
256,192,75612,1,0,0:0:0:0:
256,192,75735,1,0,0:0:0:0:
256,192,75981,1,8,0:0:0:0:
256,192,76104,1,0,0:0:0:0:
256,192,76166,1,0,0:0:0:0:
256,192,76227,1,0,0:0:0:0:
256,192,76350,1,8,0:0:0:0:
256,192,76473,1,8,0:0:0:0:
256,192,76596,1,8,0:0:0:0:
256,192,76719,1,4,0:0:0:0:
256,192,76965,1,8,0:0:0:0:
256,192,77088,1,0,0:0:0:0:
256,192,77211,1,0,0:0:0:0:
256,192,77334,1,0,0:0:0:0:
256,192,77457,1,8,0:0:0:0:
256,192,77580,1,0,0:0:0:0:
256,192,77641,1,0,0:0:0:0:
256,192,77703,1,0,0:0:0:0:
256,192,77826,1,0,0:0:0:0:
256,192,77948,1,8,0:0:0:0:
256,192,78194,1,0,0:0:0:0:
256,192,78317,1,0,0:0:0:0:
256,192,78440,1,8,0:0:0:0:
256,192,78563,1,0,0:0:0:0:
256,192,78625,1,0,0:0:0:0:
256,192,78686,1,0,0:0:0:0:
256,192,78809,1,0,0:0:0:0:
256,192,78932,1,8,0:0:0:0:
256,192,79178,1,0,0:0:0:0:
256,192,79301,1,0,0:0:0:0:
256,192,79424,1,8,0:0:0:0:
256,192,79547,1,8,0:0:0:0:
256,192,79608,1,8,0:0:0:0:
256,192,79670,1,8,0:0:0:0:
256,192,79793,1,0,0:0:0:0:
256,192,79916,1,8,0:0:0:0:
256,192,80162,1,8,0:0:0:0:
256,192,80285,1,0,0:0:0:0:
256,192,80407,1,12,0:0:0:0:
256,192,80530,1,0,0:0:0:0:
256,192,80653,1,0,0:0:0:0:
256,192,80715,1,0,0:0:0:0:
256,192,80776,1,0,0:0:0:0:
256,192,80899,1,8,0:0:0:0:
256,192,81022,1,0,0:0:0:0:
256,192,81145,1,0,0:0:0:0:
256,192,81268,1,0,0:0:0:0:
256,192,81391,1,8,0:0:0:0:
256,192,81514,1,0,0:0:0:0:
256,192,81637,1,0,0:0:0:0:
256,192,81698,1,0,0:0:0:0:
256,192,81760,1,0,0:0:0:0:
256,192,81883,1,8,0:0:0:0:
256,192,82006,1,0,0:0:0:0:
256,192,82252,1,0,0:0:0:0:
256,192,82375,1,8,0:0:0:0:
256,192,82621,1,0,0:0:0:0:
256,192,82743,1,0,0:0:0:0:
256,192,82805,1,0,0:0:0:0:
256,192,82866,1,0,0:0:0:0:
256,192,82989,1,0,0:0:0:0:
256,192,83112,1,8,0:0:0:0:
256,192,83174,1,8,0:0:0:0:
256,192,83235,1,0,0:0:0:0:
256,192,83358,1,8,0:0:0:0:
256,192,83481,1,8,0:0:0:0:
256,192,83604,1,4,0:0:0:0:
256,192,83727,1,8,0:0:0:0:
256,192,83973,1,4,0:0:0:0:
256,192,84219,1,8,0:0:0:0:
256,192,84342,1,8,0:0:0:0:
256,192,84465,1,8,0:0:0:0:
256,192,84588,1,4,0:0:0:0:
256,192,84834,1,8,0:0:0:0:
256,192,84957,1,0,0:0:0:0:
256,192,85080,1,0,0:0:0:0:
256,192,85203,1,0,0:0:0:0:
256,192,85326,1,8,0:0:0:0:
256,192,85449,1,0,0:0:0:0:
256,192,85510,1,0,0:0:0:0:
256,192,85572,1,0,0:0:0:0:
256,192,85695,1,0,0:0:0:0:
256,192,85817,1,8,0:0:0:0:
256,192,85940,1,0,0:0:0:0:
256,192,86063,1,0,0:0:0:0:
256,192,86186,1,0,0:0:0:0:
256,192,86309,1,8,0:0:0:0:
256,192,86432,1,0,0:0:0:0:
256,192,86494,1,0,0:0:0:0:
256,192,86555,1,0,0:0:0:0:
256,192,86678,1,0,0:0:0:0:
256,192,86801,1,8,0:0:0:0:
256,192,87047,1,0,0:0:0:0:
256,192,87170,1,0,0:0:0:0:
256,192,87293,1,8,0:0:0:0:
256,192,87416,1,8,0:0:0:0:
256,192,87477,1,8,0:0:0:0:
256,192,87539,1,8,0:0:0:0:
256,192,87662,1,0,0:0:0:0:
256,192,87785,1,8,0:0:0:0:
256,192,88031,1,8,0:0:0:0:
256,192,88154,1,0,0:0:0:0:
256,192,88276,1,12,0:0:0:0:
256,192,88399,1,0,0:0:0:0:
256,192,88522,1,0,0:0:0:0:
256,192,88584,1,0,0:0:0:0:
256,192,88645,1,0,0:0:0:0:
256,192,88768,1,8,0:0:0:0:
256,192,88891,1,0,0:0:0:0:
256,192,89014,1,0,0:0:0:0:
256,192,89137,1,0,0:0:0:0:
256,192,89260,1,8,0:0:0:0:
256,192,89383,1,0,0:0:0:0:
256,192,89506,1,0,0:0:0:0:
256,192,89567,1,0,0:0:0:0:
256,192,89629,1,0,0:0:0:0:
256,192,89752,1,8,0:0:0:0:
256,192,89875,1,0,0:0:0:0:
256,192,89936,1,0,0:0:0:0:
256,192,89997,1,0,0:0:0:0:
256,192,90121,1,0,0:0:0:0:
256,192,90244,1,8,0:0:0:0:
256,192,90490,1,0,0:0:0:0:
256,192,90613,1,0,0:0:0:0:
256,192,90735,1,8,0:0:0:0:
256,192,90858,1,0,0:0:0:0:
256,192,90981,1,0,0:0:0:0:
256,192,91104,1,0,0:0:0:0:
256,192,91227,1,8,0:0:0:0:
256,192,91350,1,0,0:0:0:0:
256,192,91473,1,0,0:0:0:0:
256,192,91534,1,0,0:0:0:0:
256,192,91596,1,0,0:0:0:0:
256,192,91719,1,8,0:0:0:0:
256,192,91842,1,0,0:0:0:0:
256,192,91904,1,0,0:0:0:0:
256,192,91965,1,0,0:0:0:0:
256,192,92088,1,8,0:0:0:0:
256,192,92211,1,8,0:0:0:0:
256,192,92334,1,8,0:0:0:0:
256,192,92457,1,4,0:0:0:0:
256,192,92703,1,8,0:0:0:0:
256,192,92826,1,0,0:0:0:0:
256,192,92949,1,0,0:0:0:0:
256,192,93072,1,0,0:0:0:0:
256,192,93195,1,8,0:0:0:0:
256,192,93318,1,0,0:0:0:0:
256,192,93379,1,0,0:0:0:0:
256,192,93441,1,0,0:0:0:0:
256,192,93564,1,0,0:0:0:0:
256,192,93686,1,8,0:0:0:0:
256,192,93809,1,0,0:0:0:0:
256,192,93932,1,0,0:0:0:0:
256,192,94055,1,0,0:0:0:0:
256,192,94178,1,8,0:0:0:0:
256,192,94301,1,0,0:0:0:0:
256,192,94363,1,0,0:0:0:0:
256,192,94424,1,0,0:0:0:0:
256,192,94547,1,0,0:0:0:0:
256,192,94670,1,8,0:0:0:0:
256,192,94916,1,0,0:0:0:0:
256,192,95039,1,0,0:0:0:0:
256,192,95162,1,8,0:0:0:0:
256,192,95285,1,8,0:0:0:0:
256,192,95346,1,8,0:0:0:0:
256,192,95408,1,8,0:0:0:0:
256,192,95531,1,0,0:0:0:0:
256,192,95654,1,8,0:0:0:0:
256,192,95900,1,8,0:0:0:0:
256,192,96023,1,0,0:0:0:0:
256,192,96145,1,12,0:0:0:0:
256,192,96268,1,0,0:0:0:0:
256,192,96391,1,0,0:0:0:0:
256,192,96453,1,0,0:0:0:0:
256,192,96514,1,0,0:0:0:0:
256,192,96637,1,8,0:0:0:0:
256,192,96760,1,0,0:0:0:0:
256,192,96883,1,0,0:0:0:0:
256,192,97006,1,0,0:0:0:0:
256,192,97129,1,8,0:0:0:0:
256,192,97252,1,0,0:0:0:0:
256,192,97375,1,0,0:0:0:0:
256,192,97436,1,0,0:0:0:0:
256,192,97498,1,0,0:0:0:0:
256,192,97621,1,8,0:0:0:0:
256,192,97744,1,0,0:0:0:0:
256,192,97805,1,0,0:0:0:0:
256,192,97866,1,0,0:0:0:0:
256,192,97990,1,0,0:0:0:0:
256,192,98113,1,8,0:0:0:0:
256,192,98358,1,0,0:0:0:0:
256,192,98481,1,0,0:0:0:0:
256,192,98604,1,8,0:0:0:0:
256,192,98726,1,0,0:0:0:0:
256,192,98849,1,8,0:0:0:0:
256,192,98973,1,0,0:0:0:0:
256,192,99095,1,8,0:0:0:0:
256,192,99218,1,8,0:0:0:0:
256,192,99341,1,4,0:0:0:0:
256,192,99464,1,8,0:0:0:0:
256,192,99710,1,4,0:0:0:0:
256,192,99957,1,0,0:0:0:0:
256,192,100038,1,0,0:0:0:0:
256,192,100120,1,0,0:0:0:0:
256,192,100202,1,0,0:0:0:0:
256,192,100325,1,12,0:0:0:0:
256,192,104260,1,12,0:0:0:0:
256,192,107334,1,0,0:0:0:0:
256,192,107395,1,0,0:0:0:0:
256,192,107457,1,8,0:0:0:0:
256,192,107579,1,8,0:0:0:0:
256,192,107702,1,0,0:0:0:0:
256,192,107825,1,8,0:0:0:0:
256,192,107948,1,0,0:0:0:0:
256,192,108071,1,0,0:0:0:0:
256,192,108194,1,12,0:0:0:0:
256,192,111268,1,8,0:0:0:0:
256,192,111514,1,8,0:0:0:0:
256,192,111883,1,0,0:0:0:0:
256,192,112006,1,0,0:0:0:0:
256,192,112129,1,12,0:0:0:0:
256,192,113112,1,0,0:0:0:0:
256,192,113358,1,8,0:0:0:0:
256,192,113481,1,8,0:0:0:0:
256,192,113604,1,0,0:0:0:0:
256,192,113727,1,0,0:0:0:0:
256,192,113850,1,12,0:0:0:0:
256,192,114096,1,4,0:0:0:0:
256,192,115325,1,0,0:0:0:0:
256,192,115387,1,0,0:0:0:0:
256,192,115448,1,0,0:0:0:0:
256,192,115510,1,0,0:0:0:0:
256,192,115571,1,8,0:0:0:0:
256,192,116063,1,12,0:0:0:0:
256,192,116186,1,0,0:0:0:0:
256,192,116309,1,8,0:0:0:0:
256,192,116370,1,8,0:0:0:0:
256,192,116432,1,0,0:0:0:0:
256,192,116493,1,0,0:0:0:0:
256,192,116555,1,8,0:0:0:0:
256,192,116678,1,0,0:0:0:0:
256,192,116801,1,8,0:0:0:0:
256,192,116924,1,0,0:0:0:0:
256,192,117047,1,0,0:0:0:0:
256,192,117108,1,0,0:0:0:0:
256,192,117170,1,0,0:0:0:0:
256,192,117293,1,8,0:0:0:0:
256,192,117538,1,0,0:0:0:0:
256,192,117661,1,0,0:0:0:0:
256,192,117784,1,8,0:0:0:0:
256,192,118030,1,0,0:0:0:0:
256,192,118153,1,0,0:0:0:0:
256,192,118276,1,8,0:0:0:0:
256,192,118399,1,0,0:0:0:0:
256,192,118522,1,0,0:0:0:0:
256,192,118584,1,0,0:0:0:0:
256,192,118645,1,0,0:0:0:0:
256,192,118768,1,8,0:0:0:0:
256,192,118891,1,0,0:0:0:0:
256,192,119014,1,8,0:0:0:0:
256,192,119075,1,8,0:0:0:0:
256,192,119137,1,0,0:0:0:0:
256,192,119260,1,8,0:0:0:0:
256,192,119383,1,8,0:0:0:0:
256,192,119444,1,8,0:0:0:0:
256,192,119506,1,8,0:0:0:0:
256,192,119629,1,0,0:0:0:0:
256,192,119752,1,8,0:0:0:0:
256,192,119875,1,8,0:0:0:0:
256,192,119997,1,0,0:0:0:0:
256,192,120243,1,8,0:0:0:0:
256,192,120366,1,0,0:0:0:0:
256,192,120428,1,0,0:0:0:0:
256,192,120489,1,0,0:0:0:0:
256,192,120612,1,0,0:0:0:0:
256,192,120735,1,8,0:0:0:0:
256,192,120858,1,0,0:0:0:0:
256,192,120981,1,0,0:0:0:0:
256,192,121104,1,8,0:0:0:0:
256,192,121350,1,8,0:0:0:0:
256,192,121473,1,0,0:0:0:0:
256,192,121596,1,0,0:0:0:0:
256,192,121719,1,8,0:0:0:0:
256,192,121965,1,0,0:0:0:0:
256,192,122088,1,0,0:0:0:0:
256,192,122211,1,8,0:0:0:0:
256,192,122334,1,0,0:0:0:0:
256,192,122395,1,0,0:0:0:0:
256,192,122457,1,0,0:0:0:0:
256,192,122579,1,0,0:0:0:0:
256,192,122702,1,8,0:0:0:0:
256,192,122825,1,0,0:0:0:0:
256,192,122948,1,8,0:0:0:0:
256,192,123010,1,8,0:0:0:0:
256,192,123071,1,0,0:0:0:0:
256,192,123133,1,0,0:0:0:0:
256,192,123194,1,8,0:0:0:0:
256,192,123317,1,0,0:0:0:0:
256,192,123563,1,8,0:0:0:0:
256,192,123686,1,8,0:0:0:0:
256,192,123809,1,8,0:0:0:0:
256,192,123932,1,4,0:0:0:0:
256,192,124178,1,8,0:0:0:0:
256,192,124301,1,4,0:0:0:0:
256,192,124547,1,0,0:0:0:0:
256,192,124670,1,8,0:0:0:0:
256,192,124731,1,8,0:0:0:0:
256,192,124793,1,8,0:0:0:0:
256,192,124916,1,4,0:0:0:0:
256,192,125038,1,8,0:0:0:0:
256,192,125161,1,0,0:0:0:0:
256,192,125284,1,0,0:0:0:0:
256,192,125407,1,8,0:0:0:0:
256,192,125530,1,0,0:0:0:0:
256,192,125653,1,8,0:0:0:0:
256,192,125899,1,0,0:0:0:0:
256,192,126022,1,8,0:0:0:0:
256,192,126145,1,0,0:0:0:0:
256,192,126268,1,0,0:0:0:0:
256,192,126391,1,8,0:0:0:0:
256,192,126514,1,0,0:0:0:0:
256,192,126637,1,8,0:0:0:0:
256,192,126760,1,8,0:0:0:0:
256,192,126883,1,0,0:0:0:0:
256,192,126944,1,0,0:0:0:0:
256,192,127006,1,0,0:0:0:0:
256,192,127129,1,8,0:0:0:0:
256,192,127375,1,0,0:0:0:0:
256,192,127497,1,0,0:0:0:0:
256,192,127620,1,8,0:0:0:0:
256,192,127866,1,0,0:0:0:0:
256,192,127928,1,0,0:0:0:0:
256,192,127989,1,0,0:0:0:0:
256,192,128112,1,8,0:0:0:0:
256,192,128235,1,0,0:0:0:0:
256,192,128297,1,0,0:0:0:0:
256,192,128358,1,0,0:0:0:0:
256,192,128481,1,0,0:0:0:0:
256,192,128604,1,8,0:0:0:0:
256,192,128727,1,0,0:0:0:0:
256,192,128850,1,0,0:0:0:0:
256,192,128911,1,0,0:0:0:0:
256,192,128973,1,0,0:0:0:0:
256,192,129034,1,0,0:0:0:0:
256,192,129096,1,8,0:0:0:0:
256,192,129219,1,0,0:0:0:0:
256,192,129342,1,0,0:0:0:0:
256,192,129465,1,0,0:0:0:0:
256,192,129588,1,8,0:0:0:0:
256,192,129711,1,8,0:0:0:0:
256,192,129772,1,8,0:0:0:0:
256,192,129834,1,0,0:0:0:0:
256,192,129957,1,0,0:0:0:0:
256,192,130079,1,8,0:0:0:0:
256,192,130325,1,0,0:0:0:0:
256,192,130448,1,0,0:0:0:0:
256,192,130571,1,8,0:0:0:0:
256,192,130694,1,8,0:0:0:0:
256,192,130817,1,0,0:0:0:0:
256,192,130940,1,8,0:0:0:0:
256,192,131002,1,8,0:0:0:0:
256,192,131063,1,8,0:0:0:0:
256,192,131186,1,8,0:0:0:0:
256,192,131309,1,0,0:0:0:0:
256,192,131432,1,8,0:0:0:0:
256,192,131555,1,0,0:0:0:0:
256,192,131678,1,0,0:0:0:0:
256,192,131801,1,12,0:0:0:0:
256,192,131924,1,0,0:0:0:0:
256,192,132047,1,8,0:0:0:0:
256,192,132293,1,0,0:0:0:0:
256,192,132416,1,0,0:0:0:0:
256,192,132538,1,8,0:0:0:0:
256,192,132661,1,0,0:0:0:0:
256,192,132784,1,0,0:0:0:0:
256,192,132846,1,0,0:0:0:0:
256,192,132907,1,0,0:0:0:0:
256,192,133030,1,8,0:0:0:0:
256,192,133276,1,0,0:0:0:0:
256,192,133399,1,0,0:0:0:0:
256,192,133522,1,8,0:0:0:0:
256,192,133768,1,0,0:0:0:0:
256,192,133891,1,0,0:0:0:0:
256,192,134014,1,8,0:0:0:0:
256,192,134137,1,0,0:0:0:0:
256,192,134260,1,0,0:0:0:0:
256,192,134321,1,0,0:0:0:0:
256,192,134383,1,0,0:0:0:0:
256,192,134506,1,8,0:0:0:0:
256,192,134752,1,0,0:0:0:0:
256,192,134875,1,0,0:0:0:0:
256,192,134997,1,8,0:0:0:0:
256,192,135059,1,8,0:0:0:0:
256,192,135120,1,8,0:0:0:0:
256,192,135243,1,0,0:0:0:0:
256,192,135366,1,0,0:0:0:0:
256,192,135489,1,8,0:0:0:0:
256,192,135735,1,0,0:0:0:0:
256,192,135858,1,0,0:0:0:0:
256,192,135920,1,0,0:0:0:0:
256,192,135981,1,8,0:0:0:0:
256,192,136104,1,0,0:0:0:0:
256,192,136227,1,0,0:0:0:0:
256,192,136473,1,8,0:0:0:0:
256,192,136719,1,0,0:0:0:0:
256,192,136842,1,0,0:0:0:0:
256,192,136903,1,0,0:0:0:0:
256,192,136965,1,8,0:0:0:0:
256,192,137088,1,0,0:0:0:0:
256,192,137211,1,0,0:0:0:0:
256,192,137457,1,8,0:0:0:0:
256,192,137702,1,0,0:0:0:0:
256,192,137825,1,0,0:0:0:0:
256,192,137948,1,8,0:0:0:0:
256,192,138071,1,0,0:0:0:0:
256,192,138194,1,0,0:0:0:0:
256,192,138256,1,0,0:0:0:0:
256,192,138317,1,0,0:0:0:0:
256,192,138440,1,8,0:0:0:0:
256,192,138686,1,0,0:0:0:0:
256,192,138809,1,0,0:0:0:0:
256,192,138932,1,8,0:0:0:0:
256,192,139055,1,0,0:0:0:0:
256,192,139178,1,0,0:0:0:0:
256,192,139301,1,8,0:0:0:0:
256,192,139424,1,8,0:0:0:0:
256,192,139547,1,8,0:0:0:0:
256,192,139670,1,4,0:0:0:0:
256,192,139793,1,0,0:0:0:0:
256,192,139916,1,8,0:0:0:0:
256,192,140038,1,0,0:0:0:0:
256,192,140161,1,0,0:0:0:0:
256,192,140223,1,0,0:0:0:0:
256,192,140284,1,0,0:0:0:0:
256,192,140407,1,8,0:0:0:0:
256,192,140653,1,0,0:0:0:0:
256,192,140776,1,0,0:0:0:0:
256,192,140899,1,8,0:0:0:0:
256,192,140961,1,8,0:0:0:0:
256,192,141022,1,0,0:0:0:0:
256,192,141084,1,0,0:0:0:0:
256,192,141145,1,8,0:0:0:0:
256,192,141268,1,0,0:0:0:0:
256,192,141391,1,8,0:0:0:0:
256,192,141514,1,0,0:0:0:0:
256,192,141637,1,8,0:0:0:0:
256,192,141698,1,8,0:0:0:0:
256,192,141760,1,8,0:0:0:0:
256,192,141883,1,8,0:0:0:0:
256,192,142129,1,0,0:0:0:0:
256,192,142190,1,0,0:0:0:0:
256,192,142252,1,0,0:0:0:0:
256,192,142375,1,8,0:0:0:0:
256,192,142620,1,0,0:0:0:0:
256,192,142743,1,0,0:0:0:0:
256,192,142866,1,8,0:0:0:0:
256,192,142989,1,0,0:0:0:0:
256,192,143112,1,0,0:0:0:0:
256,192,143235,1,0,0:0:0:0:
256,192,143358,1,12,0:0:0:0:
256,192,143481,1,0,0:0:0:0:
256,192,143604,1,4,0:0:0:0:
256,192,143727,1,0,0:0:0:0:
256,192,143850,1,8,0:0:0:0:
256,192,144096,1,0,0:0:0:0:
256,192,144219,1,0,0:0:0:0:
256,192,144342,1,8,0:0:0:0:
256,192,144465,1,0,0:0:0:0:
256,192,144588,1,0,0:0:0:0:
256,192,144649,1,0,0:0:0:0:
256,192,144711,1,0,0:0:0:0:
256,192,144834,1,8,0:0:0:0:
256,192,145079,1,0,0:0:0:0:
256,192,145202,1,0,0:0:0:0:
256,192,145325,1,12,0:0:0:0:
256,192,145571,1,8,0:0:0:0:
256,192,145653,1,8,0:0:0:0:
256,192,145735,1,0,0:0:0:0:
256,192,145817,1,0,0:0:0:0:
256,192,146063,1,8,0:0:0:0:
256,192,146145,1,8,0:0:0:0:
256,192,146227,1,0,0:0:0:0:
256,192,146309,1,0,0:0:0:0:
256,192,146555,1,8,0:0:0:0:
256,192,146637,1,8,0:0:0:0:
256,192,146719,1,0,0:0:0:0:
256,192,146801,1,0,0:0:0:0:
256,192,147047,1,12,0:0:0:0:
256,192,147538,1,4,0:0:0:0:
256,192,147661,1,0,0:0:0:0:
256,192,147723,1,0,0:0:0:0:
256,192,147784,1,8,0:0:0:0:
256,192,147907,1,8,0:0:0:0:
256,192,148030,1,0,0:0:0:0:
256,192,148153,1,0,0:0:0:0:
256,192,148215,1,0,0:0:0:0:
256,192,148276,1,8,0:0:0:0:
256,192,148399,1,8,0:0:0:0:
256,192,148522,1,0,0:0:0:0:
256,192,148645,1,8,0:0:0:0:
256,192,148707,1,8,0:0:0:0:
256,192,148768,1,8,0:0:0:0:
256,192,148891,1,8,0:0:0:0:
256,192,149014,1,0,0:0:0:0:
256,192,149137,1,8,0:0:0:0:
256,192,149198,1,8,0:0:0:0:
256,192,149260,1,8,0:0:0:0:
256,192,149383,1,8,0:0:0:0:
256,192,149506,1,0,0:0:0:0:
256,192,149629,1,8,0:0:0:0:
256,192,149690,1,8,0:0:0:0:
256,192,149752,1,0,0:0:0:0:
256,192,149875,1,8,0:0:0:0:
256,192,149997,1,0,0:0:0:0:
256,192,150120,1,8,0:0:0:0:
256,192,150182,1,8,0:0:0:0:
256,192,150243,1,0,0:0:0:0:
256,192,150366,1,8,0:0:0:0:
256,192,150489,1,0,0:0:0:0:
256,192,150551,1,0,0:0:0:0:
256,192,150612,1,0,0:0:0:0:
256,192,150735,1,8,0:0:0:0:
256,192,150797,1,8,0:0:0:0:
256,192,150858,1,8,0:0:0:0:
256,192,150981,1,0,0:0:0:0:
256,192,151104,1,0,0:0:0:0:
256,192,151227,1,12,0:0:0:0:
256,192,151473,1,4,0:0:0:0:
256,192,151596,1,0,0:0:0:0:
256,192,151719,1,8,0:0:0:0:
256,192,151842,1,0,0:0:0:0:
256,192,151965,1,0,0:0:0:0:
256,192,152088,1,0,0:0:0:0:
256,192,152211,1,8,0:0:0:0:
256,192,152334,1,0,0:0:0:0:
256,192,152457,1,0,0:0:0:0:
256,192,152518,1,0,0:0:0:0:
256,192,152579,1,0,0:0:0:0:
256,192,152702,1,8,0:0:0:0:
256,192,152948,1,0,0:0:0:0:
256,192,153071,1,0,0:0:0:0:
256,192,153194,1,8,0:0:0:0:
256,192,153317,1,8,0:0:0:0:
256,192,153440,1,0,0:0:0:0:
256,192,153502,1,0,0:0:0:0:
256,192,153563,1,0,0:0:0:0:
256,192,153686,1,8,0:0:0:0:
256,192,153809,1,0,0:0:0:0:
256,192,153932,1,0,0:0:0:0:
256,192,154055,1,0,0:0:0:0:
256,192,154178,1,8,0:0:0:0:
256,192,154301,1,0,0:0:0:0:
256,192,154424,1,0,0:0:0:0:
256,192,154547,1,8,0:0:0:0:
256,192,154608,1,8,0:0:0:0:
256,192,154670,1,0,0:0:0:0:
256,192,154793,1,0,0:0:0:0:
256,192,154916,1,0,0:0:0:0:
256,192,155038,1,8,0:0:0:0:
256,192,155161,1,0,0:0:0:0:
256,192,155284,1,8,0:0:0:0:
256,192,155407,1,4,0:0:0:0:
256,192,155530,1,0,0:0:0:0:
256,192,155653,1,8,0:0:0:0:
256,192,155715,1,8,0:0:0:0:
256,192,155776,1,8,0:0:0:0:
256,192,155899,1,0,0:0:0:0:
256,192,156022,1,0,0:0:0:0:
256,192,156145,1,8,0:0:0:0:
256,192,156391,1,0,0:0:0:0:
256,192,156514,1,0,0:0:0:0:
256,192,156637,1,8,0:0:0:0:
256,192,156760,1,0,0:0:0:0:
256,192,156883,1,0,0:0:0:0:
256,192,156944,1,0,0:0:0:0:
256,192,157006,1,0,0:0:0:0:
256,192,157129,1,8,0:0:0:0:
256,192,157375,1,8,0:0:0:0:
256,192,157436,1,8,0:0:0:0:
256,192,157497,1,8,0:0:0:0:
256,192,157620,1,8,0:0:0:0:
256,192,157743,1,0,0:0:0:0:
256,192,157805,1,0,0:0:0:0:
256,192,157866,1,0,0:0:0:0:
256,192,157989,1,0,0:0:0:0:
256,192,158112,1,8,0:0:0:0:
256,192,158235,1,0,0:0:0:0:
256,192,158358,1,0,0:0:0:0:
256,192,158604,1,8,0:0:0:0:
256,192,158666,1,8,0:0:0:0:
256,192,158727,1,8,0:0:0:0:
256,192,158788,1,8,0:0:0:0:
256,192,158850,1,0,0:0:0:0:
256,192,158973,1,0,0:0:0:0:
256,192,159096,1,12,0:0:0:0:
256,192,159219,1,0,0:0:0:0:
256,192,159342,1,4,0:0:0:0:
256,192,159465,1,0,0:0:0:0:
256,192,159588,1,8,0:0:0:0:
256,192,159834,1,0,0:0:0:0:
256,192,159957,1,0,0:0:0:0:
256,192,160079,1,8,0:0:0:0:
256,192,160141,1,8,0:0:0:0:
256,192,160202,1,0,0:0:0:0:
256,192,160325,1,0,0:0:0:0:
256,192,160448,1,0,0:0:0:0:
256,192,160571,1,8,0:0:0:0:
256,192,160817,1,0,0:0:0:0:
256,192,160879,1,0,0:0:0:0:
256,192,160940,1,0,0:0:0:0:
256,192,161063,1,8,0:0:0:0:
256,192,161186,1,0,0:0:0:0:
256,192,161309,1,0,0:0:0:0:
256,192,161370,1,0,0:0:0:0:
256,192,161432,1,0,0:0:0:0:
256,192,161493,1,0,0:0:0:0:
256,192,161555,1,8,0:0:0:0:
256,192,161678,1,0,0:0:0:0:
256,192,161801,1,8,0:0:0:0:
256,192,161862,1,8,0:0:0:0:
256,192,161924,1,0,0:0:0:0:
256,192,161985,1,0,0:0:0:0:
256,192,162047,1,8,0:0:0:0:
256,192,162170,1,0,0:0:0:0:
256,192,162293,1,0,0:0:0:0:
256,192,162354,1,0,0:0:0:0:
256,192,162416,1,8,0:0:0:0:
256,192,162538,1,8,0:0:0:0:
256,192,162661,1,0,0:0:0:0:
256,192,162784,1,0,0:0:0:0:
256,192,162907,1,8,0:0:0:0:
256,192,163030,1,8,0:0:0:0:
256,192,163153,1,8,0:0:0:0:
256,192,163276,1,4,0:0:0:0:
256,192,163399,1,0,0:0:0:0:
256,192,163522,1,0,0:0:0:0:
256,192,163645,1,12,0:0:0:0:
256,192,163768,1,0,0:0:0:0:
256,192,163891,1,0,0:0:0:0:
256,192,164014,1,4,0:0:0:0:
256,192,164136,1,0,0:0:0:0:
256,192,164259,1,0,0:0:0:0:
256,192,164382,1,12,0:0:0:0:
256,192,164505,1,0,0:0:0:0:
256,192,164628,1,0,0:0:0:0:
256,192,164751,1,4,0:0:0:0:
256,192,164874,1,0,0:0:0:0:
256,192,164997,1,0,0:0:0:0:
256,192,165120,1,12,0:0:0:0:
256,192,165489,1,8,0:0:0:0:
256,192,165735,1,8,0:0:0:0:
256,192,165981,1,8,0:0:0:0:
256,192,166227,1,0,0:0:0:0:
256,192,166350,1,8,0:0:0:0:
256,192,166411,1,8,0:0:0:0:
256,192,166473,1,8,0:0:0:0:
256,192,166596,1,8,0:0:0:0:
256,192,166719,1,4,0:0:0:0:
256,192,166965,1,12,0:0:0:0:
256,192,167211,1,4,0:0:0:0:
256,192,167333,1,0,0:0:0:0:
256,192,167456,1,8,0:0:0:0:
256,192,167702,1,0,0:0:0:0:
256,192,167825,1,0,0:0:0:0:
256,192,167948,1,8,0:0:0:0:
256,192,168071,1,0,0:0:0:0:
256,192,168317,1,0,0:0:0:0:
256,192,168440,1,8,0:0:0:0:
256,192,168563,1,0,0:0:0:0:
256,192,168809,1,0,0:0:0:0:
256,192,168932,1,8,0:0:0:0:
256,192,169055,1,0,0:0:0:0:
256,192,169178,1,0,0:0:0:0:
256,192,169239,1,0,0:0:0:0:
256,192,169301,1,0,0:0:0:0:
256,192,169424,1,8,0:0:0:0:
256,192,169547,1,0,0:0:0:0:
256,192,169670,1,8,0:0:0:0:
256,192,169793,1,8,0:0:0:0:
256,192,170038,1,8,0:0:0:0:
256,192,170161,1,0,0:0:0:0:
256,192,170284,1,8,0:0:0:0:
256,192,170530,1,8,0:0:0:0:
256,192,170653,1,0,0:0:0:0:
256,192,170776,1,8,0:0:0:0:
256,192,171022,1,8,0:0:0:0:
256,192,171145,1,0,0:0:0:0:
256,192,171268,1,0,0:0:0:0:
256,192,171391,1,8,0:0:0:0:
256,192,171514,1,0,0:0:0:0:
256,192,171637,1,0,0:0:0:0:
256,192,171698,1,0,0:0:0:0:
256,192,171760,1,0,0:0:0:0:
256,192,171883,1,8,0:0:0:0:
256,192,172006,1,0,0:0:0:0:
256,192,172252,1,0,0:0:0:0:
256,192,172374,1,8,0:0:0:0:
256,192,172497,1,0,0:0:0:0:
256,192,172559,1,0,0:0:0:0:
256,192,172620,1,0,0:0:0:0:
256,192,172743,1,0,0:0:0:0:
256,192,172866,1,8,0:0:0:0:
256,192,172989,1,0,0:0:0:0:
256,192,173112,1,0,0:0:0:0:
256,192,173358,1,8,0:0:0:0:
256,192,173604,1,0,0:0:0:0:
256,192,173727,1,8,0:0:0:0:
256,192,173973,1,8,0:0:0:0:
256,192,174096,1,0,0:0:0:0:
256,192,174157,1,0,0:0:0:0:
256,192,174219,1,0,0:0:0:0:
256,192,174342,1,8,0:0:0:0:
256,192,174465,1,0,0:0:0:0:
256,192,174588,1,0,0:0:0:0:
256,192,174711,1,8,0:0:0:0:
256,192,174833,1,8,0:0:0:0:
256,192,174956,1,8,0:0:0:0:
256,192,175079,1,4,0:0:0:0:
256,192,175201,1,0,0:0:0:0:
256,192,175324,1,8,0:0:0:0:
256,192,175570,1,0,0:0:0:0:
256,192,175693,1,0,0:0:0:0:
256,192,175816,1,8,0:0:0:0:
256,192,175939,1,0,0:0:0:0:
256,192,176185,1,0,0:0:0:0:
256,192,176308,1,8,0:0:0:0:
256,192,176431,1,0,0:0:0:0:
256,192,176677,1,0,0:0:0:0:
256,192,176800,1,8,0:0:0:0:
256,192,176923,1,0,0:0:0:0:
256,192,177046,1,0,0:0:0:0:
256,192,177107,1,0,0:0:0:0:
256,192,177169,1,0,0:0:0:0:
256,192,177292,1,8,0:0:0:0:
256,192,177415,1,0,0:0:0:0:
256,192,177538,1,8,0:0:0:0:
256,192,177600,1,8,0:0:0:0:
256,192,177661,1,0,0:0:0:0:
256,192,177784,1,8,0:0:0:0:
256,192,177906,1,8,0:0:0:0:
256,192,178029,1,0,0:0:0:0:
256,192,178152,1,8,0:0:0:0:
256,192,178398,1,8,0:0:0:0:
256,192,178521,1,0,0:0:0:0:
256,192,178644,1,8,0:0:0:0:
256,192,178890,1,8,0:0:0:0:
256,192,179013,1,0,0:0:0:0:
256,192,179075,1,0,0:0:0:0:
256,192,179136,1,0,0:0:0:0:
256,192,179259,1,8,0:0:0:0:
256,192,179382,1,0,0:0:0:0:
256,192,179505,1,8,0:0:0:0:
256,192,179628,1,8,0:0:0:0:
256,192,179752,1,0,0:0:0:0:
256,192,179874,1,8,0:0:0:0:
256,192,179936,1,8,0:0:0:0:
256,192,179997,1,0,0:0:0:0:
256,192,180120,1,0,0:0:0:0:
256,192,180242,1,8,0:0:0:0:
256,192,180365,1,0,0:0:0:0:
256,192,180611,1,0,0:0:0:0:
256,192,180674,1,0,0:0:0:0:
256,192,180734,1,8,0:0:0:0:
256,192,180857,1,0,0:0:0:0:
256,192,180980,1,0,0:0:0:0:
256,192,181043,1,0,0:0:0:0:
256,192,181104,1,0,0:0:0:0:
256,192,181226,1,8,0:0:0:0:
256,192,181350,1,0,0:0:0:0:
256,192,181472,1,8,0:0:0:0:
256,192,181595,1,8,0:0:0:0:
256,192,181719,1,0,0:0:0:0:
256,192,181841,1,8,0:0:0:0:
256,192,181964,1,0,0:0:0:0:
256,192,182087,1,8,0:0:0:0:
256,192,182149,1,8,0:0:0:0:
256,192,182210,1,8,0:0:0:0:
256,192,182333,1,8,0:0:0:0:
256,192,182456,1,8,0:0:0:0:
256,192,182579,1,8,0:0:0:0:
256,192,182702,1,0,0:0:0:0:
256,192,182825,1,8,0:0:0:0:
256,192,182948,1,4,0:0:0:0:
256,192,183194,1,8,0:0:0:0:
256,192,183317,1,0,0:0:0:0:
256,192,183440,1,0,0:0:0:0:
256,192,183502,1,0,0:0:0:0:
256,192,183563,1,0,0:0:0:0:
256,192,183686,1,8,0:0:0:0:
256,192,183932,1,0,0:0:0:0:
256,192,184055,1,8,0:0:0:0:
256,192,184301,1,8,0:0:0:0:
256,192,184424,1,0,0:0:0:0:
256,192,184547,1,0,0:0:0:0:
256,192,184670,1,8,0:0:0:0:
256,192,184793,1,0,0:0:0:0:
256,192,184915,1,0,0:0:0:0:
256,192,184977,1,0,0:0:0:0:
256,192,185038,1,0,0:0:0:0:
256,192,185161,1,8,0:0:0:0:
256,192,185407,1,0,0:0:0:0:
256,192,185530,1,0,0:0:0:0:
256,192,185653,1,8,0:0:0:0:
256,192,185899,1,0,0:0:0:0:
256,192,186022,1,8,0:0:0:0:
256,192,186268,1,8,0:0:0:0:
256,192,186391,1,0,0:0:0:0:
256,192,186514,1,0,0:0:0:0:
256,192,186637,1,8,0:0:0:0:
256,192,186760,1,0,0:0:0:0:
256,192,186883,1,0,0:0:0:0:
256,192,186944,1,0,0:0:0:0:
256,192,187006,1,0,0:0:0:0:
256,192,187129,1,8,0:0:0:0:
256,192,187252,1,0,0:0:0:0:
256,192,187497,1,0,0:0:0:0:
256,192,187620,1,8,0:0:0:0:
256,192,187743,1,0,0:0:0:0:
256,192,187866,1,0,0:0:0:0:
256,192,188112,1,8,0:0:0:0:
256,192,188235,1,0,0:0:0:0:
256,192,188358,1,0,0:0:0:0:
256,192,188420,1,0,0:0:0:0:
256,192,188481,1,0,0:0:0:0:
256,192,188604,1,8,0:0:0:0:
256,192,188850,1,0,0:0:0:0:
256,192,188911,1,0,0:0:0:0:
256,192,188973,1,0,0:0:0:0:
256,192,189096,1,8,0:0:0:0:
256,192,189219,1,0,0:0:0:0:
256,192,189342,1,0,0:0:0:0:
256,192,189403,1,0,0:0:0:0:
256,192,189465,1,0,0:0:0:0:
256,192,189588,1,8,0:0:0:0:
256,192,189711,1,0,0:0:0:0:
256,192,189833,1,8,0:0:0:0:
256,192,189956,1,8,0:0:0:0:
256,192,190018,1,8,0:0:0:0:
256,192,190079,1,0,0:0:0:0:
256,192,190202,1,8,0:0:0:0:
256,192,190325,1,4,0:0:0:0:
256,192,190571,1,12,0:0:0:0:
256,192,190817,1,4,0:0:0:0:
256,192,191063,1,8,0:0:0:0:
256,192,191186,1,0,0:0:0:0:
256,192,191309,1,0,0:0:0:0:
256,192,191371,1,0,0:0:0:0:
256,192,191432,1,0,0:0:0:0:
256,192,191555,1,8,0:0:0:0:
256,192,191678,1,0,0:0:0:0:
256,192,191801,1,0,0:0:0:0:
256,192,191924,1,8,0:0:0:0:
256,192,192170,1,8,0:0:0:0:
256,192,192293,1,0,0:0:0:0:
256,192,192416,1,0,0:0:0:0:
256,192,192539,1,8,0:0:0:0:
256,192,192662,1,0,0:0:0:0:
256,192,192784,1,0,0:0:0:0:
256,192,192846,1,0,0:0:0:0:
256,192,192907,1,0,0:0:0:0:
256,192,193030,1,8,0:0:0:0:
256,192,193276,1,0,0:0:0:0:
256,192,193399,1,0,0:0:0:0:
256,192,193522,1,8,0:0:0:0:
256,192,193645,1,0,0:0:0:0:
256,192,193768,1,8,0:0:0:0:
256,192,193829,1,8,0:0:0:0:
256,192,193891,1,8,0:0:0:0:
256,192,194014,1,0,0:0:0:0:
256,192,194137,1,0,0:0:0:0:
256,192,194260,1,0,0:0:0:0:
256,192,194383,1,0,0:0:0:0:
256,192,194506,1,0,0:0:0:0:
256,192,194629,1,0,0:0:0:0:
256,192,194752,1,12,0:0:0:0:
256,192,194874,1,0,0:0:0:0:
256,192,194997,1,0,0:0:0:0:
256,192,195120,1,12,0:0:0:0:
256,192,195243,1,0,0:0:0:0:
256,192,195366,1,0,0:0:0:0:
256,192,195489,1,12,0:0:0:0:
256,192,195612,1,0,0:0:0:0:
256,192,195735,1,0,0:0:0:0:
256,192,195858,1,12,0:0:0:0:
256,192,196104,1,0,0:0:0:0:
256,192,196227,1,0,0:0:0:0:
256,192,196288,1,0,0:0:0:0:
256,192,196350,1,0,0:0:0:0:
256,192,196473,1,0,0:0:0:0:
256,192,196534,1,0,0:0:0:0:
256,192,196596,1,0,0:0:0:0:
256,192,196719,1,12,0:0:0:0:
256,192,196842,1,0,0:0:0:0:
256,192,196965,1,0,0:0:0:0:
256,192,197088,1,12,0:0:0:0:
256,192,197211,1,0,0:0:0:0:
256,192,197333,1,0,0:0:0:0:
256,192,197456,1,12,0:0:0:0:
256,192,197579,1,0,0:0:0:0:
256,192,197702,1,0,0:0:0:0:
256,192,197825,1,12,0:0:0:0:
256,192,197948,1,0,0:0:0:0:
256,192,198071,1,0,0:0:0:0:
256,192,198194,1,12,0:0:0:0:
256,192,198686,1,4,0:0:0:0:
256,192,198932,1,8,0:0:0:0:
256,192,199055,1,0,0:0:0:0:
256,192,199178,1,0,0:0:0:0:
256,192,199301,1,0,0:0:0:0:
256,192,199424,1,8,0:0:0:0:
256,192,199547,1,0,0:0:0:0:
256,192,199608,1,0,0:0:0:0:
256,192,199670,1,0,0:0:0:0:
256,192,199793,1,0,0:0:0:0:
256,192,199915,1,8,0:0:0:0:
256,192,200161,1,0,0:0:0:0:
256,192,200284,1,0,0:0:0:0:
256,192,200407,1,8,0:0:0:0:
256,192,200530,1,0,0:0:0:0:
256,192,200592,1,0,0:0:0:0:
256,192,200653,1,0,0:0:0:0:
256,192,200776,1,0,0:0:0:0:
256,192,200899,1,8,0:0:0:0:
256,192,201145,1,0,0:0:0:0:
256,192,201268,1,0,0:0:0:0:
256,192,201391,1,8,0:0:0:0:
256,192,201514,1,8,0:0:0:0:
256,192,201575,1,8,0:0:0:0:
256,192,201637,1,8,0:0:0:0:
256,192,201760,1,0,0:0:0:0:
256,192,201883,1,8,0:0:0:0:
256,192,202129,1,8,0:0:0:0:
256,192,202252,1,0,0:0:0:0:
256,192,202374,1,12,0:0:0:0:
256,192,202497,1,0,0:0:0:0:
256,192,202620,1,0,0:0:0:0:
256,192,202682,1,0,0:0:0:0:
256,192,202743,1,0,0:0:0:0:
256,192,202866,1,8,0:0:0:0:
256,192,202989,1,0,0:0:0:0:
256,192,203112,1,0,0:0:0:0:
256,192,203235,1,0,0:0:0:0:
256,192,203358,1,8,0:0:0:0:
256,192,203481,1,0,0:0:0:0:
256,192,203604,1,0,0:0:0:0:
256,192,203665,1,0,0:0:0:0:
256,192,203727,1,0,0:0:0:0:
256,192,203850,1,8,0:0:0:0:
256,192,203973,1,0,0:0:0:0:
256,192,204219,1,0,0:0:0:0:
256,192,204342,1,8,0:0:0:0:
256,192,204465,1,0,0:0:0:0:
256,192,204526,1,0,0:0:0:0:
256,192,204588,1,0,0:0:0:0:
256,192,204711,1,0,0:0:0:0:
256,192,204833,1,8,0:0:0:0:
256,192,204956,1,0,0:0:0:0:
256,192,205079,1,0,0:0:0:0:
256,192,205202,1,0,0:0:0:0:
256,192,205325,1,8,0:0:0:0:
256,192,205448,1,0,0:0:0:0:
256,192,205571,1,0,0:0:0:0:
256,192,205817,1,8,0:0:0:0:
256,192,205940,1,0,0:0:0:0:
256,192,206002,1,0,0:0:0:0:
256,192,206063,1,0,0:0:0:0:
256,192,206186,1,8,0:0:0:0:
256,192,206309,1,8,0:0:0:0:
256,192,206432,1,8,0:0:0:0:
256,192,206555,1,4,0:0:0:0:
256,192,206801,1,8,0:0:0:0:
256,192,206924,1,0,0:0:0:0:
256,192,207047,1,0,0:0:0:0:
256,192,207170,1,0,0:0:0:0:
256,192,207293,1,8,0:0:0:0:
256,192,207416,1,0,0:0:0:0:
256,192,207477,1,0,0:0:0:0:
256,192,207539,1,0,0:0:0:0:
256,192,207662,1,0,0:0:0:0:
256,192,207784,1,8,0:0:0:0:
256,192,208030,1,0,0:0:0:0:
256,192,208153,1,0,0:0:0:0:
256,192,208276,1,8,0:0:0:0:
256,192,208399,1,0,0:0:0:0:
256,192,208461,1,0,0:0:0:0:
256,192,208522,1,0,0:0:0:0:
256,192,208645,1,0,0:0:0:0:
256,192,208768,1,8,0:0:0:0:
256,192,209014,1,0,0:0:0:0:
256,192,209137,1,0,0:0:0:0:
256,192,209260,1,8,0:0:0:0:
256,192,209383,1,8,0:0:0:0:
256,192,209444,1,8,0:0:0:0:
256,192,209506,1,8,0:0:0:0:
256,192,209629,1,0,0:0:0:0:
256,192,209752,1,8,0:0:0:0:
256,192,209998,1,8,0:0:0:0:
256,192,210121,1,0,0:0:0:0:
256,192,210243,1,12,0:0:0:0:
256,192,210366,1,0,0:0:0:0:
256,192,210489,1,0,0:0:0:0:
256,192,210551,1,0,0:0:0:0:
256,192,210612,1,0,0:0:0:0:
256,192,210735,1,8,0:0:0:0:
256,192,210858,1,0,0:0:0:0:
256,192,210981,1,0,0:0:0:0:
256,192,211104,1,0,0:0:0:0:
256,192,211227,1,8,0:0:0:0:
256,192,211350,1,0,0:0:0:0:
256,192,211473,1,0,0:0:0:0:
256,192,211534,1,0,0:0:0:0:
256,192,211596,1,0,0:0:0:0:
256,192,211719,1,8,0:0:0:0:
256,192,211842,1,0,0:0:0:0:
256,192,212088,1,0,0:0:0:0:
256,192,212211,1,8,0:0:0:0:
256,192,212457,1,0,0:0:0:0:
256,192,212579,1,0,0:0:0:0:
256,192,212641,1,0,0:0:0:0:
256,192,212702,1,0,0:0:0:0:
256,192,212825,1,0,0:0:0:0:
256,192,212948,1,8,0:0:0:0:
256,192,213010,1,8,0:0:0:0:
256,192,213071,1,0,0:0:0:0:
256,192,213194,1,8,0:0:0:0:
256,192,213317,1,8,0:0:0:0:
256,192,213440,1,4,0:0:0:0:
256,192,213563,1,8,0:0:0:0:
256,192,213809,1,4,0:0:0:0:
256,192,214055,1,8,0:0:0:0:
256,192,214178,1,8,0:0:0:0:
256,192,214301,1,8,0:0:0:0:
256,192,214424,1,4,0:0:0:0:
256,192,214670,1,8,0:0:0:0:
256,192,214793,1,0,0:0:0:0:
256,192,214916,1,0,0:0:0:0:
256,192,215039,1,0,0:0:0:0:
256,192,215162,1,8,0:0:0:0:
256,192,215285,1,0,0:0:0:0:
256,192,215346,1,0,0:0:0:0:
256,192,215408,1,0,0:0:0:0:
256,192,215531,1,0,0:0:0:0:
256,192,215653,1,8,0:0:0:0:
256,192,215776,1,0,0:0:0:0:
256,192,215899,1,0,0:0:0:0:
256,192,216022,1,0,0:0:0:0:
256,192,216145,1,8,0:0:0:0:
256,192,216268,1,0,0:0:0:0:
256,192,216330,1,0,0:0:0:0:
256,192,216391,1,0,0:0:0:0:
256,192,216514,1,0,0:0:0:0:
256,192,216637,1,8,0:0:0:0:
256,192,216883,1,0,0:0:0:0:
256,192,217006,1,0,0:0:0:0:
256,192,217129,1,8,0:0:0:0:
256,192,217252,1,8,0:0:0:0:
256,192,217313,1,8,0:0:0:0:
256,192,217375,1,8,0:0:0:0:
256,192,217498,1,0,0:0:0:0:
256,192,217621,1,8,0:0:0:0:
256,192,217867,1,8,0:0:0:0:
256,192,217990,1,0,0:0:0:0:
256,192,218112,1,12,0:0:0:0:
256,192,218235,1,0,0:0:0:0:
256,192,218358,1,0,0:0:0:0:
256,192,218420,1,0,0:0:0:0:
256,192,218481,1,0,0:0:0:0:
256,192,218604,1,8,0:0:0:0:
256,192,218727,1,0,0:0:0:0:
256,192,218850,1,0,0:0:0:0:
256,192,218973,1,0,0:0:0:0:
256,192,219096,1,8,0:0:0:0:
256,192,219219,1,0,0:0:0:0:
256,192,219342,1,0,0:0:0:0:
256,192,219403,1,0,0:0:0:0:
256,192,219465,1,0,0:0:0:0:
256,192,219588,1,8,0:0:0:0:
256,192,219711,1,0,0:0:0:0:
256,192,219772,1,0,0:0:0:0:
256,192,219833,1,0,0:0:0:0:
256,192,219957,1,0,0:0:0:0:
256,192,220080,1,8,0:0:0:0:
256,192,220326,1,0,0:0:0:0:
256,192,220449,1,0,0:0:0:0:
256,192,220571,1,8,0:0:0:0:
256,192,220694,1,0,0:0:0:0:
256,192,220817,1,0,0:0:0:0:
256,192,220940,1,0,0:0:0:0:
256,192,221063,1,8,0:0:0:0:
256,192,221186,1,0,0:0:0:0:
256,192,221309,1,0,0:0:0:0:
256,192,221370,1,0,0:0:0:0:
256,192,221432,1,0,0:0:0:0:
256,192,221555,1,8,0:0:0:0:
256,192,221678,1,0,0:0:0:0:
256,192,221740,1,0,0:0:0:0:
256,192,221801,1,0,0:0:0:0:
256,192,221924,1,8,0:0:0:0:
256,192,222047,1,8,0:0:0:0:
256,192,222170,1,8,0:0:0:0:
256,192,222293,1,4,0:0:0:0:
256,192,222539,1,8,0:0:0:0:
256,192,222662,1,0,0:0:0:0:
256,192,222785,1,0,0:0:0:0:
256,192,222908,1,0,0:0:0:0:
256,192,223031,1,8,0:0:0:0:
256,192,223154,1,0,0:0:0:0:
256,192,223215,1,0,0:0:0:0:
256,192,223277,1,0,0:0:0:0:
256,192,223400,1,0,0:0:0:0:
256,192,223522,1,8,0:0:0:0:
256,192,223645,1,0,0:0:0:0:
256,192,223768,1,0,0:0:0:0:
256,192,223891,1,0,0:0:0:0:
256,192,224014,1,8,0:0:0:0:
256,192,224137,1,0,0:0:0:0:
256,192,224199,1,0,0:0:0:0:
256,192,224260,1,0,0:0:0:0:
256,192,224383,1,0,0:0:0:0:
256,192,224506,1,8,0:0:0:0:
256,192,224752,1,0,0:0:0:0:
256,192,224875,1,0,0:0:0:0:
256,192,224998,1,8,0:0:0:0:
256,192,225121,1,8,0:0:0:0:
256,192,225182,1,8,0:0:0:0:
256,192,225244,1,8,0:0:0:0:
256,192,225367,1,0,0:0:0:0:
256,192,225490,1,8,0:0:0:0:
256,192,225736,1,8,0:0:0:0:
256,192,225859,1,0,0:0:0:0:
256,192,225981,1,12,0:0:0:0:
256,192,226104,1,0,0:0:0:0:
256,192,226227,1,0,0:0:0:0:
256,192,226289,1,0,0:0:0:0:
256,192,226350,1,0,0:0:0:0:
256,192,226473,1,8,0:0:0:0:
256,192,226596,1,0,0:0:0:0:
256,192,226719,1,0,0:0:0:0:
256,192,226842,1,0,0:0:0:0:
256,192,226965,1,8,0:0:0:0:
256,192,227088,1,0,0:0:0:0:
256,192,227211,1,0,0:0:0:0:
256,192,227272,1,0,0:0:0:0:
256,192,227334,1,0,0:0:0:0:
256,192,227457,1,8,0:0:0:0:
256,192,227580,1,0,0:0:0:0:
256,192,227641,1,0,0:0:0:0:
256,192,227702,1,0,0:0:0:0:
256,192,227826,1,0,0:0:0:0:
256,192,227949,1,8,0:0:0:0:
256,192,228194,1,0,0:0:0:0:
256,192,228317,1,0,0:0:0:0:
256,192,228440,1,8,0:0:0:0:
256,192,228562,1,0,0:0:0:0:
256,192,228685,1,8,0:0:0:0:
256,192,228809,1,0,0:0:0:0:
256,192,228931,1,8,0:0:0:0:
256,192,229054,1,8,0:0:0:0:
256,192,229177,1,4,0:0:0:0:
256,192,229300,1,8,0:0:0:0:
256,192,229546,1,4,0:0:0:0:
256,192,229793,1,0,0:0:0:0:
256,192,229874,1,0,0:0:0:0:
256,192,229956,1,0,0:0:0:0:
256,192,230038,1,0,0:0:0:0:
256,192,230161,1,12,0:0:0:0:
256,192,230284,8,0,236063,0:0:0:0:
256,192,236186,5,0,0:0:0:0:
256,192,236247,1,0,0:0:0:0:
256,192,236309,1,8,0:0:0:0:
256,192,236432,1,8,0:0:0:0:
256,192,236555,1,0,0:0:0:0:
256,192,236678,1,8,0:0:0:0:
256,192,236801,1,8,0:0:0:0:
256,192,236924,1,8,0:0:0:0:
256,192,237047,1,0,0:0:0:0:
256,192,237170,1,8,0:0:0:0:
256,192,237293,1,8,0:0:0:0:
256,192,237416,1,8,0:0:0:0:
256,192,237538,1,0,0:0:0:0:
256,192,237661,1,0,0:0:0:0:
256,192,237784,1,8,0:0:0:0:
256,192,237907,1,0,0:0:0:0:
256,192,238030,1,12,0:0:0:0:
256,192,238276,1,0,0:0:0:0:
256,192,238522,1,0,0:0:0:0:
256,192,238645,1,0,0:0:0:0:
256,192,238768,1,0,0:0:0:0:
256,192,238891,1,0,0:0:0:0:
256,192,239014,1,0,0:0:0:0:
256,192,239137,1,0,0:0:0:0:
256,192,239260,1,0,0:0:0:0:
256,192,239506,1,0,0:0:0:0:
256,192,239629,1,0,0:0:0:0:
256,192,239752,1,0,0:0:0:0:
256,192,239875,1,0,0:0:0:0:
256,192,239997,1,0,0:0:0:0:
256,192,240243,1,0,0:0:0:0:
256,192,240489,1,0,0:0:0:0:
256,192,240612,1,0,0:0:0:0:
256,192,240735,1,0,0:0:0:0:
256,192,240858,1,0,0:0:0:0:
256,192,240981,1,0,0:0:0:0:
256,192,241104,1,0,0:0:0:0:
256,192,241227,1,0,0:0:0:0:
256,192,241473,1,0,0:0:0:0:
256,192,241596,1,0,0:0:0:0:
256,192,241719,1,0,0:0:0:0:
256,192,241842,1,0,0:0:0:0:
256,192,241965,1,0,0:0:0:0:
256,192,242211,1,0,0:0:0:0:
256,192,242457,1,0,0:0:0:0:
256,192,242579,1,0,0:0:0:0:
256,192,242702,1,0,0:0:0:0:
256,192,242825,1,0,0:0:0:0:
256,192,243071,1,0,0:0:0:0:
256,192,243133,1,0,0:0:0:0:
256,192,243194,1,8,0:0:0:0:
256,192,243317,1,0,0:0:0:0:
256,192,243440,1,0,0:0:0:0:
256,192,243563,1,0,0:0:0:0:
256,192,243686,1,0,0:0:0:0:
256,192,243809,1,0,0:0:0:0:
256,192,243870,1,0,0:0:0:0:
256,192,243932,1,12,0:0:0:0:
256,192,244055,1,0,0:0:0:0:
256,192,244178,1,0,0:0:0:0:
256,192,244301,1,4,0:0:0:0:
256,192,244424,1,0,0:0:0:0:
256,192,244547,1,0,0:0:0:0:
256,192,244670,1,12,0:0:0:0:
256,192,244793,1,0,0:0:0:0:
256,192,244916,1,0,0:0:0:0:
256,192,245038,1,4,0:0:0:0:
256,192,245161,1,0,0:0:0:0:
256,192,245284,1,0,0:0:0:0:
256,192,245407,1,12,0:0:0:0:
256,192,245530,1,0,0:0:0:0:
256,192,245592,1,0,0:0:0:0:
256,192,245653,1,8,0:0:0:0:
256,192,245715,1,8,0:0:0:0:
256,192,245776,1,8,0:0:0:0:
256,192,245899,1,4,0:0:0:0:
256,192,246145,1,8,0:0:0:0:
256,192,246309,1,0,0:0:0:0:
256,192,246391,1,8,0:0:0:0:
256,192,246473,1,8,0:0:0:0:
256,192,246555,1,0,0:0:0:0:
256,192,246637,1,8,0:0:0:0:
256,192,246760,1,0,0:0:0:0:
256,192,246883,1,8,0:0:0:0:
256,192,246965,1,8,0:0:0:0:
256,192,247047,1,8,0:0:0:0:
256,192,247129,1,0,0:0:0:0:
256,192,247252,1,0,0:0:0:0:
256,192,247375,1,8,0:0:0:0:
256,192,247457,1,8,0:0:0:0:
256,192,247538,1,8,0:0:0:0:
256,192,247620,1,0,0:0:0:0:
256,192,247743,1,0,0:0:0:0:
256,192,247866,1,8,0:0:0:0:
256,192,247989,1,0,0:0:0:0:
256,192,248112,1,8,0:0:0:0:
256,192,248235,1,8,0:0:0:0:
256,192,248358,1,0,0:0:0:0:
256,192,248481,1,0,0:0:0:0:
256,192,248604,1,8,0:0:0:0:
256,192,248727,1,8,0:0:0:0:
256,192,248850,1,0,0:0:0:0:
256,192,248973,1,0,0:0:0:0:
256,192,249096,1,8,0:0:0:0:
256,192,249219,1,8,0:0:0:0:
256,192,249342,1,0,0:0:0:0:
256,192,249424,1,0,0:0:0:0:
256,192,249506,1,0,0:0:0:0:
256,192,249588,1,12,0:0:0:0:
256,192,249834,1,4,0:0:0:0:
256,192,250079,1,8,0:0:0:0:
256,192,250202,1,0,0:0:0:0:
256,192,250325,1,8,0:0:0:0:
256,192,250407,1,8,0:0:0:0:
256,192,250489,1,0,0:0:0:0:
256,192,250571,1,8,0:0:0:0:
256,192,250694,1,0,0:0:0:0:
256,192,250817,1,8,0:0:0:0:
256,192,250899,1,8,0:0:0:0:
256,192,250981,1,0,0:0:0:0:
256,192,251063,1,8,0:0:0:0:
256,192,251186,1,0,0:0:0:0:
256,192,251309,1,8,0:0:0:0:
256,192,251370,1,8,0:0:0:0:
256,192,251432,1,8,0:0:0:0:
256,192,251555,1,8,0:0:0:0:
256,192,251678,1,0,0:0:0:0:
256,192,251801,1,8,0:0:0:0:
256,192,252047,1,8,0:0:0:0:
256,192,252170,1,0,0:0:0:0:
256,192,252293,1,8,0:0:0:0:
256,192,252354,1,8,0:0:0:0:
256,192,252416,1,0,0:0:0:0:
256,192,252538,1,8,0:0:0:0:
256,192,252661,1,0,0:0:0:0:
256,192,252784,1,8,0:0:0:0:
256,192,253030,1,8,0:0:0:0:
256,192,253153,1,0,0:0:0:0:
256,192,253276,1,0,0:0:0:0:
256,192,253399,1,8,0:0:0:0:
256,192,253522,1,8,0:0:0:0:
256,192,253645,1,8,0:0:0:0:
256,192,253768,1,4,0:0:0:0:
256,192,253891,1,8,0:0:0:0:
256,192,253953,1,8,0:0:0:0:
256,192,254014,1,8,0:0:0:0:
256,192,254137,1,0,0:0:0:0:
256,192,254260,1,8,0:0:0:0:
256,192,254321,1,8,0:0:0:0:
256,192,254383,1,0,0:0:0:0:
256,192,254444,1,0,0:0:0:0:
256,192,254506,1,8,0:0:0:0:
256,192,254629,1,0,0:0:0:0:
256,192,254752,1,8,0:0:0:0:
256,192,254813,1,8,0:0:0:0:
256,192,254875,1,8,0:0:0:0:
256,192,254998,1,0,0:0:0:0:
256,192,255121,1,8,0:0:0:0:
256,192,255182,1,8,0:0:0:0:
256,192,255244,1,8,0:0:0:0:
256,192,255366,1,0,0:0:0:0:
256,192,255489,1,8,0:0:0:0:
256,192,255551,1,8,0:0:0:0:
256,192,255612,1,8,0:0:0:0:
256,192,255735,1,0,0:0:0:0:
256,192,255858,1,0,0:0:0:0:
256,192,255981,1,8,0:0:0:0:
256,192,256043,1,8,0:0:0:0:
256,192,256104,1,0,0:0:0:0:
256,192,256227,1,0,0:0:0:0:
256,192,256350,1,8,0:0:0:0:
256,192,256411,1,8,0:0:0:0:
256,192,256473,1,0,0:0:0:0:
256,192,256596,1,0,0:0:0:0:
256,192,256719,1,8,0:0:0:0:
256,192,256780,1,8,0:0:0:0:
256,192,256842,1,0,0:0:0:0:
256,192,256965,1,8,0:0:0:0:
256,192,257088,1,0,0:0:0:0:
256,192,257211,1,0,0:0:0:0:
256,192,257334,1,12,0:0:0:0:
256,192,257579,1,4,0:0:0:0:
256,192,257825,1,0,0:0:0:0:
256,192,257948,1,8,0:0:0:0:
256,192,258071,1,0,0:0:0:0:
256,192,258194,1,0,0:0:0:0:
256,192,258440,1,8,0:0:0:0:
256,192,258563,1,0,0:0:0:0:
256,192,258686,1,0,0:0:0:0:
256,192,258747,1,0,0:0:0:0:
256,192,258809,1,0,0:0:0:0:
256,192,258932,1,8,0:0:0:0:
256,192,259055,1,0,0:0:0:0:
256,192,259116,1,0,0:0:0:0:
256,192,259178,1,0,0:0:0:0:
256,192,259301,1,0,0:0:0:0:
256,192,259424,1,8,0:0:0:0:
256,192,259485,1,8,0:0:0:0:
256,192,259547,1,0,0:0:0:0:
256,192,259670,1,12,0:0:0:0:
256,192,259793,1,0,0:0:0:0:
256,192,259916,1,0,0:0:0:0:
256,192,260038,1,12,0:0:0:0:
256,192,260161,1,0,0:0:0:0:
256,192,260284,1,0,0:0:0:0:
256,192,260407,1,12,0:0:0:0:
256,192,260530,1,0,0:0:0:0:
256,192,260653,1,0,0:0:0:0:
256,192,260776,1,12,0:0:0:0:
256,192,260899,1,0,0:0:0:0:
256,192,261022,1,0,0:0:0:0:
256,192,261145,1,0,0:0:0:0:
256,192,261268,1,0,0:0:0:0:
256,192,261329,1,0,0:0:0:0:
256,192,261391,1,8,0:0:0:0:
256,192,261514,1,0,0:0:0:0:
256,192,261637,1,12,0:0:0:0:
256,192,261760,1,0,0:0:0:0:
256,192,261883,1,0,0:0:0:0:
256,192,262006,1,12,0:0:0:0:
256,192,262129,1,0,0:0:0:0:
256,192,262252,1,0,0:0:0:0:
256,192,262375,1,12,0:0:0:0:
256,192,262497,1,0,0:0:0:0:
256,192,262620,1,0,0:0:0:0:
256,192,262743,1,12,0:0:0:0:
256,192,262866,1,0,0:0:0:0:
256,192,262989,1,0,0:0:0:0:
256,192,263112,1,12,0:0:0:0:
256,192,263235,1,0,0:0:0:0:
256,192,263358,1,0,0:0:0:0:
256,192,263481,1,12,0:0:0:0:
