osu file format v14

[General]
AudioFilename: audio.mp3
AudioLeadIn: 0
PreviewTime: 68889
Countdown: 0
SampleSet: Soft
StackLeniency: 0.2
Mode: 0
LetterboxInBreaks: 0
WidescreenStoryboard: 1

[Editor]
DistanceSpacing: 1
BeatDivisor: 6
GridSize: 4
TimelineZoom: 2.2

[Metadata]
Title:FLYING OUT TO THE SKY (covered by Nanahira, moimoi, Nana Takahashi) (Cut Ver.)
TitleUnicode:FLYING OUT TO THE SKY (covered by ななひら, moimoi, Nana Takahashi) (Cut Ver.)
Artist:Camellia
ArtistUnicode:かめりあ
Creator:Ryuusei Aika
Version:PONBOT'S EXTRA
Source:SOUND VOLTEX II -infinite infection-
Tags:arphi arphimigon sorciere otosaka yu otosaka_yu suzuki_1112 astronic ponbot karen habiholic japanese metal rock video game kamelcamellia loli female vocal かめるかめりあ cametek 3leep KCCD-04 mayumi morinaga 森永真由美 c90 comiket cover vocaloid version zola project original song contest ii iii gravity wars iv heavenly haven SDVX すりーぷ! Confetto Sleep! BEMANI KONAMI ft. feat
BeatmapID:2728977
BeatmapSetID:1308842

[Difficulty]
HPDrainRate:5
CircleSize:4
OverallDifficulty:8.5
ApproachRate:9.4
SliderMultiplier:2
SliderTickRate:1

[Events]
//Background and Video events
0,0,"Hui Ji.jpg",0,0
//Break Periods
2,100582,105714
//Storyboard Layer 0 (Background)
//Storyboard Layer 1 (Fail)
//Storyboard Layer 2 (Pass)
//Storyboard Layer 3 (Foreground)
//Storyboard Layer 4 (Overlay)
//Storyboard Sound Samples

[TimingPoints]
-2896,245.901639344262,4,2,1,75,1,0
4972,-133.333333333333,4,2,1,75,0,0
8415,-333.333333333333,4,2,1,75,0,0
8907,-133.333333333333,4,2,1,75,0,0
20710,-100,4,2,1,75,0,0
64972,-83.3333333333333,4,2,1,75,0,0
68415,-166.666666666667,4,2,1,75,0,0
68907,-76.9230769230769,4,2,1,75,0,0
84644,-83.3333333333333,4,2,1,75,0,1
100382,-83.3333333333333,4,2,1,75,0,0
118087,-100,4,2,1,75,0,0
130259,-83.3333333333333,4,2,1,75,0,0
130628,-71.4285714285714,4,2,1,75,0,0
130997,-62.5,4,2,1,75,0,0
131858,-66.6666666666667,4,2,1,75,0,0

[Colours]
Combo1 : 64,159,255
Combo2 : 255,255,128

[HitObjects]
48,116,915,5,0,0:0:0:0:
48,116,976,1,0,0:0:0:0:
48,116,1038,1,0,1:0:0:0:
132,100,1161,2,0,P|128:124|125:149,2,50,8|8|8,0:0|0:0|0:0,0:0:0:0:
116,272,1407,1,0,1:0:0:0:
200,288,1530,2,0,P|196:263|193:238,2,50,8|8|8,0:0|0:0|0:0,0:0:0:0:
216,108,1776,1,0,1:0:0:0:
300,92,1899,2,0,P|296:116|293:141,2,50,8|8|8,0:0|0:0|0:0,0:0:0:0:
284,280,2144,1,0,1:0:0:0:
368,296,2267,2,0,P|364:271|361:246,2,50,8|8|8,0:0|0:0|0:0,0:0:0:0:
480,160,2513,6,0,P|431:153|368:148,1,100,12|0,0:0|0:0,0:0:0:0:
476,136,2759,2,0,P|428:150|369:172,1,100,12|0,0:0|0:0,0:0:0:0:
292,168,3005,5,0,1:0:0:0:
361,246,3128,2,0,L|356:300,2,50,8|8|8,0:0|0:0|0:0,0:0:0:0:
276,176,3374,1,0,1:0:0:0:
345,98,3497,2,0,L|340:44,2,50,8|8|8,0:0|0:0|0:0,0:0:0:0:
260,168,3743,1,0,1:0:0:0:
356,295,3866,2,0,L|314:329,2,50,8|8|8,0:0|0:0|0:0,0:0:0:0:
244,180,4112,1,4,1:2:0:0:
340,48,4235,2,0,L|298:13,2,50,8|8|8,0:0|0:0|0:0,0:0:0:0:
228,168,4481,5,4,1:2:0:0:
156,156,4563,1,0,0:0:0:0:
104,212,4644,1,0,0:0:0:0:
148,200,4726,5,0,1:0:0:0:
116,168,4808,1,0,0:0:0:0:
72,180,4890,1,0,0:0:0:0:
96,188,4972,6,0,P|56:128|-16:120,1,150.000005722046,4|0,0:0|1:0,0:0:0:0:
116,268,5341,2,0,P|187:263|230:205,1,150.000005722046,4|0,0:0|1:0,0:0:0:0:
36,252,5710,2,0,P|4:316|33:382,1,150.000005722046,4|0,0:0|1:0,0:0:0:0:
311,220,6079,6,0,P|342:155|313:89,1,150.000005722046,4|0,0:0|1:0,0:0:0:0:
251,284,6448,2,0,P|291:344|363:352,1,150.000005722046,4|0,0:0|1:0,0:0:0:0:
231,204,6817,6,0,B|156:204|116:268|116:268|168:216|174:142|174:142|180:32|8:32|68:212|180:136|180:136|240:96|300:108|300:108|388:128|356:216|260:192|304:64,1,900.000034332277,4|0,2:0|1:0,2:0:0:0:
352,13,8415,6,0,B|394:6|394:6|399:7|399:7|440:0,1,89.9999972534181,10|2,0:0|0:0,0:0:0:0:
512,88,8907,6,0,B|476:128|476:128|488:232,1,150.000005722046,4|0,0:0|1:0,0:0:0:0:
368,276,9276,2,0,B|404:236|404:236|392:132,1,150.000005722046,4|0,0:0|1:0,0:0:0:0:
257,115,9644,6,0,B|297:151|297:151|401:139,1,150.000005722046,4|0,0:0|1:0,0:0:0:0:
445,259,10013,2,0,B|405:223|405:223|301:235,1,150.000005722046,4|0,0:0|1:0,0:0:0:0:
284,370,10382,6,0,B|320:330|320:330|308:226,1,150.000005722046,4|0,0:0|1:0,0:0:0:0:
428,182,10751,2,0,B|392:222|392:222|403:318|403:318|304:290|304:290|292:196|292:196|261:205|261:205|257:202|257:202|255:207|255:207|211:221|211:221|219:283|219:283|186:275|186:275|183:278|183:278|180:274|180:274|142:266|142:266|137:236,1,600.000022888185,4|0,0:0|0:0,0:0:0:0:
66,228,11858,2,0,L|155:251,1,75.0000028610231,8|0,0:0|0:0,0:0:0:0:
50,132,12103,2,0,L|139:155,1,75.0000028610231,8|0,0:0|1:0,0:0:0:0:
127,156,12288,1,0,0:0:0:0:
134,163,12349,2,0,L|128:110,3,37.5000014305115,8|0|0|0,0:0|0:0|1:0|1:0,0:0:0:0:
202,106,12595,2,0,L|113:129,1,75.0000028610231,12|0,0:0|0:0,0:0:0:0:
260,36,12841,5,4,0:0:0:0:
288,92,12964,1,0,1:0:0:0:
316,148,13087,1,0,1:0:0:0:
358,55,13210,5,4,0:0:0:0:
333,105,13333,1,0,1:0:0:0:
308,156,13456,1,0,1:0:0:0:
351,47,13579,5,4,0:0:0:0:
373,93,13702,1,0,1:0:0:0:
396,138,13825,1,0,1:0:0:0:
437,71,13948,5,4,0:0:0:0:
416,111,14071,1,0,1:0:0:0:
396,153,14194,1,0,1:0:0:0:
432,64,14317,5,4,0:0:0:0:
450,100,14440,1,0,1:0:0:0:
468,137,14563,1,0,1:0:0:0:
260,36,14685,6,0,B|196:96|124:64|124:64|56:32|-20:64|12:156|84:136|84:136|156:116|180:176|148:216|96:200|96:200|40:180|28:220,1,600.000022888185,4|0,0:0|1:0,0:0:0:0:
34,206,15792,2,0,L|48:280,1,75.0000028610231,10|0,0:0|0:0,0:0:0:0:
188,176,16038,2,0,L|180:224,1,37.5000014305115,0|0,1:0|0:0,0:0:0:0:
176,252,16161,2,0,L|168:300,1,37.5000014305115,10|0,0:0|0:0,0:0:0:0:
360,232,16284,2,0,L|270:354,1,150.000005722046,0|0,1:0|1:0,0:0:0:0:
271,353,16591,1,0,0:0:0:0:
271,353,16653,1,0,1:0:0:0:
271,353,16714,1,0,0:0:0:0:
271,353,16776,5,4,0:0:0:0:
416,384,16899,2,0,L|396:352,2,37.5000014305115,0|0|0,1:0|1:0|1:0,0:0:0:0:
508,296,17144,1,4,0:0:0:0:
512,288,17267,2,0,L|475:279,2,37.5000014305115,0|0|0,1:0|1:0|1:0,0:0:0:0:
508,144,17513,1,4,0:0:0:0:
512,152,17636,2,0,L|480:172,2,37.5000014305115,0|0|0,1:0|1:0|1:0,0:0:0:0:
288,20,17882,1,4,0:0:0:0:
415,55,18005,2,0,L|406:91,2,37.5000014305115,0|0|0,1:0|1:0|1:0,0:0:0:0:
204,56,18251,5,4,0:0:0:0:
224,168,18374,1,0,1:0:0:0:
312,96,18497,1,0,1:0:0:0:
120,128,18620,6,0,B|144:236|28:328|28:328|128:220|228:276|228:276|216:320|248:364|304:356|320:332|320:332|308:336|288:336,1,637.500024318696,4|0,0:0|0:0,0:0:0:0:
290,335,19726,5,0,1:0:0:0:
420,316,19849,1,8,0:0:0:0:
420,316,19911,1,8,0:0:0:0:
420,316,19972,1,8,0:0:0:0:
456,220,20095,1,0,1:0:0:0:
326,201,20218,5,12,0:0:0:0:
512,296,20464,5,12,0:0:0:0:
290,105,20710,6,0,P|216:124|84:140,1,200,4|8,0:0|0:0,0:0:0:0:
136,52,21079,1,0,0:0:0:0:
236,204,21202,2,0,P|304:212|360:216,1,100,0|0,1:0|1:0,0:0:0:0:
404,160,21448,1,8,0:0:0:0:
320,352,21571,6,0,P|307:256|221:215,1,200
132,164,21940,2,0,P|88:208|84:252,1,100,8|0,0:0|0:0,0:0:0:0:
44,320,22185,1,0,1:0:0:0:
48,328,22308,1,0,1:0:0:0:
152,384,22431,1,8,0:0:0:0:
156,376,22554,1,0,0:0:0:0:
244,300,22677,6,0,P|304:284|388:276,1,100,0|0,1:0|1:0,0:0:0:0:
508,368,22923,2,0,P|458:359|410:346,1,100,8|0,0:0|0:0,0:0:0:0:
416,78,23169,2,0,P|456:167|435:263,1,200,0|8,1:0|0:0,0:0:0:0:
435,263,23538,1,0,0:0:0:0:
224,140,23661,6,0,P|273:143|323:150,1,100,0|0,1:0|1:0,0:0:0:0:
152,80,23907,1,8,0:0:0:0:
264,52,24030,2,0,B|299:98|284:200|221:231,1,200,0|0,0:0|1:0,0:0:0:0:
188,336,24399,2,0,P|128:336|84:308,1,100,12|0,0:0|0:0,0:0:0:0:
0,200,24644,6,0,P|64:192|108:188,1,100,4|0,0:0|1:0,0:0:0:0:
224,240,24890,2,0,P|288:248|332:252,1,100,8|0,0:0|0:0,0:0:0:0:
452,96,25136,1,0,1:0:0:0:
443,169,25259,1,0,1:0:0:0:
368,161,25382,1,8,0:0:0:0:
378,87,25505,1,0,0:0:0:0:
512,140,25628,5,0,1:0:0:0:
508,144,25751,1,0,0:0:0:0:
400,236,25874,1,8,0:0:0:0:
404,240,25997,1,0,0:0:0:0:
304,116,26120,1,0,1:0:0:0:
300,120,26243,1,0,1:0:0:0:
420,20,26366,1,8,0:0:0:0:
424,24,26489,1,0,0:0:0:0:
512,240,26612,6,0,P|452:244|392:252,1,100,0|0,1:0|1:0,0:0:0:0:
296,116,26858,2,0,P|236:112|176:104,1,100,8|0,0:0|0:0,0:0:0:0:
136,176,27103,5,0,1:0:0:0:
204,248,27226,2,0,P|128:264|76:288,1,100,0|8,1:0|0:0,0:0:0:0:
60,136,27472,1,0,0:0:0:0:
196,107,27595,2,0,P|144:88|80:52,1,100,0|0,1:0|1:0,0:0:0:0:
16,240,27841,1,8,0:0:0:0:
107,272,27964,2,0,P|72:328|56:368,1,100,0|0,0:0|1:0,0:0:0:0:
20,52,28210,5,10,0:0:0:0:
184,16,28333,1,10,0:0:0:0:
136,176,28456,1,10,0:0:0:0:
112,84,28579,6,0,P|176:100|332:108,1,200,4|8,0:0|0:0,0:0:0:0:
408,92,28948,1,0,0:0:0:0:
304,220,29071,1,0,1:0:0:0:
420,208,29194,2,0,P|370:216|323:231,1,100,0|8,1:0|0:0,0:0:0:0:
224,192,29440,1,0,0:0:0:0:
244,380,29563,6,0,P|248:308|244:252,2,100,0|0|8,1:0|1:0|0:0,0:0:0:0:
500,172,29931,2,0,P|496:244|500:300,2,100,0|0|0,0:0|1:0|1:0,0:0:0:0:
332,328,30300,2,0,P|392:324|456:328,1,100,8|0,0:0|0:0,0:0:0:0:
179,256,30546,2,0,P|81:272|-14:248,1,200,0|8,1:0|0:0,0:0:0:0:
52,188,30915,1,0,0:0:0:0:
184,340,31038,1,0,1:0:0:0:
344,208,31161,1,0,1:0:0:0:
260,104,31284,2,0,P|256:153|255:203,1,100,8|0,0:0|0:0,0:0:0:0:
280,308,31530,5,0,1:0:0:0:
368,328,31653,1,0,1:0:0:0:
268,320,31776,1,8,0:0:0:0:
432,188,31899,5,0,0:0:0:0:
344,208,32022,1,0,1:0:0:0:
444,200,32144,6,0,P|472:236|492:268,1,50,10|0,0:0|0:0,0:0:0:0:
444,200,32390,6,0,P|488:116|420:56,1,200,4|0,0:0|0:0,0:0:0:0:
344,208,32759,2,0,B|292:216|292:216|245:206,1,100,8|0,0:0|0:0,0:0:0:0:
164,96,33005,1,0,1:0:0:0:
264,112,33128,1,0,1:0:0:0:
152,196,33251,2,0,L|48:204,1,100,8|0,0:0|0:0,0:0:0:0:
0,299,33497,6,0,P|97:304|162:377,1,200,0|8,1:0|0:0,0:0:0:0:
304,248,33866,2,0,B|256:264|256:264|208:248,1,100,0|0,0:0|1:0,0:0:0:0:
380,336,34112,1,0,1:0:0:0:
460,264,34235,5,8,0:0:0:0:
468,216,34296,1,0,1:0:0:0:
448,180,34358,1,0,1:0:0:0:
420,172,34419,1,0,1:0:0:0:
408,176,34481,6,0,L|392:240,1,50,4|0,0:0|0:0,0:0:0:0:
392,180,34849,6,0,L|365:240,1,50,4|0,0:0|0:0,0:0:0:0:
375,181,35218,6,0,L|338:235,1,50,4|0,0:0|0:0,0:0:0:0:
358,179,35587,6,0,L|312:226,1,50,4|0,0:0|0:0,0:0:0:0:
342,174,35956,5,0,1:0:0:0:
331,181,36017,1,0,0:0:0:0:
321,188,36079,1,0,1:0:0:0:
311,196,36140,1,0,0:0:0:0:
301,203,36202,1,10,0:0:0:0:
380,80,36448,5,2,1:2:0:0:
256,16,36571,1,8,0:0:0:0:
256,16,36632,1,8,0:0:0:0:
256,16,36694,1,8,0:0:0:0:
132,80,36817,1,8,0:0:0:0:
256,228,36940,1,8,0:0:0:0:
300,152,37063,1,8,0:0:0:0:
212,152,37185,1,4,3:0:0:0:
204,144,37431,6,0,P|200:193|202:243,1,100,4|0,0:0|0:0,0:0:0:0:
132,308,37677,2,0,P|168:356|220:352,1,100,8|0,0:0|0:0,0:0:0:0:
416,360,37923,2,0,P|365:280|273:301,1,200,2|10,1:2|0:0,0:0:0:0:
284,312,38292,2,0,P|287:262|285:212,1,100,2|0,0:0|1:0,0:0:0:0:
408,152,38538,2,0,P|404:201|406:251,1,100,2|8,1:2|0:0,0:0:0:0:
148,100,38784,2,0,P|241:128|328:84,1,200,2|2,0:0|1:2,0:0:0:0:
248,32,39153,1,10,0:0:0:0:
285,212,39276,1,2,0:0:0:0:
408,152,39399,5,2,1:2:0:0:
320,128,39522,1,2,1:2:0:0:
224,268,39644,1,10,0:0:0:0:
368,224,39767,1,2,0:0:0:0:
188,136,39890,1,2,1:2:0:0:
108,211,40013,2,0,P|108:161|104:112,1,100,2|8,1:2|0:0,0:0:0:0:
0,240,40259,6,0,P|100:248|152:336,1,200,2|2,0:0|1:2,0:0:0:0:
100,384,40628,1,8,0:0:0:0:
236,364,40751,2,0,P|236:276|248:176,1,150,2|0,0:0|0:0,0:0:0:0:
252,168,40997,1,2,1:2:0:0:
328,328,41120,2,0,P|328:272|336:220,1,100,8|0,0:0|0:0,0:0:0:0:
432,140,41366,5,2,1:2:0:0:
436,144,41489,1,2,1:2:0:0:
332,60,41612,5,10,0:0:0:0:
328,64,41735,1,2,0:0:0:0:
248,164,41858,5,2,1:2:0:0:
252,168,41981,1,2,1:2:0:0:
148,36,42103,5,10,0:0:0:0:
144,40,42226,1,2,0:0:0:0:
64,188,42349,6,0,P|160:192|268:220,1,200,2|10,1:2|0:0,0:0:0:0:
4,120,42718,1,2,0:0:0:0:
0,128,42964,1,0,1:0:0:0:
92,0,43087,2,0,P|88:60|92:112,1,100,10|0,0:0|0:0,0:0:0:0:
296,296,43333,6,0,P|337:269|346:221,1,100,2|0,1:2|0:0,0:0:0:0:
202,159,43579,2,0,P|176:200|188:248,1,100,10|0,0:0|0:0,0:0:0:0:
212,328,43825,1,2,1:2:0:0:
216,332,43948,1,2,1:2:0:0:
296,140,44071,1,10,0:0:0:0:
292,144,44194,1,2,0:0:0:0:
264,216,44317,5,2,1:2:0:0:
236,76,44440,1,2,1:2:0:0:
260,228,44563,5,10,0:0:0:0:
384,140,44685,1,0,0:0:0:0:
202,159,44808,5,2,1:2:0:0:
346,221,44931,1,8,0:0:0:0:
328,64,45054,1,8,0:0:0:0:
202,159,45177,1,8,0:0:0:0:
384,140,45300,6,0,P|433:144|483:140,1,100,4|0,0:0|0:0,0:0:0:0:
260,228,45546,2,0,P|210:232|160:228,1,100,10|0,0:0|0:0,0:0:0:0:
68,32,45792,2,0,P|117:27|167:31,1,100,2|2,1:2|1:2,0:0:0:0:
272,104,46038,1,10,0:0:0:0:
192,128,46161,6,0,P|76:136|-20:128,2,200,2|2|2,0:0|1:2|0:0,0:0:0:0:
88,96,46776,1,0,0:0:0:0:
40,240,46899,1,2,1:2:0:0:
188,208,47022,2,0,P|184:284|192:328,1,100,8|2,0:0|0:0,0:0:0:0:
360,384,47267,5,2,1:2:0:0:
420,331,47390,1,2,1:2:0:0:
437,252,47513,1,10,0:0:0:0:
409,176,47636,1,2,0:0:0:0:
337,139,47759,1,2,1:2:0:0:
257,149,47882,2,0,P|246:201|271:263,1,100,2|8,1:2|0:0,0:0:0:0:
467,238,48128,6,0,P|485:162|438:48,2,200,2|2|2,0:0|1:2|0:0,0:0:0:0:
394,184,48743,1,0,1:0:0:0:
321,236,48866,1,2,1:2:0:0:
241,123,48989,2,0,P|188:128|141:129,1,100,8|0,0:0|0:0,0:0:0:0:
64,176,49235,5,2,1:2:0:0:
128,116,49358,1,2,1:2:0:0:
172,292,49481,1,10,0:0:0:0:
88,266,49603,1,2,0:0:0:0:
218,140,49726,1,2,1:2:0:0:
236,224,49849,1,2,1:2:0:0:
152,204,49972,1,10,0:0:0:0:
148,196,50095,1,2,0:0:0:0:
320,160,50218,6,0,P|315:205|312:264,2,100,2|2|10,1:2|1:2|0:0,0:0:0:0:
476,204,50587,2,0,P|448:152|524:44,1,200,2|0,0:0|1:2,0:0:0:0:
496,228,50956,2,0,P|447:216|398:208,1,100,10|2,0:0|0:0,0:0:0:0:
304,36,51202,5,2,1:2:0:0:
232,108,51325,1,2,1:2:0:0:
180,20,51448,1,10,0:0:0:0:
108,92,51571,1,2,0:0:0:0:
60,8,51694,1,2,1:2:0:0:
63,12,51817,2,0,P|26:43|13:91,1,100,2|8,1:2|0:0,0:0:0:0:
159,207,52063,6,0,P|63:200|0:272,1,200,2|8,0:0|0:0,0:0:0:0:
0,272,52370,1,8,0:0:0:0:
0,272,52431,1,8,0:0:0:0:
64,368,52554,1,0,1:0:0:0:
196,280,52677,5,8,0:0:0:0:
200,284,52800,1,8,0:0:0:0:
320,352,52923,1,8,3:0:0:0:
316,356,53046,1,4,3:0:0:0:
452,268,53169,5,4,0:0:0:0:
456,272,53415,2,0,P|460:208|472:136,1,100,10|0,0:0|0:0,0:0:0:0:
300,40,53661,2,0,P|306:89|308:139,1,100,2|0,1:2|1:0,0:0:0:0:
204,292,53907,2,0,P|183:231|153:164,1,100,8|0,0:0|0:0,0:0:0:0:
32,112,54153,5,2,1:2:0:0:
104,160,54276,2,0,P|154:163|201:145,1,100,2|8,1:2|0:0,0:0:0:0:
184,28,54522,2,0,P|133:24|86:42,1,100,2|0,0:0|1:0,0:0:0:0:
260,76,54767,1,0,1:0:0:0:
256,80,54890,2,0,L|380:60,1,100,8|0,0:0|0:0,0:0:0:0:
448,48,55136,6,0,P|500:108|484:176,1,150,0|0,1:0|0:0,0:0:0:0:
488,196,55382,2,0,L|389:211,1,100,10|0,0:0|0:0,0:0:0:0:
232,344,55628,2,0,P|210:299|219:251,1,100,2|0,1:2|1:0,0:0:0:0:
388,295,55874,2,0,P|371:341|330:368,1,100,8|0,0:0|0:0,0:0:0:0:
296,196,56120,5,2,1:2:0:0:
288,204,56243,2,0,P|238:212|189:217,1,100,2|8,1:2|0:0,0:0:0:0:
64,344,56489,2,0,P|88:288|88:212,1,100,2|0,0:0|1:0,0:0:0:0:
204,196,56735,2,0,P|187:149|157:109,1,100,2|8,1:2|0:0,0:0:0:0:
80,96,56981,1,0,0:0:0:0:
13,211,57103,6,0,B|50:236|94:210|108:169|101:163|93:151|117:111|150:102|182:110,1,200,2|8,1:2|0:0,0:0:0:0:
294,210,57472,2,0,B|242:222|242:222|202:194,1,100,2|0,0:0|1:0,0:0:0:0:
168,108,57718,1,0,1:0:0:0:
332,32,57841,2,0,P|259:98|248:195,2,200,10|0|10,0:0|1:0|0:0,0:0:0:0:
352,124,58456,1,0,0:0:0:0:
436,80,58579,5,2,1:2:0:0:
392,256,58702,1,0,1:0:0:0:
476,211,58825,2,0,P|432:232|380:248,1,100,10|0,0:0|0:0,0:0:0:0:
348,368,59071,6,0,P|257:327|158:308,1,200,2|8,1:2|0:0,0:0:0:0:
292,296,59440,1,0,0:0:0:0:
296,300,59563,2,0,P|257:332|214:356,1,100,2|0,1:2|1:0,0:0:0:0:
100,380,59808,2,0,P|50:376|2:362,1,100,10|0,0:0|0:0,0:0:0:0:
144,160,60054,5,8,0:0:0:0:
68,288,60177,1,8,0:0:0:0:
16,224,60300,5,0,1:0:0:0:
212,280,60423,1,8,0:0:0:0:
88,276,60546,5,12,0:0:0:0:
272,216,60792,5,12,0:0:0:0:
60,136,61038,6,0,P|109:128|157:113,1,100,4|0,0:0|0:0,0:0:0:0:
369,193,61284,2,0,P|321:207|271:215,1,100,10|0,0:0|0:0,0:0:0:0:
456,132,61530,2,0,P|463:181|478:229,1,100,0|0,1:2|1:0,0:0:0:0:
294,311,61776,2,0,P|279:263|271:213,1,100,10|0,0:0|0:0,0:0:0:0:
344,104,62022,5,2,1:2:0:0:
396,284,62144,2,0,P|440:316|488:328,1,100,2|10,1:2|0:0,0:0:0:0:
176,188,62390,2,0,P|272:190|331:114,1,200,2|0,1:2|1:0,0:0:0:0:
104,128,62759,2,0,P|84:168|88:224,1,100,8|0,0:0|0:0,0:0:0:0:
108,356,63005,6,0,B|184:372|184:372|220:344|220:344|300:356,1,200,0|10,1:0|0:0,0:0:0:0:
416,280,63374,1,0,0:0:0:0:
500,384,63497,2,0,P|504:336|516:272,1,100,2|0,1:2|1:0,0:0:0:0:
440,176,63743,2,0,P|444:128|456:64,1,100,10|0,0:0|0:0,0:0:0:0:
312,264,63989,5,2,1:2:0:0:
364,116,64112,2,0,P|288:132|228:140,1,100,2|8,1:2|0:0,0:0:0:0:
152,36,64358,1,2,1:2:0:0:
52,116,64481,1,10,0:0:0:0:
24,116,64542,1,8,0:0:0:0:
0,100,64603,1,8,0:0:0:0:
132,204,64726,1,8,3:0:0:0:
136,208,64849,1,0,1:0:0:0:
296,76,64972,6,0,B|328:128|287:189|175:199|190:179|200:160|94:153|44:196|68:260,3,359.999989013672,12|12|12|12,0:0|0:0|0:0|0:0,0:0:0:0:
24,344,66202,1,0,1:0:0:0:
28,348,66325,1,0,1:0:0:0:
156,312,66448,2,0,L|216:320,2,59.9999981689454,0|0|0,1:0|0:0|1:0,0:0:0:0:
60,188,66694,2,0,L|0:180,2,59.9999981689454,0|0|0,1:0|0:0|1:0,0:0:0:0:
296,76,66940,6,0,B|377:96|382:189|327:222|275:220|252:152|295:127,1,239.999992675781,12|0,0:0|1:0,0:0:0:0:
488,160,67308,2,0,P|356:136|120:116,2,359.999989013672,12|12|12,0:0|0:0|0:0,0:0:0:0:
360,228,68169,1,0,1:0:0:0:
488,76,68292,1,0,1:0:0:0:
427,285,68415,6,0,P|340:264|251:254,1,179.999994506836,12|0,0:0|0:0,0:0:0:0:
60,155,68907,6,0,P|44:276|153:330,1,259.999988098145,4|8,0:0|0:0,0:0:0:0:
250,253,69276,1,0,0:0:0:0:
148,176,69399,2,0,P|228:160|280:144,1,129.999994049073,2|2,1:3|1:2,0:0:0:0:
448,72,69644,1,10,0:0:0:0:
240,60,69767,1,0,0:0:0:0:
376,144,69890,6,0,B|380:180|352:200|352:200|368:88|312:4,1,259.999988098145,2|8,1:3|0:0,0:0:0:0:
308,0,70259,1,0,0:0:0:0:
234,66,70382,2,0,P|154:62|102:54,1,129.999994049073,2|0,1:3|1:2,0:0:0:0:
4,4,70628,1,10,0:0:0:0:
0,0,70751,1,2,0:0:0:0:
2,234,70874,6,0,P|111:178|106:56,1,259.999988098145,2|8,1:3|0:0,0:0:0:0:
24,104,71243,1,0,0:0:0:0:
216,160,71366,2,0,P|200:256|204:312,1,129.999994049073,2|2,1:3|1:2,0:0:0:0:
256,380,71612,1,10,0:0:0:0:
260,384,71735,1,2,0:0:0:0:
388,312,71858,6,0,B|324:272|252:328|296:348|224:400|156:360,2,259.999988098145,2|8|2,0:3|0:0|1:3,0:0:0:0:
436,160,72472,1,2,1:2:0:0:
201,288,72595,1,10,0:0:0:0:
216,160,72718,1,2,0:0:0:0:
32,296,72841,5,4,0:0:0:0:
36,300,73087,2,0,B|40:204|40:204|20:268,1,129.999994049073,10|2,0:0|0:0,0:0:0:0:
219,252,73333,2,0,B|208:261|208:261|28:236,1,194.999991073609,2|0,1:2|0:0,0:0:0:0:
12,244,73579,1,10,0:0:0:0:
144,120,73702,1,2,0:0:0:0:
144,120,73763,1,0,0:0:0:0:
144,120,73825,5,2,1:2:0:0:
216,160,73948,1,2,1:2:0:0:
296,136,74071,1,10,0:0:0:0:
328,60,74194,1,2,0:0:0:0:
220,20,74317,5,0,1:0:0:0:
223,113,74440,1,0,1:0:0:0:
223,207,74563,1,8,0:0:0:0:
219,300,74685,1,0,0:0:0:0:
128,356,74808,6,0,P|132:284|132:212,1,129.999994049073,0|2,1:0|1:2,0:0:0:0:
312,232,75054,2,0,P|308:304|308:376,1,129.999994049073,8|2,0:0|0:0,0:0:0:0:
392,308,75300,5,2,1:2:0:0:
228,200,75423,1,2,1:2:0:0:
216,304,75546,1,10,0:0:0:0:
399,204,75669,1,2,0:0:0:0:
308,240,75792,6,0,P|320:172|204:32,1,259.999988098145,2|10,1:2|0:0,0:0:0:0:
108,48,76161,1,2,0:0:0:0:
188,124,76284,5,0,1:0:0:0:
0,152,76407,1,8,1:2:0:0:
160,244,76530,1,8,0:0:0:0:
248,276,76653,1,8,0:0:0:0:
108,376,76776,6,0,P|132:268|76:120,1,259.999988098145,4|8,0:0|0:0,0:0:0:0:
32,244,77144,1,0,0:0:0:0:
188,124,77267,6,0,P|252:133|316:139,1,129.999994049073,2|2,1:3|1:2,0:0:0:0:
368,304,77513,1,10,0:0:0:0:
452,152,77636,1,2,0:0:0:0:
204,240,77759,6,0,B|240:280|292:260|292:260|320:216|396:196|448:260,1,259.999988098145,2|8,1:3|0:0,0:0:0:0:
440,252,78128,1,0,0:0:0:0:
332,188,78251,2,0,P|336:92|332:20,1,129.999994049073,2|2,1:3|1:2,0:0:0:0:
508,8,78497,1,10,0:0:0:0:
512,0,78620,1,2,0:0:0:0:
460,144,78743,6,0,B|280:148|380:88|208:92,1,259.999988098145,2|8,1:3|0:0,0:0:0:0:
88,136,79112,1,0,0:0:0:0:
32,36,79235,2,0,P|44:108|48:192,1,129.999994049073,2|2,1:3|1:2,0:0:0:0:
16,292,79481,1,10,0:0:0:0:
12,296,79603,1,2,0:0:0:0:
244,236,79726,6,0,B|188:264|180:344|180:344|160:268|100:248,2,259.999988098145,2|8|2,0:3|0:0|1:3,0:0:0:0:
164,160,80341,1,2,1:2:0:0:
284,332,80464,1,10,0:0:0:0:
336,224,80587,1,2,0:0:0:0:
464,332,80710,6,0,B|492:328|492:328|391:314,1,129.999994049073,4|0,0:0|1:0,0:0:0:0:
164,160,80956,2,0,P|186:218|246:237,1,129.999994049073,10|0,0:0|0:0,0:0:0:0:
296,48,81202,2,0,P|177:13|104:112,1,259.999988098145,2|10,1:2|0:0,0:0:0:0:
61,171,81571,1,2,0:0:0:0:
61,171,81632,1,0,0:0:0:0:
61,171,81694,5,2,1:2:0:0:
164,160,81817,1,2,1:2:0:0:
268,150,81940,1,10,0:0:0:0:
371,140,82063,1,2,0:0:0:0:
408,40,82185,5,0,1:0:0:0:
319,108,82308,1,0,1:0:0:0:
286,215,82431,1,8,0:0:0:0:
319,322,82554,1,0,0:0:0:0:
412,232,82677,6,0,P|420:196|388:148,2,86.6666626993817,8|0|0,0:0|1:0|1:0,0:0:0:0:
319,108,82923,2,0,P|287:89|231:104,2,86.6666626993817,0|0|0,1:0|1:0|1:0,0:0:0:0:
172,158,83169,5,8,0:0:0:0:
172,158,83251,2,0,P|144:182|142:240,1,86.6666626993817,0|0,1:0|1:0,0:0:0:0:
174,313,83415,1,0,1:0:0:0:
174,313,83497,2,0,P|188:346|242:366,1,86.6666626993817,0|0,1:0|1:0,0:0:0:0:
322,358,83661,5,12,0:0:0:0:
172,158,83784,1,12,0:0:0:0:
168,164,84030,2,0,P|293:165|440:148,1,259.999988098145,12|8,0:0|0:0,0:0:0:0:
512,104,84399,1,8,0:0:0:0:
416,244,84522,1,8,0:0:0:0:
512,0,84644,5,14,0:0:0:0:
230,265,84890,5,8,0:0:0:0:
179,206,85013,1,0,1:2:0:0:
332,177,85136,5,10,0:0:0:0:
307,250,85259,1,0,1:2:0:0:
204,133,85382,5,10,0:0:0:0:
281,118,85505,1,2,1:2:0:0:
278,306,85628,5,8,0:0:0:0:
167,268,85751,1,0,1:2:0:0:
344,115,85874,5,8,0:0:0:0:
366,230,85997,1,0,1:2:0:0:
145,153,86120,5,10,0:0:0:0:
233,77,86243,1,0,1:2:0:0:
256,192,86366,5,10,0:0:0:0:
256,192,86489,1,2,1:2:0:0:
311,38,86612,5,10,0:0:0:0:
250,202,86735,1,0,1:2:0:0:
417,163,86858,5,8,0:0:0:0:
244,192,86981,1,0,1:2:0:0:
361,317,87103,5,10,0:0:0:0:
250,181,87226,1,2,1:2:0:0:
200,345,87349,5,10,0:0:0:0:
262,181,87472,1,2,1:2:0:0:
99,221,87595,6,0,P|35:212|-34:205,1,119.999996337891,8|0,0:0|1:2,0:0:0:0:
220,80,87841,5,8,0:0:0:0:
233,77,87964,1,0,1:2:0:0:
48,16,88087,5,10,0:0:0:0:
8,128,88210,1,10,1:2:0:0:
160,44,88333,2,0,P|218:32|278:25,1,119.999996337891,14|10,0:0|1:2,0:0:0:0:
400,24,88579,5,12,0:0:0:0:
412,28,88702,1,0,1:0:0:0:
262,181,88825,2,0,P|305:219|363:210,1,119.999996337891,10|0,0:0|1:0,0:0:0:0:
456,128,89071,6,0,P|452:196|456:288,1,119.999996337891,10|2,0:0|1:2,0:0:0:0:
264,348,89317,1,10,0:0:0:0:
384,344,89440,1,2,1:2:0:0:
180,204,89563,5,10,0:0:0:0:
184,208,89685,1,2,1:2:0:0:
316,100,89808,2,0,P|314:159|308:219,1,119.999996337891,10|2,0:0|1:2,0:0:0:0:
152,312,90054,5,8,0:0:0:0:
0,204,90177,1,0,1:0:0:0:
144,128,90300,1,8,0:0:0:0:
232,84,90423,1,0,1:0:0:0:
56,4,90546,6,0,P|60:68|60:124,1,119.999996337891,8|2,0:0|1:2,0:0:0:0:
320,219,90792,2,0,P|316:155|316:99,1,119.999996337891,10|2,0:0|1:2,0:0:0:0:
184,0,91038,1,10,0:0:0:0:
188,216,91161,1,2,1:2:0:0:
392,88,91284,1,10,0:0:0:0:
400,84,91407,1,2,1:2:0:0:
188,80,91530,6,0,P|194:139|196:199,1,119.999996337891,10|0,0:0|0:0,0:0:0:0:
152,312,91776,1,10,0:0:0:0:
320,219,91899,1,2,1:2:0:0:
120,172,92022,5,0,0:0:0:0:
268,308,92144,1,10,0:0:0:0:
384,172,92267,1,8,0:0:0:0:
244,232,92390,1,8,0:0:0:0:
440,288,92513,5,12,0:0:0:0:
243,115,92759,5,8,0:0:0:0:
182,164,92882,1,0,1:0:0:0:
328,219,93005,5,10,0:0:0:0:
316,143,93128,1,0,1:0:0:0:
194,241,93251,5,10,0:0:0:0:
267,269,93374,1,2,1:2:0:0:
297,83,93497,5,8,0:0:0:0:
181,101,93620,1,0,1:0:0:0:
329,283,93743,5,8,0:0:0:0:
370,173,93866,1,0,1:0:0:0:
139,211,93989,5,10,0:0:0:0:
213,301,94112,1,0,1:0:0:0:
256,192,94235,5,10,0:0:0:0:
256,192,94358,1,2,1:2:0:0:
120,304,94481,6,0,P|60:298|0:295,1,119.999996337891,8|0,0:0|1:0,0:0:0:0:
61,109,94726,2,0,P|121:103|181:100,1,119.999996337891,8|0,0:0|1:0,0:0:0:0:
328,24,94972,1,10,0:0:0:0:
336,28,95095,1,2,1:2:0:0:
312,240,95218,2,0,P|308:156|312:108,1,119.999996337891,10|2,0:0|1:2,0:0:0:0:
472,52,95464,6,0,P|480:180|472:292,1,239.999992675781,8|8,0:0|0:0,0:0:0:0:
398,187,95833,1,0,1:0:0:0:
397,179,95894,1,0,0:0:0:0:
396,171,95956,5,10,0:0:0:0:
320,276,96079,1,2,1:2:0:0:
192,292,96202,2,0,P|191:202|184:117,1,119.999996337891,14|2,0:0|1:2,0:0:0:0:
84,104,96448,6,0,P|91:223|87:343,1,239.999992675781,12|10,0:0|0:0,0:0:0:0:
8,216,96817,1,2,1:2:0:0:
189,172,96940,1,10,0:0:0:0:
264,340,97063,1,2,1:2:0:0:
192,292,97185,1,10,0:0:0:0:
272,256,97308,1,2,1:2:0:0:
264,340,97431,6,0,P|323:334|383:332,1,119.999996337891,10|2,0:0|1:2,0:0:0:0:
448,188,97677,2,0,P|388:193|328:195,1,119.999996337891,10|2,0:0|1:2,0:0:0:0:
164,72,97923,2,0,B|260:64|346:32|346:32|331:60|336:92,1,239.999992675781,8|8,0:0|0:0,0:0:0:0:
412,74,98292,1,0,1:0:0:0:
314,6,98415,6,0,L|336:88,2,79.9999975585938,8|0|0,0:0|1:0|1:0,0:0:0:0:
184,149,98661,2,0,L|163:71,2,79.9999975585938,0|0|0,1:0|1:0|1:0,0:0:0:0:
328,195,98907,2,0,L|410:173,2,79.9999975585938,8|0|0,0:0|1:0|1:0,0:0:0:0:
192,292,99153,2,0,L|114:312,2,79.9999975585938,0|0|0,1:0|1:0|1:0,0:0:0:0:
404,368,99399,5,12,0:0:0:0:
412,372,99522,1,12,0:0:0:0:
264,112,99767,2,0,B|292:176|248:232|248:232|296:300|232:372,1,239.999992675781,12|0,0:0|1:0,0:0:0:0:
140,372,100095,5,0,1:0:0:0:
76,328,100177,5,0,1:0:0:0:
104,256,100259,5,0,1:0:0:0:
192,292,100382,5,12,0:0:0:0:
256,192,106284,5,0,0:0:0:0:
188,260,106407,1,0,1:0:0:0:
188,260,106468,1,0,1:0:0:0:
188,260,106530,1,8,0:0:0:0:
280,288,106653,1,8,0:0:0:0:
348,220,106776,5,0,1:0:0:0:
352,216,106899,1,0,1:0:0:0:
236,108,107022,5,8,0:0:0:0:
232,104,107145,1,8,0:0:0:0:
96,268,107267,5,0,1:0:0:0:
92,272,107390,1,0,1:0:0:0:
292,372,107513,5,8,0:0:0:0:
296,376,107636,1,8,0:0:0:0:
432,192,107759,5,0,1:0:0:0:
436,188,107882,1,0,1:0:0:0:
432,184,108005,1,8,0:0:0:0:
428,188,108128,1,8,0:0:0:0:
348,220,108251,5,4,0:0:0:0:
392,96,108497,1,2,1:2:0:0:
268,192,108743,1,0,1:0:0:0:
312,68,108866,1,8,3:0:0:0:
188,164,108989,1,0,1:0:0:0:
232,40,109112,1,0,0:0:0:0:
72,344,109235,5,8,3:0:0:0:
28,220,109358,1,0,1:0:0:0:
152,316,109481,1,2,1:2:0:0:
108,192,109726,1,0,1:0:0:0:
232,288,109849,1,0,1:0:0:0:
188,164,109972,1,8,3:0:0:0:
312,260,110095,1,0,1:0:0:0:
312,68,110218,5,8,3:0:0:0:
268,192,110464,1,2,1:2:0:0:
392,96,110710,1,0,1:0:0:0:
348,220,110833,1,0,1:0:0:0:
472,124,110956,1,8,3:0:0:0:
428,248,111079,1,0,1:0:0:0:
268,192,111202,5,8,3:0:0:0:
312,316,111325,1,0,0:0:0:0:
188,220,111448,1,0,1:0:0:0:
232,344,111693,1,8,3:0:0:0:
108,248,111816,1,0,1:0:0:0:
152,372,111939,1,0,1:0:0:0:
28,276,112062,1,0,1:0:0:0:
152,124,112185,5,8,3:0:0:0:
108,248,112431,1,0,1:0:0:0:
232,152,112677,1,0,1:0:0:0:
188,276,112800,1,8,3:0:0:0:
312,180,112923,1,0,1:0:0:0:
268,304,113046,1,0,1:0:0:0:
392,152,113169,5,0,0:0:0:0:
436,276,113292,1,0,0:0:0:0:
436,284,113353,1,0,1:0:0:0:
436,292,113415,1,12,0:0:0:0:
312,180,113538,1,0,1:0:0:0:
356,304,113661,1,0,1:0:0:0:
232,208,113784,1,8,3:0:0:0:
276,332,113907,1,0,1:0:0:0:
152,236,114030,1,0,1:0:0:0:
356,304,114153,5,4,0:0:0:0:
232,208,114276,2,0,L|212:128,2,59.9999981689454,0|0|0,1:0|1:0|1:0,0:0:0:0:
216,284,114522,5,4,0:0:0:0:
312,180,114644,2,0,L|332:100,2,59.9999981689454,0|0|0,1:0|1:0|1:0,0:0:0:0:
376,224,114890,5,4,0:0:0:0:
136,156,115013,2,0,L|100:96,2,59.9999981689454,0|0|0,1:0|1:0|1:0,0:0:0:0:
76,204,115259,5,12,0:0:0:0:
400,108,115382,2,0,L|436:48,2,59.9999981689454,0|0|0,1:0|1:0|1:0,0:0:0:0:
452,164,115628,5,4,0:0:0:0:
256,60,115751,2,0,L|256:-4,2,59.9999981689454,0|0|4,1:0|0:0|0:0,0:0:0:0:
184,92,115997,1,0,1:0:0:0:
323,126,116120,6,0,B|363:118|363:118|367:114|367:114|407:106,5,79.9999975585938,8|0|0|0|0|0,0:0|1:0|1:0|1:0|1:0|1:0,0:0:0:0:
224,216,116612,5,0,1:0:0:0:
196,273,116694,1,0,1:0:0:0:
213,331,116776,1,0,1:0:0:0:
257,354,116858,1,8,0:0:0:0:
303,343,116940,1,0,1:0:0:0:
325,303,117022,1,0,1:0:0:0:
320,212,117103,5,10,1:2:0:0:
312,220,117185,1,0,1:0:0:0:
352,212,117267,1,0,1:0:0:0:
392,204,117349,1,2,1:2:0:0:
432,196,117431,1,0,0:0:0:0:
476,168,117513,5,0,1:0:0:0:
467,216,117595,1,10,1:2:0:0:
458,264,117677,1,0,1:0:0:0:
451,311,117758,1,0,1:0:0:0:
445,358,117841,6,0,B|474:387|474:387|518:383,2,79.9999975585938,10|0|0,0:0|0:0|1:0,0:0:0:0:
356,384,118087,6,0,P|307:373|257:364,1,100,0|2,1:0|1:2,0:0:0:0:
164,220,118333,2,0,P|115:209|65:200,1,100,10|0,0:0|1:0,0:0:0:0:
411,96,118579,6,0,P|363:106|313:115,1,100,2|0,1:2|1:0,0:0:0:0:
119,344,118825,2,0,P|61:356|2:366,1,100,10|0,0:0|1:0,0:0:0:0:
360,228,119071,6,0,P|300:220|244:184,1,100,0|0,0:0|1:0,0:0:0:0:
64,116,119317,2,0,P|64:44|88:-8,1,100,8|0,0:0|0:0,0:0:0:0:
238,361,119563,5,0,1:0:0:0:
238,361,119644,2,0,P|215:331|206:291,1,66.6666666666667,0|0,1:0|1:0,0:0:0:0:
168,144,119808,1,2,1:2:0:0:
168,144,119890,2,0,P|199:112|232:100,1,66.6666666666667,2|2,1:2|1:2,0:0:0:0:
352,32,120054,6,0,L|431:40,5,66.6666666666667,2|0|0|10|0|0,1:2|1:2|1:2|0:0|1:0|1:0,0:0:0:0:
218,103,120546,2,0,L|151:96,2,66.6666666666667,2|0|0,1:2|1:0|1:0,0:0:0:0:
320,160,120792,2,0,L|386:153,2,66.6666666666667,10|0|0,0:0|1:0|1:0,0:0:0:0:
232,240,121038,1,0,1:0:0:0:
232,240,121120,2,0,L|165:246,1,66.6666666666667,0|0,1:0|1:0,0:0:0:0:
268,356,121284,1,10,0:0:0:0:
268,356,121366,2,0,L|334:362,1,66.6666666666667,0|0,1:0|1:0,0:0:0:0:
408,304,121530,6,0,B|352:264|288:296|320:328|252:368|184:312,1,200,0|10,1:2|0:0,0:0:0:0:
140,336,121899,1,2,0:0:0:0:
16,144,122022,6,0,L|2:243,1,100,0|0,1:0|0:0,0:0:0:0:
92,260,122267,2,0,L|105:160,1,100,10|0,0:0|0:0,0:0:0:0:
224,80,122513,6,0,L|237:179,1,100,2|0,1:2|0:0,0:0:0:0:
148,196,122759,2,0,L|134:96,1,100,10|0,0:0|0:0,0:0:0:0:
284,144,123005,6,0,L|270:243,1,100,2|0,1:2|1:0,0:0:0:0:
360,260,123251,2,0,L|373:160,1,100,10|0,0:0|0:0,0:0:0:0:
476,84,123497,5,0,1:0:0:0:
408,200,123620,1,8,0:0:0:0:
492,80,123743,2,0,L|505:179,1,100,10|10,0:0|0:0,0:0:0:0:
456,356,123989,5,12,0:0:0:0:
456,356,124050,1,0,1:0:0:0:
456,356,124112,2,0,L|344:340,1,100,0|2,1:0|1:2,0:0:0:0:
292,152,124358,5,0,1:0:0:0:
288,148,124419,1,0,1:0:0:0:
284,144,124481,2,0,L|172:128,1,100,2|0,1:2|1:0,0:0:0:0:
472,36,124726,5,10,0:0:0:0:
480,32,124787,1,0,1:0:0:0:
488,28,124849,2,0,L|376:44,1,100,0|2,1:0|1:2,0:0:0:0:
220,232,125095,5,0,1:0:0:0:
212,236,125156,1,0,1:0:0:0:
204,240,125218,2,0,L|92:256,1,100,0|0,1:0|1:0,0:0:0:0:
468,200,125464,5,2,1:2:0:0:
488,208,125525,1,0,1:0:0:0:
506,214,125587,2,0,L|394:198,1,100,0|2,1:0|1:2,0:0:0:0:
168,68,125833,5,0,1:0:0:0:
144,60,125894,1,0,0:0:0:0:
120,52,125956,1,2,1:2:0:0:
136,160,126079,1,0,1:0:0:0:
14,252,126202,5,2,1:2:0:0:
10,260,126263,1,0,1:0:0:0:
6,268,126325,2,0,P|70:260|114:252,1,100,0|2,1:0|1:2,0:0:0:0:
264,104,126571,5,0,1:0:0:0:
272,100,126632,1,0,1:0:0:0:
281,95,126694,2,0,P|342:114|385:126,1,100,2|2,1:2|1:2,0:0:0:0:
44,112,126940,5,2,1:2:0:0:
28,116,127001,1,0,1:0:0:0:
12,120,127063,2,0,P|76:128|120:136,1,100,0|10,0:0|0:0,0:0:0:0:
156,156,127247,1,0,0:0:0:0:
200,176,127308,1,0,0:0:0:0:
292,212,127431,1,8,0:0:0:0:
392,204,127554,1,12,0:0:0:0:
400,196,127800,6,0,P|312:220|216:296,1,200,4|0,0:0|0:0,0:0:0:0:
49,326,128169,2,0,P|9:298|13:251,1,100,10|0,0:0|0:0,0:0:0:0:
103,151,128415,2,0,L|204:177,1,100,0|0,1:0|1:0,0:0:0:0:
288,348,128661,2,0,L|412:332,1,100,10|0,0:0|0:0,0:0:0:0:
500,240,128907,6,0,P|496:152|448:116,1,150,2|0,1:2|0:0,0:0:0:0:
400,108,129153,1,10,0:0:0:0:
308,148,129276,1,2,1:2:0:0:
300,248,129399,2,0,P|260:260|203:272,1,100,0|0,0:0|1:0,0:0:0:0:
77,329,129644,1,8,0:0:0:0:
63,328,129706,1,8,3:0:0:0:
49,326,129767,1,8,3:0:0:0:
8,216,129890,6,0,L|0:166,5,50,12|0|0|0|0|0,0:0|1:0|1:0|1:0|1:0|1:0,0:0:0:0:
116,160,130259,6,0,L|108:220,5,59.9999981689454,10|0|0|0|0|0,0:0|1:0|1:0|1:0|1:0|1:0,0:0:0:0:
232,220,130628,6,0,L|221:146,5,69.9999978637696,12|0|0|0|0|0,0:0|1:0|1:0|1:0|1:0|1:0,0:0:0:0:
348,140,130997,6,0,L|336:219,5,80,12|0|0|0|0|0,0:0|1:0|1:0|1:0|1:0|1:0,0:0:0:0:
454,210,131366,5,10,0:0:0:0:
466,213,131427,1,0,1:0:0:0:
478,216,131489,1,0,1:0:0:0:
490,219,131550,1,0,1:0:0:0:
502,221,131612,1,8,0:0:0:0:
328,32,131858,6,0,P|282:90|277:164,1,150.000005722046,12|0,0:0|1:0,0:0:0:0:
224,236,132103,1,0,1:0:0:0:
456,276,132226,2,0,P|376:256|252:280,1,150.000005722046,12|0,0:0|1:0,0:0:0:0:
212,240,132472,1,0,0:0:0:0:
32,100,132595,2,0,P|97:133|133:198,1,150.000005722046,12|0,0:0|1:0,0:0:0:0:
212,240,132841,1,0,1:0:0:0:
19,375,132964,2,0,P|83:323|205:292,1,150.000005722046,12|0,0:0|1:0,0:0:0:0:
225,239,133210,1,0,1:0:0:0:
164,0,133333,6,0,L|204:172,1,150.000005722046,12|0,0:0|1:0,0:0:0:0:
244,324,133579,1,0,1:0:0:0:
248,336,133702,1,12,0:0:0:0:
