osu file format v14

[General]
AudioFilename: audio.mp3
AudioLeadIn: 0
PreviewTime: 198686
Countdown: 0
SampleSet: Normal
StackLeniency: 0.7
Mode: 1
LetterboxInBreaks: 0
WidescreenStoryboard: 1

[Editor]
Bookmarks: 981,4916,20653,37375,45243,53112,64916,68850,82620,84588,98358,100325,116063,147538,163276,167211,182948,194752,198686,212457,214424,228194,230161,238030,245899,259670,263973
DistanceSpacing: 1.3
BeatDivisor: 4
GridSize: 32
TimelineZoom: 3.699999

[Metadata]
Title:FLYING OUT TO THE SKY (covered by Nanahira, moimoi, Nana Takahashi)
TitleUnicode:FLYING OUT TO THE SKY (covered by ななひら, moimoi, Nana Takahashi)
Artist:Camellia
ArtistUnicode:かめりあ
Creator:Boaz
Version:KYEX'S ONI
Source:
Tags:kyex japanese metal rock video game kamelcamellia かめるかめりあ cametek 3leep kccd-04 mayumi morinaga 森永真由美 c90 comiket cover vocaloid zola project original song contest ii iii gravity wars iv heavenly haven SDVX long ver すりーぷ! Confetto Sleep! BEMANI KONAMI
BeatmapID:3946841
BeatmapSetID:1906986

[Difficulty]
HPDrainRate:4
CircleSize:3
OverallDifficulty:6
ApproachRate:10
SliderMultiplier:1.4
SliderTickRate:1

[Events]
//Background and Video events
0,0,"bg.jpg",0,50
//Break Periods
//Storyboard Layer 0 (Background)
//Storyboard Layer 1 (Fail)
//Storyboard Layer 2 (Pass)
//Storyboard Layer 3 (Foreground)
//Storyboard Layer 4 (Overlay)
//Storyboard Sound Samples

[TimingPoints]
-2,245.901639344262,4,1,0,85,1,0
978,-100,4,1,0,85,0,0
4913,-95.2381,4,1,0,85,0,0
5158,-95.818634,4,1,0,85,0,0
5281,-96.11141,4,1,0,85,0,0
5527,-96.69967,4,1,0,85,0,0
5650,-96.99514,4,1,0,85,0,0
5896,-97.588806,4,1,0,85,0,0
6019,-97.88699,4,1,0,85,0,0
6265,-98.486115,4,1,0,85,0,0
6388,-98.78704,4,1,0,85,0,0
6634,-99.39168,4,1,0,80,0,0
6757,-99.69537,4,1,0,80,0,0
6880,-100,4,1,0,80,0,0
8847,-95.2381,4,1,0,85,0,0
9093,-95.82101,4,1,0,85,0,0
9216,-96.11379,4,1,0,85,0,0
9462,-96.702065,4,1,0,85,0,0
9585,-96.99755,4,1,0,85,0,0
9831,-97.591225,4,1,0,85,0,0
9954,-97.88941,4,1,0,85,0,0
10199,-98.486115,4,1,0,85,0,0
10322,-98.78704,4,1,0,85,0,0
10568,-99.39168,4,1,0,85,0,0
10691,-99.69537,4,1,0,80,0,0
10814,-100,4,1,0,80,0,0
12781,-95.2381,4,1,0,85,0,0
13027,-95.82071,4,1,0,85,0,0
13150,-96.11335,4,1,0,85,0,0
13396,-96.70132,4,1,0,85,0,0
13519,-96.99665,4,1,0,85,0,0
13765,-97.59001,4,1,0,85,0,0
13888,-97.888054,4,1,0,85,0,0
14134,-98.48688,4,1,0,85,0,0
14257,-98.78765,4,1,0,85,0,0
14503,-99.39198,4,1,0,85,0,0
14626,-99.695526,4,1,0,85,0,0
14749,-100,4,1,0,85,0,0
14994,-100,4,1,0,80,0,0
16716,-95.2381,4,1,0,85,0,0
16962,-95.82101,4,1,0,85,0,0
17085,-96.11379,4,1,0,85,0,0
17331,-96.702065,4,1,0,85,0,0
17454,-96.99755,4,1,0,85,0,0
17699,-97.588806,4,1,0,85,0,0
17822,-97.88699,4,1,0,85,0,0
18068,-98.486115,4,1,0,85,0,0
18191,-98.78704,4,1,0,85,0,0
18437,-99.39168,4,1,0,85,0,0
18560,-99.69537,4,1,0,85,0,0
18683,-100,4,1,0,85,0,0
19667,-95.2381,4,1,0,85,0,0
19790,-96.40928,4,1,0,85,0,0
19851,-96.99544,4,1,0,85,0,0
19913,-97.59486,4,1,0,85,0,0
20035,-98.7852,4,1,0,85,0,0
20158,-95.2381,4,1,0,85,0,0
20404,-97.59001,4,1,0,85,0,0
20650,-100,4,1,0,85,0,0
34421,-95.2381,4,1,0,85,0,0
34667,-96.08733,4,1,0,85,0,0
34790,-96.514786,4,1,0,85,0,0
35035,-97.3719,4,1,0,85,0,0
35158,-97.805084,4,1,0,85,0,0
35404,-98.6772,4,1,0,85,0,0
35527,-99.11618,4,1,0,85,0,0
35773,-100,4,1,0,85,0,0
36388,-105.26317,4,1,0,85,0,0
36511,-105.97698,4,1,0,85,0,0
36572,-106.33278,4,1,0,85,0,0
36634,-106.69565,4,1,0,85,0,0
36757,-107.41918,4,1,0,85,0,0
36880,-108.14762,4,1,0,85,0,0
37003,-108.881,4,1,0,85,0,0
37126,-109.619354,4,1,0,85,0,0
37372,-111.111115,4,1,0,85,0,0
44749,-111.111115,4,1,0,85,0,0
44872,-109.61633,4,1,0,85,0,0
44994,-108.15357,4,1,0,85,0,0
45117,-106.698586,4,1,0,85,0,0
45240,-105.26316,4,1,0,85,0,0
52249,-100,4,1,0,85,0,0
52310,-100.36449,4,1,0,85,0,0
52372,-100.73631,4,1,0,85,0,0
52494,-101.47199,4,1,0,85,0,0
52617,-102.21915,4,1,0,85,0,0
52740,-102.971794,4,1,0,85,0,0
52863,-103.72999,4,1,0,85,0,0
52986,-104.49377,4,1,0,85,0,0
53109,-102.564102564103,4,1,0,85,0,0
64913,-100,4,1,0,85,0,0
65158,-98.925026,4,1,0,85,0,0
65281,-98.38971,4,1,0,85,0,0
65527,-97.32775,4,1,0,85,0,0
65650,-96.80108,4,1,0,85,0,0
65896,-95.75626,4,1,0,85,0,0
66019,-95.2381,4,1,0,85,0,0
66265,-100,4,1,0,85,0,0
66388,-100.507645,4,1,0,85,0,0
66449,-100.760345,4,1,0,85,0,0
66511,-101.01786,4,1,0,85,0,0
66634,-101.53067,4,1,0,85,0,0
66695,-101.78596,4,1,0,85,0,0
66757,-102.046074,4,1,0,85,0,0
66880,-100,4,1,0,85,0,0
67126,-98.80108,4,1,0,85,0,0
67249,-98.20702,4,1,0,85,0,0
67494,-97.03436,4,1,0,85,0,0
67617,-96.45093,4,1,0,85,0,0
67863,-95.29456,4,1,0,85,0,0
67986,-94.72159,4,1,0,85,0,0
68232,-93.58595,4,1,0,85,0,0
68355,-93.023254,4,1,0,85,0,0
68850,-100,4,1,0,85,0,1
76347,-97.560974,4,1,0,85,0,1
76470,-98.3673,4,1,0,85,0,1
76593,-99.1803,4,1,0,85,0,1
76716,-100,4,1,0,85,0,1
82620,-100,4,1,0,85,0,0
83601,-100,4,1,0,85,0,0
83724,-98.38682,4,1,0,85,0,0
83970,-95.2381,4,1,0,85,0,0
84216,-97.560974,4,1,0,85,0,0
84339,-98.3673,4,1,0,85,0,0
84462,-99.1803,4,1,0,85,0,0
84588,-100,4,1,0,85,0,1
92085,-97.560974,4,1,0,85,0,1
92208,-98.3673,4,1,0,85,0,1
92331,-99.1803,4,1,0,85,0,1
92454,-100,4,1,0,85,0,1
98358,-100,4,1,0,85,0,0
99339,-100,4,1,0,85,0,0
99462,-98.38682,4,1,0,85,0,0
99708,-95.2381,4,1,0,85,0,0
100076,-98.0642,4,1,0,85,0,0
100322,-100,4,1,0,85,0,0
100445,-105.263157894737,4,1,0,85,0,0
113109,-105.26317,4,1,0,85,0,0
113355,-103.92194,4,1,0,85,0,0
113478,-103.257774,4,1,0,85,0,0
113601,-102.59785,4,1,0,85,0,0
113724,-101.942116,4,1,0,85,0,0
113847,-101.290596,4,1,0,85,0,0
114093,-100,4,1,0,85,0,0
115322,-97.560974,4,1,0,85,0,0
115384,-98.17002,4,1,0,85,0,0
115445,-98.772964,4,1,0,85,0,0
115507,-99.38957,4,1,0,85,0,0
115568,-100,4,1,0,85,0,0
145568,-100,4,1,0,85,0,0
145650,-99.72931,4,1,0,85,0,0
145732,-99.45936,4,1,0,85,0,0
145814,-99.190125,4,1,0,85,0,0
145896,-98.92163,4,1,0,85,0,0
146060,-98.38682,4,1,0,85,0,0
146142,-98.1205,4,1,0,85,0,0
146224,-97.8549,4,1,0,85,0,0
146306,-97.59001,4,1,0,85,0,0
146388,-97.32584,4,1,0,85,0,0
146552,-96.79966,4,1,0,85,0,0
146634,-96.53763,4,1,0,85,0,0
146716,-96.27631,4,1,0,85,0,0
146798,-96.01571,4,1,0,85,0,0
146880,-95.7558,4,1,0,85,0,0
147044,-95.2381,4,1,0,85,0,0
147535,-100,4,1,0,85,0,0
163273,-95.2381,4,1,0,85,0,0
163519,-95.82101,4,1,0,85,0,0
163642,-96.11379,4,1,0,85,0,0
163888,-96.702065,4,1,0,85,0,0
164011,-96.99755,4,1,0,85,0,0
164257,-97.591225,4,1,0,85,0,0
164380,-97.88941,4,1,0,85,0,0
164626,-98.488556,4,1,0,85,0,0
164749,-98.78949,4,1,0,85,0,0
164994,-99.39168,4,1,0,85,0,0
165117,-99.69537,4,1,0,85,0,0
165240,-100,4,1,0,85,0,0
166224,-95.2381,4,1,0,85,0,0
166347,-96.40688,4,1,0,85,0,0
166408,-96.991844,4,1,0,85,0,0
166470,-97.59001,4,1,0,85,0,0
166593,-98.78765,4,1,0,85,0,0
166716,-95.2381,4,1,0,85,0,0
166962,-100,4,1,0,85,0,0
167208,-105.263157894737,4,1,0,85,0,0
182085,-100,4,1,0,85,0,0
182146,-100.36449,4,1,0,85,0,0
182208,-100.73631,4,1,0,85,0,0
182331,-101.47804,4,1,0,85,0,0
182454,-102.22524,4,1,0,85,0,0
182576,-102.971794,4,1,0,85,0,0
182699,-103.72999,4,1,0,85,0,0
182822,-104.49377,4,1,0,85,0,0
182945,-102.564102564103,4,1,0,85,0,0
194749,-100,4,1,0,85,0,0
194994,-98.925026,4,1,0,85,0,0
195117,-98.38971,4,1,0,85,0,0
195363,-97.32775,4,1,0,85,0,0
195486,-96.80108,4,1,0,85,0,0
195732,-95.75626,4,1,0,85,0,0
195855,-95.2381,4,1,0,85,0,0
196101,-100,4,1,0,85,0,0
196224,-100.507645,4,1,0,85,0,0
196285,-100.760345,4,1,0,85,0,0
196347,-101.01786,4,1,0,85,0,0
196470,-101.53067,4,1,0,85,0,0
196531,-101.78596,4,1,0,85,0,0
196593,-102.046074,4,1,0,85,0,0
196716,-100,4,1,0,85,0,0
196962,-98.80108,4,1,0,85,0,0
197085,-98.20702,4,1,0,85,0,0
197331,-97.0296,4,1,0,85,0,0
197454,-96.4462,4,1,0,85,0,0
197699,-95.29456,4,1,0,85,0,0
197822,-94.72159,4,1,0,85,0,0
198068,-93.58595,4,1,0,85,0,0
198191,-93.023254,4,1,0,85,0,0
198686,-100,4,1,0,85,0,1
206183,-97.560974,4,1,0,85,0,1
206306,-98.3673,4,1,0,85,0,1
206429,-99.1803,4,1,0,85,0,1
206552,-100,4,1,0,85,0,1
212457,-100,4,1,0,85,0,0
213437,-100,4,1,0,85,0,0
213560,-98.38682,4,1,0,85,0,0
213806,-95.2381,4,1,0,85,0,0
214052,-97.560974,4,1,0,85,0,0
214175,-98.3673,4,1,0,85,0,0
214298,-99.1803,4,1,0,85,0,0
214424,-100,4,1,0,85,0,1
221921,-97.560974,4,1,0,85,0,1
222044,-98.3673,4,1,0,85,0,1
222167,-99.1803,4,1,0,85,0,1
222290,-100,4,1,0,85,0,1
228194,-100,4,1,0,85,0,0
229175,-100,4,1,0,85,0,0
229298,-98.38682,4,1,0,85,0,0
229544,-95.2381,4,1,0,85,0,0
229913,-98.072,4,1,0,85,0,0
230158,-100,4,1,0,85,0,0
230281,-100,4,1,0,65,0,0
236183,-100,4,1,0,75,0,0
236244,-100.349144,4,1,0,75,0,0
236306,-100.70526,4,1,0,75,0,0
236429,-101.4155,4,1,0,75,0,0
236552,-102.13074,4,1,0,75,0,0
236675,-102.85102,4,1,0,75,0,0
236798,-103.57639,4,1,0,75,0,0
236921,-104.30687,4,1,0,75,0,0
237044,-105.04251,4,1,0,75,0,0
237167,-105.78333,4,1,0,75,0,0
237290,-106.52938,4,1,0,75,0,0
237413,-107.280685,4,1,0,75,0,0
237535,-108.03112,4,1,0,75,0,0
237658,-108.79302,4,1,0,75,0,0
237781,-109.560295,4,1,0,75,0,0
237904,-110.33298,4,1,0,75,0,0
238027,-111.111115,4,1,0,75,0,0
243929,-111.111115,4,1,0,80,0,0
244175,-110.36233,4,1,0,80,0,0
244298,-109.98984,4,1,0,80,0,0
244544,-109.24863,4,1,0,80,0,0
244667,-108.879875,4,1,0,80,0,0
244913,-108.146126,4,1,0,80,0,0
245035,-107.78409,4,1,0,80,0,0
245158,-107.42027,4,1,0,80,0,0
245281,-107.05772,4,1,0,80,0,0
245404,-106.69637,4,1,0,80,0,0
245650,-105.97734,4,1,0,80,0,0
245896,-100,4,1,0,85,0,0
259667,-100,4,1,0,85,0,0
259913,-98.92067,4,1,0,85,0,0
260035,-98.38971,4,1,0,85,0,0
260281,-97.32775,4,1,0,85,0,0
260404,-96.80108,4,1,0,85,0,0
260650,-95.75626,4,1,0,85,0,0
260773,-95.2381,4,1,0,85,0,0
261019,-100,4,1,0,85,0,0
261634,-95.2381,4,1,0,85,0,0
261880,-95.82101,4,1,0,85,0,0
262003,-96.11379,4,1,0,85,0,0
262249,-96.702065,4,1,0,85,0,0
262372,-96.99755,4,1,0,85,0,0
262617,-97.588806,4,1,0,85,0,0
262740,-97.88699,4,1,0,85,0,0
262986,-98.486115,4,1,0,85,0,0
263109,-98.78704,4,1,0,85,0,0
263355,-99.39168,4,1,0,85,0,0
263478,-99.69537,4,1,0,85,0,0
263601,-100,4,1,0,85,0,0

[HitObjects]
256,192,981,5,0,0:0:0:0:
256,192,1104,1,8,0:0:0:0:
256,192,1166,1,8,0:0:0:0:
256,192,1227,1,8,0:0:0:0:
256,192,1350,1,0,0:0:0:0:
256,192,1473,1,8,0:0:0:0:
256,192,1534,1,0,0:0:0:0:
256,192,1596,1,8,0:0:0:0:
256,192,1719,1,0,0:0:0:0:
256,192,1842,1,8,0:0:0:0:
256,192,1903,1,8,0:0:0:0:
256,192,1965,1,8,0:0:0:0:
256,192,2088,1,0,0:0:0:0:
256,192,2211,1,8,0:0:0:0:
256,192,2272,1,0,0:0:0:0:
256,192,2334,1,8,0:0:0:0:
256,192,2457,1,8,0:0:0:0:
256,192,2579,1,0,0:0:0:0:
256,192,2702,1,8,0:0:0:0:
256,192,2948,1,0,0:0:0:0:
256,192,3071,1,8,0:0:0:0:
256,192,3133,1,8,0:0:0:0:
256,192,3194,1,8,0:0:0:0:
256,192,3317,1,0,0:0:0:0:
256,192,3440,1,8,0:0:0:0:
256,192,3502,1,0,0:0:0:0:
256,192,3563,1,8,0:0:0:0:
256,192,3686,1,0,0:0:0:0:
256,192,3809,1,8,0:0:0:0:
256,192,3870,1,8,0:0:0:0:
256,192,3932,1,8,0:0:0:0:
256,192,4055,1,8,0:0:0:0:
256,192,4178,1,0,0:0:0:0:
256,192,4239,1,0,0:0:0:0:
256,192,4301,1,8,0:0:0:0:
256,192,4424,1,0,0:0:0:0:
256,192,4506,1,0,0:0:0:0:
256,192,4588,1,8,0:0:0:0:
256,192,4670,1,8,0:0:0:0:
256,192,4752,1,0,0:0:0:0:
256,192,4916,1,12,0:0:0:0:
256,192,5161,1,0,0:0:0:0:
256,192,5284,1,12,0:0:0:0:
256,192,5530,1,8,0:0:0:0:
256,192,5653,1,4,0:0:0:0:
256,192,5899,1,0,0:0:0:0:
256,192,6022,1,12,0:0:0:0:
256,192,6268,1,8,0:0:0:0:
256,192,6391,1,4,0:0:0:0:
256,192,6637,1,0,0:0:0:0:
256,192,6760,1,12,0:0:0:0:
256,192,7006,1,8,0:0:0:0:
256,192,7129,1,0,0:0:0:0:
256,192,7252,1,8,0:0:0:0:
256,192,7375,1,0,0:0:0:0:
256,192,7436,1,0,0:0:0:0:
256,192,7497,1,0,0:0:0:0:
256,192,7620,1,0,0:0:0:0:
256,192,7743,1,8,0:0:0:0:
256,192,7866,1,0,0:0:0:0:
256,192,7928,1,0,0:0:0:0:
256,192,7989,1,0,0:0:0:0:
256,192,8112,1,8,0:0:0:0:
256,192,8235,1,0,0:0:0:0:
256,192,8358,1,8,0:0:0:0:
256,192,8481,1,8,0:0:0:0:
256,192,8604,1,0,0:0:0:0:
256,192,8727,1,0,0:0:0:0:
256,192,8850,1,12,0:0:0:0:
256,192,9096,1,0,0:0:0:0:
256,192,9219,1,12,0:0:0:0:
256,192,9465,1,8,0:0:0:0:
256,192,9588,1,4,0:0:0:0:
256,192,9834,1,0,0:0:0:0:
256,192,9957,1,12,0:0:0:0:
256,192,10202,1,8,0:0:0:0:
256,192,10325,1,4,0:0:0:0:
256,192,10571,1,0,0:0:0:0:
256,192,10694,1,12,0:0:0:0:
256,192,10817,1,0,0:0:0:0:
256,192,10940,1,8,0:0:0:0:
256,192,11063,1,8,0:0:0:0:
256,192,11186,1,0,0:0:0:0:
256,192,11309,1,8,0:0:0:0:
256,192,11432,1,0,0:0:0:0:
256,192,11555,1,8,0:0:0:0:
256,192,11678,1,8,0:0:0:0:
256,192,11801,1,0,0:0:0:0:
256,192,11862,1,8,0:0:0:0:
256,192,11924,1,0,0:0:0:0:
256,192,11985,1,0,0:0:0:0:
256,192,12047,1,8,0:0:0:0:
256,192,12170,1,8,0:0:0:0:
256,192,12293,1,0,0:0:0:0:
256,192,12416,1,0,0:0:0:0:
256,192,12538,1,8,0:0:0:0:
256,192,12784,1,12,0:0:0:0:
256,192,13030,1,0,0:0:0:0:
256,192,13153,1,12,0:0:0:0:
256,192,13399,1,8,0:0:0:0:
256,192,13522,1,4,0:0:0:0:
256,192,13768,1,0,0:0:0:0:
256,192,13891,1,12,0:0:0:0:
256,192,14137,1,8,0:0:0:0:
256,192,14260,1,4,0:0:0:0:
256,192,14506,1,0,0:0:0:0:
256,192,14629,1,12,0:0:0:0:
256,192,14997,1,8,0:0:0:0:
256,192,15120,1,0,0:0:0:0:
256,192,15243,1,0,0:0:0:0:
256,192,15366,1,8,0:0:0:0:
256,192,15489,1,0,0:0:0:0:
256,192,15551,1,0,0:0:0:0:
256,192,15612,1,0,0:0:0:0:
256,192,15735,1,8,0:0:0:0:
256,192,15858,1,8,0:0:0:0:
256,192,15981,1,0,0:0:0:0:
256,192,16043,1,0,0:0:0:0:
256,192,16104,1,8,0:0:0:0:
256,192,16227,1,0,0:0:0:0:
256,192,16350,1,8,0:0:0:0:
256,192,16473,1,0,0:0:0:0:
256,192,16596,1,0,0:0:0:0:
256,192,16719,1,12,0:0:0:0:
256,192,16965,1,0,0:0:0:0:
256,192,17088,1,12,0:0:0:0:
256,192,17334,1,8,0:0:0:0:
256,192,17457,1,4,0:0:0:0:
256,192,17702,1,0,0:0:0:0:
256,192,17825,1,12,0:0:0:0:
256,192,18071,1,8,0:0:0:0:
256,192,18194,1,4,0:0:0:0:
256,192,18440,1,0,0:0:0:0:
256,192,18563,1,12,0:0:0:0:
256,192,19670,1,8,0:0:0:0:
256,192,19793,1,0,0:0:0:0:
256,192,19854,1,0,0:0:0:0:
256,192,19916,1,8,0:0:0:0:
256,192,20038,1,0,0:0:0:0:
256,192,20161,1,12,0:0:0:0:
256,192,20407,1,4,0:0:0:0:
256,192,20653,1,12,0:0:0:0:
256,192,20899,1,8,0:0:0:0:
256,192,21022,1,0,0:0:0:0:
256,192,21084,1,0,0:0:0:0:
256,192,21145,1,0,0:0:0:0:
256,192,21268,1,8,0:0:0:0:
256,192,21391,1,8,0:0:0:0:
256,192,21514,1,0,0:0:0:0:
256,192,21575,1,0,0:0:0:0:
256,192,21637,1,8,0:0:0:0:
256,192,21760,1,0,0:0:0:0:
256,192,21883,1,8,0:0:0:0:
256,192,22006,1,8,0:0:0:0:
256,192,22067,1,0,0:0:0:0:
256,192,22129,1,0,0:0:0:0:
256,192,22252,1,0,0:0:0:0:
256,192,22375,1,8,0:0:0:0:
256,192,22497,1,8,0:0:0:0:
256,192,22620,1,0,0:0:0:0:
256,192,22866,1,8,0:0:0:0:
256,192,22989,1,0,0:0:0:0:
256,192,23051,1,8,0:0:0:0:
256,192,23112,1,0,0:0:0:0:
256,192,23235,1,8,0:0:0:0:
256,192,23358,1,8,0:0:0:0:
256,192,23481,1,0,0:0:0:0:
256,192,23543,1,0,0:0:0:0:
256,192,23604,1,8,0:0:0:0:
256,192,23727,1,0,0:0:0:0:
256,192,23850,1,8,0:0:0:0:
256,192,23973,1,8,0:0:0:0:
256,192,24034,1,8,0:0:0:0:
256,192,24096,1,0,0:0:0:0:
256,192,24219,1,0,0:0:0:0:
256,192,24342,1,12,0:0:0:0:
256,192,24588,1,4,0:0:0:0:
256,192,24834,1,8,0:0:0:0:
256,192,24957,1,0,0:0:0:0:
256,192,25018,1,0,0:0:0:0:
256,192,25079,1,0,0:0:0:0:
256,192,25202,1,8,0:0:0:0:
256,192,25325,1,8,0:0:0:0:
256,192,25448,1,0,0:0:0:0:
256,192,25510,1,0,0:0:0:0:
256,192,25571,1,8,0:0:0:0:
256,192,25694,1,0,0:0:0:0:
256,192,25817,1,8,0:0:0:0:
256,192,25940,1,8,0:0:0:0:
256,192,26002,1,0,0:0:0:0:
256,192,26063,1,0,0:0:0:0:
256,192,26186,1,0,0:0:0:0:
256,192,26309,1,8,0:0:0:0:
256,192,26432,1,8,0:0:0:0:
256,192,26555,1,0,0:0:0:0:
256,192,26801,1,8,0:0:0:0:
256,192,26924,1,0,0:0:0:0:
256,192,26985,1,8,0:0:0:0:
256,192,27047,1,0,0:0:0:0:
256,192,27170,1,8,0:0:0:0:
256,192,27293,1,8,0:0:0:0:
256,192,27416,1,0,0:0:0:0:
256,192,27477,1,0,0:0:0:0:
256,192,27538,1,8,0:0:0:0:
256,192,27661,1,0,0:0:0:0:
256,192,27784,1,8,0:0:0:0:
256,192,27907,1,8,0:0:0:0:
256,192,27969,1,8,0:0:0:0:
256,192,28030,1,0,0:0:0:0:
256,192,28153,1,0,0:0:0:0:
256,192,28215,1,0,0:0:0:0:
256,192,28276,1,8,0:0:0:0:
256,192,28338,1,0,0:0:0:0:
256,192,28399,1,8,0:0:0:0:
256,192,28522,1,4,0:0:0:0:
256,192,28768,1,8,0:0:0:0:
256,192,28891,1,0,0:0:0:0:
256,192,28952,1,0,0:0:0:0:
256,192,29014,1,0,0:0:0:0:
256,192,29137,1,8,0:0:0:0:
256,192,29260,1,8,0:0:0:0:
256,192,29383,1,0,0:0:0:0:
256,192,29444,1,0,0:0:0:0:
256,192,29506,1,8,0:0:0:0:
256,192,29629,1,0,0:0:0:0:
256,192,29752,1,8,0:0:0:0:
256,192,29875,1,8,0:0:0:0:
256,192,29936,1,0,0:0:0:0:
256,192,29997,1,0,0:0:0:0:
256,192,30120,1,0,0:0:0:0:
256,192,30243,1,8,0:0:0:0:
256,192,30366,1,8,0:0:0:0:
256,192,30489,1,0,0:0:0:0:
256,192,30735,1,8,0:0:0:0:
256,192,30858,1,0,0:0:0:0:
256,192,30920,1,8,0:0:0:0:
256,192,30981,1,0,0:0:0:0:
256,192,31104,1,8,0:0:0:0:
256,192,31227,1,8,0:0:0:0:
256,192,31350,1,0,0:0:0:0:
256,192,31411,1,0,0:0:0:0:
256,192,31473,1,8,0:0:0:0:
256,192,31596,1,0,0:0:0:0:
256,192,31719,1,8,0:0:0:0:
256,192,31842,1,8,0:0:0:0:
256,192,31903,1,8,0:0:0:0:
256,192,31965,1,0,0:0:0:0:
256,192,32088,1,12,0:0:0:0:
256,192,32334,1,12,0:0:0:0:
256,192,32702,1,8,0:0:0:0:
256,192,32825,1,0,0:0:0:0:
256,192,32887,1,0,0:0:0:0:
256,192,32948,1,0,0:0:0:0:
256,192,33071,1,8,0:0:0:0:
256,192,33194,1,8,0:0:0:0:
256,192,33317,1,0,0:0:0:0:
256,192,33379,1,0,0:0:0:0:
256,192,33440,1,8,0:0:0:0:
256,192,33563,1,0,0:0:0:0:
256,192,33686,1,8,0:0:0:0:
256,192,33809,1,8,0:0:0:0:
256,192,33870,1,0,0:0:0:0:
256,192,33932,1,0,0:0:0:0:
256,192,34055,1,8,0:0:0:0:
256,192,34178,1,0,0:0:0:0:
256,192,34239,1,0,0:0:0:0:
256,192,34301,1,0,0:0:0:0:
256,192,34424,1,12,0:0:0:0:
256,192,34670,1,0,0:0:0:0:
256,192,34793,1,12,0:0:0:0:
256,192,35038,1,8,0:0:0:0:
256,192,35161,1,4,0:0:0:0:
256,192,35407,1,0,0:0:0:0:
256,192,35530,1,12,0:0:0:0:
256,192,35776,1,0,0:0:0:0:
256,192,35899,1,8,0:0:0:0:
256,192,35961,1,8,0:0:0:0:
256,192,36022,1,0,0:0:0:0:
256,192,36084,1,0,0:0:0:0:
256,192,36145,1,8,0:0:0:0:
256,192,36391,1,0,0:0:0:0:
256,192,36514,1,0,0:0:0:0:
256,192,36575,1,0,0:0:0:0:
256,192,36637,1,8,0:0:0:0:
256,192,36760,1,8,0:0:0:0:
256,192,36883,1,8,0:0:0:0:
256,192,37006,1,8,0:0:0:0:
256,192,37129,1,0,0:0:0:0:
256,192,37375,1,4,0:0:0:0:
256,192,37620,1,8,0:0:0:0:
256,192,37743,1,8,0:0:0:0:
256,192,37866,1,0,0:0:0:0:
256,192,38112,1,8,0:0:0:0:
256,192,38235,1,8,0:0:0:0:
256,192,38358,1,0,0:0:0:0:
256,192,38481,1,8,0:0:0:0:
256,192,38604,1,0,0:0:0:0:
256,192,38727,1,8,0:0:0:0:
256,192,38973,1,0,0:0:0:0:
256,192,39096,1,8,0:0:0:0:
256,192,39219,1,8,0:0:0:0:
256,192,39342,1,0,0:0:0:0:
256,192,39465,1,8,0:0:0:0:
256,192,39588,1,0,0:0:0:0:
256,192,39711,1,8,0:0:0:0:
256,192,39834,1,0,0:0:0:0:
256,192,39957,1,0,0:0:0:0:
256,192,40202,1,8,0:0:0:0:
256,192,40325,1,8,0:0:0:0:
256,192,40448,1,0,0:0:0:0:
256,192,40571,1,0,0:0:0:0:
256,192,40694,1,8,0:0:0:0:
256,192,40817,1,0,0:0:0:0:
256,192,40940,1,0,0:0:0:0:
256,192,41063,1,8,0:0:0:0:
256,192,41309,1,0,0:0:0:0:
256,192,41432,1,8,0:0:0:0:
256,192,41555,1,0,0:0:0:0:
256,192,41678,1,0,0:0:0:0:
256,192,41801,1,8,0:0:0:0:
256,192,41924,1,0,0:0:0:0:
256,192,42047,1,8,0:0:0:0:
256,192,42170,1,8,0:0:0:0:
256,192,42293,1,0,0:0:0:0:
256,192,42538,1,8,0:0:0:0:
256,192,42661,1,0,0:0:0:0:
256,192,42907,1,0,0:0:0:0:
256,192,43030,1,8,0:0:0:0:
256,192,43153,1,0,0:0:0:0:
256,192,43276,1,8,0:0:0:0:
256,192,43522,1,0,0:0:0:0:
256,192,43768,1,8,0:0:0:0:
256,192,43891,1,8,0:0:0:0:
256,192,44014,1,0,0:0:0:0:
256,192,44137,1,0,0:0:0:0:
256,192,44260,1,8,0:0:0:0:
256,192,44383,1,0,0:0:0:0:
256,192,44506,1,8,0:0:0:0:
256,192,44629,1,8,0:0:0:0:
256,192,44752,1,0,0:0:0:0:
256,192,44875,1,8,0:0:0:0:
256,192,44997,1,8,0:0:0:0:
256,192,45120,1,8,0:0:0:0:
256,192,45243,1,4,0:0:0:0:
256,192,45489,1,8,0:0:0:0:
256,192,45612,1,8,0:0:0:0:
256,192,45735,1,0,0:0:0:0:
256,192,45981,1,8,0:0:0:0:
256,192,46104,1,8,0:0:0:0:
256,192,46166,1,8,0:0:0:0:
256,192,46227,1,0,0:0:0:0:
256,192,46350,1,8,0:0:0:0:
256,192,46473,1,0,0:0:0:0:
256,192,46596,1,8,0:0:0:0:
256,192,46842,1,8,0:0:0:0:
256,192,46903,1,0,0:0:0:0:
256,192,46965,1,0,0:0:0:0:
256,192,47088,1,8,0:0:0:0:
256,192,47211,1,0,0:0:0:0:
256,192,47334,1,0,0:0:0:0:
256,192,47457,1,8,0:0:0:0:
256,192,47579,1,8,0:0:0:0:
256,192,47702,1,0,0:0:0:0:
256,192,47825,1,8,0:0:0:0:
256,192,48071,1,8,0:0:0:0:
256,192,48194,1,8,0:0:0:0:
256,192,48317,1,0,0:0:0:0:
256,192,48440,1,0,0:0:0:0:
256,192,48563,1,8,0:0:0:0:
256,192,48686,1,8,0:0:0:0:
256,192,48809,1,0,0:0:0:0:
256,192,48932,1,8,0:0:0:0:
256,192,49178,1,8,0:0:0:0:
256,192,49301,1,0,0:0:0:0:
256,192,49362,1,0,0:0:0:0:
256,192,49424,1,8,0:0:0:0:
256,192,49547,1,0,0:0:0:0:
256,192,49670,1,8,0:0:0:0:
256,192,49793,1,8,0:0:0:0:
256,192,49916,1,0,0:0:0:0:
256,192,50038,1,8,0:0:0:0:
256,192,50161,1,0,0:0:0:0:
256,192,50284,1,0,0:0:0:0:
256,192,50407,1,8,0:0:0:0:
256,192,50530,1,0,0:0:0:0:
256,192,50776,1,0,0:0:0:0:
256,192,50838,1,0,0:0:0:0:
256,192,50899,1,8,0:0:0:0:
256,192,51022,1,0,0:0:0:0:
256,192,51145,1,8,0:0:0:0:
256,192,51268,1,8,0:0:0:0:
256,192,51391,1,0,0:0:0:0:
256,192,51514,1,0,0:0:0:0:
256,192,51637,1,8,0:0:0:0:
256,192,51760,1,0,0:0:0:0:
256,192,52006,1,8,0:0:0:0:
256,192,52252,1,8,0:0:0:0:
256,192,52313,1,8,0:0:0:0:
256,192,52375,1,8,0:0:0:0:
256,192,52497,1,0,0:0:0:0:
256,192,52620,1,8,0:0:0:0:
256,192,52743,1,8,0:0:0:0:
256,192,52866,1,0,0:0:0:0:
256,192,52989,1,8,0:0:0:0:
256,192,53112,1,4,0:0:0:0:
256,192,53358,1,8,0:0:0:0:
256,192,53481,1,0,0:0:0:0:
256,192,53543,1,0,0:0:0:0:
256,192,53604,1,8,0:0:0:0:
256,192,53727,1,0,0:0:0:0:
256,192,53850,1,8,0:0:0:0:
256,192,54096,1,0,0:0:0:0:
256,192,54219,1,8,0:0:0:0:
256,192,54465,1,8,0:0:0:0:
256,192,54526,1,8,0:0:0:0:
256,192,54588,1,8,0:0:0:0:
256,192,54711,1,0,0:0:0:0:
256,192,54834,1,8,0:0:0:0:
256,192,54957,1,8,0:0:0:0:
256,192,55079,1,0,0:0:0:0:
256,192,55325,1,8,0:0:0:0:
256,192,55448,1,0,0:0:0:0:
256,192,55510,1,0,0:0:0:0:
256,192,55571,1,8,0:0:0:0:
256,192,55694,1,0,0:0:0:0:
256,192,55817,1,8,0:0:0:0:
256,192,56063,1,0,0:0:0:0:
256,192,56186,1,0,0:0:0:0:
256,192,56432,1,8,0:0:0:0:
256,192,56493,1,8,0:0:0:0:
256,192,56555,1,0,0:0:0:0:
256,192,56678,1,8,0:0:0:0:
256,192,56801,1,0,0:0:0:0:
256,192,56924,1,0,0:0:0:0:
256,192,57047,1,8,0:0:0:0:
256,192,57293,1,8,0:0:0:0:
256,192,57416,1,0,0:0:0:0:
256,192,57661,1,0,0:0:0:0:
256,192,57784,1,8,0:0:0:0:
256,192,57907,1,8,0:0:0:0:
256,192,58030,1,0,0:0:0:0:
256,192,58276,1,8,0:0:0:0:
256,192,58399,1,8,0:0:0:0:
256,192,58522,1,0,0:0:0:0:
256,192,58645,1,8,0:0:0:0:
256,192,58707,1,8,0:0:0:0:
256,192,58768,1,8,0:0:0:0:
256,192,58891,1,0,0:0:0:0:
256,192,59014,1,8,0:0:0:0:
256,192,59260,1,8,0:0:0:0:
256,192,59383,1,8,0:0:0:0:
256,192,59506,1,0,0:0:0:0:
256,192,59752,1,8,0:0:0:0:
256,192,59875,1,0,0:0:0:0:
256,192,59936,1,0,0:0:0:0:
256,192,59997,1,8,0:0:0:0:
256,192,60120,1,8,0:0:0:0:
256,192,60243,1,0,0:0:0:0:
256,192,60366,1,8,0:0:0:0:
256,192,60489,1,4,0:0:0:0:
256,192,60735,1,12,0:0:0:0:
256,192,60981,1,4,0:0:0:0:
256,192,61227,1,8,0:0:0:0:
256,192,61350,1,0,0:0:0:0:
256,192,61411,1,0,0:0:0:0:
256,192,61473,1,8,0:0:0:0:
256,192,61596,1,0,0:0:0:0:
256,192,61719,1,8,0:0:0:0:
256,192,61965,1,8,0:0:0:0:
256,192,62088,1,0,0:0:0:0:
256,192,62334,1,0,0:0:0:0:
256,192,62457,1,0,0:0:0:0:
256,192,62579,1,8,0:0:0:0:
256,192,62641,1,8,0:0:0:0:
256,192,62702,1,0,0:0:0:0:
256,192,62825,1,8,0:0:0:0:
256,192,62948,1,0,0:0:0:0:
256,192,63194,1,8,0:0:0:0:
256,192,63317,1,0,0:0:0:0:
256,192,63379,1,0,0:0:0:0:
256,192,63440,1,8,0:0:0:0:
256,192,63563,1,0,0:0:0:0:
256,192,63686,1,8,0:0:0:0:
256,192,63932,1,8,0:0:0:0:
256,192,64055,1,8,0:0:0:0:
256,192,64301,1,0,0:0:0:0:
256,192,64424,1,8,0:0:0:0:
256,192,64485,1,8,0:0:0:0:
256,192,64547,1,0,0:0:0:0:
256,192,64670,1,0,0:0:0:0:
256,192,64793,1,0,0:0:0:0:
256,192,64916,1,12,0:0:0:0:
256,192,65161,1,0,0:0:0:0:
256,192,65284,1,12,0:0:0:0:
256,192,65530,1,0,0:0:0:0:
256,192,65653,1,12,0:0:0:0:
256,192,65899,1,0,0:0:0:0:
256,192,66022,1,12,0:0:0:0:
256,192,66268,1,0,0:0:0:0:
256,192,66391,1,8,0:0:0:0:
256,192,66452,1,8,0:0:0:0:
256,192,66514,1,8,0:0:0:0:
256,192,66637,1,0,0:0:0:0:
256,192,66698,1,0,0:0:0:0:
256,192,66760,1,0,0:0:0:0:
256,192,66883,1,12,0:0:0:0:
256,192,67129,1,0,0:0:0:0:
256,192,67252,1,12,0:0:0:0:
256,192,67497,1,0,0:0:0:0:
256,192,67620,1,12,0:0:0:0:
256,192,67866,1,0,0:0:0:0:
256,192,67989,1,12,0:0:0:0:
256,192,68235,1,0,0:0:0:0:
256,192,68358,1,12,0:0:0:0:
256,192,68850,1,4,0:0:0:0:
256,192,69096,1,8,0:0:0:0:
256,192,69219,1,0,0:0:0:0:
256,192,69280,1,0,0:0:0:0:
256,192,69342,1,8,0:0:0:0:
256,192,69465,1,0,0:0:0:0:
256,192,69588,1,8,0:0:0:0:
256,192,69649,1,8,0:0:0:0:
256,192,69711,1,0,0:0:0:0:
256,192,69772,1,0,0:0:0:0:
256,192,69834,1,8,0:0:0:0:
256,192,70079,1,8,0:0:0:0:
256,192,70202,1,0,0:0:0:0:
256,192,70264,1,0,0:0:0:0:
256,192,70325,1,8,0:0:0:0:
256,192,70448,1,0,0:0:0:0:
256,192,70571,1,8,0:0:0:0:
256,192,70633,1,8,0:0:0:0:
256,192,70694,1,8,0:0:0:0:
256,192,70756,1,8,0:0:0:0:
256,192,70817,1,0,0:0:0:0:
256,192,71063,1,8,0:0:0:0:
256,192,71186,1,0,0:0:0:0:
256,192,71309,1,8,0:0:0:0:
256,192,71370,1,8,0:0:0:0:
256,192,71432,1,0,0:0:0:0:
256,192,71555,1,8,0:0:0:0:
256,192,71616,1,8,0:0:0:0:
256,192,71678,1,0,0:0:0:0:
256,192,71739,1,0,0:0:0:0:
256,192,71801,1,8,0:0:0:0:
256,192,72047,1,8,0:0:0:0:
256,192,72170,1,0,0:0:0:0:
256,192,72231,1,0,0:0:0:0:
256,192,72293,1,8,0:0:0:0:
256,192,72416,1,0,0:0:0:0:
256,192,72538,1,12,0:0:0:0:
256,192,72784,1,4,0:0:0:0:
256,192,73030,1,8,0:0:0:0:
256,192,73153,1,0,0:0:0:0:
256,192,73276,1,8,0:0:0:0:
256,192,73399,1,0,0:0:0:0:
256,192,73461,1,0,0:0:0:0:
256,192,73522,1,8,0:0:0:0:
256,192,73645,1,8,0:0:0:0:
256,192,73768,1,0,0:0:0:0:
256,192,73891,1,8,0:0:0:0:
256,192,73952,1,8,0:0:0:0:
256,192,74014,1,0,0:0:0:0:
256,192,74137,1,8,0:0:0:0:
256,192,74260,1,0,0:0:0:0:
256,192,74383,1,0,0:0:0:0:
256,192,74506,1,8,0:0:0:0:
256,192,74752,1,0,0:0:0:0:
256,192,74875,1,8,0:0:0:0:
256,192,74936,1,8,0:0:0:0:
256,192,74997,1,0,0:0:0:0:
256,192,75120,1,8,0:0:0:0:
256,192,75243,1,0,0:0:0:0:
256,192,75366,1,8,0:0:0:0:
256,192,75428,1,0,0:0:0:0:
256,192,75489,1,8,0:0:0:0:
256,192,75612,1,0,0:0:0:0:
256,192,75735,1,8,0:0:0:0:
256,192,75797,1,8,0:0:0:0:
256,192,75858,1,0,0:0:0:0:
256,192,75981,1,8,0:0:0:0:
256,192,76104,1,0,0:0:0:0:
256,192,76350,1,8,0:0:0:0:
256,192,76473,1,8,0:0:0:0:
256,192,76596,1,8,0:0:0:0:
256,192,76719,1,4,0:0:0:0:
256,192,76965,1,8,0:0:0:0:
256,192,77088,1,0,0:0:0:0:
256,192,77149,1,0,0:0:0:0:
256,192,77211,1,8,0:0:0:0:
256,192,77334,1,0,0:0:0:0:
256,192,77457,1,8,0:0:0:0:
256,192,77518,1,8,0:0:0:0:
256,192,77579,1,0,0:0:0:0:
256,192,77641,1,0,0:0:0:0:
256,192,77702,1,8,0:0:0:0:
256,192,77948,1,8,0:0:0:0:
256,192,78071,1,0,0:0:0:0:
256,192,78133,1,0,0:0:0:0:
256,192,78194,1,8,0:0:0:0:
256,192,78317,1,0,0:0:0:0:
256,192,78440,1,8,0:0:0:0:
256,192,78502,1,8,0:0:0:0:
256,192,78563,1,8,0:0:0:0:
256,192,78625,1,8,0:0:0:0:
256,192,78686,1,0,0:0:0:0:
256,192,78932,1,8,0:0:0:0:
256,192,79055,1,0,0:0:0:0:
256,192,79178,1,8,0:0:0:0:
256,192,79239,1,8,0:0:0:0:
256,192,79301,1,0,0:0:0:0:
256,192,79424,1,8,0:0:0:0:
256,192,79485,1,8,0:0:0:0:
256,192,79547,1,0,0:0:0:0:
256,192,79608,1,0,0:0:0:0:
256,192,79670,1,8,0:0:0:0:
256,192,79916,1,8,0:0:0:0:
256,192,80038,1,0,0:0:0:0:
256,192,80100,1,0,0:0:0:0:
256,192,80161,1,8,0:0:0:0:
256,192,80284,1,0,0:0:0:0:
256,192,80407,1,12,0:0:0:0:
256,192,80653,1,4,0:0:0:0:
256,192,80899,1,0,0:0:0:0:
256,192,81022,1,0,0:0:0:0:
256,192,81145,1,8,0:0:0:0:
256,192,81268,1,0,0:0:0:0:
256,192,81329,1,0,0:0:0:0:
256,192,81391,1,8,0:0:0:0:
256,192,81514,1,8,0:0:0:0:
256,192,81637,1,0,0:0:0:0:
256,192,81698,1,0,0:0:0:0:
256,192,81760,1,0,0:0:0:0:
256,192,81883,1,8,0:0:0:0:
256,192,82006,1,0,0:0:0:0:
256,192,82067,1,0,0:0:0:0:
256,192,82129,1,8,0:0:0:0:
256,192,82190,1,8,0:0:0:0:
256,192,82252,1,0,0:0:0:0:
256,192,82375,1,8,0:0:0:0:
256,192,82620,1,8,0:0:0:0:
256,192,82702,1,8,0:0:0:0:
256,192,82784,1,8,0:0:0:0:
256,192,82866,1,0,0:0:0:0:
256,192,82989,1,8,0:0:0:0:
256,192,83112,1,0,0:0:0:0:
256,192,83194,1,0,0:0:0:0:
256,192,83276,1,0,0:0:0:0:
256,192,83358,1,8,0:0:0:0:
256,192,83604,1,4,0:0:0:0:
256,192,83727,1,4,0:0:0:0:
256,192,83973,1,12,0:0:0:0:
256,192,84219,1,8,0:0:0:0:
256,192,84342,1,8,0:0:0:0:
256,192,84465,1,8,0:0:0:0:
256,192,84588,1,4,0:0:0:0:
256,192,84834,1,8,0:0:0:0:
256,192,84957,1,0,0:0:0:0:
256,192,85018,1,0,0:0:0:0:
256,192,85079,1,8,0:0:0:0:
256,192,85202,1,0,0:0:0:0:
256,192,85325,1,8,0:0:0:0:
256,192,85387,1,8,0:0:0:0:
256,192,85448,1,0,0:0:0:0:
256,192,85510,1,0,0:0:0:0:
256,192,85571,1,8,0:0:0:0:
256,192,85694,1,0,0:0:0:0:
256,192,85817,1,8,0:0:0:0:
256,192,85940,1,0,0:0:0:0:
256,192,86002,1,0,0:0:0:0:
256,192,86063,1,8,0:0:0:0:
256,192,86186,1,0,0:0:0:0:
256,192,86309,1,8,0:0:0:0:
256,192,86370,1,8,0:0:0:0:
256,192,86432,1,8,0:0:0:0:
256,192,86493,1,8,0:0:0:0:
256,192,86555,1,0,0:0:0:0:
256,192,86801,1,8,0:0:0:0:
256,192,86924,1,0,0:0:0:0:
256,192,87047,1,8,0:0:0:0:
256,192,87108,1,8,0:0:0:0:
256,192,87170,1,0,0:0:0:0:
256,192,87293,1,8,0:0:0:0:
256,192,87354,1,8,0:0:0:0:
256,192,87416,1,0,0:0:0:0:
256,192,87477,1,0,0:0:0:0:
256,192,87538,1,8,0:0:0:0:
256,192,87661,1,0,0:0:0:0:
256,192,87784,1,8,0:0:0:0:
256,192,87907,1,0,0:0:0:0:
256,192,87969,1,0,0:0:0:0:
256,192,88030,1,8,0:0:0:0:
256,192,88153,1,0,0:0:0:0:
256,192,88276,1,12,0:0:0:0:
256,192,88522,1,4,0:0:0:0:
256,192,88768,1,8,0:0:0:0:
256,192,88891,1,8,0:0:0:0:
256,192,89014,1,0,0:0:0:0:
256,192,89137,1,8,0:0:0:0:
256,192,89198,1,8,0:0:0:0:
256,192,89260,1,0,0:0:0:0:
256,192,89383,1,0,0:0:0:0:
256,192,89506,1,8,0:0:0:0:
256,192,89567,1,0,0:0:0:0:
256,192,89629,1,0,0:0:0:0:
256,192,89752,1,0,0:0:0:0:
256,192,89875,1,8,0:0:0:0:
256,192,89997,1,8,0:0:0:0:
256,192,90120,1,0,0:0:0:0:
256,192,90243,1,8,0:0:0:0:
256,192,90489,1,0,0:0:0:0:
256,192,90612,1,8,0:0:0:0:
256,192,90674,1,8,0:0:0:0:
256,192,90735,1,0,0:0:0:0:
256,192,90858,1,8,0:0:0:0:
256,192,90981,1,0,0:0:0:0:
256,192,91104,1,8,0:0:0:0:
256,192,91166,1,0,0:0:0:0:
256,192,91227,1,8,0:0:0:0:
256,192,91350,1,0,0:0:0:0:
256,192,91473,1,8,0:0:0:0:
256,192,91534,1,8,0:0:0:0:
256,192,91596,1,8,0:0:0:0:
256,192,91719,1,0,0:0:0:0:
256,192,91842,1,8,0:0:0:0:
256,192,92088,1,8,0:0:0:0:
256,192,92211,1,8,0:0:0:0:
256,192,92334,1,8,0:0:0:0:
256,192,92457,1,4,0:0:0:0:
256,192,92702,1,8,0:0:0:0:
256,192,92825,1,0,0:0:0:0:
256,192,92887,1,0,0:0:0:0:
256,192,92948,1,8,0:0:0:0:
256,192,93071,1,0,0:0:0:0:
256,192,93194,1,8,0:0:0:0:
256,192,93256,1,8,0:0:0:0:
256,192,93317,1,0,0:0:0:0:
256,192,93379,1,0,0:0:0:0:
256,192,93440,1,8,0:0:0:0:
256,192,93563,1,0,0:0:0:0:
256,192,93686,1,8,0:0:0:0:
256,192,93809,1,0,0:0:0:0:
256,192,93870,1,0,0:0:0:0:
256,192,93932,1,8,0:0:0:0:
256,192,94055,1,0,0:0:0:0:
256,192,94178,1,8,0:0:0:0:
256,192,94239,1,8,0:0:0:0:
256,192,94301,1,8,0:0:0:0:
256,192,94362,1,8,0:0:0:0:
256,192,94424,1,0,0:0:0:0:
256,192,94670,1,8,0:0:0:0:
256,192,94793,1,0,0:0:0:0:
256,192,94916,1,8,0:0:0:0:
256,192,94977,1,8,0:0:0:0:
256,192,95038,1,0,0:0:0:0:
256,192,95161,1,8,0:0:0:0:
256,192,95223,1,8,0:0:0:0:
256,192,95284,1,0,0:0:0:0:
256,192,95346,1,0,0:0:0:0:
256,192,95407,1,8,0:0:0:0:
256,192,95530,1,0,0:0:0:0:
256,192,95653,1,8,0:0:0:0:
256,192,95776,1,0,0:0:0:0:
256,192,95838,1,0,0:0:0:0:
256,192,95899,1,8,0:0:0:0:
256,192,96022,1,0,0:0:0:0:
256,192,96145,1,12,0:0:0:0:
256,192,96391,1,4,0:0:0:0:
256,192,96637,1,8,0:0:0:0:
256,192,96760,1,0,0:0:0:0:
256,192,96883,1,8,0:0:0:0:
256,192,97006,1,0,0:0:0:0:
256,192,97067,1,0,0:0:0:0:
256,192,97129,1,8,0:0:0:0:
256,192,97252,1,0,0:0:0:0:
256,192,97375,1,8,0:0:0:0:
256,192,97436,1,8,0:0:0:0:
256,192,97497,1,0,0:0:0:0:
256,192,97620,1,8,0:0:0:0:
256,192,97743,1,0,0:0:0:0:
256,192,97805,1,0,0:0:0:0:
256,192,97866,1,8,0:0:0:0:
256,192,97989,1,0,0:0:0:0:
256,192,98112,1,8,0:0:0:0:
256,192,98358,1,8,0:0:0:0:
256,192,98440,1,8,0:0:0:0:
256,192,98522,1,8,0:0:0:0:
256,192,98604,1,0,0:0:0:0:
256,192,98727,1,8,0:0:0:0:
256,192,98850,1,0,0:0:0:0:
256,192,98932,1,0,0:0:0:0:
256,192,99014,1,0,0:0:0:0:
256,192,99096,1,8,0:0:0:0:
256,192,99342,1,4,0:0:0:0:
256,192,99465,1,4,0:0:0:0:
256,192,99711,1,12,0:0:0:0:
256,192,100079,1,8,0:0:0:0:
256,192,100325,1,4,0:0:0:0:
256,192,104260,1,12,0:0:0:0:
256,192,107334,1,0,0:0:0:0:
256,192,107395,1,0,0:0:0:0:
256,192,107457,1,8,0:0:0:0:
256,192,107579,1,8,0:0:0:0:
256,192,107702,1,0,0:0:0:0:
256,192,107825,1,0,0:0:0:0:
256,192,107948,1,8,0:0:0:0:
256,192,108194,1,12,0:0:0:0:
256,192,111883,1,0,0:0:0:0:
256,192,112006,1,0,0:0:0:0:
256,192,112129,1,12,0:0:0:0:
256,192,113112,1,0,0:0:0:0:
256,192,113358,1,8,0:0:0:0:
256,192,113481,1,8,0:0:0:0:
256,192,113604,1,0,0:0:0:0:
256,192,113727,1,0,0:0:0:0:
256,192,113850,1,12,0:0:0:0:
256,192,114096,1,4,0:0:0:0:
256,192,114219,12,0,115079,0:0:0:0:
256,192,115325,5,0,0:0:0:0:
256,192,115387,1,0,0:0:0:0:
256,192,115448,1,0,0:0:0:0:
256,192,115510,1,0,0:0:0:0:
256,192,115571,1,8,0:0:0:0:
256,192,116063,1,8,0:0:0:0:
256,192,116125,1,8,0:0:0:0:
256,192,116186,1,0,0:0:0:0:
256,192,116309,1,0,0:0:0:0:
256,192,116432,1,8,0:0:0:0:
256,192,116493,1,0,0:0:0:0:
256,192,116555,1,8,0:0:0:0:
256,192,116678,1,0,0:0:0:0:
256,192,116801,1,8,0:0:0:0:
256,192,116924,1,0,0:0:0:0:
256,192,116985,1,0,0:0:0:0:
256,192,117047,1,8,0:0:0:0:
256,192,117293,1,8,0:0:0:0:
256,192,117416,1,0,0:0:0:0:
256,192,117661,1,0,0:0:0:0:
256,192,117784,1,8,0:0:0:0:
256,192,117907,1,0,0:0:0:0:
256,192,118153,1,0,0:0:0:0:
256,192,118215,1,0,0:0:0:0:
256,192,118276,1,8,0:0:0:0:
256,192,118399,1,0,0:0:0:0:
256,192,118522,1,8,0:0:0:0:
256,192,118645,1,8,0:0:0:0:
256,192,118768,1,0,0:0:0:0:
256,192,118891,1,0,0:0:0:0:
256,192,119014,1,8,0:0:0:0:
256,192,119260,1,8,0:0:0:0:
256,192,119383,1,0,0:0:0:0:
256,192,119629,1,0,0:0:0:0:
256,192,119752,1,8,0:0:0:0:
256,192,119875,1,8,0:0:0:0:
256,192,119997,1,0,0:0:0:0:
256,192,120243,1,8,0:0:0:0:
256,192,120366,1,0,0:0:0:0:
256,192,120428,1,0,0:0:0:0:
256,192,120489,1,8,0:0:0:0:
256,192,120612,1,0,0:0:0:0:
256,192,120735,1,8,0:0:0:0:
256,192,120981,1,0,0:0:0:0:
256,192,121104,1,8,0:0:0:0:
256,192,121166,1,8,0:0:0:0:
256,192,121227,1,0,0:0:0:0:
256,192,121350,1,0,0:0:0:0:
256,192,121473,1,8,0:0:0:0:
256,192,121719,1,0,0:0:0:0:
256,192,121965,1,8,0:0:0:0:
256,192,122088,1,8,0:0:0:0:
256,192,122211,1,0,0:0:0:0:
256,192,122334,1,8,0:0:0:0:
256,192,122457,1,0,0:0:0:0:
256,192,122579,1,0,0:0:0:0:
256,192,122702,1,8,0:0:0:0:
256,192,122825,1,0,0:0:0:0:
256,192,122948,1,8,0:0:0:0:
256,192,123010,1,8,0:0:0:0:
256,192,123071,1,8,0:0:0:0:
256,192,123133,1,8,0:0:0:0:
256,192,123194,1,0,0:0:0:0:
256,192,123317,1,8,0:0:0:0:
256,192,123440,1,0,0:0:0:0:
256,192,123563,1,8,0:0:0:0:
256,192,123625,1,8,0:0:0:0:
256,192,123686,1,8,0:0:0:0:
256,192,123809,1,8,0:0:0:0:
256,192,123932,1,4,0:0:0:0:
256,192,124178,1,0,0:0:0:0:
256,192,124301,1,12,0:0:0:0:
256,192,124547,1,0,0:0:0:0:
256,192,124670,1,8,0:0:0:0:
256,192,124793,1,0,0:0:0:0:
256,192,124854,1,0,0:0:0:0:
256,192,124916,1,8,0:0:0:0:
256,192,125038,1,8,0:0:0:0:
256,192,125161,1,0,0:0:0:0:
256,192,125407,1,8,0:0:0:0:
256,192,125530,1,0,0:0:0:0:
256,192,125592,1,0,0:0:0:0:
256,192,125653,1,8,0:0:0:0:
256,192,125776,1,8,0:0:0:0:
256,192,125899,1,0,0:0:0:0:
256,192,126022,1,8,0:0:0:0:
256,192,126084,1,8,0:0:0:0:
256,192,126145,1,0,0:0:0:0:
256,192,126268,1,0,0:0:0:0:
256,192,126391,1,8,0:0:0:0:
256,192,126514,1,0,0:0:0:0:
256,192,126575,1,0,0:0:0:0:
256,192,126637,1,8,0:0:0:0:
256,192,126760,1,8,0:0:0:0:
256,192,126883,1,0,0:0:0:0:
256,192,127129,1,8,0:0:0:0:
256,192,127252,1,8,0:0:0:0:
256,192,127375,1,0,0:0:0:0:
256,192,127497,1,0,0:0:0:0:
256,192,127620,1,8,0:0:0:0:
256,192,127866,1,8,0:0:0:0:
256,192,127928,1,8,0:0:0:0:
256,192,127989,1,0,0:0:0:0:
256,192,128112,1,0,0:0:0:0:
256,192,128235,1,8,0:0:0:0:
256,192,128297,1,0,0:0:0:0:
256,192,128358,1,0,0:0:0:0:
256,192,128481,1,0,0:0:0:0:
256,192,128604,1,8,0:0:0:0:
256,192,128727,1,0,0:0:0:0:
256,192,128850,1,8,0:0:0:0:
256,192,129096,1,0,0:0:0:0:
256,192,129219,1,0,0:0:0:0:
256,192,129342,1,8,0:0:0:0:
256,192,129588,1,8,0:0:0:0:
256,192,129711,1,0,0:0:0:0:
256,192,129772,1,0,0:0:0:0:
256,192,129834,1,8,0:0:0:0:
256,192,129957,1,8,0:0:0:0:
256,192,130079,1,0,0:0:0:0:
256,192,130325,1,8,0:0:0:0:
256,192,130448,1,0,0:0:0:0:
256,192,130510,1,0,0:0:0:0:
256,192,130571,1,0,0:0:0:0:
256,192,130694,1,8,0:0:0:0:
256,192,130817,1,0,0:0:0:0:
256,192,130879,1,8,0:0:0:0:
256,192,130940,1,0,0:0:0:0:
256,192,131002,1,0,0:0:0:0:
256,192,131063,1,8,0:0:0:0:
256,192,131186,1,8,0:0:0:0:
256,192,131309,1,0,0:0:0:0:
256,192,131432,1,0,0:0:0:0:
256,192,131555,1,8,0:0:0:0:
256,192,131678,1,8,0:0:0:0:
256,192,131801,1,4,0:0:0:0:
256,192,132047,1,8,0:0:0:0:
256,192,132293,1,0,0:0:0:0:
256,192,132416,1,0,0:0:0:0:
256,192,132477,1,0,0:0:0:0:
256,192,132538,1,8,0:0:0:0:
256,192,132661,1,8,0:0:0:0:
256,192,132784,1,0,0:0:0:0:
256,192,133030,1,8,0:0:0:0:
256,192,133153,1,8,0:0:0:0:
256,192,133215,1,8,0:0:0:0:
256,192,133276,1,0,0:0:0:0:
256,192,133399,1,0,0:0:0:0:
256,192,133522,1,8,0:0:0:0:
256,192,133645,1,8,0:0:0:0:
256,192,133768,1,0,0:0:0:0:
256,192,134014,1,8,0:0:0:0:
256,192,134137,1,0,0:0:0:0:
256,192,134260,1,8,0:0:0:0:
256,192,134506,1,0,0:0:0:0:
256,192,134629,1,0,0:0:0:0:
256,192,134752,1,8,0:0:0:0:
256,192,134875,1,0,0:0:0:0:
256,192,134997,1,8,0:0:0:0:
256,192,135120,1,0,0:0:0:0:
256,192,135243,1,8,0:0:0:0:
256,192,135366,1,0,0:0:0:0:
256,192,135489,1,8,0:0:0:0:
256,192,135735,1,0,0:0:0:0:
256,192,135981,1,8,0:0:0:0:
256,192,136104,1,0,0:0:0:0:
256,192,136166,1,0,0:0:0:0:
256,192,136227,1,8,0:0:0:0:
256,192,136350,1,0,0:0:0:0:
256,192,136473,1,8,0:0:0:0:
256,192,136596,1,0,0:0:0:0:
256,192,136719,1,8,0:0:0:0:
256,192,136965,1,8,0:0:0:0:
256,192,137088,1,0,0:0:0:0:
256,192,137149,1,0,0:0:0:0:
256,192,137211,1,8,0:0:0:0:
256,192,137334,1,0,0:0:0:0:
256,192,137457,1,8,0:0:0:0:
256,192,137579,1,0,0:0:0:0:
256,192,137702,1,8,0:0:0:0:
256,192,137948,1,8,0:0:0:0:
256,192,138071,1,8,0:0:0:0:
256,192,138133,1,8,0:0:0:0:
256,192,138194,1,0,0:0:0:0:
256,192,138317,1,0,0:0:0:0:
256,192,138440,1,8,0:0:0:0:
256,192,138563,1,8,0:0:0:0:
256,192,138686,1,0,0:0:0:0:
256,192,138932,1,8,0:0:0:0:
256,192,139055,1,0,0:0:0:0:
256,192,139178,1,0,0:0:0:0:
256,192,139239,1,0,0:0:0:0:
256,192,139301,1,8,0:0:0:0:
256,192,139424,1,8,0:0:0:0:
256,192,139547,1,8,0:0:0:0:
256,192,139670,1,4,0:0:0:0:
256,192,139916,1,8,0:0:0:0:
256,192,140038,1,8,0:0:0:0:
256,192,140161,1,0,0:0:0:0:
256,192,140407,1,8,0:0:0:0:
256,192,140653,1,0,0:0:0:0:
256,192,140776,1,0,0:0:0:0:
256,192,140899,1,8,0:0:0:0:
256,192,141022,1,8,0:0:0:0:
256,192,141084,1,8,0:0:0:0:
256,192,141145,1,0,0:0:0:0:
256,192,141268,1,0,0:0:0:0:
256,192,141391,1,8,0:0:0:0:
256,192,141452,1,8,0:0:0:0:
256,192,141514,1,0,0:0:0:0:
256,192,141575,1,0,0:0:0:0:
256,192,141637,1,8,0:0:0:0:
256,192,141883,1,0,0:0:0:0:
256,192,142006,1,8,0:0:0:0:
256,192,142067,1,8,0:0:0:0:
256,192,142129,1,0,0:0:0:0:
256,192,142252,1,0,0:0:0:0:
256,192,142375,1,8,0:0:0:0:
256,192,142620,1,0,0:0:0:0:
256,192,142743,1,0,0:0:0:0:
256,192,142866,1,8,0:0:0:0:
256,192,142989,1,0,0:0:0:0:
256,192,143051,1,0,0:0:0:0:
256,192,143112,1,8,0:0:0:0:
256,192,143235,1,0,0:0:0:0:
256,192,143358,1,12,0:0:0:0:
256,192,143604,1,4,0:0:0:0:
256,192,143850,1,8,0:0:0:0:
256,192,143973,1,0,0:0:0:0:
256,192,144096,1,8,0:0:0:0:
256,192,144342,1,8,0:0:0:0:
256,192,144403,1,8,0:0:0:0:
256,192,144465,1,8,0:0:0:0:
256,192,144588,1,0,0:0:0:0:
256,192,144711,1,0,0:0:0:0:
256,192,144834,1,8,0:0:0:0:
256,192,145079,1,8,0:0:0:0:
256,192,145202,1,0,0:0:0:0:
256,192,145325,1,12,0:0:0:0:
256,192,145571,1,8,0:0:0:0:
256,192,145653,1,0,0:0:0:0:
256,192,145735,1,8,0:0:0:0:
256,192,145817,1,8,0:0:0:0:
256,192,145899,1,0,0:0:0:0:
256,192,146063,1,8,0:0:0:0:
256,192,146145,1,8,0:0:0:0:
256,192,146227,1,0,0:0:0:0:
256,192,146309,1,0,0:0:0:0:
256,192,146391,1,0,0:0:0:0:
256,192,146555,1,8,0:0:0:0:
256,192,146637,1,0,0:0:0:0:
256,192,146719,1,8,0:0:0:0:
256,192,146801,1,8,0:0:0:0:
256,192,146883,1,0,0:0:0:0:
256,192,147047,1,8,0:0:0:0:
256,192,147538,1,8,0:0:0:0:
256,192,147661,1,0,0:0:0:0:
256,192,147723,1,0,0:0:0:0:
256,192,147784,1,8,0:0:0:0:
256,192,147907,1,0,0:0:0:0:
256,192,148030,1,8,0:0:0:0:
256,192,148153,1,8,0:0:0:0:
256,192,148215,1,8,0:0:0:0:
256,192,148276,1,0,0:0:0:0:
256,192,148399,1,0,0:0:0:0:
256,192,148522,1,8,0:0:0:0:
256,192,148645,1,0,0:0:0:0:
256,192,148707,1,0,0:0:0:0:
256,192,148768,1,8,0:0:0:0:
256,192,148891,1,0,0:0:0:0:
256,192,149014,1,8,0:0:0:0:
256,192,149137,1,8,0:0:0:0:
256,192,149198,1,8,0:0:0:0:
256,192,149260,1,0,0:0:0:0:
256,192,149383,1,0,0:0:0:0:
256,192,149506,1,8,0:0:0:0:
256,192,149567,1,0,0:0:0:0:
256,192,149629,1,8,0:0:0:0:
256,192,149690,1,8,0:0:0:0:
256,192,149752,1,0,0:0:0:0:
256,192,149875,1,0,0:0:0:0:
256,192,149997,1,8,0:0:0:0:
256,192,150059,1,0,0:0:0:0:
256,192,150120,1,8,0:0:0:0:
256,192,150182,1,8,0:0:0:0:
256,192,150243,1,0,0:0:0:0:
256,192,150366,1,8,0:0:0:0:
256,192,150489,1,0,0:0:0:0:
256,192,150653,1,0,0:0:0:0:
256,192,150735,1,8,0:0:0:0:
256,192,150899,1,8,0:0:0:0:
256,192,150981,1,0,0:0:0:0:
256,192,151227,1,12,0:0:0:0:
256,192,151473,1,4,0:0:0:0:
256,192,151719,1,8,0:0:0:0:
256,192,151842,1,8,0:0:0:0:
256,192,151903,1,8,0:0:0:0:
256,192,151965,1,0,0:0:0:0:
256,192,152088,1,0,0:0:0:0:
256,192,152211,1,8,0:0:0:0:
256,192,152334,1,0,0:0:0:0:
256,192,152457,1,8,0:0:0:0:
256,192,152702,1,8,0:0:0:0:
256,192,152825,1,8,0:0:0:0:
256,192,152948,1,0,0:0:0:0:
256,192,153194,1,8,0:0:0:0:
256,192,153317,1,8,0:0:0:0:
256,192,153440,1,0,0:0:0:0:
256,192,153502,1,0,0:0:0:0:
256,192,153563,1,0,0:0:0:0:
256,192,153686,1,8,0:0:0:0:
256,192,153809,1,8,0:0:0:0:
256,192,153932,1,0,0:0:0:0:
256,192,154178,1,8,0:0:0:0:
256,192,154301,1,8,0:0:0:0:
256,192,154424,1,0,0:0:0:0:
256,192,154547,1,8,0:0:0:0:
256,192,154608,1,8,0:0:0:0:
256,192,154670,1,8,0:0:0:0:
256,192,154793,1,0,0:0:0:0:
256,192,154916,1,0,0:0:0:0:
256,192,155038,1,8,0:0:0:0:
256,192,155161,1,0,0:0:0:0:
256,192,155284,1,0,0:0:0:0:
256,192,155407,1,12,0:0:0:0:
256,192,155653,1,8,0:0:0:0:
256,192,155776,1,8,0:0:0:0:
256,192,155838,1,8,0:0:0:0:
256,192,155899,1,0,0:0:0:0:
256,192,156022,1,0,0:0:0:0:
256,192,156145,1,8,0:0:0:0:
256,192,156268,1,8,0:0:0:0:
256,192,156391,1,0,0:0:0:0:
256,192,156637,1,8,0:0:0:0:
256,192,156760,1,0,0:0:0:0:
256,192,156821,1,0,0:0:0:0:
256,192,156883,1,8,0:0:0:0:
256,192,157006,1,0,0:0:0:0:
256,192,157129,1,8,0:0:0:0:
256,192,157252,1,0,0:0:0:0:
256,192,157375,1,8,0:0:0:0:
256,192,157620,1,8,0:0:0:0:
256,192,157743,1,0,0:0:0:0:
256,192,157989,1,0,0:0:0:0:
256,192,158112,1,8,0:0:0:0:
256,192,158235,1,8,0:0:0:0:
256,192,158358,1,0,0:0:0:0:
256,192,158604,1,8,0:0:0:0:
256,192,158727,1,8,0:0:0:0:
256,192,158788,1,8,0:0:0:0:
256,192,158850,1,0,0:0:0:0:
256,192,158973,1,0,0:0:0:0:
256,192,159096,1,12,0:0:0:0:
256,192,159342,1,4,0:0:0:0:
256,192,159588,1,8,0:0:0:0:
256,192,159711,1,0,0:0:0:0:
256,192,159772,1,0,0:0:0:0:
256,192,159834,1,8,0:0:0:0:
256,192,159957,1,0,0:0:0:0:
256,192,160079,1,8,0:0:0:0:
256,192,160325,1,0,0:0:0:0:
256,192,160448,1,0,0:0:0:0:
256,192,160571,1,8,0:0:0:0:
256,192,160817,1,8,0:0:0:0:
256,192,160940,1,0,0:0:0:0:
256,192,161002,1,0,0:0:0:0:
256,192,161063,1,8,0:0:0:0:
256,192,161186,1,0,0:0:0:0:
256,192,161309,1,8,0:0:0:0:
256,192,161370,1,8,0:0:0:0:
256,192,161432,1,0,0:0:0:0:
256,192,161555,1,8,0:0:0:0:
256,192,161678,1,8,0:0:0:0:
256,192,161801,1,0,0:0:0:0:
256,192,161862,1,8,0:0:0:0:
256,192,161924,1,0,0:0:0:0:
256,192,161985,1,0,0:0:0:0:
256,192,162047,1,8,0:0:0:0:
256,192,162170,1,0,0:0:0:0:
256,192,162293,1,8,0:0:0:0:
256,192,162416,1,8,0:0:0:0:
256,192,162538,1,0,0:0:0:0:
256,192,162784,1,8,0:0:0:0:
256,192,162948,1,0,0:0:0:0:
256,192,163112,1,0,0:0:0:0:
256,192,163276,1,12,0:0:0:0:
256,192,163522,1,0,0:0:0:0:
256,192,163645,1,12,0:0:0:0:
256,192,163891,1,8,0:0:0:0:
256,192,164014,1,4,0:0:0:0:
256,192,164260,1,0,0:0:0:0:
256,192,164383,1,12,0:0:0:0:
256,192,164629,1,8,0:0:0:0:
256,192,164752,1,4,0:0:0:0:
256,192,164997,1,0,0:0:0:0:
256,192,165120,1,12,0:0:0:0:
256,192,166227,1,0,0:0:0:0:
256,192,166350,1,8,0:0:0:0:
256,192,166411,1,8,0:0:0:0:
256,192,166473,1,8,0:0:0:0:
256,192,166596,1,0,0:0:0:0:
256,192,166719,1,12,0:0:0:0:
256,192,166965,1,4,0:0:0:0:
256,192,167211,1,12,0:0:0:0:
256,192,167457,1,8,0:0:0:0:
256,192,167579,1,8,0:0:0:0:
256,192,167702,1,0,0:0:0:0:
256,192,167948,1,8,0:0:0:0:
256,192,168071,1,0,0:0:0:0:
256,192,168133,1,0,0:0:0:0:
256,192,168194,1,8,0:0:0:0:
256,192,168317,1,8,0:0:0:0:
256,192,168440,1,0,0:0:0:0:
256,192,168563,1,8,0:0:0:0:
256,192,168809,1,8,0:0:0:0:
256,192,168870,1,8,0:0:0:0:
256,192,168932,1,0,0:0:0:0:
256,192,169055,1,8,0:0:0:0:
256,192,169178,1,0,0:0:0:0:
256,192,169301,1,8,0:0:0:0:
256,192,169424,1,8,0:0:0:0:
256,192,169547,1,8,0:0:0:0:
256,192,169670,1,0,0:0:0:0:
256,192,169793,1,8,0:0:0:0:
256,192,170038,1,8,0:0:0:0:
256,192,170161,1,8,0:0:0:0:
256,192,170284,1,0,0:0:0:0:
256,192,170407,1,0,0:0:0:0:
256,192,170530,1,8,0:0:0:0:
256,192,170653,1,8,0:0:0:0:
256,192,170776,1,0,0:0:0:0:
256,192,170899,1,8,0:0:0:0:
256,192,171145,1,8,0:0:0:0:
256,192,171268,1,0,0:0:0:0:
256,192,171329,1,0,0:0:0:0:
256,192,171391,1,8,0:0:0:0:
256,192,171514,1,0,0:0:0:0:
256,192,171637,1,8,0:0:0:0:
256,192,171760,1,8,0:0:0:0:
256,192,171883,1,0,0:0:0:0:
256,192,172006,1,0,0:0:0:0:
256,192,172252,1,8,0:0:0:0:
256,192,172375,1,0,0:0:0:0:
256,192,172497,1,0,0:0:0:0:
256,192,172743,1,0,0:0:0:0:
256,192,172805,1,0,0:0:0:0:
256,192,172866,1,8,0:0:0:0:
256,192,172989,1,0,0:0:0:0:
256,192,173112,1,8,0:0:0:0:
256,192,173358,1,8,0:0:0:0:
256,192,173481,1,0,0:0:0:0:
256,192,173604,1,8,0:0:0:0:
256,192,173727,1,0,0:0:0:0:
256,192,173973,1,0,0:0:0:0:
256,192,174096,1,8,0:0:0:0:
256,192,174342,1,8,0:0:0:0:
256,192,174465,1,8,0:0:0:0:
256,192,174526,1,8,0:0:0:0:
256,192,174588,1,0,0:0:0:0:
256,192,174711,1,8,0:0:0:0:
256,192,174834,1,8,0:0:0:0:
256,192,174957,1,8,0:0:0:0:
256,192,175079,1,4,0:0:0:0:
256,192,175325,1,8,0:0:0:0:
256,192,175448,1,8,0:0:0:0:
256,192,175571,1,0,0:0:0:0:
256,192,175817,1,8,0:0:0:0:
256,192,175940,1,0,0:0:0:0:
256,192,176002,1,0,0:0:0:0:
256,192,176063,1,0,0:0:0:0:
256,192,176186,1,8,0:0:0:0:
256,192,176309,1,0,0:0:0:0:
256,192,176432,1,8,0:0:0:0:
256,192,176678,1,0,0:0:0:0:
256,192,176739,1,0,0:0:0:0:
256,192,176801,1,8,0:0:0:0:
256,192,176924,1,8,0:0:0:0:
256,192,177047,1,0,0:0:0:0:
256,192,177170,1,0,0:0:0:0:
256,192,177293,1,8,0:0:0:0:
256,192,177416,1,0,0:0:0:0:
256,192,177538,1,8,0:0:0:0:
256,192,177661,1,8,0:0:0:0:
256,192,177784,1,0,0:0:0:0:
256,192,177907,1,8,0:0:0:0:
256,192,178153,1,0,0:0:0:0:
256,192,178276,1,0,0:0:0:0:
256,192,178399,1,8,0:0:0:0:
256,192,178522,1,8,0:0:0:0:
256,192,178645,1,0,0:0:0:0:
256,192,178768,1,8,0:0:0:0:
256,192,179014,1,8,0:0:0:0:
256,192,179137,1,0,0:0:0:0:
256,192,179198,1,0,0:0:0:0:
256,192,179260,1,8,0:0:0:0:
256,192,179383,1,0,0:0:0:0:
256,192,179506,1,8,0:0:0:0:
256,192,179629,1,8,0:0:0:0:
256,192,179752,1,0,0:0:0:0:
256,192,179875,1,8,0:0:0:0:
256,192,179997,1,0,0:0:0:0:
256,192,180120,1,8,0:0:0:0:
256,192,180243,1,8,0:0:0:0:
256,192,180366,1,0,0:0:0:0:
256,192,180612,1,8,0:0:0:0:
256,192,180674,1,8,0:0:0:0:
256,192,180735,1,0,0:0:0:0:
256,192,180858,1,8,0:0:0:0:
256,192,180981,1,8,0:0:0:0:
256,192,181104,1,0,0:0:0:0:
256,192,181227,1,8,0:0:0:0:
256,192,181350,1,8,0:0:0:0:
256,192,181473,1,0,0:0:0:0:
256,192,181596,1,0,0:0:0:0:
256,192,181842,1,8,0:0:0:0:
256,192,182088,1,8,0:0:0:0:
256,192,182149,1,8,0:0:0:0:
256,192,182211,1,8,0:0:0:0:
256,192,182334,1,0,0:0:0:0:
256,192,182457,1,8,0:0:0:0:
256,192,182579,1,8,0:0:0:0:
256,192,182702,1,0,0:0:0:0:
256,192,182825,1,8,0:0:0:0:
256,192,182948,1,4,0:0:0:0:
256,192,183194,1,8,0:0:0:0:
256,192,183317,1,0,0:0:0:0:
256,192,183379,1,0,0:0:0:0:
256,192,183440,1,8,0:0:0:0:
256,192,183563,1,0,0:0:0:0:
256,192,183686,1,8,0:0:0:0:
256,192,183932,1,0,0:0:0:0:
256,192,184055,1,8,0:0:0:0:
256,192,184301,1,8,0:0:0:0:
256,192,184362,1,8,0:0:0:0:
256,192,184424,1,8,0:0:0:0:
256,192,184547,1,0,0:0:0:0:
256,192,184670,1,8,0:0:0:0:
256,192,184793,1,8,0:0:0:0:
256,192,184916,1,0,0:0:0:0:
256,192,185161,1,8,0:0:0:0:
256,192,185284,1,0,0:0:0:0:
256,192,185346,1,0,0:0:0:0:
256,192,185407,1,8,0:0:0:0:
256,192,185530,1,0,0:0:0:0:
256,192,185653,1,8,0:0:0:0:
256,192,185899,1,0,0:0:0:0:
256,192,186022,1,0,0:0:0:0:
256,192,186268,1,8,0:0:0:0:
256,192,186329,1,8,0:0:0:0:
256,192,186391,1,0,0:0:0:0:
256,192,186514,1,8,0:0:0:0:
256,192,186637,1,0,0:0:0:0:
256,192,186760,1,0,0:0:0:0:
256,192,186883,1,8,0:0:0:0:
256,192,187129,1,8,0:0:0:0:
256,192,187252,1,0,0:0:0:0:
256,192,187497,1,0,0:0:0:0:
256,192,187620,1,8,0:0:0:0:
256,192,187743,1,8,0:0:0:0:
256,192,187866,1,0,0:0:0:0:
256,192,188112,1,8,0:0:0:0:
256,192,188235,1,0,0:0:0:0:
256,192,188358,1,8,0:0:0:0:
256,192,188481,1,0,0:0:0:0:
256,192,188543,1,0,0:0:0:0:
256,192,188604,1,8,0:0:0:0:
256,192,188727,1,0,0:0:0:0:
256,192,188850,1,8,0:0:0:0:
256,192,189096,1,8,0:0:0:0:
256,192,189219,1,8,0:0:0:0:
256,192,189342,1,0,0:0:0:0:
256,192,189588,1,8,0:0:0:0:
256,192,189711,1,0,0:0:0:0:
256,192,189772,1,0,0:0:0:0:
256,192,189834,1,8,0:0:0:0:
256,192,189957,1,8,0:0:0:0:
256,192,190079,1,0,0:0:0:0:
256,192,190202,1,8,0:0:0:0:
256,192,190325,1,4,0:0:0:0:
256,192,190571,1,12,0:0:0:0:
256,192,190817,1,4,0:0:0:0:
256,192,191063,1,8,0:0:0:0:
256,192,191186,1,0,0:0:0:0:
256,192,191247,1,0,0:0:0:0:
256,192,191309,1,8,0:0:0:0:
256,192,191432,1,0,0:0:0:0:
256,192,191555,1,8,0:0:0:0:
256,192,191801,1,0,0:0:0:0:
256,192,191924,1,8,0:0:0:0:
256,192,192170,1,8,0:0:0:0:
256,192,192293,1,0,0:0:0:0:
256,192,192416,1,8,0:0:0:0:
256,192,192477,1,8,0:0:0:0:
256,192,192538,1,0,0:0:0:0:
256,192,192661,1,8,0:0:0:0:
256,192,192784,1,0,0:0:0:0:
256,192,193030,1,8,0:0:0:0:
256,192,193153,1,0,0:0:0:0:
256,192,193215,1,0,0:0:0:0:
256,192,193276,1,8,0:0:0:0:
256,192,193399,1,0,0:0:0:0:
256,192,193522,1,8,0:0:0:0:
256,192,193768,1,8,0:0:0:0:
256,192,193829,1,8,0:0:0:0:
256,192,193891,1,8,0:0:0:0:
256,192,194014,1,0,0:0:0:0:
256,192,194137,1,0,0:0:0:0:
256,192,194260,1,8,0:0:0:0:
256,192,194383,1,0,0:0:0:0:
256,192,194506,1,0,0:0:0:0:
256,192,194629,1,0,0:0:0:0:
256,192,194752,1,12,0:0:0:0:
256,192,194997,1,0,0:0:0:0:
256,192,195120,1,12,0:0:0:0:
256,192,195366,1,0,0:0:0:0:
256,192,195489,1,12,0:0:0:0:
256,192,195735,1,0,0:0:0:0:
256,192,195858,1,12,0:0:0:0:
256,192,196104,1,0,0:0:0:0:
256,192,196227,1,8,0:0:0:0:
256,192,196288,1,8,0:0:0:0:
256,192,196350,1,8,0:0:0:0:
256,192,196473,1,0,0:0:0:0:
256,192,196534,1,0,0:0:0:0:
256,192,196596,1,0,0:0:0:0:
256,192,196719,1,12,0:0:0:0:
256,192,196965,1,0,0:0:0:0:
256,192,197088,1,12,0:0:0:0:
256,192,197334,1,0,0:0:0:0:
256,192,197457,1,12,0:0:0:0:
256,192,197702,1,0,0:0:0:0:
256,192,197825,1,12,0:0:0:0:
256,192,198071,1,0,0:0:0:0:
256,192,198194,1,12,0:0:0:0:
256,192,198686,1,4,0:0:0:0:
256,192,198932,1,8,0:0:0:0:
256,192,199055,1,0,0:0:0:0:
256,192,199116,1,0,0:0:0:0:
256,192,199178,1,8,0:0:0:0:
256,192,199301,1,0,0:0:0:0:
256,192,199424,1,8,0:0:0:0:
256,192,199485,1,8,0:0:0:0:
256,192,199547,1,0,0:0:0:0:
256,192,199608,1,0,0:0:0:0:
256,192,199670,1,8,0:0:0:0:
256,192,199916,1,8,0:0:0:0:
256,192,200038,1,0,0:0:0:0:
256,192,200100,1,0,0:0:0:0:
256,192,200161,1,8,0:0:0:0:
256,192,200284,1,0,0:0:0:0:
256,192,200407,1,8,0:0:0:0:
256,192,200469,1,8,0:0:0:0:
256,192,200530,1,8,0:0:0:0:
256,192,200592,1,8,0:0:0:0:
256,192,200653,1,0,0:0:0:0:
256,192,200899,1,8,0:0:0:0:
256,192,201022,1,0,0:0:0:0:
256,192,201145,1,8,0:0:0:0:
256,192,201207,1,8,0:0:0:0:
256,192,201268,1,0,0:0:0:0:
256,192,201391,1,8,0:0:0:0:
256,192,201452,1,8,0:0:0:0:
256,192,201514,1,0,0:0:0:0:
256,192,201575,1,0,0:0:0:0:
256,192,201637,1,8,0:0:0:0:
256,192,201883,1,8,0:0:0:0:
256,192,202006,1,0,0:0:0:0:
256,192,202067,1,0,0:0:0:0:
256,192,202129,1,8,0:0:0:0:
256,192,202252,1,0,0:0:0:0:
256,192,202375,1,12,0:0:0:0:
256,192,202620,1,4,0:0:0:0:
256,192,202866,1,0,0:0:0:0:
256,192,202989,1,0,0:0:0:0:
256,192,203112,1,8,0:0:0:0:
256,192,203235,1,0,0:0:0:0:
256,192,203297,1,0,0:0:0:0:
256,192,203358,1,8,0:0:0:0:
256,192,203481,1,0,0:0:0:0:
256,192,203604,1,8,0:0:0:0:
256,192,203727,1,8,0:0:0:0:
256,192,203788,1,8,0:0:0:0:
256,192,203850,1,0,0:0:0:0:
256,192,203973,1,8,0:0:0:0:
256,192,204096,1,8,0:0:0:0:
256,192,204219,1,0,0:0:0:0:
256,192,204342,1,8,0:0:0:0:
256,192,204588,1,0,0:0:0:0:
256,192,204711,1,8,0:0:0:0:
256,192,204772,1,8,0:0:0:0:
256,192,204834,1,0,0:0:0:0:
256,192,204957,1,8,0:0:0:0:
256,192,205079,1,0,0:0:0:0:
256,192,205202,1,8,0:0:0:0:
256,192,205264,1,0,0:0:0:0:
256,192,205325,1,8,0:0:0:0:
256,192,205448,1,0,0:0:0:0:
256,192,205571,1,8,0:0:0:0:
256,192,205633,1,8,0:0:0:0:
256,192,205694,1,0,0:0:0:0:
256,192,205817,1,8,0:0:0:0:
256,192,205940,1,0,0:0:0:0:
256,192,206186,1,8,0:0:0:0:
256,192,206309,1,8,0:0:0:0:
256,192,206432,1,8,0:0:0:0:
256,192,206555,1,4,0:0:0:0:
256,192,206801,1,8,0:0:0:0:
256,192,206924,1,0,0:0:0:0:
256,192,206985,1,0,0:0:0:0:
256,192,207047,1,8,0:0:0:0:
256,192,207170,1,0,0:0:0:0:
256,192,207293,1,8,0:0:0:0:
256,192,207354,1,8,0:0:0:0:
256,192,207416,1,0,0:0:0:0:
256,192,207477,1,0,0:0:0:0:
256,192,207538,1,8,0:0:0:0:
256,192,207784,1,8,0:0:0:0:
256,192,207907,1,0,0:0:0:0:
256,192,207969,1,0,0:0:0:0:
256,192,208030,1,8,0:0:0:0:
256,192,208153,1,0,0:0:0:0:
256,192,208276,1,8,0:0:0:0:
256,192,208338,1,8,0:0:0:0:
256,192,208399,1,8,0:0:0:0:
256,192,208461,1,8,0:0:0:0:
256,192,208522,1,0,0:0:0:0:
256,192,208768,1,8,0:0:0:0:
256,192,208891,1,0,0:0:0:0:
256,192,209014,1,8,0:0:0:0:
256,192,209075,1,8,0:0:0:0:
256,192,209137,1,0,0:0:0:0:
256,192,209260,1,8,0:0:0:0:
256,192,209321,1,8,0:0:0:0:
256,192,209383,1,0,0:0:0:0:
256,192,209444,1,0,0:0:0:0:
256,192,209506,1,8,0:0:0:0:
256,192,209752,1,8,0:0:0:0:
256,192,209875,1,0,0:0:0:0:
256,192,209936,1,0,0:0:0:0:
256,192,209997,1,8,0:0:0:0:
256,192,210120,1,0,0:0:0:0:
256,192,210243,1,12,0:0:0:0:
256,192,210489,1,4,0:0:0:0:
256,192,210735,1,8,0:0:0:0:
256,192,210858,1,8,0:0:0:0:
256,192,210981,1,0,0:0:0:0:
256,192,211104,1,8,0:0:0:0:
256,192,211166,1,8,0:0:0:0:
256,192,211227,1,0,0:0:0:0:
256,192,211350,1,8,0:0:0:0:
256,192,211473,1,0,0:0:0:0:
256,192,211534,1,8,0:0:0:0:
256,192,211596,1,0,0:0:0:0:
256,192,211719,1,8,0:0:0:0:
256,192,211842,1,0,0:0:0:0:
256,192,211903,1,0,0:0:0:0:
256,192,211965,1,8,0:0:0:0:
256,192,212026,1,8,0:0:0:0:
256,192,212088,1,0,0:0:0:0:
256,192,212211,1,8,0:0:0:0:
256,192,212457,1,8,0:0:0:0:
256,192,212538,1,8,0:0:0:0:
256,192,212620,1,8,0:0:0:0:
256,192,212702,1,0,0:0:0:0:
256,192,212825,1,8,0:0:0:0:
256,192,212948,1,0,0:0:0:0:
256,192,213030,1,0,0:0:0:0:
256,192,213112,1,0,0:0:0:0:
256,192,213194,1,8,0:0:0:0:
256,192,213440,1,4,0:0:0:0:
256,192,213563,1,4,0:0:0:0:
256,192,213809,1,12,0:0:0:0:
256,192,214055,1,8,0:0:0:0:
256,192,214178,1,8,0:0:0:0:
256,192,214301,1,8,0:0:0:0:
256,192,214424,1,4,0:0:0:0:
256,192,214670,1,8,0:0:0:0:
256,192,214793,1,0,0:0:0:0:
256,192,214854,1,0,0:0:0:0:
256,192,214916,1,8,0:0:0:0:
256,192,215038,1,0,0:0:0:0:
256,192,215161,1,8,0:0:0:0:
256,192,215223,1,8,0:0:0:0:
256,192,215284,1,0,0:0:0:0:
256,192,215346,1,0,0:0:0:0:
256,192,215407,1,8,0:0:0:0:
256,192,215530,1,0,0:0:0:0:
256,192,215653,1,8,0:0:0:0:
256,192,215776,1,0,0:0:0:0:
256,192,215838,1,0,0:0:0:0:
256,192,215899,1,8,0:0:0:0:
256,192,216022,1,0,0:0:0:0:
256,192,216145,1,8,0:0:0:0:
256,192,216207,1,8,0:0:0:0:
256,192,216268,1,8,0:0:0:0:
256,192,216329,1,8,0:0:0:0:
256,192,216391,1,0,0:0:0:0:
256,192,216637,1,8,0:0:0:0:
256,192,216760,1,0,0:0:0:0:
256,192,216883,1,8,0:0:0:0:
256,192,216944,1,8,0:0:0:0:
256,192,217006,1,0,0:0:0:0:
256,192,217129,1,8,0:0:0:0:
256,192,217190,1,8,0:0:0:0:
256,192,217252,1,0,0:0:0:0:
256,192,217313,1,0,0:0:0:0:
256,192,217375,1,8,0:0:0:0:
256,192,217497,1,0,0:0:0:0:
256,192,217620,1,8,0:0:0:0:
256,192,217743,1,0,0:0:0:0:
256,192,217805,1,0,0:0:0:0:
256,192,217866,1,8,0:0:0:0:
256,192,217989,1,0,0:0:0:0:
256,192,218112,1,12,0:0:0:0:
256,192,218358,1,4,0:0:0:0:
256,192,218604,1,8,0:0:0:0:
256,192,218727,1,0,0:0:0:0:
256,192,218850,1,8,0:0:0:0:
256,192,218973,1,0,0:0:0:0:
256,192,219034,1,0,0:0:0:0:
256,192,219096,1,8,0:0:0:0:
256,192,219219,1,0,0:0:0:0:
256,192,219342,1,8,0:0:0:0:
256,192,219403,1,0,0:0:0:0:
256,192,219465,1,0,0:0:0:0:
256,192,219588,1,8,0:0:0:0:
256,192,219711,1,8,0:0:0:0:
256,192,219834,1,0,0:0:0:0:
256,192,219957,1,0,0:0:0:0:
256,192,220079,1,8,0:0:0:0:
256,192,220325,1,0,0:0:0:0:
256,192,220448,1,8,0:0:0:0:
256,192,220510,1,8,0:0:0:0:
256,192,220571,1,0,0:0:0:0:
256,192,220694,1,8,0:0:0:0:
256,192,220817,1,0,0:0:0:0:
256,192,220940,1,8,0:0:0:0:
256,192,221002,1,0,0:0:0:0:
256,192,221063,1,8,0:0:0:0:
256,192,221186,1,0,0:0:0:0:
256,192,221309,1,8,0:0:0:0:
256,192,221370,1,8,0:0:0:0:
256,192,221432,1,8,0:0:0:0:
256,192,221555,1,0,0:0:0:0:
256,192,221678,1,8,0:0:0:0:
256,192,221924,1,8,0:0:0:0:
256,192,222047,1,8,0:0:0:0:
256,192,222170,1,8,0:0:0:0:
256,192,222293,1,4,0:0:0:0:
256,192,222538,1,8,0:0:0:0:
256,192,222661,1,0,0:0:0:0:
256,192,222723,1,0,0:0:0:0:
256,192,222784,1,8,0:0:0:0:
256,192,222907,1,0,0:0:0:0:
256,192,223030,1,8,0:0:0:0:
256,192,223092,1,8,0:0:0:0:
256,192,223153,1,0,0:0:0:0:
256,192,223215,1,0,0:0:0:0:
256,192,223276,1,8,0:0:0:0:
256,192,223399,1,0,0:0:0:0:
256,192,223522,1,8,0:0:0:0:
256,192,223645,1,0,0:0:0:0:
256,192,223707,1,0,0:0:0:0:
256,192,223768,1,8,0:0:0:0:
256,192,223891,1,0,0:0:0:0:
256,192,224014,1,8,0:0:0:0:
256,192,224075,1,8,0:0:0:0:
256,192,224137,1,8,0:0:0:0:
256,192,224198,1,8,0:0:0:0:
256,192,224260,1,0,0:0:0:0:
256,192,224506,1,8,0:0:0:0:
256,192,224629,1,0,0:0:0:0:
256,192,224752,1,8,0:0:0:0:
256,192,224813,1,8,0:0:0:0:
256,192,224875,1,0,0:0:0:0:
256,192,224997,1,8,0:0:0:0:
256,192,225059,1,8,0:0:0:0:
256,192,225120,1,0,0:0:0:0:
256,192,225182,1,0,0:0:0:0:
256,192,225243,1,8,0:0:0:0:
256,192,225366,1,0,0:0:0:0:
256,192,225489,1,8,0:0:0:0:
256,192,225612,1,0,0:0:0:0:
256,192,225674,1,0,0:0:0:0:
256,192,225735,1,8,0:0:0:0:
256,192,225858,1,0,0:0:0:0:
256,192,225981,1,12,0:0:0:0:
256,192,226227,1,4,0:0:0:0:
256,192,226473,1,0,0:0:0:0:
256,192,226596,1,0,0:0:0:0:
256,192,226719,1,8,0:0:0:0:
256,192,226842,1,0,0:0:0:0:
256,192,226903,1,0,0:0:0:0:
256,192,226965,1,8,0:0:0:0:
256,192,227088,1,0,0:0:0:0:
256,192,227211,1,8,0:0:0:0:
256,192,227272,1,8,0:0:0:0:
256,192,227334,1,0,0:0:0:0:
256,192,227457,1,8,0:0:0:0:
256,192,227579,1,0,0:0:0:0:
256,192,227641,1,0,0:0:0:0:
256,192,227702,1,8,0:0:0:0:
256,192,227825,1,0,0:0:0:0:
256,192,227948,1,8,0:0:0:0:
256,192,228194,1,8,0:0:0:0:
256,192,228276,1,8,0:0:0:0:
256,192,228358,1,8,0:0:0:0:
256,192,228440,1,0,0:0:0:0:
256,192,228563,1,8,0:0:0:0:
256,192,228686,1,0,0:0:0:0:
256,192,228768,1,0,0:0:0:0:
256,192,228850,1,0,0:0:0:0:
256,192,228932,1,8,0:0:0:0:
256,192,229178,1,4,0:0:0:0:
256,192,229301,1,4,0:0:0:0:
256,192,229547,1,12,0:0:0:0:
256,192,229916,1,8,0:0:0:0:
256,192,230161,1,4,0:0:0:0:
256,192,230284,12,0,235940,0:0:0:0:
256,192,236186,5,8,0:0:0:0:
256,192,236247,1,8,0:0:0:0:
256,192,236309,1,0,0:0:0:0:
256,192,236432,1,8,0:0:0:0:
256,192,236555,1,0,0:0:0:0:
256,192,236678,1,0,0:0:0:0:
256,192,236801,1,8,0:0:0:0:
256,192,236924,1,8,0:0:0:0:
256,192,237047,1,0,0:0:0:0:
256,192,237170,1,0,0:0:0:0:
256,192,237293,1,8,0:0:0:0:
256,192,237416,1,8,0:0:0:0:
256,192,237538,1,0,0:0:0:0:
256,192,237661,1,0,0:0:0:0:
256,192,237784,1,8,0:0:0:0:
256,192,237907,1,0,0:0:0:0:
256,192,238030,1,12,0:0:0:0:
256,192,238276,1,0,0:0:0:0:
256,192,238522,1,0,0:0:0:0:
256,192,238645,1,0,0:0:0:0:
256,192,238768,1,8,0:0:0:0:
256,192,238891,1,8,0:0:0:0:
256,192,239014,1,0,0:0:0:0:
256,192,239137,1,8,0:0:0:0:
256,192,239260,1,0,0:0:0:0:
256,192,239506,1,0,0:0:0:0:
256,192,239629,1,0,0:0:0:0:
256,192,239752,1,8,0:0:0:0:
256,192,239875,1,8,0:0:0:0:
256,192,239997,1,0,0:0:0:0:
256,192,240243,1,0,0:0:0:0:
256,192,240489,1,8,0:0:0:0:
256,192,240612,1,0,0:0:0:0:
256,192,240735,1,8,0:0:0:0:
256,192,240858,1,8,0:0:0:0:
256,192,240981,1,0,0:0:0:0:
256,192,241104,1,8,0:0:0:0:
256,192,241227,1,0,0:0:0:0:
256,192,241473,1,8,0:0:0:0:
256,192,241596,1,8,0:0:0:0:
256,192,241719,1,0,0:0:0:0:
256,192,241842,1,8,0:0:0:0:
256,192,241965,1,0,0:0:0:0:
256,192,242211,1,0,0:0:0:0:
256,192,242457,1,8,0:0:0:0:
256,192,242579,1,0,0:0:0:0:
256,192,242702,1,8,0:0:0:0:
256,192,242825,1,0,0:0:0:0:
256,192,243071,1,0,0:0:0:0:
256,192,243194,1,8,0:0:0:0:
256,192,243317,1,0,0:0:0:0:
256,192,243563,1,8,0:0:0:0:
256,192,243686,1,0,0:0:0:0:
256,192,243809,1,0,0:0:0:0:
256,192,243932,1,8,0:0:0:0:
256,192,244178,1,0,0:0:0:0:
256,192,244301,1,8,0:0:0:0:
256,192,244547,1,8,0:0:0:0:
256,192,244670,1,0,0:0:0:0:
256,192,244916,1,0,0:0:0:0:
256,192,245038,1,8,0:0:0:0:
256,192,245161,1,0,0:0:0:0:
256,192,245284,1,0,0:0:0:0:
256,192,245407,1,8,0:0:0:0:
256,192,245653,1,0,0:0:0:0:
256,192,245899,1,8,0:0:0:0:
256,192,246022,1,0,0:0:0:0:
256,192,246084,1,0,0:0:0:0:
256,192,246145,1,8,0:0:0:0:
256,192,246268,1,0,0:0:0:0:
256,192,246391,1,8,0:0:0:0:
256,192,246452,1,8,0:0:0:0:
256,192,246514,1,0,0:0:0:0:
256,192,246637,1,8,0:0:0:0:
256,192,246883,1,8,0:0:0:0:
256,192,246944,1,0,0:0:0:0:
256,192,247006,1,0,0:0:0:0:
256,192,247129,1,0,0:0:0:0:
256,192,247252,1,8,0:0:0:0:
256,192,247313,1,0,0:0:0:0:
256,192,247375,1,8,0:0:0:0:
256,192,247497,1,0,0:0:0:0:
256,192,247620,1,8,0:0:0:0:
256,192,247682,1,0,0:0:0:0:
256,192,247743,1,8,0:0:0:0:
256,192,247805,1,8,0:0:0:0:
256,192,247866,1,0,0:0:0:0:
256,192,247989,1,8,0:0:0:0:
256,192,248112,1,0,0:0:0:0:
256,192,248235,1,8,0:0:0:0:
256,192,248358,1,0,0:0:0:0:
256,192,248481,1,0,0:0:0:0:
256,192,248604,1,8,0:0:0:0:
256,192,248727,1,8,0:0:0:0:
256,192,248850,1,0,0:0:0:0:
256,192,249096,1,8,0:0:0:0:
256,192,249219,1,0,0:0:0:0:
256,192,249342,1,8,0:0:0:0:
256,192,249403,1,8,0:0:0:0:
256,192,249465,1,0,0:0:0:0:
256,192,249526,1,0,0:0:0:0:
256,192,249588,1,8,0:0:0:0:
256,192,249711,1,0,0:0:0:0:
256,192,249834,1,8,0:0:0:0:
256,192,250079,1,8,0:0:0:0:
256,192,250202,1,0,0:0:0:0:
256,192,250264,1,0,0:0:0:0:
256,192,250325,1,8,0:0:0:0:
256,192,250448,1,0,0:0:0:0:
256,192,250571,1,8,0:0:0:0:
256,192,250694,1,8,0:0:0:0:
256,192,250817,1,0,0:0:0:0:
256,192,250879,1,0,0:0:0:0:
256,192,250940,1,0,0:0:0:0:
256,192,251063,1,8,0:0:0:0:
256,192,251186,1,0,0:0:0:0:
256,192,251247,1,0,0:0:0:0:
256,192,251309,1,8,0:0:0:0:
256,192,251555,1,8,0:0:0:0:
256,192,251678,1,0,0:0:0:0:
256,192,251924,1,0,0:0:0:0:
256,192,252047,1,8,0:0:0:0:
256,192,252293,1,8,0:0:0:0:
256,192,252538,1,8,0:0:0:0:
256,192,252661,1,8,0:0:0:0:
256,192,252784,1,0,0:0:0:0:
256,192,253030,1,8,0:0:0:0:
256,192,253276,1,0,0:0:0:0:
256,192,253399,1,8,0:0:0:0:
256,192,253522,1,8,0:0:0:0:
256,192,253645,1,8,0:0:0:0:
256,192,253768,1,0,0:0:0:0:
256,192,253829,1,0,0:0:0:0:
256,192,253891,1,0,0:0:0:0:
256,192,254014,1,8,0:0:0:0:
256,192,254137,1,0,0:0:0:0:
256,192,254198,1,0,0:0:0:0:
256,192,254260,1,8,0:0:0:0:
256,192,254383,1,0,0:0:0:0:
256,192,254506,1,8,0:0:0:0:
256,192,254752,1,8,0:0:0:0:
256,192,254813,1,8,0:0:0:0:
256,192,254875,1,0,0:0:0:0:
256,192,254936,1,0,0:0:0:0:
256,192,254997,1,8,0:0:0:0:
256,192,255120,1,0,0:0:0:0:
256,192,255243,1,8,0:0:0:0:
256,192,255305,1,8,0:0:0:0:
256,192,255366,1,8,0:0:0:0:
256,192,255489,1,0,0:0:0:0:
256,192,255612,1,0,0:0:0:0:
256,192,255674,1,0,0:0:0:0:
256,192,255735,1,8,0:0:0:0:
256,192,255858,1,0,0:0:0:0:
256,192,255981,1,8,0:0:0:0:
256,192,256227,1,0,0:0:0:0:
256,192,256350,1,8,0:0:0:0:
256,192,256411,1,8,0:0:0:0:
256,192,256473,1,0,0:0:0:0:
256,192,256596,1,8,0:0:0:0:
256,192,256719,1,0,0:0:0:0:
256,192,256780,1,0,0:0:0:0:
256,192,256842,1,0,0:0:0:0:
256,192,256965,1,8,0:0:0:0:
256,192,257088,1,8,0:0:0:0:
256,192,257211,1,0,0:0:0:0:
256,192,257334,1,12,0:0:0:0:
256,192,257579,1,4,0:0:0:0:
256,192,257825,1,0,0:0:0:0:
256,192,257948,1,8,0:0:0:0:
256,192,258194,1,0,0:0:0:0:
256,192,258317,1,0,0:0:0:0:
256,192,258440,1,8,0:0:0:0:
256,192,258686,1,0,0:0:0:0:
256,192,258932,1,8,0:0:0:0:
256,192,259055,1,0,0:0:0:0:
256,192,259301,1,0,0:0:0:0:
256,192,259424,1,8,0:0:0:0:
256,192,259485,1,8,0:0:0:0:
256,192,259547,1,0,0:0:0:0:
256,192,259670,1,12,0:0:0:0:
256,192,259916,1,0,0:0:0:0:
256,192,260038,1,12,0:0:0:0:
256,192,260284,1,0,0:0:0:0:
256,192,260407,1,12,0:0:0:0:
256,192,260653,1,0,0:0:0:0:
256,192,260776,1,12,0:0:0:0:
256,192,261022,1,8,0:0:0:0:
256,192,261145,1,0,0:0:0:0:
256,192,261207,1,0,0:0:0:0:
256,192,261268,1,0,0:0:0:0:
256,192,261329,1,0,0:0:0:0:
256,192,261391,1,8,0:0:0:0:
256,192,261637,1,12,0:0:0:0:
256,192,261883,1,0,0:0:0:0:
256,192,262006,1,12,0:0:0:0:
256,192,262252,1,8,0:0:0:0:
256,192,262375,1,4,0:0:0:0:
256,192,262620,1,0,0:0:0:0:
256,192,262743,1,12,0:0:0:0:
256,192,262989,1,8,0:0:0:0:
256,192,263112,1,4,0:0:0:0:
256,192,263358,1,0,0:0:0:0:
256,192,263481,1,12,0:0:0:0:
256,192,263604,12,0,263973,0:0:0:0:
