osu file format v14

[General]
AudioFilename: audio.mp3
AudioLeadIn: 0
PreviewTime: 203105
Countdown: 0
SampleSet: Soft
StackLeniency: 0.7
Mode: 3
LetterboxInBreaks: 0
SpecialStyle: 0
WidescreenStoryboard: 0

[Editor]
DistanceSpacing: 0.8
BeatDivisor: 4
GridSize: 32
TimelineZoom: 1

[Metadata]
Title:FIRETHROWER
TitleUnicode:FIRETHROWER
Artist:Camellia
ArtistUnicode:かめりあ
Creator:Dreamgate
Version:MISTRESS OF FLAME
Source:
Tags:
BeatmapID:1052189
BeatmapSetID:494138

[Difficulty]
HPDrainRate:8
CircleSize:4
OverallDifficulty:8
ApproachRate:5
SliderMultiplier:1.4
SliderTickRate:1

[Events]
//Background and Video events
0,0,"bg.png",0,0
//Break Periods
//Storyboard Layer 0 (Background)
//Storyboard Layer 1 (Fail)
//Storyboard Layer 2 (Pass)
//Storyboard Layer 3 (Foreground)
//Storyboard Sound Samples

[TimingPoints]
1000,315.789473684211,4,2,0,30,1,0
41421,-100,4,2,0,30,0,1
81842,-100,4,2,0,30,0,0
203105,-100,4,2,0,30,0,1
243526,-100,4,2,0,30,0,0

[HitObjects]
64,192,1000,5,0,0:0:0:0:
448,192,1000,1,0,0:0:0:0:
320,192,1157,1,0,0:0:0:0:
448,192,1315,1,0,0:0:0:0:
192,192,1473,1,0,0:0:0:0:
64,192,1631,1,0,0:0:0:0:
192,192,1789,1,0,0:0:0:0:
320,192,1947,1,0,0:0:0:0:
192,192,2105,1,0,0:0:0:0:
448,192,2263,1,0,0:0:0:0:
64,192,2421,1,0,0:0:0:0:
320,192,2578,1,0,0:0:0:0:
192,192,2736,1,0,0:0:0:0:
320,192,2894,1,0,0:0:0:0:
64,192,3052,1,0,0:0:0:0:
192,192,3210,1,0,0:0:0:0:
320,192,3368,1,0,0:0:0:0:
192,192,3526,1,0,0:0:0:0:
448,192,3684,1,0,0:0:0:0:
320,192,3842,1,0,0:0:0:0:
192,192,4000,1,0,0:0:0:0:
64,192,4157,1,0,0:0:0:0:
320,192,4315,1,0,0:0:0:0:
192,192,4473,1,0,0:0:0:0:
64,192,4631,1,0,0:0:0:0:
320,192,4789,1,0,0:0:0:0:
192,192,4947,1,0,0:0:0:0:
320,192,5105,1,0,0:0:0:0:
448,192,5263,1,0,0:0:0:0:
320,192,5421,1,0,0:0:0:0:
192,192,5578,1,0,0:0:0:0:
320,192,5736,1,0,0:0:0:0:
448,192,5894,1,0,0:0:0:0:
192,192,6052,1,0,0:0:0:0:
64,192,6210,1,0,0:0:0:0:
192,192,6368,1,0,0:0:0:0:
320,192,6526,1,0,0:0:0:0:
448,192,6684,1,0,0:0:0:0:
320,192,6842,1,0,0:0:0:0:
192,192,7000,1,0,0:0:0:0:
320,192,7157,1,0,0:0:0:0:
192,192,7315,1,0,0:0:0:0:
64,192,7473,1,0,0:0:0:0:
192,192,7631,1,0,0:0:0:0:
320,192,7789,1,0,0:0:0:0:
192,192,7947,1,0,0:0:0:0:
320,192,8105,1,0,0:0:0:0:
448,192,8263,1,0,0:0:0:0:
320,192,8421,1,0,0:0:0:0:
192,192,8578,1,0,0:0:0:0:
64,192,8736,1,0,0:0:0:0:
192,192,8894,1,0,0:0:0:0:
320,192,9052,1,0,0:0:0:0:
192,192,9210,1,0,0:0:0:0:
448,192,9368,1,0,0:0:0:0:
320,192,9526,1,0,0:0:0:0:
64,192,9684,1,0,0:0:0:0:
192,192,9842,1,0,0:0:0:0:
320,192,10000,1,0,0:0:0:0:
448,192,10157,1,0,0:0:0:0:
320,192,10315,1,0,0:0:0:0:
64,192,10473,1,0,0:0:0:0:
192,192,10631,1,0,0:0:0:0:
320,192,10789,1,0,0:0:0:0:
64,192,10947,1,0,0:0:0:0:
192,192,11105,1,0,0:0:0:0:
448,192,11263,1,0,0:0:0:0:
320,192,11421,1,0,0:0:0:0:
192,192,11578,1,0,0:0:0:0:
320,192,11736,1,0,0:0:0:0:
192,192,11894,1,0,0:0:0:0:
64,192,12052,1,0,0:0:0:0:
192,192,12210,1,0,0:0:0:0:
320,192,12368,1,0,0:0:0:0:
64,192,12526,1,0,0:0:0:0:
192,192,12684,1,0,0:0:0:0:
448,192,12842,1,0,0:0:0:0:
320,192,13000,1,0,0:0:0:0:
192,192,13157,1,0,0:0:0:0:
320,192,13315,1,0,0:0:0:0:
64,192,13473,1,0,0:0:0:0:
192,192,13631,1,0,0:0:0:0:
320,192,13789,1,0,0:0:0:0:
448,192,13947,1,0,0:0:0:0:
320,192,14105,1,0,0:0:0:0:
192,192,14263,1,0,0:0:0:0:
448,192,14421,1,0,0:0:0:0:
320,192,14578,1,0,0:0:0:0:
192,192,14736,1,0,0:0:0:0:
64,192,14894,1,0,0:0:0:0:
192,192,15052,1,0,0:0:0:0:
320,192,15210,1,0,0:0:0:0:
64,192,15368,1,0,0:0:0:0:
192,192,15526,1,0,0:0:0:0:
320,192,15684,1,0,0:0:0:0:
192,192,15842,1,0,0:0:0:0:
320,192,16000,1,0,0:0:0:0:
64,192,16157,1,0,0:0:0:0:
448,192,16157,1,0,0:0:0:0:
192,192,16315,1,0,0:0:0:0:
448,192,16473,1,0,0:0:0:0:
320,192,16631,1,0,0:0:0:0:
64,192,16789,1,0,0:0:0:0:
192,192,16789,1,0,0:0:0:0:
320,192,16947,1,0,0:0:0:0:
448,192,17105,1,0,0:0:0:0:
192,192,17263,1,0,0:0:0:0:
64,192,17421,1,0,0:0:0:0:
448,192,17421,1,0,0:0:0:0:
320,192,17578,1,0,0:0:0:0:
192,192,17736,1,0,0:0:0:0:
64,192,17894,1,0,0:0:0:0:
320,192,18052,1,0,0:0:0:0:
448,192,18052,1,0,0:0:0:0:
192,192,18210,1,0,0:0:0:0:
320,192,18368,1,0,0:0:0:0:
448,192,18526,1,0,0:0:0:0:
64,192,18684,1,0,0:0:0:0:
192,192,18684,1,0,0:0:0:0:
320,192,18842,1,0,0:0:0:0:
448,192,19000,1,0,0:0:0:0:
192,192,19157,1,0,0:0:0:0:
320,192,19197,1,0,0:0:0:0:
192,192,19236,1,0,0:0:0:0:
64,192,19276,1,0,0:0:0:0:
448,192,19276,1,0,0:0:0:0:
64,192,19789,1,0,0:0:0:0:
192,192,19789,1,0,0:0:0:0:
320,192,19868,1,0,0:0:0:0:
448,192,19868,1,0,0:0:0:0:
64,192,19947,1,0,0:0:0:0:
192,192,19947,1,0,0:0:0:0:
192,192,20263,1,0,0:0:0:0:
320,192,20263,1,0,0:0:0:0:
192,192,20578,1,0,0:0:0:0:
320,192,20578,1,0,0:0:0:0:
64,192,20736,1,0,0:0:0:0:
192,192,20736,1,0,0:0:0:0:
448,192,20736,1,0,0:0:0:0:
192,192,20973,1,0,0:0:0:0:
320,192,20973,1,0,0:0:0:0:
448,192,20973,1,0,0:0:0:0:
64,192,21210,1,0,0:0:0:0:
192,192,21210,1,0,0:0:0:0:
320,192,21210,1,0,0:0:0:0:
64,192,21526,1,0,0:0:0:0:
448,192,21526,1,0,0:0:0:0:
320,192,21526,1,0,0:0:0:0:
192,192,21684,1,0,0:0:0:0:
320,192,22000,1,0,0:0:0:0:
192,192,22157,1,0,0:0:0:0:
64,192,22315,1,0,0:0:0:0:
448,192,22473,1,0,0:0:0:0:
320,192,22631,1,0,0:0:0:0:
192,192,22789,1,0,0:0:0:0:
64,192,22947,1,0,0:0:0:0:
320,192,23105,1,0,0:0:0:0:
448,192,23263,1,0,0:0:0:0:
320,192,23421,1,0,0:0:0:0:
64,192,23578,1,0,0:0:0:0:
192,192,23736,1,0,0:0:0:0:
320,192,23736,1,0,0:0:0:0:
448,192,23736,1,0,0:0:0:0:
192,192,23894,1,0,0:0:0:0:
64,192,24052,1,0,0:0:0:0:
192,192,24052,1,0,0:0:0:0:
320,192,24052,1,0,0:0:0:0:
448,192,24210,1,0,0:0:0:0:
320,192,24368,1,0,0:0:0:0:
192,192,24526,1,0,0:0:0:0:
64,192,24684,1,0,0:0:0:0:
192,192,24842,1,0,0:0:0:0:
64,192,25000,1,0,0:0:0:0:
448,192,25000,1,0,0:0:0:0:
320,192,25157,1,0,0:0:0:0:
448,192,25157,1,0,0:0:0:0:
64,192,25236,1,0,0:0:0:0:
192,192,25236,1,0,0:0:0:0:
320,192,25315,1,0,0:0:0:0:
448,192,25315,1,0,0:0:0:0:
64,192,25473,1,0,0:0:0:0:
192,192,25473,1,0,0:0:0:0:
320,192,25552,1,0,0:0:0:0:
448,192,25552,1,0,0:0:0:0:
64,192,25631,1,0,0:0:0:0:
192,192,25631,1,0,0:0:0:0:
192,192,25789,1,0,0:0:0:0:
320,192,25789,1,0,0:0:0:0:
448,192,25789,1,0,0:0:0:0:
64,192,25868,1,0,0:0:0:0:
64,192,26026,1,0,0:0:0:0:
192,192,26026,1,0,0:0:0:0:
448,192,26026,1,0,0:0:0:0:
64,192,26263,1,0,0:0:0:0:
320,192,26263,1,0,0:0:0:0:
448,192,26263,1,0,0:0:0:0:
192,192,26421,1,0,0:0:0:0:
64,192,26578,1,0,0:0:0:0:
192,192,26578,1,0,0:0:0:0:
320,192,26578,1,0,0:0:0:0:
320,192,26736,1,0,0:0:0:0:
192,192,26894,1,0,0:0:0:0:
64,192,27052,1,0,0:0:0:0:
448,192,27210,1,0,0:0:0:0:
320,192,27368,1,0,0:0:0:0:
192,192,27526,1,0,0:0:0:0:
320,192,27684,1,0,0:0:0:0:
64,192,27842,1,0,0:0:0:0:
192,192,28000,1,0,0:0:0:0:
320,192,28157,1,0,0:0:0:0:
64,192,28315,1,0,0:0:0:0:
192,192,28315,1,0,0:0:0:0:
320,192,28473,1,0,0:0:0:0:
448,192,28473,1,0,0:0:0:0:
64,192,28789,1,0,0:0:0:0:
448,192,28789,1,0,0:0:0:0:
192,192,28789,1,0,0:0:0:0:
320,192,28947,1,0,0:0:0:0:
192,192,29105,1,0,0:0:0:0:
320,192,29105,1,0,0:0:0:0:
448,192,29105,1,0,0:0:0:0:
192,192,29263,1,0,0:0:0:0:
64,192,29421,1,0,0:0:0:0:
320,192,29578,1,0,0:0:0:0:
448,192,29736,1,0,0:0:0:0:
64,192,29894,1,0,0:0:0:0:
192,192,29934,1,0,0:0:0:0:
320,192,29973,1,0,0:0:0:0:
448,192,30013,1,0,0:0:0:0:
64,192,30052,1,0,0:0:0:0:
192,192,30052,1,0,0:0:0:0:
448,192,30368,1,0,0:0:0:0:
320,192,30407,1,0,0:0:0:0:
192,192,30447,1,0,0:0:0:0:
64,192,30486,1,0,0:0:0:0:
320,192,30526,1,0,0:0:0:0:
448,192,30526,1,0,0:0:0:0:
448,192,30842,1,0,0:0:0:0:
320,192,30842,1,0,0:0:0:0:
64,192,30842,1,0,0:0:0:0:
64,192,31078,1,0,0:0:0:0:
192,192,31078,1,0,0:0:0:0:
320,192,31078,1,0,0:0:0:0:
448,192,31315,1,0,0:0:0:0:
64,192,31315,1,0,0:0:0:0:
192,192,31315,1,0,0:0:0:0:
320,192,31473,1,0,0:0:0:0:
192,192,31473,1,0,0:0:0:0:
64,192,31473,1,0,0:0:0:0:
320,192,31631,1,0,0:0:0:0:
448,192,31789,1,0,0:0:0:0:
64,192,31947,1,0,0:0:0:0:
192,192,31947,1,0,0:0:0:0:
320,192,31947,1,0,0:0:0:0:
448,192,32105,1,0,0:0:0:0:
320,192,32105,1,0,0:0:0:0:
64,192,32105,1,0,0:0:0:0:
192,192,32263,1,0,0:0:0:0:
320,192,32421,1,0,0:0:0:0:
64,192,32578,1,0,0:0:0:0:
192,192,32578,1,0,0:0:0:0:
448,192,32578,1,0,0:0:0:0:
448,192,32736,1,0,0:0:0:0:
320,192,32736,1,0,0:0:0:0:
192,192,32736,1,0,0:0:0:0:
320,192,32894,1,0,0:0:0:0:
192,192,33052,1,0,0:0:0:0:
64,192,33210,1,0,0:0:0:0:
320,192,33210,1,0,0:0:0:0:
448,192,33210,1,0,0:0:0:0:
64,192,33368,1,0,0:0:0:0:
192,192,33368,1,0,0:0:0:0:
320,192,33368,1,0,0:0:0:0:
320,192,33526,1,0,0:0:0:0:
192,192,33684,1,0,0:0:0:0:
64,192,33842,1,0,0:0:0:0:
320,192,33842,1,0,0:0:0:0:
448,192,33842,1,0,0:0:0:0:
192,192,34000,1,0,0:0:0:0:
448,192,34000,1,0,0:0:0:0:
320,192,34000,1,0,0:0:0:0:
192,192,34157,1,0,0:0:0:0:
320,192,34315,1,0,0:0:0:0:
64,192,34473,1,0,0:0:0:0:
192,192,34473,1,0,0:0:0:0:
448,192,34473,1,0,0:0:0:0:
64,192,34631,1,0,0:0:0:0:
320,192,34631,1,0,0:0:0:0:
448,192,34631,1,0,0:0:0:0:
192,192,34789,1,0,0:0:0:0:
320,192,34947,1,0,0:0:0:0:
64,192,35105,1,0,0:0:0:0:
192,192,35105,1,0,0:0:0:0:
320,192,35105,1,0,0:0:0:0:
448,192,35263,1,0,0:0:0:0:
320,192,35263,1,0,0:0:0:0:
192,192,35263,1,0,0:0:0:0:
192,192,35421,1,0,0:0:0:0:
64,192,35578,1,0,0:0:0:0:
192,192,35736,1,0,0:0:0:0:
320,192,35736,1,0,0:0:0:0:
448,192,35736,1,0,0:0:0:0:
64,192,35894,1,0,0:0:0:0:
192,192,35894,1,0,0:0:0:0:
448,192,35894,1,0,0:0:0:0:
320,192,36052,1,0,0:0:0:0:
448,192,36210,1,0,0:0:0:0:
64,192,36368,1,0,0:0:0:0:
192,192,36368,1,0,0:0:0:0:
64,192,36526,1,0,0:0:0:0:
192,192,36526,1,0,0:0:0:0:
64,192,36684,1,0,0:0:0:0:
192,192,36684,1,0,0:0:0:0:
64,192,36842,1,0,0:0:0:0:
192,192,36842,1,0,0:0:0:0:
320,192,37000,1,0,0:0:0:0:
448,192,37000,1,0,0:0:0:0:
320,192,37157,1,0,0:0:0:0:
448,192,37157,1,0,0:0:0:0:
320,192,37315,1,0,0:0:0:0:
448,192,37315,1,0,0:0:0:0:
320,192,37473,1,0,0:0:0:0:
448,192,37473,1,0,0:0:0:0:
192,192,37631,1,0,0:0:0:0:
320,192,37631,1,0,0:0:0:0:
192,192,37789,1,0,0:0:0:0:
320,192,37789,1,0,0:0:0:0:
192,192,37947,1,0,0:0:0:0:
320,192,37947,1,0,0:0:0:0:
192,192,38105,1,0,0:0:0:0:
320,192,38105,1,0,0:0:0:0:
64,192,38263,1,0,0:0:0:0:
448,192,38263,1,0,0:0:0:0:
64,192,38421,1,0,0:0:0:0:
448,192,38421,1,0,0:0:0:0:
64,192,38578,1,0,0:0:0:0:
448,192,38578,1,0,0:0:0:0:
64,192,38736,1,0,0:0:0:0:
448,192,38736,1,0,0:0:0:0:
64,192,38894,1,0,0:0:0:0:
192,192,38894,1,0,0:0:0:0:
320,192,38973,1,0,0:0:0:0:
448,192,38973,1,0,0:0:0:0:
192,192,39052,1,0,0:0:0:0:
64,192,39052,1,0,0:0:0:0:
320,192,39131,1,0,0:0:0:0:
448,192,39131,1,0,0:0:0:0:
192,192,39210,1,0,0:0:0:0:
64,192,39210,1,0,0:0:0:0:
320,192,39289,1,0,0:0:0:0:
448,192,39289,1,0,0:0:0:0:
64,192,39368,1,0,0:0:0:0:
192,192,39368,1,0,0:0:0:0:
320,192,39447,1,0,0:0:0:0:
448,192,39447,1,0,0:0:0:0:
64,192,39526,1,0,0:0:0:0:
192,192,39526,1,0,0:0:0:0:
320,192,39605,1,0,0:0:0:0:
448,192,39605,1,0,0:0:0:0:
64,192,39684,1,0,0:0:0:0:
192,192,39684,1,0,0:0:0:0:
320,192,39763,1,0,0:0:0:0:
448,192,39763,1,0,0:0:0:0:
64,192,39842,1,0,0:0:0:0:
192,192,39842,1,0,0:0:0:0:
320,192,39921,1,0,0:0:0:0:
448,192,39921,1,0,0:0:0:0:
64,192,40000,1,0,0:0:0:0:
192,192,40000,1,0,0:0:0:0:
320,192,40078,1,0,0:0:0:0:
448,192,40078,1,0,0:0:0:0:
64,192,40157,1,0,0:0:0:0:
192,192,40157,1,0,0:0:0:0:
320,192,40157,1,0,0:0:0:0:
64,192,41421,1,0,0:0:0:0:
192,192,41421,1,0,0:0:0:0:
320,192,41500,1,0,0:0:0:0:
448,192,41578,1,0,0:0:0:0:
192,192,41657,1,0,0:0:0:0:
448,192,41736,1,0,0:0:0:0:
64,192,41736,1,0,0:0:0:0:
320,192,41815,1,0,0:0:0:0:
192,192,41894,1,0,0:0:0:0:
320,192,41973,1,0,0:0:0:0:
64,192,42052,1,0,0:0:0:0:
448,192,42052,1,0,0:0:0:0:
192,192,42131,1,0,0:0:0:0:
448,192,42210,1,0,0:0:0:0:
320,192,42289,1,0,0:0:0:0:
64,192,42368,1,0,0:0:0:0:
192,192,42368,1,0,0:0:0:0:
448,192,42447,1,0,0:0:0:0:
192,192,42526,1,0,0:0:0:0:
320,192,42526,1,0,0:0:0:0:
64,192,42605,1,0,0:0:0:0:
320,192,42684,1,0,0:0:0:0:
448,192,42684,1,0,0:0:0:0:
192,192,42763,1,0,0:0:0:0:
64,192,42842,1,0,0:0:0:0:
448,192,42921,1,0,0:0:0:0:
320,192,43000,1,0,0:0:0:0:
192,192,43000,1,0,0:0:0:0:
64,192,43078,1,0,0:0:0:0:
192,192,43157,1,0,0:0:0:0:
320,192,43236,1,0,0:0:0:0:
448,192,43315,1,0,0:0:0:0:
64,192,43315,1,0,0:0:0:0:
320,192,43394,1,0,0:0:0:0:
192,192,43473,1,0,0:0:0:0:
64,192,43552,1,0,0:0:0:0:
192,192,43631,1,0,0:0:0:0:
320,192,43631,1,0,0:0:0:0:
448,192,43710,1,0,0:0:0:0:
64,192,43789,1,0,0:0:0:0:
192,192,43789,1,0,0:0:0:0:
320,192,43868,1,0,0:0:0:0:
192,192,43947,1,0,0:0:0:0:
448,192,43947,1,0,0:0:0:0:
64,192,44026,1,0,0:0:0:0:
448,192,44105,1,0,0:0:0:0:
320,192,44105,1,0,0:0:0:0:
192,192,44184,1,0,0:0:0:0:
64,192,44263,1,0,0:0:0:0:
448,192,44263,1,0,0:0:0:0:
192,192,44342,1,0,0:0:0:0:
320,192,44421,1,0,0:0:0:0:
64,192,44500,1,0,0:0:0:0:
192,192,44578,1,0,0:0:0:0:
448,192,44578,1,0,0:0:0:0:
320,192,44657,1,0,0:0:0:0:
64,192,44736,1,0,0:0:0:0:
448,192,44815,1,0,0:0:0:0:
320,192,44894,1,0,0:0:0:0:
192,192,44894,1,0,0:0:0:0:
64,192,44973,1,0,0:0:0:0:
448,192,45052,1,0,0:0:0:0:
320,192,45052,1,0,0:0:0:0:
192,192,45131,1,0,0:0:0:0:
64,192,45210,1,0,0:0:0:0:
320,192,45210,1,0,0:0:0:0:
448,192,45289,1,0,0:0:0:0:
192,192,45368,1,0,0:0:0:0:
64,192,45368,1,0,0:0:0:0:
448,192,45447,1,0,0:0:0:0:
320,192,45526,1,0,0:0:0:0:
192,192,45526,1,0,0:0:0:0:
64,192,45605,1,0,0:0:0:0:
192,192,45684,1,0,0:0:0:0:
320,192,45763,1,0,0:0:0:0:
448,192,45842,1,0,0:0:0:0:
64,192,45842,1,0,0:0:0:0:
192,192,45921,1,0,0:0:0:0:
320,192,46000,1,0,0:0:0:0:
192,192,46078,1,0,0:0:0:0:
64,192,46157,1,0,0:0:0:0:
448,192,46157,1,0,0:0:0:0:
320,192,46236,1,0,0:0:0:0:
192,192,46315,1,0,0:0:0:0:
64,192,46315,1,0,0:0:0:0:
320,192,46394,1,0,0:0:0:0:
64,192,46473,1,0,0:0:0:0:
448,192,46473,1,0,0:0:0:0:
320,192,46552,1,0,0:0:0:0:
192,192,46631,1,0,0:0:0:0:
64,192,46710,1,0,0:0:0:0:
192,192,46789,1,0,0:0:0:0:
448,192,46789,1,0,0:0:0:0:
320,192,46868,1,0,0:0:0:0:
64,192,46947,1,0,0:0:0:0:
448,192,47026,1,0,0:0:0:0:
320,192,47105,1,0,0:0:0:0:
192,192,47105,1,0,0:0:0:0:
64,192,47184,1,0,0:0:0:0:
320,192,47263,1,0,0:0:0:0:
448,192,47342,1,0,0:0:0:0:
64,192,47421,1,0,0:0:0:0:
192,192,47421,1,0,0:0:0:0:
320,192,47500,1,0,0:0:0:0:
448,192,47578,1,0,0:0:0:0:
64,192,47578,1,0,0:0:0:0:
320,192,47657,1,0,0:0:0:0:
192,192,47736,1,0,0:0:0:0:
448,192,47736,1,0,0:0:0:0:
64,192,47815,1,0,0:0:0:0:
192,192,47894,1,0,0:0:0:0:
320,192,47894,1,0,0:0:0:0:
448,192,47973,1,0,0:0:0:0:
64,192,48052,1,0,0:0:0:0:
192,192,48052,1,0,0:0:0:0:
320,192,48131,1,0,0:0:0:0:
448,192,48210,1,0,0:0:0:0:
64,192,48289,1,0,0:0:0:0:
192,192,48368,1,0,0:0:0:0:
320,192,48368,1,0,0:0:0:0:
448,192,48447,1,0,0:0:0:0:
320,192,48526,1,0,0:0:0:0:
64,192,48605,1,0,0:0:0:0:
192,192,48684,1,0,0:0:0:0:
448,192,48684,1,0,0:0:0:0:
320,192,48763,1,0,0:0:0:0:
64,192,48842,1,0,0:0:0:0:
192,192,48842,1,0,0:0:0:0:
448,192,48921,1,0,0:0:0:0:
320,192,49000,1,0,0:0:0:0:
192,192,49000,1,0,0:0:0:0:
64,192,49078,1,0,0:0:0:0:
448,192,49157,1,0,0:0:0:0:
192,192,49157,1,0,0:0:0:0:
320,192,49236,1,0,0:0:0:0:
448,192,49315,1,0,0:0:0:0:
64,192,49315,1,0,0:0:0:0:
192,192,49394,1,0,0:0:0:0:
320,192,49473,1,0,0:0:0:0:
64,192,49473,1,0,0:0:0:0:
448,192,49552,1,0,0:0:0:0:
64,192,49631,1,0,0:0:0:0:
192,192,49631,1,0,0:0:0:0:
448,192,49710,1,0,0:0:0:0:
320,192,49789,1,0,0:0:0:0:
64,192,49789,1,0,0:0:0:0:
192,192,49868,1,0,0:0:0:0:
448,192,49947,1,0,0:0:0:0:
320,192,49947,1,0,0:0:0:0:
64,192,50026,1,0,0:0:0:0:
320,192,50105,1,0,0:0:0:0:
448,192,50105,1,0,0:0:0:0:
192,192,50184,1,0,0:0:0:0:
64,192,50263,1,0,0:0:0:0:
448,192,50263,1,0,0:0:0:0:
192,192,50342,1,0,0:0:0:0:
320,192,50342,1,0,0:0:0:0:
64,192,50421,1,0,0:0:0:0:
448,192,50421,1,0,0:0:0:0:
192,192,50578,1,0,0:0:0:0:
320,192,50657,1,0,0:0:0:0:
192,192,50736,1,0,0:0:0:0:
320,192,50815,1,0,0:0:0:0:
64,192,50894,1,0,0:0:0:0:
448,192,50894,1,0,0:0:0:0:
192,192,51052,1,0,0:0:0:0:
320,192,51052,1,0,0:0:0:0:
64,192,51210,1,0,0:0:0:0:
448,192,51210,1,0,0:0:0:0:
192,192,51368,1,0,0:0:0:0:
320,192,51368,1,0,0:0:0:0:
64,192,51526,1,0,0:0:0:0:
192,192,51526,1,0,0:0:0:0:
320,192,51526,1,0,0:0:0:0:
64,192,52157,1,0,0:0:0:0:
192,192,52157,1,0,0:0:0:0:
448,192,52157,1,0,0:0:0:0:
192,192,52315,1,0,0:0:0:0:
320,192,52315,1,0,0:0:0:0:
320,192,52473,1,0,0:0:0:0:
448,192,52473,1,0,0:0:0:0:
192,192,52473,1,0,0:0:0:0:
64,192,52631,1,0,0:0:0:0:
192,192,52631,1,0,0:0:0:0:
320,192,52631,1,0,0:0:0:0:
64,192,52789,1,0,0:0:0:0:
192,192,52789,1,0,0:0:0:0:
448,192,52789,1,0,0:0:0:0:
192,192,52947,1,0,0:0:0:0:
320,192,52947,1,0,0:0:0:0:
448,192,52947,1,0,0:0:0:0:
64,192,53105,1,0,0:0:0:0:
320,192,53105,1,0,0:0:0:0:
448,192,53105,1,0,0:0:0:0:
192,192,53263,1,0,0:0:0:0:
320,192,53263,1,0,0:0:0:0:
64,192,53421,1,0,0:0:0:0:
192,192,53421,1,0,0:0:0:0:
320,192,53421,1,0,0:0:0:0:
64,192,53578,1,0,0:0:0:0:
448,192,53578,1,0,0:0:0:0:
192,192,53736,1,0,0:0:0:0:
320,192,53736,1,0,0:0:0:0:
448,192,53736,1,0,0:0:0:0:
64,192,53894,1,0,0:0:0:0:
192,192,53894,1,0,0:0:0:0:
448,192,53894,1,0,0:0:0:0:
320,192,54052,1,0,0:0:0:0:
64,192,54052,1,0,0:0:0:0:
448,192,54052,1,0,0:0:0:0:
192,192,54210,1,0,0:0:0:0:
320,192,54210,1,0,0:0:0:0:
64,192,54368,1,0,0:0:0:0:
192,192,54368,1,0,0:0:0:0:
320,192,54368,1,0,0:0:0:0:
64,192,54526,1,0,0:0:0:0:
448,192,54526,1,0,0:0:0:0:
192,192,54684,1,0,0:0:0:0:
320,192,54684,1,0,0:0:0:0:
448,192,54684,1,0,0:0:0:0:
192,192,54842,1,0,0:0:0:0:
320,192,54842,1,0,0:0:0:0:
64,192,55000,1,0,0:0:0:0:
192,192,55000,1,0,0:0:0:0:
448,192,55000,1,0,0:0:0:0:
192,192,55157,1,0,0:0:0:0:
320,192,55157,1,0,0:0:0:0:
64,192,55157,1,0,0:0:0:0:
64,192,55315,1,0,0:0:0:0:
320,192,55315,1,0,0:0:0:0:
448,192,55315,1,0,0:0:0:0:
192,192,55473,1,0,0:0:0:0:
320,192,55473,1,0,0:0:0:0:
448,192,55473,1,0,0:0:0:0:
64,192,55631,1,0,0:0:0:0:
192,192,55631,1,0,0:0:0:0:
320,192,55631,1,0,0:0:0:0:
64,192,55789,1,0,0:0:0:0:
448,192,55789,1,0,0:0:0:0:
192,192,55947,1,0,0:0:0:0:
64,192,55947,1,0,0:0:0:0:
448,192,55947,1,0,0:0:0:0:
192,192,56105,1,0,0:0:0:0:
320,192,56105,1,0,0:0:0:0:
64,192,56263,1,0,0:0:0:0:
448,192,56263,1,0,0:0:0:0:
192,192,56263,1,0,0:0:0:0:
192,192,56421,1,0,0:0:0:0:
320,192,56421,1,0,0:0:0:0:
448,192,56421,1,0,0:0:0:0:
64,192,56578,1,0,0:0:0:0:
320,192,56578,1,0,0:0:0:0:
448,192,56578,1,0,0:0:0:0:
64,192,56736,1,0,0:0:0:0:
448,192,56736,1,0,0:0:0:0:
64,192,56894,1,0,0:0:0:0:
192,192,56894,1,0,0:0:0:0:
320,192,56894,1,0,0:0:0:0:
192,192,57052,1,0,0:0:0:0:
320,192,57131,1,0,0:0:0:0:
448,192,57131,1,0,0:0:0:0:
64,192,57210,1,0,0:0:0:0:
192,192,57210,1,0,0:0:0:0:
192,192,57368,1,0,0:0:0:0:
320,192,57368,1,0,0:0:0:0:
448,192,57368,1,0,0:0:0:0:
64,192,57605,1,0,0:0:0:0:
192,192,57605,1,0,0:0:0:0:
320,192,57605,1,0,0:0:0:0:
192,192,57842,1,0,0:0:0:0:
64,192,57842,1,0,0:0:0:0:
448,192,57842,1,0,0:0:0:0:
192,192,58000,1,0,0:0:0:0:
320,192,58000,1,0,0:0:0:0:
192,192,58157,1,0,0:0:0:0:
320,192,58157,1,0,0:0:0:0:
64,192,58157,1,0,0:0:0:0:
64,192,58315,1,0,0:0:0:0:
192,192,58394,1,0,0:0:0:0:
320,192,58394,1,0,0:0:0:0:
448,192,58394,1,0,0:0:0:0:
192,192,58552,1,0,0:0:0:0:
64,192,58631,1,0,0:0:0:0:
320,192,58631,1,0,0:0:0:0:
448,192,58631,1,0,0:0:0:0:
192,192,58710,1,0,0:0:0:0:
320,192,58789,1,0,0:0:0:0:
448,192,58868,1,0,0:0:0:0:
192,192,58868,1,0,0:0:0:0:
64,192,58868,1,0,0:0:0:0:
320,192,58947,1,0,0:0:0:0:
192,192,59026,1,0,0:0:0:0:
64,192,59105,1,0,0:0:0:0:
448,192,59105,1,0,0:0:0:0:
192,192,59184,1,0,0:0:0:0:
320,192,59263,1,0,0:0:0:0:
192,192,59342,1,0,0:0:0:0:
320,192,59421,1,0,0:0:0:0:
192,192,59500,1,0,0:0:0:0:
320,192,59578,1,0,0:0:0:0:
192,192,59657,1,0,0:0:0:0:
320,192,59736,1,0,0:0:0:0:
192,192,59815,1,0,0:0:0:0:
320,192,59894,1,0,0:0:0:0:
192,192,59973,1,0,0:0:0:0:
320,192,60052,1,0,0:0:0:0:
192,192,60131,1,0,0:0:0:0:
320,192,60210,1,0,0:0:0:0:
192,192,60289,1,0,0:0:0:0:
320,192,60368,1,0,0:0:0:0:
448,192,60368,1,0,0:0:0:0:
64,192,60447,1,0,0:0:0:0:
192,192,60447,1,0,0:0:0:0:
320,192,60526,1,0,0:0:0:0:
448,192,60526,1,0,0:0:0:0:
64,192,60605,1,0,0:0:0:0:
192,192,60605,1,0,0:0:0:0:
320,192,60684,1,0,0:0:0:0:
448,192,60684,1,0,0:0:0:0:
64,192,60763,1,0,0:0:0:0:
192,192,60763,1,0,0:0:0:0:
320,192,60842,1,0,0:0:0:0:
448,192,60842,1,0,0:0:0:0:
64,192,60921,1,0,0:0:0:0:
192,192,60921,1,0,0:0:0:0:
320,192,61000,1,0,0:0:0:0:
448,192,61000,1,0,0:0:0:0:
64,192,61078,1,0,0:0:0:0:
192,192,61078,1,0,0:0:0:0:
320,192,61157,1,0,0:0:0:0:
448,192,61157,1,0,0:0:0:0:
64,192,61236,1,0,0:0:0:0:
192,192,61236,1,0,0:0:0:0:
320,192,61315,1,0,0:0:0:0:
448,192,61315,1,0,0:0:0:0:
64,192,61947,1,0,0:0:0:0:
192,192,61986,1,0,0:0:0:0:
320,192,62026,1,0,0:0:0:0:
448,192,62065,1,0,0:0:0:0:
64,192,62105,1,0,0:0:0:0:
192,192,62144,1,0,0:0:0:0:
320,192,62184,1,0,0:0:0:0:
448,192,62223,1,0,0:0:0:0:
64,192,62263,1,0,0:0:0:0:
192,192,62302,1,0,0:0:0:0:
320,192,62342,1,0,0:0:0:0:
448,192,62381,1,0,0:0:0:0:
64,192,62421,1,0,0:0:0:0:
192,192,62460,1,0,0:0:0:0:
320,192,62500,1,0,0:0:0:0:
448,192,62539,1,0,0:0:0:0:
64,192,62578,1,0,0:0:0:0:
192,192,62618,1,0,0:0:0:0:
320,192,62657,1,0,0:0:0:0:
448,192,62697,1,0,0:0:0:0:
64,192,62736,1,0,0:0:0:0:
192,192,62776,1,0,0:0:0:0:
320,192,62815,1,0,0:0:0:0:
448,192,62855,1,0,0:0:0:0:
64,192,62894,1,0,0:0:0:0:
192,192,62934,1,0,0:0:0:0:
448,192,62973,1,0,0:0:0:0:
320,192,63013,1,0,0:0:0:0:
64,192,63052,1,0,0:0:0:0:
192,192,63092,1,0,0:0:0:0:
448,192,63131,1,0,0:0:0:0:
320,192,63171,1,0,0:0:0:0:
64,192,63210,1,0,0:0:0:0:
192,192,63250,1,0,0:0:0:0:
448,192,63289,1,0,0:0:0:0:
320,192,63328,1,0,0:0:0:0:
64,192,63368,1,0,0:0:0:0:
192,192,63407,1,0,0:0:0:0:
448,192,63447,1,0,0:0:0:0:
320,192,63486,1,0,0:0:0:0:
64,192,63526,1,0,0:0:0:0:
192,192,63565,1,0,0:0:0:0:
448,192,63605,1,0,0:0:0:0:
320,192,63644,1,0,0:0:0:0:
64,192,63684,1,0,0:0:0:0:
192,192,63723,1,0,0:0:0:0:
448,192,63763,1,0,0:0:0:0:
320,192,63802,1,0,0:0:0:0:
64,192,63842,1,0,0:0:0:0:
192,192,63881,1,0,0:0:0:0:
448,192,63921,1,0,0:0:0:0:
320,192,63960,1,0,0:0:0:0:
64,192,64000,1,0,0:0:0:0:
192,192,64039,1,0,0:0:0:0:
448,192,64078,1,0,0:0:0:0:
320,192,64118,1,0,0:0:0:0:
64,192,64157,1,0,0:0:0:0:
192,192,64157,1,0,0:0:0:0:
448,192,64236,1,0,0:0:0:0:
320,192,64315,1,0,0:0:0:0:
192,192,64315,1,0,0:0:0:0:
64,192,64394,1,0,0:0:0:0:
192,192,64473,1,0,0:0:0:0:
448,192,64473,1,0,0:0:0:0:
320,192,64552,1,0,0:0:0:0:
64,192,64631,1,0,0:0:0:0:
448,192,64631,1,0,0:0:0:0:
320,192,64710,1,0,0:0:0:0:
192,192,64789,1,0,0:0:0:0:
64,192,64789,1,0,0:0:0:0:
448,192,64868,1,0,0:0:0:0:
192,192,64947,1,0,0:0:0:0:
320,192,64947,1,0,0:0:0:0:
64,192,65026,1,0,0:0:0:0:
192,192,65105,1,0,0:0:0:0:
448,192,65105,1,0,0:0:0:0:
320,192,65184,1,0,0:0:0:0:
64,192,65263,1,0,0:0:0:0:
448,192,65263,1,0,0:0:0:0:
192,192,65342,1,0,0:0:0:0:
320,192,65421,1,0,0:0:0:0:
64,192,65421,1,0,0:0:0:0:
448,192,65500,1,0,0:0:0:0:
192,192,65578,1,0,0:0:0:0:
64,192,65578,1,0,0:0:0:0:
320,192,65657,1,0,0:0:0:0:
192,192,65736,1,0,0:0:0:0:
64,192,65815,1,0,0:0:0:0:
320,192,65894,1,0,0:0:0:0:
448,192,65894,1,0,0:0:0:0:
64,192,65973,1,0,0:0:0:0:
192,192,66052,1,0,0:0:0:0:
320,192,66052,1,0,0:0:0:0:
448,192,66131,1,0,0:0:0:0:
192,192,66210,1,0,0:0:0:0:
64,192,66210,1,0,0:0:0:0:
320,192,66289,1,0,0:0:0:0:
448,192,66289,1,0,0:0:0:0:
192,192,66368,1,0,0:0:0:0:
64,192,66447,1,0,0:0:0:0:
320,192,66526,1,0,0:0:0:0:
448,192,66526,1,0,0:0:0:0:
64,192,66842,1,0,0:0:0:0:
192,192,66842,1,0,0:0:0:0:
320,192,66842,1,0,0:0:0:0:
192,192,67000,1,0,0:0:0:0:
64,192,67000,1,0,0:0:0:0:
448,192,67039,1,0,0:0:0:0:
320,192,67078,1,0,0:0:0:0:
192,192,67118,1,0,0:0:0:0:
64,192,67157,1,0,0:0:0:0:
448,192,67197,1,0,0:0:0:0:
320,192,67236,1,0,0:0:0:0:
192,192,67276,1,0,0:0:0:0:
64,192,67315,1,0,0:0:0:0:
448,192,67355,1,0,0:0:0:0:
320,192,67394,1,0,0:0:0:0:
192,192,67434,1,0,0:0:0:0:
64,192,67473,1,0,0:0:0:0:
448,192,67513,1,0,0:0:0:0:
320,192,67552,1,0,0:0:0:0:
192,192,67592,1,0,0:0:0:0:
64,192,67631,1,0,0:0:0:0:
448,192,67671,1,0,0:0:0:0:
320,192,67710,1,0,0:0:0:0:
192,192,67750,1,0,0:0:0:0:
64,192,67789,1,0,0:0:0:0:
448,192,67828,1,0,0:0:0:0:
320,192,67868,1,0,0:0:0:0:
192,192,67907,1,0,0:0:0:0:
64,192,67947,1,0,0:0:0:0:
448,192,67986,1,0,0:0:0:0:
320,192,68026,1,0,0:0:0:0:
64,192,68065,1,0,0:0:0:0:
192,192,68105,1,0,0:0:0:0:
448,192,68144,1,0,0:0:0:0:
320,192,68184,1,0,0:0:0:0:
64,192,68223,1,0,0:0:0:0:
192,192,68263,1,0,0:0:0:0:
448,192,68302,1,0,0:0:0:0:
320,192,68342,1,0,0:0:0:0:
64,192,68381,1,0,0:0:0:0:
192,192,68421,1,0,0:0:0:0:
448,192,68460,1,0,0:0:0:0:
320,192,68500,1,0,0:0:0:0:
64,192,68539,1,0,0:0:0:0:
192,192,68578,1,0,0:0:0:0:
448,192,68618,1,0,0:0:0:0:
320,192,68657,1,0,0:0:0:0:
64,192,68697,1,0,0:0:0:0:
192,192,68736,1,0,0:0:0:0:
448,192,68776,1,0,0:0:0:0:
320,192,68815,1,0,0:0:0:0:
64,192,68855,1,0,0:0:0:0:
192,192,68894,1,0,0:0:0:0:
448,192,68934,1,0,0:0:0:0:
320,192,68973,1,0,0:0:0:0:
64,192,69013,1,0,0:0:0:0:
192,192,69052,1,0,0:0:0:0:
448,192,69092,1,0,0:0:0:0:
320,192,69131,1,0,0:0:0:0:
64,192,69210,1,0,0:0:0:0:
192,192,69210,1,0,0:0:0:0:
320,192,69289,1,0,0:0:0:0:
448,192,69368,1,0,0:0:0:0:
192,192,69368,1,0,0:0:0:0:
320,192,69447,1,0,0:0:0:0:
64,192,69447,1,0,0:0:0:0:
448,192,69526,1,0,0:0:0:0:
192,192,69526,1,0,0:0:0:0:
320,192,69605,1,0,0:0:0:0:
64,192,69684,1,0,0:0:0:0:
192,192,69684,1,0,0:0:0:0:
448,192,69763,1,0,0:0:0:0:
64,192,69842,1,0,0:0:0:0:
320,192,69842,1,0,0:0:0:0:
192,192,69921,1,0,0:0:0:0:
448,192,70000,1,0,0:0:0:0:
64,192,70000,1,0,0:0:0:0:
320,192,70078,1,0,0:0:0:0:
192,192,70078,1,0,0:0:0:0:
448,192,70157,1,0,0:0:0:0:
320,192,70236,1,0,0:0:0:0:
64,192,70315,1,0,0:0:0:0:
448,192,70315,1,0,0:0:0:0:
192,192,70394,1,0,0:0:0:0:
320,192,70473,1,0,0:0:0:0:
448,192,70473,1,0,0:0:0:0:
64,192,70552,1,0,0:0:0:0:
192,192,70552,1,0,0:0:0:0:
320,192,70631,1,0,0:0:0:0:
448,192,70631,1,0,0:0:0:0:
192,192,70789,1,0,0:0:0:0:
320,192,70868,1,0,0:0:0:0:
448,192,70868,1,0,0:0:0:0:
64,192,70947,1,0,0:0:0:0:
192,192,70947,1,0,0:0:0:0:
320,192,71026,1,0,0:0:0:0:
448,192,71026,1,0,0:0:0:0:
192,192,71105,1,0,0:0:0:0:
320,192,71184,1,0,0:0:0:0:
448,192,71184,1,0,0:0:0:0:
64,192,71223,1,0,0:0:0:0:
192,192,71263,1,0,0:0:0:0:
448,192,71302,1,0,0:0:0:0:
320,192,71342,1,0,0:0:0:0:
64,192,71381,1,0,0:0:0:0:
192,192,71421,1,0,0:0:0:0:
448,192,71460,1,0,0:0:0:0:
320,192,71500,1,0,0:0:0:0:
64,192,71539,1,0,0:0:0:0:
192,192,71578,1,0,0:0:0:0:
448,192,71618,1,0,0:0:0:0:
320,192,71657,1,0,0:0:0:0:
64,192,71697,1,0,0:0:0:0:
192,192,71736,1,0,0:0:0:0:
320,192,71736,1,0,0:0:0:0:
448,192,71736,1,0,0:0:0:0:
64,192,72210,1,0,0:0:0:0:
192,192,72368,1,0,0:0:0:0:
320,192,72447,1,0,0:0:0:0:
448,192,72526,1,0,0:0:0:0:
320,192,72605,1,0,0:0:0:0:
192,192,72684,1,0,0:0:0:0:
64,192,72763,1,0,0:0:0:0:
192,192,72842,1,0,0:0:0:0:
320,192,72921,1,0,0:0:0:0:
64,192,73000,1,0,0:0:0:0:
192,192,73000,1,0,0:0:0:0:
448,192,73000,1,0,0:0:0:0:
192,192,73157,1,0,0:0:0:0:
320,192,73157,1,0,0:0:0:0:
448,192,73157,1,0,0:0:0:0:
64,192,73315,1,0,0:0:0:0:
448,192,73315,1,0,0:0:0:0:
320,192,73315,1,0,0:0:0:0:
64,192,73631,1,0,0:0:0:0:
192,192,73631,1,0,0:0:0:0:
320,192,73631,1,0,0:0:0:0:
192,192,73947,1,0,0:0:0:0:
320,192,73947,1,0,0:0:0:0:
448,192,73947,1,0,0:0:0:0:
64,192,74105,1,0,0:0:0:0:
320,192,74105,1,0,0:0:0:0:
448,192,74105,1,0,0:0:0:0:
64,192,74263,1,0,0:0:0:0:
192,192,74263,1,0,0:0:0:0:
448,192,74263,1,0,0:0:0:0:
192,192,74578,1,0,0:0:0:0:
320,192,74578,1,0,0:0:0:0:
448,192,74578,1,0,0:0:0:0:
192,192,74736,1,0,0:0:0:0:
64,192,74894,1,0,0:0:0:0:
192,192,74894,1,0,0:0:0:0:
320,192,74894,1,0,0:0:0:0:
320,192,75052,1,0,0:0:0:0:
64,192,75210,1,0,0:0:0:0:
192,192,75210,1,0,0:0:0:0:
448,192,75210,1,0,0:0:0:0:
192,192,75368,1,0,0:0:0:0:
64,192,75368,1,0,0:0:0:0:
320,192,75368,1,0,0:0:0:0:
192,192,75526,1,0,0:0:0:0:
320,192,75526,1,0,0:0:0:0:
448,192,75526,1,0,0:0:0:0:
64,192,75763,1,0,0:0:0:0:
448,192,75763,1,0,0:0:0:0:
320,192,75763,1,0,0:0:0:0:
64,192,76000,1,0,0:0:0:0:
192,192,76000,1,0,0:0:0:0:
320,192,76000,1,0,0:0:0:0:
192,192,76236,1,0,0:0:0:0:
448,192,76236,1,0,0:0:0:0:
64,192,76236,1,0,0:0:0:0:
448,192,76473,1,0,0:0:0:0:
64,192,76473,1,0,0:0:0:0:
320,192,76473,1,0,0:0:0:0:
192,192,76631,1,0,0:0:0:0:
64,192,76789,1,0,0:0:0:0:
192,192,76789,1,0,0:0:0:0:
320,192,76842,1,0,0:0:0:0:
448,192,76842,1,0,0:0:0:0:
64,192,76894,1,0,0:0:0:0:
192,192,76894,1,0,0:0:0:0:
320,192,76947,1,0,0:0:0:0:
448,192,76947,1,0,0:0:0:0:
64,192,77026,1,0,0:0:0:0:
192,192,77026,1,0,0:0:0:0:
320,192,77105,1,0,0:0:0:0:
448,192,77105,1,0,0:0:0:0:
64,192,77263,1,0,0:0:0:0:
192,192,77263,1,0,0:0:0:0:
320,192,77315,1,0,0:0:0:0:
448,192,77315,1,0,0:0:0:0:
64,192,77368,1,0,0:0:0:0:
192,192,77368,1,0,0:0:0:0:
320,192,77421,1,0,0:0:0:0:
448,192,77421,1,0,0:0:0:0:
64,192,77473,1,0,0:0:0:0:
192,192,77473,1,0,0:0:0:0:
320,192,77578,1,0,0:0:0:0:
448,192,77578,1,0,0:0:0:0:
64,192,77736,1,0,0:0:0:0:
192,192,77736,1,0,0:0:0:0:
320,192,78052,1,0,0:0:0:0:
448,192,78052,1,0,0:0:0:0:
192,192,78105,1,0,0:0:0:0:
64,192,78105,1,0,0:0:0:0:
320,192,78157,1,0,0:0:0:0:
448,192,78157,1,0,0:0:0:0:
64,192,78210,1,0,0:0:0:0:
192,192,78210,1,0,0:0:0:0:
320,192,78289,1,0,0:0:0:0:
448,192,78289,1,0,0:0:0:0:
64,192,78368,1,0,0:0:0:0:
192,192,78368,1,0,0:0:0:0:
320,192,78526,1,0,0:0:0:0:
448,192,78526,1,0,0:0:0:0:
64,192,78578,1,0,0:0:0:0:
192,192,78578,1,0,0:0:0:0:
320,192,78631,1,0,0:0:0:0:
448,192,78631,1,0,0:0:0:0:
64,192,78684,1,0,0:0:0:0:
192,192,78684,1,0,0:0:0:0:
320,192,78763,1,0,0:0:0:0:
448,192,78763,1,0,0:0:0:0:
64,192,78842,1,0,0:0:0:0:
192,192,78842,1,0,0:0:0:0:
320,192,79000,1,0,0:0:0:0:
448,192,79000,1,0,0:0:0:0:
192,192,79000,1,0,0:0:0:0:
64,192,79157,1,0,0:0:0:0:
192,192,79157,1,0,0:0:0:0:
320,192,79157,1,0,0:0:0:0:
320,192,79315,1,0,0:0:0:0:
448,192,79315,1,0,0:0:0:0:
64,192,79368,1,0,0:0:0:0:
192,192,79368,1,0,0:0:0:0:
320,192,79421,1,0,0:0:0:0:
448,192,79421,1,0,0:0:0:0:
64,192,79473,1,0,0:0:0:0:
192,192,79473,1,0,0:0:0:0:
320,192,79552,1,0,0:0:0:0:
448,192,79552,1,0,0:0:0:0:
192,192,79631,1,0,0:0:0:0:
64,192,79631,1,0,0:0:0:0:
320,192,79684,1,0,0:0:0:0:
448,192,79684,1,0,0:0:0:0:
64,192,79736,1,0,0:0:0:0:
192,192,79736,1,0,0:0:0:0:
320,192,79789,1,0,0:0:0:0:
448,192,79789,1,0,0:0:0:0:
64,192,79868,1,0,0:0:0:0:
192,192,79868,1,0,0:0:0:0:
320,192,79947,1,0,0:0:0:0:
448,192,79947,1,0,0:0:0:0:
64,192,80105,1,0,0:0:0:0:
192,192,80105,1,0,0:0:0:0:
320,192,80105,1,0,0:0:0:0:
320,192,80342,1,0,0:0:0:0:
448,192,80342,1,0,0:0:0:0:
64,192,80342,1,0,0:0:0:0:
320,192,80578,1,0,0:0:0:0:
448,192,80578,1,0,0:0:0:0:
192,192,80578,1,0,0:0:0:0:
64,192,81842,1,0,0:0:0:0:
192,192,81842,1,0,0:0:0:0:
320,192,81842,1,0,0:0:0:0:
448,192,81842,1,0,0:0:0:0:
64,192,82078,1,0,0:0:0:0:
192,192,82157,1,0,0:0:0:0:
320,192,82236,1,0,0:0:0:0:
448,192,82315,1,0,0:0:0:0:
320,192,82394,1,0,0:0:0:0:
192,192,82473,1,0,0:0:0:0:
320,192,82552,1,0,0:0:0:0:
192,192,82631,1,0,0:0:0:0:
320,192,82710,1,0,0:0:0:0:
192,192,82789,1,0,0:0:0:0:
320,192,82868,1,0,0:0:0:0:
192,192,82947,1,0,0:0:0:0:
320,192,83026,1,0,0:0:0:0:
64,192,83105,1,0,0:0:0:0:
448,192,83184,1,0,0:0:0:0:
64,192,83263,1,0,0:0:0:0:
448,192,83342,1,0,0:0:0:0:
64,192,83421,1,0,0:0:0:0:
448,192,83500,1,0,0:0:0:0:
64,192,83578,1,0,0:0:0:0:
448,192,83657,1,0,0:0:0:0:
64,192,83736,1,0,0:0:0:0:
448,192,83815,1,0,0:0:0:0:
64,192,83894,1,0,0:0:0:0:
448,192,83973,1,0,0:0:0:0:
64,192,84052,1,0,0:0:0:0:
448,192,84131,1,0,0:0:0:0:
64,192,84210,1,0,0:0:0:0:
448,192,84289,1,0,0:0:0:0:
64,192,84368,1,0,0:0:0:0:
192,192,84368,1,0,0:0:0:0:
320,192,84684,1,0,0:0:0:0:
192,192,84842,1,0,0:0:0:0:
448,192,85000,1,0,0:0:0:0:
320,192,85157,1,0,0:0:0:0:
192,192,85315,1,0,0:0:0:0:
64,192,85473,1,0,0:0:0:0:
448,192,85631,1,0,0:0:0:0:
320,192,85789,1,0,0:0:0:0:
192,192,85947,1,0,0:0:0:0:
64,192,86105,1,0,0:0:0:0:
320,192,86421,1,0,0:0:0:0:
192,192,86578,1,0,0:0:0:0:
64,192,86894,1,0,0:0:0:0:
320,192,87210,1,0,0:0:0:0:
192,192,87289,1,0,0:0:0:0:
320,192,87368,1,0,0:0:0:0:
192,192,87447,1,0,0:0:0:0:
320,192,87526,1,0,0:0:0:0:
192,192,87605,1,0,0:0:0:0:
320,192,87684,1,0,0:0:0:0:
192,192,87763,1,0,0:0:0:0:
320,192,87842,1,0,0:0:0:0:
192,192,87921,1,0,0:0:0:0:
320,192,88000,1,0,0:0:0:0:
192,192,88078,1,0,0:0:0:0:
320,192,88157,1,0,0:0:0:0:
192,192,88236,1,0,0:0:0:0:
320,192,88315,1,0,0:0:0:0:
192,192,88394,1,0,0:0:0:0:
320,192,88473,1,0,0:0:0:0:
192,192,88552,1,0,0:0:0:0:
320,192,88631,1,0,0:0:0:0:
192,192,88710,1,0,0:0:0:0:
320,192,88789,1,0,0:0:0:0:
192,192,88868,1,0,0:0:0:0:
320,192,88947,1,0,0:0:0:0:
192,192,89026,1,0,0:0:0:0:
320,192,89105,1,0,0:0:0:0:
192,192,89184,1,0,0:0:0:0:
320,192,89263,1,0,0:0:0:0:
192,192,89342,1,0,0:0:0:0:
320,192,89421,1,0,0:0:0:0:
64,192,89736,1,0,0:0:0:0:
192,192,89894,1,0,0:0:0:0:
192,192,90210,1,0,0:0:0:0:
320,192,90368,1,0,0:0:0:0:
448,192,90684,1,0,0:0:0:0:
320,192,90842,1,0,0:0:0:0:
448,192,91000,1,0,0:0:0:0:
192,192,91157,1,0,0:0:0:0:
64,192,91315,1,0,0:0:0:0:
192,192,91473,1,0,0:0:0:0:
448,192,91631,1,0,0:0:0:0:
192,192,91947,1,0,0:0:0:0:
64,192,91947,1,0,0:0:0:0:
448,192,91947,1,0,0:0:0:0:
320,192,92105,1,0,0:0:0:0:
192,192,92263,1,0,0:0:0:0:
448,192,92263,1,0,0:0:0:0:
64,192,92421,1,0,0:0:0:0:
192,192,92421,1,0,0:0:0:0:
320,192,92421,1,0,0:0:0:0:
448,192,92578,1,0,0:0:0:0:
64,192,92736,1,0,0:0:0:0:
320,192,92736,1,0,0:0:0:0:
448,192,92736,1,0,0:0:0:0:
192,192,92894,1,0,0:0:0:0:
320,192,92894,1,0,0:0:0:0:
320,192,93052,1,0,0:0:0:0:
448,192,93052,1,0,0:0:0:0:
64,192,93210,1,0,0:0:0:0:
192,192,93210,1,0,0:0:0:0:
448,192,93210,1,0,0:0:0:0:
192,192,93526,1,0,0:0:0:0:
320,192,93526,1,0,0:0:0:0:
320,192,93684,1,0,0:0:0:0:
448,192,93684,1,0,0:0:0:0:
64,192,93684,1,0,0:0:0:0:
64,192,93842,1,0,0:0:0:0:
192,192,93842,1,0,0:0:0:0:
192,192,94000,1,0,0:0:0:0:
320,192,94000,1,0,0:0:0:0:
448,192,94000,1,0,0:0:0:0:
64,192,94157,1,0,0:0:0:0:
320,192,94157,1,0,0:0:0:0:
192,192,94315,1,0,0:0:0:0:
64,192,94473,1,0,0:0:0:0:
192,192,94473,1,0,0:0:0:0:
320,192,94473,1,0,0:0:0:0:
64,192,94789,1,0,0:0:0:0:
448,192,94789,1,0,0:0:0:0:
64,192,94947,1,0,0:0:0:0:
448,192,94947,1,0,0:0:0:0:
192,192,94947,1,0,0:0:0:0:
64,192,95263,1,0,0:0:0:0:
320,192,95263,1,0,0:0:0:0:
448,192,95263,1,0,0:0:0:0:
192,192,95421,1,0,0:0:0:0:
320,192,95421,1,0,0:0:0:0:
64,192,95736,1,0,0:0:0:0:
192,192,95736,1,0,0:0:0:0:
320,192,95736,1,0,0:0:0:0:
192,192,96052,1,0,0:0:0:0:
448,192,96052,1,0,0:0:0:0:
64,192,96210,1,0,0:0:0:0:
320,192,96210,1,0,0:0:0:0:
448,192,96210,1,0,0:0:0:0:
192,192,96368,1,0,0:0:0:0:
320,192,96368,1,0,0:0:0:0:
64,192,96526,1,0,0:0:0:0:
192,192,96526,1,0,0:0:0:0:
448,192,96526,1,0,0:0:0:0:
64,192,96684,1,0,0:0:0:0:
320,192,96684,1,0,0:0:0:0:
64,192,97000,1,0,0:0:0:0:
192,192,97000,1,0,0:0:0:0:
320,192,97157,1,0,0:0:0:0:
448,192,97157,1,0,0:0:0:0:
64,192,97315,1,0,0:0:0:0:
448,192,97315,1,0,0:0:0:0:
192,192,97473,1,0,0:0:0:0:
320,192,97473,1,0,0:0:0:0:
64,192,97631,1,0,0:0:0:0:
192,192,97631,1,0,0:0:0:0:
64,192,97789,1,0,0:0:0:0:
320,192,97789,1,0,0:0:0:0:
192,192,97947,1,0,0:0:0:0:
448,192,97947,1,0,0:0:0:0:
320,192,98105,1,0,0:0:0:0:
192,192,98105,1,0,0:0:0:0:
64,192,98263,1,0,0:0:0:0:
320,192,98263,1,0,0:0:0:0:
64,192,98421,1,0,0:0:0:0:
448,192,98421,1,0,0:0:0:0:
192,192,98578,1,0,0:0:0:0:
320,192,98578,1,0,0:0:0:0:
320,192,98736,1,0,0:0:0:0:
448,192,98736,1,0,0:0:0:0:
64,192,98894,1,0,0:0:0:0:
320,192,98894,1,0,0:0:0:0:
64,192,99052,1,0,0:0:0:0:
448,192,99052,1,0,0:0:0:0:
192,192,99210,1,0,0:0:0:0:
320,192,99210,1,0,0:0:0:0:
64,192,99368,1,0,0:0:0:0:
192,192,99368,1,0,0:0:0:0:
320,192,99526,1,0,0:0:0:0:
448,192,99526,1,0,0:0:0:0:
64,192,99605,1,0,0:0:0:0:
192,192,99605,1,0,0:0:0:0:
320,192,99684,1,0,0:0:0:0:
448,192,99684,1,0,0:0:0:0:
64,192,99763,1,0,0:0:0:0:
192,192,99763,1,0,0:0:0:0:
320,192,99842,1,0,0:0:0:0:
448,192,99842,1,0,0:0:0:0:
64,192,99921,1,0,0:0:0:0:
192,192,99921,1,0,0:0:0:0:
320,192,100000,1,0,0:0:0:0:
448,192,100000,1,0,0:0:0:0:
64,192,100078,1,0,0:0:0:0:
192,192,100078,1,0,0:0:0:0:
320,192,100157,1,0,0:0:0:0:
448,192,100157,1,0,0:0:0:0:
64,192,100236,1,0,0:0:0:0:
192,192,100236,1,0,0:0:0:0:
320,192,100315,1,0,0:0:0:0:
448,192,100315,1,0,0:0:0:0:
64,192,100394,1,0,0:0:0:0:
192,192,100394,1,0,0:0:0:0:
320,192,100473,1,0,0:0:0:0:
448,192,100473,1,0,0:0:0:0:
64,192,100552,1,0,0:0:0:0:
192,192,100552,1,0,0:0:0:0:
320,192,100631,1,0,0:0:0:0:
448,192,100631,1,0,0:0:0:0:
64,192,100710,1,0,0:0:0:0:
192,192,100710,1,0,0:0:0:0:
320,192,100789,1,0,0:0:0:0:
448,192,100789,1,0,0:0:0:0:
64,192,102052,5,0,0:0:0:0:
192,192,102052,1,0,0:0:0:0:
320,192,102131,1,0,0:0:0:0:
448,192,102131,1,0,0:0:0:0:
64,192,102210,1,0,0:0:0:0:
192,192,102210,1,0,0:0:0:0:
320,192,102368,1,0,0:0:0:0:
448,192,102368,1,0,0:0:0:0:
64,192,102447,1,0,0:0:0:0:
192,192,102447,1,0,0:0:0:0:
320,192,102526,1,0,0:0:0:0:
448,192,102526,1,0,0:0:0:0:
192,192,102684,1,0,0:0:0:0:
320,192,102684,1,0,0:0:0:0:
64,192,102842,1,0,0:0:0:0:
448,192,102921,1,0,0:0:0:0:
64,192,103000,1,0,0:0:0:0:
448,192,103078,1,0,0:0:0:0:
64,192,103157,1,0,0:0:0:0:
448,192,103236,1,0,0:0:0:0:
64,192,103315,1,0,0:0:0:0:
448,192,103394,1,0,0:0:0:0:
192,192,103473,1,0,0:0:0:0:
320,192,103473,1,0,0:0:0:0:
64,192,103552,1,0,0:0:0:0:
448,192,103552,1,0,0:0:0:0:
192,192,103631,1,0,0:0:0:0:
320,192,103631,1,0,0:0:0:0:
64,192,103710,1,0,0:0:0:0:
448,192,103710,1,0,0:0:0:0:
192,192,103789,1,0,0:0:0:0:
320,192,103789,1,0,0:0:0:0:
320,192,103947,1,0,0:0:0:0:
448,192,103947,1,0,0:0:0:0:
192,192,104105,1,0,0:0:0:0:
320,192,104184,1,0,0:0:0:0:
192,192,104263,1,0,0:0:0:0:
320,192,104342,1,0,0:0:0:0:
192,192,104421,1,0,0:0:0:0:
320,192,104500,1,0,0:0:0:0:
448,192,104578,1,0,0:0:0:0:
64,192,104578,1,0,0:0:0:0:
192,192,104657,1,0,0:0:0:0:
320,192,104657,1,0,0:0:0:0:
64,192,104736,1,0,0:0:0:0:
448,192,104736,1,0,0:0:0:0:
64,192,104894,1,0,0:0:0:0:
320,192,104894,1,0,0:0:0:0:
192,192,104973,1,0,0:0:0:0:
448,192,104973,1,0,0:0:0:0:
320,192,105052,1,0,0:0:0:0:
64,192,105052,1,0,0:0:0:0:
192,192,105210,1,0,0:0:0:0:
320,192,105210,1,0,0:0:0:0:
64,192,105368,1,0,0:0:0:0:
320,192,105447,1,0,0:0:0:0:
64,192,105526,1,0,0:0:0:0:
320,192,105605,1,0,0:0:0:0:
64,192,105684,1,0,0:0:0:0:
320,192,105763,1,0,0:0:0:0:
64,192,105842,1,0,0:0:0:0:
320,192,105921,1,0,0:0:0:0:
64,192,106000,1,0,0:0:0:0:
192,192,106000,1,0,0:0:0:0:
448,192,106078,1,0,0:0:0:0:
320,192,106078,1,0,0:0:0:0:
192,192,106157,1,0,0:0:0:0:
64,192,106157,1,0,0:0:0:0:
320,192,106236,1,0,0:0:0:0:
448,192,106236,1,0,0:0:0:0:
192,192,106315,1,0,0:0:0:0:
64,192,106315,1,0,0:0:0:0:
448,192,106394,1,0,0:0:0:0:
320,192,106394,1,0,0:0:0:0:
192,192,106473,1,0,0:0:0:0:
64,192,106473,1,0,0:0:0:0:
320,192,106631,1,0,0:0:0:0:
448,192,106631,1,0,0:0:0:0:
192,192,106631,1,0,0:0:0:0:
320,192,106789,1,0,0:0:0:0:
64,192,106868,1,0,0:0:0:0:
320,192,106947,1,0,0:0:0:0:
64,192,107026,1,0,0:0:0:0:
320,192,107105,1,0,0:0:0:0:
448,192,107105,1,0,0:0:0:0:
64,192,107184,1,0,0:0:0:0:
192,192,107184,1,0,0:0:0:0:
320,192,107263,1,0,0:0:0:0:
448,192,107263,1,0,0:0:0:0:
64,192,107421,1,0,0:0:0:0:
192,192,107421,1,0,0:0:0:0:
320,192,107500,1,0,0:0:0:0:
448,192,107500,1,0,0:0:0:0:
64,192,107578,1,0,0:0:0:0:
192,192,107578,1,0,0:0:0:0:
320,192,107657,1,0,0:0:0:0:
192,192,107736,1,0,0:0:0:0:
320,192,107894,1,0,0:0:0:0:
192,192,107973,1,0,0:0:0:0:
320,192,108052,1,0,0:0:0:0:
192,192,108131,1,0,0:0:0:0:
320,192,108210,1,0,0:0:0:0:
192,192,108289,1,0,0:0:0:0:
320,192,108368,1,0,0:0:0:0:
192,192,108447,1,0,0:0:0:0:
64,192,108526,1,0,0:0:0:0:
448,192,108526,1,0,0:0:0:0:
192,192,108605,1,0,0:0:0:0:
320,192,108605,1,0,0:0:0:0:
64,192,108684,1,0,0:0:0:0:
448,192,108684,1,0,0:0:0:0:
192,192,108763,1,0,0:0:0:0:
320,192,108763,1,0,0:0:0:0:
64,192,108842,1,0,0:0:0:0:
448,192,108842,1,0,0:0:0:0:
320,192,109000,1,0,0:0:0:0:
448,192,109000,1,0,0:0:0:0:
192,192,109157,1,0,0:0:0:0:
320,192,109236,1,0,0:0:0:0:
192,192,109315,1,0,0:0:0:0:
320,192,109394,1,0,0:0:0:0:
192,192,109473,1,0,0:0:0:0:
320,192,109552,1,0,0:0:0:0:
192,192,109631,1,0,0:0:0:0:
64,192,109631,1,0,0:0:0:0:
320,192,109710,1,0,0:0:0:0:
448,192,109710,1,0,0:0:0:0:
64,192,109789,1,0,0:0:0:0:
192,192,109789,1,0,0:0:0:0:
64,192,109947,1,0,0:0:0:0:
448,192,109947,1,0,0:0:0:0:
320,192,109947,1,0,0:0:0:0:
192,192,110105,1,0,0:0:0:0:
448,192,110105,1,0,0:0:0:0:
320,192,110184,1,0,0:0:0:0:
64,192,110184,1,0,0:0:0:0:
192,192,110263,1,0,0:0:0:0:
448,192,110263,1,0,0:0:0:0:
64,192,110421,1,0,0:0:0:0:
192,192,110421,1,0,0:0:0:0:
320,192,110421,1,0,0:0:0:0:
320,192,110578,1,0,0:0:0:0:
448,192,110578,1,0,0:0:0:0:
64,192,110657,1,0,0:0:0:0:
192,192,110657,1,0,0:0:0:0:
320,192,110736,1,0,0:0:0:0:
448,192,110736,1,0,0:0:0:0:
320,192,110894,1,0,0:0:0:0:
448,192,110894,1,0,0:0:0:0:
64,192,110894,1,0,0:0:0:0:
192,192,111052,1,0,0:0:0:0:
320,192,111052,1,0,0:0:0:0:
64,192,111131,1,0,0:0:0:0:
448,192,111131,1,0,0:0:0:0:
192,192,111210,1,0,0:0:0:0:
320,192,111210,1,0,0:0:0:0:
192,192,111368,1,0,0:0:0:0:
64,192,111368,1,0,0:0:0:0:
448,192,111368,1,0,0:0:0:0:
320,192,111526,1,0,0:0:0:0:
64,192,111526,1,0,0:0:0:0:
192,192,111605,1,0,0:0:0:0:
448,192,111605,1,0,0:0:0:0:
64,192,111684,1,0,0:0:0:0:
320,192,111684,1,0,0:0:0:0:
192,192,111842,1,0,0:0:0:0:
320,192,111842,1,0,0:0:0:0:
448,192,111842,1,0,0:0:0:0:
64,192,112000,1,0,0:0:0:0:
448,192,112000,1,0,0:0:0:0:
320,192,112000,1,0,0:0:0:0:
192,192,112157,1,0,0:0:0:0:
320,192,112157,1,0,0:0:0:0:
64,192,112236,1,0,0:0:0:0:
448,192,112315,1,0,0:0:0:0:
64,192,112394,1,0,0:0:0:0:
448,192,112473,1,0,0:0:0:0:
64,192,112552,1,0,0:0:0:0:
448,192,112631,1,0,0:0:0:0:
64,192,112710,1,0,0:0:0:0:
448,192,112789,1,0,0:0:0:0:
320,192,112789,1,0,0:0:0:0:
192,192,112868,1,0,0:0:0:0:
320,192,112947,1,0,0:0:0:0:
192,192,113026,1,0,0:0:0:0:
320,192,113105,1,0,0:0:0:0:
192,192,113184,1,0,0:0:0:0:
320,192,113263,1,0,0:0:0:0:
192,192,113342,1,0,0:0:0:0:
320,192,113421,1,0,0:0:0:0:
192,192,113500,1,0,0:0:0:0:
320,192,113578,1,0,0:0:0:0:
448,192,113578,1,0,0:0:0:0:
64,192,113657,1,0,0:0:0:0:
192,192,113657,1,0,0:0:0:0:
320,192,113736,1,0,0:0:0:0:
448,192,113736,1,0,0:0:0:0:
64,192,113815,1,0,0:0:0:0:
192,192,113815,1,0,0:0:0:0:
320,192,113894,1,0,0:0:0:0:
448,192,113894,1,0,0:0:0:0:
64,192,114052,1,0,0:0:0:0:
448,192,114052,1,0,0:0:0:0:
192,192,114210,1,0,0:0:0:0:
320,192,114289,1,0,0:0:0:0:
192,192,114368,1,0,0:0:0:0:
320,192,114447,1,0,0:0:0:0:
192,192,114526,1,0,0:0:0:0:
320,192,114605,1,0,0:0:0:0:
192,192,114684,1,0,0:0:0:0:
64,192,114684,1,0,0:0:0:0:
320,192,114763,1,0,0:0:0:0:
448,192,114763,1,0,0:0:0:0:
64,192,114842,1,0,0:0:0:0:
192,192,114842,1,0,0:0:0:0:
320,192,115000,1,0,0:0:0:0:
448,192,115000,1,0,0:0:0:0:
64,192,115078,1,0,0:0:0:0:
192,192,115078,1,0,0:0:0:0:
320,192,115157,1,0,0:0:0:0:
448,192,115157,1,0,0:0:0:0:
192,192,115315,1,0,0:0:0:0:
320,192,115315,1,0,0:0:0:0:
64,192,115394,1,0,0:0:0:0:
448,192,115473,1,0,0:0:0:0:
64,192,115552,1,0,0:0:0:0:
448,192,115631,1,0,0:0:0:0:
64,192,115710,1,0,0:0:0:0:
448,192,115789,1,0,0:0:0:0:
64,192,115868,1,0,0:0:0:0:
448,192,115947,1,0,0:0:0:0:
64,192,116026,1,0,0:0:0:0:
320,192,116105,1,0,0:0:0:0:
448,192,116105,1,0,0:0:0:0:
64,192,116184,1,0,0:0:0:0:
192,192,116184,1,0,0:0:0:0:
320,192,116263,1,0,0:0:0:0:
448,192,116263,1,0,0:0:0:0:
64,192,116342,1,0,0:0:0:0:
192,192,116342,1,0,0:0:0:0:
320,192,116421,1,0,0:0:0:0:
448,192,116421,1,0,0:0:0:0:
64,192,116500,1,0,0:0:0:0:
192,192,116500,1,0,0:0:0:0:
320,192,116578,1,0,0:0:0:0:
448,192,116657,1,0,0:0:0:0:
320,192,116736,1,0,0:0:0:0:
192,192,116736,1,0,0:0:0:0:
64,192,116894,1,0,0:0:0:0:
448,192,116973,1,0,0:0:0:0:
64,192,117052,1,0,0:0:0:0:
448,192,117131,1,0,0:0:0:0:
192,192,117210,1,0,0:0:0:0:
320,192,117210,1,0,0:0:0:0:
64,192,117447,1,0,0:0:0:0:
448,192,117447,1,0,0:0:0:0:
320,192,117605,1,0,0:0:0:0:
192,192,117605,1,0,0:0:0:0:
64,192,117684,1,0,0:0:0:0:
448,192,117684,1,0,0:0:0:0:
192,192,117842,1,0,0:0:0:0:
320,192,117842,1,0,0:0:0:0:
64,192,118078,1,0,0:0:0:0:
448,192,118078,1,0,0:0:0:0:
192,192,118236,1,0,0:0:0:0:
320,192,118236,1,0,0:0:0:0:
64,192,118315,1,0,0:0:0:0:
448,192,118315,1,0,0:0:0:0:
192,192,118473,1,0,0:0:0:0:
320,192,118473,1,0,0:0:0:0:
64,192,118710,1,0,0:0:0:0:
448,192,118710,1,0,0:0:0:0:
192,192,118868,1,0,0:0:0:0:
320,192,118868,1,0,0:0:0:0:
64,192,118947,1,0,0:0:0:0:
448,192,118947,1,0,0:0:0:0:
192,192,119105,1,0,0:0:0:0:
320,192,119105,1,0,0:0:0:0:
64,192,119342,1,0,0:0:0:0:
448,192,119342,1,0,0:0:0:0:
192,192,119500,1,0,0:0:0:0:
320,192,119500,1,0,0:0:0:0:
64,192,119578,1,0,0:0:0:0:
448,192,119578,1,0,0:0:0:0:
192,192,119736,1,0,0:0:0:0:
320,192,119736,1,0,0:0:0:0:
64,192,122263,1,0,0:0:0:0:
320,192,122263,1,0,0:0:0:0:
192,192,122342,1,0,0:0:0:0:
448,192,122342,1,0,0:0:0:0:
64,192,122421,1,0,0:0:0:0:
320,192,122421,1,0,0:0:0:0:
192,192,122578,1,0,0:0:0:0:
448,192,122578,1,0,0:0:0:0:
64,192,122657,1,0,0:0:0:0:
320,192,122657,1,0,0:0:0:0:
192,192,122736,1,0,0:0:0:0:
448,192,122736,1,0,0:0:0:0:
64,192,122894,1,0,0:0:0:0:
448,192,122894,1,0,0:0:0:0:
192,192,122973,1,0,0:0:0:0:
320,192,123052,1,0,0:0:0:0:
192,192,123131,1,0,0:0:0:0:
320,192,123210,1,0,0:0:0:0:
192,192,123289,1,0,0:0:0:0:
320,192,123368,1,0,0:0:0:0:
192,192,123447,1,0,0:0:0:0:
320,192,123526,1,0,0:0:0:0:
192,192,123605,1,0,0:0:0:0:
320,192,123684,1,0,0:0:0:0:
448,192,123684,1,0,0:0:0:0:
64,192,123763,1,0,0:0:0:0:
192,192,123763,1,0,0:0:0:0:
320,192,123842,1,0,0:0:0:0:
448,192,123842,1,0,0:0:0:0:
64,192,123921,1,0,0:0:0:0:
192,192,123921,1,0,0:0:0:0:
320,192,124000,1,0,0:0:0:0:
448,192,124000,1,0,0:0:0:0:
192,192,124157,1,0,0:0:0:0:
320,192,124157,1,0,0:0:0:0:
64,192,124236,1,0,0:0:0:0:
448,192,124315,1,0,0:0:0:0:
64,192,124394,1,0,0:0:0:0:
448,192,124473,1,0,0:0:0:0:
64,192,124552,1,0,0:0:0:0:
448,192,124631,1,0,0:0:0:0:
64,192,124710,1,0,0:0:0:0:
192,192,124789,1,0,0:0:0:0:
320,192,124789,1,0,0:0:0:0:
64,192,124868,1,0,0:0:0:0:
448,192,124868,1,0,0:0:0:0:
192,192,124947,1,0,0:0:0:0:
320,192,124947,1,0,0:0:0:0:
64,192,125105,1,0,0:0:0:0:
448,192,125105,1,0,0:0:0:0:
192,192,125184,1,0,0:0:0:0:
320,192,125184,1,0,0:0:0:0:
64,192,125263,1,0,0:0:0:0:
448,192,125263,1,0,0:0:0:0:
192,192,125421,1,0,0:0:0:0:
320,192,125421,1,0,0:0:0:0:
64,192,125500,1,0,0:0:0:0:
448,192,125578,1,0,0:0:0:0:
64,192,125657,1,0,0:0:0:0:
448,192,125736,1,0,0:0:0:0:
64,192,125815,1,0,0:0:0:0:
448,192,125894,1,0,0:0:0:0:
64,192,125973,1,0,0:0:0:0:
448,192,126052,1,0,0:0:0:0:
64,192,126131,1,0,0:0:0:0:
320,192,126210,1,0,0:0:0:0:
448,192,126210,1,0,0:0:0:0:
64,192,126289,1,0,0:0:0:0:
192,192,126289,1,0,0:0:0:0:
320,192,126368,1,0,0:0:0:0:
448,192,126368,1,0,0:0:0:0:
64,192,126447,1,0,0:0:0:0:
192,192,126447,1,0,0:0:0:0:
320,192,126526,1,0,0:0:0:0:
448,192,126526,1,0,0:0:0:0:
64,192,126605,1,0,0:0:0:0:
192,192,126605,1,0,0:0:0:0:
192,192,126842,1,0,0:0:0:0:
320,192,126842,1,0,0:0:0:0:
448,192,126842,1,0,0:0:0:0:
64,192,126921,1,0,0:0:0:0:
192,192,127000,1,0,0:0:0:0:
320,192,127078,1,0,0:0:0:0:
192,192,127157,1,0,0:0:0:0:
320,192,127236,1,0,0:0:0:0:
64,192,127315,1,0,0:0:0:0:
192,192,127315,1,0,0:0:0:0:
320,192,127394,1,0,0:0:0:0:
448,192,127394,1,0,0:0:0:0:
64,192,127473,1,0,0:0:0:0:
192,192,127473,1,0,0:0:0:0:
320,192,127631,1,0,0:0:0:0:
448,192,127631,1,0,0:0:0:0:
64,192,127710,1,0,0:0:0:0:
192,192,127710,1,0,0:0:0:0:
320,192,127789,1,0,0:0:0:0:
448,192,127789,1,0,0:0:0:0:
64,192,127947,1,0,0:0:0:0:
192,192,127947,1,0,0:0:0:0:
320,192,128026,1,0,0:0:0:0:
192,192,128105,1,0,0:0:0:0:
320,192,128184,1,0,0:0:0:0:
192,192,128263,1,0,0:0:0:0:
320,192,128342,1,0,0:0:0:0:
192,192,128421,1,0,0:0:0:0:
320,192,128500,1,0,0:0:0:0:
192,192,128578,1,0,0:0:0:0:
320,192,128657,1,0,0:0:0:0:
192,192,128736,1,0,0:0:0:0:
64,192,128736,1,0,0:0:0:0:
320,192,128815,1,0,0:0:0:0:
448,192,128815,1,0,0:0:0:0:
64,192,128894,1,0,0:0:0:0:
192,192,128894,1,0,0:0:0:0:
320,192,128973,1,0,0:0:0:0:
448,192,128973,1,0,0:0:0:0:
64,192,129052,1,0,0:0:0:0:
192,192,129052,1,0,0:0:0:0:
192,192,129210,1,0,0:0:0:0:
320,192,129210,1,0,0:0:0:0:
64,192,129289,1,0,0:0:0:0:
448,192,129368,1,0,0:0:0:0:
64,192,129447,1,0,0:0:0:0:
448,192,129526,1,0,0:0:0:0:
64,192,129605,1,0,0:0:0:0:
448,192,129684,1,0,0:0:0:0:
64,192,129763,1,0,0:0:0:0:
192,192,129842,1,0,0:0:0:0:
448,192,129842,1,0,0:0:0:0:
320,192,129921,1,0,0:0:0:0:
64,192,129921,1,0,0:0:0:0:
192,192,130000,1,0,0:0:0:0:
448,192,130000,1,0,0:0:0:0:
192,192,130157,1,0,0:0:0:0:
320,192,130157,1,0,0:0:0:0:
448,192,130157,1,0,0:0:0:0:
320,192,130315,1,0,0:0:0:0:
64,192,130315,1,0,0:0:0:0:
192,192,130394,1,0,0:0:0:0:
448,192,130394,1,0,0:0:0:0:
320,192,130473,1,0,0:0:0:0:
64,192,130473,1,0,0:0:0:0:
64,192,130631,1,0,0:0:0:0:
448,192,130631,1,0,0:0:0:0:
192,192,130631,1,0,0:0:0:0:
192,192,130789,1,0,0:0:0:0:
320,192,130789,1,0,0:0:0:0:
64,192,130868,1,0,0:0:0:0:
448,192,130868,1,0,0:0:0:0:
192,192,130947,1,0,0:0:0:0:
320,192,130947,1,0,0:0:0:0:
64,192,131105,1,0,0:0:0:0:
192,192,131105,1,0,0:0:0:0:
320,192,131105,1,0,0:0:0:0:
320,192,131263,1,0,0:0:0:0:
448,192,131263,1,0,0:0:0:0:
64,192,131342,1,0,0:0:0:0:
192,192,131342,1,0,0:0:0:0:
320,192,131421,1,0,0:0:0:0:
448,192,131421,1,0,0:0:0:0:
192,192,131578,1,0,0:0:0:0:
320,192,131578,1,0,0:0:0:0:
64,192,131578,1,0,0:0:0:0:
64,192,131736,1,0,0:0:0:0:
192,192,131736,1,0,0:0:0:0:
320,192,131815,1,0,0:0:0:0:
448,192,131815,1,0,0:0:0:0:
64,192,131894,1,0,0:0:0:0:
192,192,131894,1,0,0:0:0:0:
64,192,132052,1,0,0:0:0:0:
448,192,132052,1,0,0:0:0:0:
320,192,132052,1,0,0:0:0:0:
192,192,132210,1,0,0:0:0:0:
320,192,132210,1,0,0:0:0:0:
64,192,132368,1,0,0:0:0:0:
448,192,132368,1,0,0:0:0:0:
192,192,132447,1,0,0:0:0:0:
320,192,132526,1,0,0:0:0:0:
192,192,132605,1,0,0:0:0:0:
320,192,132684,1,0,0:0:0:0:
192,192,132763,1,0,0:0:0:0:
320,192,132842,1,0,0:0:0:0:
192,192,132921,1,0,0:0:0:0:
320,192,133000,1,0,0:0:0:0:
448,192,133000,1,0,0:0:0:0:
64,192,133078,1,0,0:0:0:0:
448,192,133157,1,0,0:0:0:0:
64,192,133236,1,0,0:0:0:0:
448,192,133315,1,0,0:0:0:0:
64,192,133394,1,0,0:0:0:0:
448,192,133473,1,0,0:0:0:0:
64,192,133552,1,0,0:0:0:0:
448,192,133631,1,0,0:0:0:0:
64,192,133710,1,0,0:0:0:0:
192,192,133789,1,0,0:0:0:0:
320,192,133789,1,0,0:0:0:0:
448,192,133868,1,0,0:0:0:0:
64,192,133868,1,0,0:0:0:0:
192,192,133947,1,0,0:0:0:0:
320,192,133947,1,0,0:0:0:0:
64,192,134026,1,0,0:0:0:0:
448,192,134026,1,0,0:0:0:0:
192,192,134105,1,0,0:0:0:0:
320,192,134105,1,0,0:0:0:0:
64,192,134263,1,0,0:0:0:0:
448,192,134263,1,0,0:0:0:0:
192,192,134342,1,0,0:0:0:0:
320,192,134421,1,0,0:0:0:0:
192,192,134500,1,0,0:0:0:0:
320,192,134578,1,0,0:0:0:0:
192,192,134657,1,0,0:0:0:0:
320,192,134736,1,0,0:0:0:0:
192,192,134815,1,0,0:0:0:0:
320,192,134894,1,0,0:0:0:0:
448,192,134894,1,0,0:0:0:0:
64,192,134973,1,0,0:0:0:0:
192,192,134973,1,0,0:0:0:0:
320,192,135052,1,0,0:0:0:0:
448,192,135052,1,0,0:0:0:0:
64,192,135210,1,0,0:0:0:0:
320,192,135210,1,0,0:0:0:0:
192,192,135289,1,0,0:0:0:0:
448,192,135289,1,0,0:0:0:0:
320,192,135368,1,0,0:0:0:0:
64,192,135368,1,0,0:0:0:0:
192,192,135526,1,0,0:0:0:0:
320,192,135526,1,0,0:0:0:0:
64,192,135605,1,0,0:0:0:0:
448,192,135684,1,0,0:0:0:0:
64,192,135763,1,0,0:0:0:0:
448,192,135842,1,0,0:0:0:0:
64,192,135921,1,0,0:0:0:0:
448,192,136000,1,0,0:0:0:0:
64,192,136078,1,0,0:0:0:0:
448,192,136157,1,0,0:0:0:0:
64,192,136236,1,0,0:0:0:0:
448,192,136315,1,0,0:0:0:0:
320,192,136315,1,0,0:0:0:0:
64,192,136394,1,0,0:0:0:0:
192,192,136394,1,0,0:0:0:0:
320,192,136473,1,0,0:0:0:0:
448,192,136473,1,0,0:0:0:0:
64,192,136552,1,0,0:0:0:0:
192,192,136552,1,0,0:0:0:0:
320,192,136631,1,0,0:0:0:0:
448,192,136631,1,0,0:0:0:0:
64,192,136710,1,0,0:0:0:0:
192,192,136710,1,0,0:0:0:0:
320,192,136789,1,0,0:0:0:0:
448,192,136789,1,0,0:0:0:0:
192,192,136868,1,0,0:0:0:0:
320,192,136947,1,0,0:0:0:0:
448,192,136947,1,0,0:0:0:0:
192,192,137026,1,0,0:0:0:0:
320,192,137105,1,0,0:0:0:0:
192,192,137184,1,0,0:0:0:0:
320,192,137263,1,0,0:0:0:0:
192,192,137342,1,0,0:0:0:0:
320,192,137421,1,0,0:0:0:0:
448,192,137421,1,0,0:0:0:0:
64,192,137500,1,0,0:0:0:0:
448,192,137578,1,0,0:0:0:0:
64,192,137657,1,0,0:0:0:0:
448,192,137736,1,0,0:0:0:0:
64,192,137815,1,0,0:0:0:0:
448,192,137894,1,0,0:0:0:0:
64,192,137973,1,0,0:0:0:0:
448,192,138052,1,0,0:0:0:0:
192,192,138052,1,0,0:0:0:0:
320,192,138131,1,0,0:0:0:0:
64,192,138131,1,0,0:0:0:0:
192,192,138210,1,0,0:0:0:0:
448,192,138210,1,0,0:0:0:0:
320,192,138289,1,0,0:0:0:0:
64,192,138289,1,0,0:0:0:0:
192,192,138447,1,0,0:0:0:0:
448,192,138447,1,0,0:0:0:0:
320,192,138526,1,0,0:0:0:0:
64,192,138526,1,0,0:0:0:0:
192,192,138605,1,0,0:0:0:0:
448,192,138605,1,0,0:0:0:0:
320,192,138684,1,0,0:0:0:0:
64,192,138684,1,0,0:0:0:0:
192,192,138763,1,0,0:0:0:0:
448,192,138763,1,0,0:0:0:0:
64,192,138921,1,0,0:0:0:0:
192,192,138921,1,0,0:0:0:0:
320,192,139000,1,0,0:0:0:0:
448,192,139000,1,0,0:0:0:0:
64,192,139078,1,0,0:0:0:0:
192,192,139078,1,0,0:0:0:0:
320,192,139157,1,0,0:0:0:0:
448,192,139157,1,0,0:0:0:0:
64,192,139236,1,0,0:0:0:0:
192,192,139236,1,0,0:0:0:0:
320,192,139394,1,0,0:0:0:0:
448,192,139394,1,0,0:0:0:0:
64,192,139473,1,0,0:0:0:0:
192,192,139473,1,0,0:0:0:0:
320,192,139552,1,0,0:0:0:0:
448,192,139552,1,0,0:0:0:0:
64,192,139631,1,0,0:0:0:0:
192,192,139631,1,0,0:0:0:0:
448,192,139710,1,0,0:0:0:0:
320,192,139710,1,0,0:0:0:0:
192,192,139868,1,0,0:0:0:0:
320,192,139868,1,0,0:0:0:0:
448,192,139947,1,0,0:0:0:0:
64,192,139947,1,0,0:0:0:0:
320,192,140026,1,0,0:0:0:0:
192,192,140105,1,0,0:0:0:0:
320,192,140184,1,0,0:0:0:0:
192,192,140263,1,0,0:0:0:0:
320,192,140342,1,0,0:0:0:0:
192,192,140421,1,0,0:0:0:0:
320,192,140500,1,0,0:0:0:0:
192,192,140578,1,0,0:0:0:0:
64,192,140578,1,0,0:0:0:0:
320,192,140657,1,0,0:0:0:0:
448,192,140657,1,0,0:0:0:0:
192,192,140736,1,0,0:0:0:0:
64,192,140736,1,0,0:0:0:0:
320,192,140815,1,0,0:0:0:0:
448,192,140815,1,0,0:0:0:0:
64,192,140973,1,0,0:0:0:0:
448,192,140973,1,0,0:0:0:0:
192,192,141052,1,0,0:0:0:0:
320,192,141052,1,0,0:0:0:0:
64,192,141131,1,0,0:0:0:0:
448,192,141131,1,0,0:0:0:0:
192,192,141210,1,0,0:0:0:0:
320,192,141210,1,0,0:0:0:0:
64,192,141289,1,0,0:0:0:0:
448,192,141289,1,0,0:0:0:0:
64,192,141447,1,0,0:0:0:0:
320,192,141447,1,0,0:0:0:0:
192,192,141526,1,0,0:0:0:0:
448,192,141526,1,0,0:0:0:0:
64,192,141605,1,0,0:0:0:0:
320,192,141605,1,0,0:0:0:0:
192,192,141684,1,0,0:0:0:0:
448,192,141684,1,0,0:0:0:0:
320,192,141763,1,0,0:0:0:0:
64,192,141763,1,0,0:0:0:0:
192,192,141842,1,0,0:0:0:0:
448,192,141842,1,0,0:0:0:0:
320,192,141921,1,0,0:0:0:0:
192,192,142000,1,0,0:0:0:0:
320,192,142078,1,0,0:0:0:0:
192,192,142157,1,0,0:0:0:0:
320,192,142236,1,0,0:0:0:0:
192,192,142315,1,0,0:0:0:0:
320,192,142394,1,0,0:0:0:0:
64,192,142473,1,0,0:0:0:0:
192,192,142473,1,0,0:0:0:0:
448,192,142473,1,0,0:0:0:0:
320,192,142552,1,0,0:0:0:0:
192,192,142631,1,0,0:0:0:0:
64,192,142710,1,0,0:0:0:0:
320,192,142789,1,0,0:0:0:0:
448,192,142789,1,0,0:0:0:0:
192,192,142868,1,0,0:0:0:0:
320,192,142947,1,0,0:0:0:0:
192,192,143026,1,0,0:0:0:0:
448,192,143105,1,0,0:0:0:0:
64,192,143105,1,0,0:0:0:0:
192,192,143184,1,0,0:0:0:0:
320,192,143263,1,0,0:0:0:0:
448,192,143342,1,0,0:0:0:0:
192,192,143421,1,0,0:0:0:0:
64,192,143421,1,0,0:0:0:0:
320,192,143500,1,0,0:0:0:0:
64,192,143578,1,0,0:0:0:0:
192,192,143578,1,0,0:0:0:0:
448,192,143657,1,0,0:0:0:0:
192,192,143736,1,0,0:0:0:0:
320,192,143736,1,0,0:0:0:0:
64,192,143815,1,0,0:0:0:0:
192,192,143894,1,0,0:0:0:0:
448,192,143894,1,0,0:0:0:0:
320,192,143973,1,0,0:0:0:0:
448,192,144052,1,0,0:0:0:0:
64,192,144052,1,0,0:0:0:0:
320,192,144131,1,0,0:0:0:0:
192,192,144210,1,0,0:0:0:0:
64,192,144289,1,0,0:0:0:0:
192,192,144368,1,0,0:0:0:0:
448,192,144368,1,0,0:0:0:0:
320,192,144447,1,0,0:0:0:0:
192,192,144526,1,0,0:0:0:0:
64,192,144605,1,0,0:0:0:0:
448,192,144684,1,0,0:0:0:0:
192,192,144684,1,0,0:0:0:0:
320,192,144763,1,0,0:0:0:0:
192,192,144842,1,0,0:0:0:0:
448,192,144842,1,0,0:0:0:0:
64,192,144921,1,0,0:0:0:0:
192,192,145000,1,0,0:0:0:0:
320,192,145000,1,0,0:0:0:0:
448,192,145078,1,0,0:0:0:0:
320,192,145157,1,0,0:0:0:0:
192,192,145236,1,0,0:0:0:0:
64,192,145315,1,0,0:0:0:0:
448,192,145315,1,0,0:0:0:0:
192,192,145394,1,0,0:0:0:0:
320,192,145473,1,0,0:0:0:0:
448,192,145552,1,0,0:0:0:0:
64,192,145631,1,0,0:0:0:0:
320,192,145631,1,0,0:0:0:0:
192,192,145710,1,0,0:0:0:0:
64,192,145789,1,0,0:0:0:0:
192,192,145868,1,0,0:0:0:0:
320,192,145947,1,0,0:0:0:0:
448,192,145947,1,0,0:0:0:0:
192,192,146026,1,0,0:0:0:0:
64,192,146105,1,0,0:0:0:0:
448,192,146105,1,0,0:0:0:0:
192,192,146184,1,0,0:0:0:0:
320,192,146263,1,0,0:0:0:0:
448,192,146263,1,0,0:0:0:0:
192,192,146342,1,0,0:0:0:0:
64,192,146421,1,0,0:0:0:0:
448,192,146421,1,0,0:0:0:0:
320,192,146500,1,0,0:0:0:0:
192,192,146578,1,0,0:0:0:0:
448,192,146578,1,0,0:0:0:0:
64,192,146657,1,0,0:0:0:0:
192,192,146736,1,0,0:0:0:0:
320,192,146815,1,0,0:0:0:0:
64,192,146894,1,0,0:0:0:0:
448,192,146894,1,0,0:0:0:0:
320,192,146973,1,0,0:0:0:0:
192,192,147052,1,0,0:0:0:0:
64,192,147131,1,0,0:0:0:0:
192,192,147210,1,0,0:0:0:0:
320,192,147289,1,0,0:0:0:0:
448,192,147368,1,0,0:0:0:0:
64,192,147368,1,0,0:0:0:0:
320,192,147447,1,0,0:0:0:0:
192,192,147526,1,0,0:0:0:0:
64,192,147526,1,0,0:0:0:0:
320,192,147605,1,0,0:0:0:0:
192,192,147684,1,0,0:0:0:0:
320,192,147763,1,0,0:0:0:0:
448,192,147842,1,0,0:0:0:0:
64,192,147842,1,0,0:0:0:0:
320,192,147921,1,0,0:0:0:0:
192,192,148000,1,0,0:0:0:0:
64,192,148078,1,0,0:0:0:0:
192,192,148157,1,0,0:0:0:0:
320,192,148157,1,0,0:0:0:0:
448,192,148236,1,0,0:0:0:0:
320,192,148315,1,0,0:0:0:0:
192,192,148394,1,0,0:0:0:0:
64,192,148473,1,0,0:0:0:0:
320,192,148473,1,0,0:0:0:0:
448,192,148473,1,0,0:0:0:0:
192,192,148552,1,0,0:0:0:0:
320,192,148631,1,0,0:0:0:0:
64,192,148631,1,0,0:0:0:0:
192,192,148710,1,0,0:0:0:0:
320,192,148789,1,0,0:0:0:0:
448,192,148789,1,0,0:0:0:0:
192,192,148868,1,0,0:0:0:0:
64,192,148947,1,0,0:0:0:0:
448,192,148947,1,0,0:0:0:0:
192,192,149026,1,0,0:0:0:0:
320,192,149105,1,0,0:0:0:0:
448,192,149105,1,0,0:0:0:0:
192,192,149184,1,0,0:0:0:0:
320,192,149263,1,0,0:0:0:0:
192,192,149342,1,0,0:0:0:0:
448,192,149421,1,0,0:0:0:0:
64,192,149421,1,0,0:0:0:0:
320,192,149500,1,0,0:0:0:0:
192,192,149578,1,0,0:0:0:0:
64,192,149657,1,0,0:0:0:0:
448,192,149736,1,0,0:0:0:0:
192,192,149736,1,0,0:0:0:0:
320,192,149815,1,0,0:0:0:0:
192,192,149894,1,0,0:0:0:0:
448,192,149894,1,0,0:0:0:0:
320,192,149973,1,0,0:0:0:0:
448,192,150052,1,0,0:0:0:0:
64,192,150052,1,0,0:0:0:0:
320,192,150131,1,0,0:0:0:0:
192,192,150210,1,0,0:0:0:0:
64,192,150289,1,0,0:0:0:0:
192,192,150368,1,0,0:0:0:0:
320,192,150368,1,0,0:0:0:0:
448,192,150447,1,0,0:0:0:0:
320,192,150526,1,0,0:0:0:0:
192,192,150605,1,0,0:0:0:0:
64,192,150684,1,0,0:0:0:0:
320,192,150684,1,0,0:0:0:0:
192,192,150763,1,0,0:0:0:0:
320,192,150842,1,0,0:0:0:0:
448,192,150921,1,0,0:0:0:0:
320,192,151000,1,0,0:0:0:0:
64,192,151000,1,0,0:0:0:0:
192,192,151078,1,0,0:0:0:0:
64,192,151157,1,0,0:0:0:0:
320,192,151157,1,0,0:0:0:0:
192,192,151236,1,0,0:0:0:0:
64,192,151315,1,0,0:0:0:0:
448,192,151315,1,0,0:0:0:0:
192,192,151394,1,0,0:0:0:0:
320,192,151473,1,0,0:0:0:0:
448,192,151473,1,0,0:0:0:0:
192,192,151552,1,0,0:0:0:0:
64,192,151631,1,0,0:0:0:0:
448,192,151631,1,0,0:0:0:0:
192,192,151710,1,0,0:0:0:0:
320,192,151789,1,0,0:0:0:0:
448,192,151868,1,0,0:0:0:0:
64,192,151947,1,0,0:0:0:0:
320,192,151947,1,0,0:0:0:0:
192,192,152026,1,0,0:0:0:0:
320,192,152105,1,0,0:0:0:0:
192,192,152184,1,0,0:0:0:0:
320,192,152263,1,0,0:0:0:0:
448,192,152342,1,0,0:0:0:0:
320,192,152421,1,0,0:0:0:0:
192,192,152500,1,0,0:0:0:0:
64,192,152578,1,0,0:0:0:0:
448,192,152578,1,0,0:0:0:0:
192,192,152657,1,0,0:0:0:0:
320,192,152736,1,0,0:0:0:0:
448,192,152815,1,0,0:0:0:0:
64,192,152894,1,0,0:0:0:0:
320,192,152894,1,0,0:0:0:0:
192,192,152973,1,0,0:0:0:0:
320,192,153052,1,0,0:0:0:0:
448,192,153131,1,0,0:0:0:0:
320,192,153210,1,0,0:0:0:0:
192,192,153210,1,0,0:0:0:0:
64,192,153289,1,0,0:0:0:0:
192,192,153368,1,0,0:0:0:0:
320,192,153447,1,0,0:0:0:0:
448,192,153526,1,0,0:0:0:0:
192,192,153526,1,0,0:0:0:0:
320,192,153605,1,0,0:0:0:0:
192,192,153684,1,0,0:0:0:0:
448,192,153684,1,0,0:0:0:0:
320,192,153763,1,0,0:0:0:0:
64,192,153842,1,0,0:0:0:0:
448,192,153842,1,0,0:0:0:0:
320,192,153921,1,0,0:0:0:0:
192,192,154000,1,0,0:0:0:0:
64,192,154000,1,0,0:0:0:0:
320,192,154078,1,0,0:0:0:0:
448,192,154157,1,0,0:0:0:0:
64,192,154157,1,0,0:0:0:0:
192,192,154236,1,0,0:0:0:0:
320,192,154315,1,0,0:0:0:0:
448,192,154394,1,0,0:0:0:0:
192,192,154473,1,0,0:0:0:0:
320,192,154473,1,0,0:0:0:0:
64,192,154552,1,0,0:0:0:0:
192,192,154631,1,0,0:0:0:0:
320,192,154710,1,0,0:0:0:0:
448,192,154789,1,0,0:0:0:0:
64,192,154789,1,0,0:0:0:0:
320,192,154868,1,0,0:0:0:0:
64,192,154947,1,0,0:0:0:0:
192,192,154947,1,0,0:0:0:0:
320,192,155026,1,0,0:0:0:0:
448,192,155105,1,0,0:0:0:0:
64,192,155105,1,0,0:0:0:0:
320,192,155184,1,0,0:0:0:0:
192,192,155263,1,0,0:0:0:0:
64,192,155342,1,0,0:0:0:0:
192,192,155421,1,0,0:0:0:0:
320,192,155421,1,0,0:0:0:0:
448,192,155500,1,0,0:0:0:0:
320,192,155578,1,0,0:0:0:0:
192,192,155657,1,0,0:0:0:0:
64,192,155736,1,0,0:0:0:0:
448,192,155736,1,0,0:0:0:0:
192,192,155815,1,0,0:0:0:0:
320,192,155894,1,0,0:0:0:0:
448,192,155973,1,0,0:0:0:0:
320,192,156052,1,0,0:0:0:0:
64,192,156052,1,0,0:0:0:0:
192,192,156131,1,0,0:0:0:0:
64,192,156210,1,0,0:0:0:0:
320,192,156210,1,0,0:0:0:0:
192,192,156289,1,0,0:0:0:0:
64,192,156368,1,0,0:0:0:0:
448,192,156368,1,0,0:0:0:0:
320,192,156447,1,0,0:0:0:0:
192,192,156526,1,0,0:0:0:0:
448,192,156526,1,0,0:0:0:0:
320,192,156605,1,0,0:0:0:0:
192,192,156684,1,0,0:0:0:0:
448,192,156684,1,0,0:0:0:0:
320,192,156763,1,0,0:0:0:0:
192,192,156842,1,0,0:0:0:0:
64,192,156921,1,0,0:0:0:0:
192,192,157000,1,0,0:0:0:0:
320,192,157000,1,0,0:0:0:0:
448,192,157078,1,0,0:0:0:0:
320,192,157157,1,0,0:0:0:0:
192,192,157236,1,0,0:0:0:0:
64,192,157315,1,0,0:0:0:0:
192,192,157394,1,0,0:0:0:0:
320,192,157473,1,0,0:0:0:0:
448,192,157473,1,0,0:0:0:0:
192,192,157552,1,0,0:0:0:0:
64,192,157631,1,0,0:0:0:0:
448,192,157631,1,0,0:0:0:0:
192,192,157710,1,0,0:0:0:0:
320,192,157789,1,0,0:0:0:0:
448,192,157868,1,0,0:0:0:0:
192,192,157947,1,0,0:0:0:0:
320,192,157947,1,0,0:0:0:0:
64,192,158026,1,0,0:0:0:0:
192,192,158105,1,0,0:0:0:0:
320,192,158184,1,0,0:0:0:0:
64,192,158263,1,0,0:0:0:0:
192,192,158263,1,0,0:0:0:0:
320,192,158342,1,0,0:0:0:0:
448,192,158421,1,0,0:0:0:0:
320,192,158500,1,0,0:0:0:0:
64,192,158578,1,0,0:0:0:0:
192,192,158578,1,0,0:0:0:0:
320,192,158657,1,0,0:0:0:0:
448,192,158736,1,0,0:0:0:0:
64,192,158736,1,0,0:0:0:0:
320,192,158815,1,0,0:0:0:0:
192,192,158894,1,0,0:0:0:0:
448,192,158894,1,0,0:0:0:0:
320,192,158973,1,0,0:0:0:0:
64,192,159052,1,0,0:0:0:0:
448,192,159052,1,0,0:0:0:0:
192,192,159131,1,0,0:0:0:0:
320,192,159210,1,0,0:0:0:0:
448,192,159210,1,0,0:0:0:0:
192,192,159289,1,0,0:0:0:0:
64,192,159368,1,0,0:0:0:0:
192,192,159447,1,0,0:0:0:0:
320,192,159526,1,0,0:0:0:0:
64,192,159526,1,0,0:0:0:0:
192,192,159605,1,0,0:0:0:0:
320,192,159684,1,0,0:0:0:0:
448,192,159763,1,0,0:0:0:0:
320,192,159842,1,0,0:0:0:0:
192,192,159842,1,0,0:0:0:0:
64,192,159921,1,0,0:0:0:0:
192,192,160000,1,0,0:0:0:0:
320,192,160000,1,0,0:0:0:0:
448,192,160078,1,0,0:0:0:0:
320,192,160157,1,0,0:0:0:0:
192,192,160157,1,0,0:0:0:0:
64,192,160236,1,0,0:0:0:0:
192,192,160315,1,0,0:0:0:0:
320,192,160394,1,0,0:0:0:0:
448,192,160473,1,0,0:0:0:0:
64,192,160473,1,0,0:0:0:0:
320,192,160552,1,0,0:0:0:0:
192,192,160631,1,0,0:0:0:0:
64,192,160710,1,0,0:0:0:0:
192,192,160789,1,0,0:0:0:0:
448,192,160789,1,0,0:0:0:0:
320,192,160868,1,0,0:0:0:0:
192,192,160947,1,0,0:0:0:0:
64,192,161026,1,0,0:0:0:0:
192,192,161105,1,0,0:0:0:0:
448,192,161105,1,0,0:0:0:0:
320,192,161184,1,0,0:0:0:0:
64,192,161263,1,0,0:0:0:0:
192,192,161263,1,0,0:0:0:0:
320,192,161342,1,0,0:0:0:0:
192,192,161421,1,0,0:0:0:0:
320,192,161500,1,0,0:0:0:0:
192,192,161578,1,0,0:0:0:0:
320,192,161657,1,0,0:0:0:0:
192,192,161736,1,0,0:0:0:0:
320,192,161815,1,0,0:0:0:0:
192,192,161894,1,0,0:0:0:0:
320,192,161973,1,0,0:0:0:0:
192,192,162052,1,0,0:0:0:0:
320,192,162131,1,0,0:0:0:0:
192,192,162210,1,0,0:0:0:0:
320,192,162289,1,0,0:0:0:0:
192,192,162368,1,0,0:0:0:0:
320,192,162447,1,0,0:0:0:0:
192,192,162526,1,0,0:0:0:0:
320,192,162605,1,0,0:0:0:0:
64,192,162684,5,0,0:0:0:0:
192,192,162684,1,0,0:0:0:0:
448,192,162684,1,0,0:0:0:0:
320,192,162842,1,0,0:0:0:0:
448,192,163000,1,0,0:0:0:0:
192,192,163157,1,0,0:0:0:0:
64,192,163315,1,0,0:0:0:0:
192,192,163473,1,0,0:0:0:0:
320,192,163631,1,0,0:0:0:0:
192,192,163789,1,0,0:0:0:0:
448,192,163947,1,0,0:0:0:0:
64,192,164105,1,0,0:0:0:0:
320,192,164263,1,0,0:0:0:0:
192,192,164421,1,0,0:0:0:0:
320,192,164578,1,0,0:0:0:0:
64,192,164736,1,0,0:0:0:0:
192,192,164894,1,0,0:0:0:0:
320,192,165052,1,0,0:0:0:0:
192,192,165210,1,0,0:0:0:0:
448,192,165368,1,0,0:0:0:0:
320,192,165526,1,0,0:0:0:0:
192,192,165684,1,0,0:0:0:0:
64,192,165842,1,0,0:0:0:0:
320,192,166000,1,0,0:0:0:0:
192,192,166157,1,0,0:0:0:0:
64,192,166315,1,0,0:0:0:0:
320,192,166473,1,0,0:0:0:0:
192,192,166631,1,0,0:0:0:0:
320,192,166789,1,0,0:0:0:0:
448,192,166947,1,0,0:0:0:0:
320,192,167105,1,0,0:0:0:0:
192,192,167263,1,0,0:0:0:0:
320,192,167421,1,0,0:0:0:0:
448,192,167578,1,0,0:0:0:0:
192,192,167736,1,0,0:0:0:0:
320,192,167736,1,0,0:0:0:0:
64,192,167894,1,0,0:0:0:0:
192,192,168052,1,0,0:0:0:0:
320,192,168210,1,0,0:0:0:0:
448,192,168210,1,0,0:0:0:0:
64,192,168368,1,0,0:0:0:0:
192,192,168526,1,0,0:0:0:0:
320,192,168684,1,0,0:0:0:0:
64,192,168684,1,0,0:0:0:0:
448,192,168842,1,0,0:0:0:0:
64,192,169000,1,0,0:0:0:0:
192,192,169000,1,0,0:0:0:0:
320,192,169157,1,0,0:0:0:0:
192,192,169315,1,0,0:0:0:0:
64,192,169473,1,0,0:0:0:0:
192,192,169631,1,0,0:0:0:0:
320,192,169789,1,0,0:0:0:0:
448,192,169947,1,0,0:0:0:0:
320,192,170105,1,0,0:0:0:0:
192,192,170263,1,0,0:0:0:0:
64,192,170421,1,0,0:0:0:0:
192,192,170578,1,0,0:0:0:0:
320,192,170736,1,0,0:0:0:0:
192,192,170894,1,0,0:0:0:0:
448,192,171052,1,0,0:0:0:0:
320,192,171210,1,0,0:0:0:0:
64,192,171368,1,0,0:0:0:0:
192,192,171526,1,0,0:0:0:0:
320,192,171684,1,0,0:0:0:0:
448,192,171842,1,0,0:0:0:0:
320,192,172000,1,0,0:0:0:0:
64,192,172157,1,0,0:0:0:0:
192,192,172315,1,0,0:0:0:0:
320,192,172473,1,0,0:0:0:0:
64,192,172631,1,0,0:0:0:0:
192,192,172789,1,0,0:0:0:0:
320,192,172789,1,0,0:0:0:0:
448,192,172789,1,0,0:0:0:0:
64,192,172947,1,0,0:0:0:0:
192,192,173105,1,0,0:0:0:0:
64,192,173105,1,0,0:0:0:0:
448,192,173105,1,0,0:0:0:0:
320,192,173263,1,0,0:0:0:0:
192,192,173421,1,0,0:0:0:0:
448,192,173421,1,0,0:0:0:0:
64,192,173578,1,0,0:0:0:0:
192,192,173736,1,0,0:0:0:0:
320,192,173894,1,0,0:0:0:0:
448,192,174052,1,0,0:0:0:0:
64,192,174210,1,0,0:0:0:0:
192,192,174368,1,0,0:0:0:0:
320,192,174368,1,0,0:0:0:0:
448,192,174368,1,0,0:0:0:0:
448,192,174526,1,0,0:0:0:0:
64,192,174526,1,0,0:0:0:0:
192,192,174526,1,0,0:0:0:0:
320,192,174684,1,0,0:0:0:0:
192,192,174684,1,0,0:0:0:0:
448,192,174842,1,0,0:0:0:0:
320,192,175000,1,0,0:0:0:0:
192,192,175157,1,0,0:0:0:0:
320,192,175315,1,0,0:0:0:0:
64,192,175315,1,0,0:0:0:0:
448,192,175315,1,0,0:0:0:0:
192,192,175473,1,0,0:0:0:0:
448,192,175631,1,0,0:0:0:0:
192,192,175631,1,0,0:0:0:0:
320,192,175631,1,0,0:0:0:0:
320,192,175789,1,0,0:0:0:0:
192,192,175947,1,0,0:0:0:0:
64,192,175947,1,0,0:0:0:0:
448,192,176105,1,0,0:0:0:0:
320,192,176263,1,0,0:0:0:0:
192,192,176421,1,0,0:0:0:0:
64,192,176578,1,0,0:0:0:0:
192,192,176736,1,0,0:0:0:0:
320,192,176894,1,0,0:0:0:0:
192,192,176894,1,0,0:0:0:0:
64,192,176894,1,0,0:0:0:0:
448,192,177052,1,0,0:0:0:0:
320,192,177052,1,0,0:0:0:0:
192,192,177052,1,0,0:0:0:0:
320,192,177210,1,0,0:0:0:0:
64,192,177210,1,0,0:0:0:0:
320,192,177368,1,0,0:0:0:0:
192,192,177368,1,0,0:0:0:0:
448,192,177368,1,0,0:0:0:0:
64,192,177526,1,0,0:0:0:0:
192,192,177605,1,0,0:0:0:0:
320,192,177605,1,0,0:0:0:0:
448,192,177605,1,0,0:0:0:0:
320,192,177763,1,0,0:0:0:0:
64,192,177842,1,0,0:0:0:0:
448,192,177842,1,0,0:0:0:0:
192,192,177842,1,0,0:0:0:0:
320,192,178000,1,0,0:0:0:0:
64,192,178157,1,0,0:0:0:0:
192,192,178157,1,0,0:0:0:0:
320,192,178157,1,0,0:0:0:0:
192,192,178315,1,0,0:0:0:0:
64,192,178473,1,0,0:0:0:0:
448,192,178473,1,0,0:0:0:0:
320,192,178631,1,0,0:0:0:0:
448,192,178789,1,0,0:0:0:0:
320,192,178947,1,0,0:0:0:0:
192,192,179105,1,0,0:0:0:0:
448,192,179105,1,0,0:0:0:0:
64,192,179263,1,0,0:0:0:0:
192,192,179421,1,0,0:0:0:0:
320,192,179421,1,0,0:0:0:0:
448,192,179421,1,0,0:0:0:0:
64,192,179578,1,0,0:0:0:0:
192,192,179578,1,0,0:0:0:0:
448,192,179578,1,0,0:0:0:0:
192,192,179736,1,0,0:0:0:0:
320,192,179736,1,0,0:0:0:0:
448,192,179894,1,0,0:0:0:0:
192,192,180052,1,0,0:0:0:0:
320,192,180210,1,0,0:0:0:0:
64,192,180368,1,0,0:0:0:0:
192,192,180368,1,0,0:0:0:0:
320,192,180447,1,0,0:0:0:0:
448,192,180447,1,0,0:0:0:0:
64,192,180526,1,0,0:0:0:0:
192,192,180526,1,0,0:0:0:0:
320,192,180605,1,0,0:0:0:0:
448,192,180605,1,0,0:0:0:0:
64,192,180684,1,0,0:0:0:0:
192,192,180684,1,0,0:0:0:0:
320,192,180763,1,0,0:0:0:0:
448,192,180763,1,0,0:0:0:0:
192,192,180842,1,0,0:0:0:0:
64,192,180842,1,0,0:0:0:0:
320,192,180921,1,0,0:0:0:0:
448,192,180921,1,0,0:0:0:0:
64,192,181000,1,0,0:0:0:0:
192,192,181000,1,0,0:0:0:0:
448,192,181078,1,0,0:0:0:0:
320,192,181078,1,0,0:0:0:0:
192,192,181157,1,0,0:0:0:0:
64,192,181157,1,0,0:0:0:0:
448,192,181236,1,0,0:0:0:0:
320,192,181236,1,0,0:0:0:0:
192,192,181315,1,0,0:0:0:0:
64,192,181315,1,0,0:0:0:0:
448,192,181394,1,0,0:0:0:0:
320,192,181394,1,0,0:0:0:0:
192,192,181473,1,0,0:0:0:0:
64,192,181473,1,0,0:0:0:0:
448,192,181552,1,0,0:0:0:0:
320,192,181552,1,0,0:0:0:0:
192,192,181631,1,0,0:0:0:0:
64,192,181631,1,0,0:0:0:0:
448,192,181710,1,0,0:0:0:0:
320,192,181710,1,0,0:0:0:0:
192,192,181789,1,0,0:0:0:0:
64,192,181789,1,0,0:0:0:0:
448,192,181868,1,0,0:0:0:0:
320,192,181868,1,0,0:0:0:0:
192,192,181947,1,0,0:0:0:0:
64,192,181947,1,0,0:0:0:0:
448,192,182026,1,0,0:0:0:0:
320,192,182026,1,0,0:0:0:0:
64,192,182105,1,0,0:0:0:0:
192,192,182105,1,0,0:0:0:0:
320,192,182105,1,0,0:0:0:0:
192,192,182263,1,0,0:0:0:0:
64,192,182421,1,0,0:0:0:0:
192,192,182421,1,0,0:0:0:0:
320,192,182421,1,0,0:0:0:0:
192,192,182657,1,0,0:0:0:0:
448,192,182657,1,0,0:0:0:0:
64,192,182657,1,0,0:0:0:0:
64,192,182894,1,0,0:0:0:0:
448,192,182894,1,0,0:0:0:0:
320,192,182894,1,0,0:0:0:0:
192,192,183052,1,0,0:0:0:0:
320,192,183210,1,0,0:0:0:0:
64,192,183210,1,0,0:0:0:0:
448,192,183210,1,0,0:0:0:0:
192,192,183368,1,0,0:0:0:0:
320,192,183526,1,0,0:0:0:0:
64,192,183684,1,0,0:0:0:0:
320,192,183842,1,0,0:0:0:0:
192,192,184000,1,0,0:0:0:0:
448,192,184157,1,0,0:0:0:0:
192,192,184315,1,0,0:0:0:0:
64,192,184473,1,0,0:0:0:0:
320,192,184631,1,0,0:0:0:0:
448,192,184789,1,0,0:0:0:0:
192,192,184947,1,0,0:0:0:0:
64,192,185105,1,0,0:0:0:0:
320,192,185263,1,0,0:0:0:0:
448,192,185421,1,0,0:0:0:0:
64,192,185421,1,0,0:0:0:0:
192,192,185421,1,0,0:0:0:0:
320,192,185578,1,0,0:0:0:0:
192,192,185736,1,0,0:0:0:0:
320,192,185736,1,0,0:0:0:0:
448,192,185736,1,0,0:0:0:0:
192,192,185894,1,0,0:0:0:0:
64,192,186052,1,0,0:0:0:0:
320,192,186210,1,0,0:0:0:0:
448,192,186368,1,0,0:0:0:0:
192,192,186526,1,0,0:0:0:0:
320,192,186605,1,0,0:0:0:0:
192,192,186684,1,0,0:0:0:0:
64,192,186842,1,0,0:0:0:0:
320,192,187000,1,0,0:0:0:0:
448,192,187157,1,0,0:0:0:0:
192,192,187315,1,0,0:0:0:0:
64,192,187473,1,0,0:0:0:0:
320,192,187473,1,0,0:0:0:0:
448,192,187473,1,0,0:0:0:0:
192,192,187631,1,0,0:0:0:0:
320,192,187710,1,0,0:0:0:0:
448,192,187710,1,0,0:0:0:0:
64,192,187710,1,0,0:0:0:0:
64,192,187947,1,0,0:0:0:0:
192,192,187947,1,0,0:0:0:0:
320,192,187947,1,0,0:0:0:0:
320,192,188105,1,0,0:0:0:0:
192,192,188263,1,0,0:0:0:0:
320,192,188263,1,0,0:0:0:0:
448,192,188263,1,0,0:0:0:0:
192,192,188421,1,0,0:0:0:0:
64,192,188578,1,0,0:0:0:0:
192,192,188736,1,0,0:0:0:0:
320,192,188894,1,0,0:0:0:0:
448,192,189052,1,0,0:0:0:0:
192,192,189210,1,0,0:0:0:0:
448,192,189368,1,0,0:0:0:0:
320,192,189526,1,0,0:0:0:0:
64,192,189684,1,0,0:0:0:0:
192,192,189842,1,0,0:0:0:0:
448,192,190000,1,0,0:0:0:0:
320,192,190157,1,0,0:0:0:0:
64,192,190315,1,0,0:0:0:0:
192,192,190473,1,0,0:0:0:0:
320,192,190473,1,0,0:0:0:0:
448,192,190473,1,0,0:0:0:0:
192,192,190631,1,0,0:0:0:0:
64,192,190789,1,0,0:0:0:0:
320,192,190789,1,0,0:0:0:0:
448,192,190789,1,0,0:0:0:0:
192,192,190947,1,0,0:0:0:0:
320,192,191105,1,0,0:0:0:0:
64,192,191263,1,0,0:0:0:0:
448,192,191421,1,0,0:0:0:0:
320,192,191578,1,0,0:0:0:0:
192,192,191657,1,0,0:0:0:0:
320,192,191736,1,0,0:0:0:0:
192,192,191894,1,0,0:0:0:0:
64,192,192052,1,0,0:0:0:0:
320,192,192210,1,0,0:0:0:0:
448,192,192368,1,0,0:0:0:0:
320,192,192526,1,0,0:0:0:0:
192,192,192526,1,0,0:0:0:0:
64,192,192526,1,0,0:0:0:0:
320,192,192684,1,0,0:0:0:0:
64,192,192763,1,0,0:0:0:0:
192,192,192763,1,0,0:0:0:0:
448,192,192763,1,0,0:0:0:0:
320,192,192842,1,0,0:0:0:0:
192,192,193000,1,0,0:0:0:0:
320,192,193000,1,0,0:0:0:0:
448,192,193000,1,0,0:0:0:0:
192,192,193157,1,0,0:0:0:0:
320,192,193157,1,0,0:0:0:0:
64,192,193157,1,0,0:0:0:0:
320,192,193315,1,0,0:0:0:0:
64,192,193473,1,0,0:0:0:0:
192,192,193631,1,0,0:0:0:0:
320,192,193631,1,0,0:0:0:0:
448,192,193631,1,0,0:0:0:0:
64,192,193789,1,0,0:0:0:0:
320,192,193789,1,0,0:0:0:0:
448,192,193789,1,0,0:0:0:0:
192,192,193947,1,0,0:0:0:0:
320,192,194105,1,0,0:0:0:0:
64,192,194263,1,0,0:0:0:0:
192,192,194263,1,0,0:0:0:0:
448,192,194263,1,0,0:0:0:0:
192,192,194421,1,0,0:0:0:0:
320,192,194421,1,0,0:0:0:0:
448,192,194421,1,0,0:0:0:0:
192,192,194578,1,0,0:0:0:0:
320,192,194736,1,0,0:0:0:0:
64,192,194894,1,0,0:0:0:0:
192,192,194894,1,0,0:0:0:0:
448,192,194894,1,0,0:0:0:0:
64,192,195052,1,0,0:0:0:0:
192,192,195052,1,0,0:0:0:0:
320,192,195052,1,0,0:0:0:0:
320,192,195210,1,0,0:0:0:0:
192,192,195368,1,0,0:0:0:0:
64,192,195526,1,0,0:0:0:0:
448,192,195526,1,0,0:0:0:0:
320,192,195526,1,0,0:0:0:0:
64,192,195684,1,0,0:0:0:0:
448,192,195684,1,0,0:0:0:0:
192,192,195684,1,0,0:0:0:0:
320,192,195842,1,0,0:0:0:0:
192,192,196000,1,0,0:0:0:0:
64,192,196157,1,0,0:0:0:0:
192,192,196157,1,0,0:0:0:0:
320,192,196157,1,0,0:0:0:0:
448,192,196315,1,0,0:0:0:0:
64,192,196315,1,0,0:0:0:0:
320,192,196315,1,0,0:0:0:0:
192,192,196473,1,0,0:0:0:0:
64,192,196631,1,0,0:0:0:0:
192,192,196789,1,0,0:0:0:0:
320,192,196789,1,0,0:0:0:0:
448,192,196789,1,0,0:0:0:0:
64,192,196947,1,0,0:0:0:0:
192,192,196947,1,0,0:0:0:0:
448,192,196947,1,0,0:0:0:0:
320,192,197105,1,0,0:0:0:0:
448,192,197263,1,0,0:0:0:0:
192,192,197421,1,0,0:0:0:0:
64,192,197421,1,0,0:0:0:0:
320,192,197421,1,0,0:0:0:0:
64,192,197578,1,0,0:0:0:0:
192,192,197578,1,0,0:0:0:0:
448,192,197578,1,0,0:0:0:0:
320,192,197736,1,0,0:0:0:0:
192,192,197894,1,0,0:0:0:0:
448,192,198052,5,0,0:0:0:0:
320,192,198052,1,0,0:0:0:0:
448,192,198210,1,0,0:0:0:0:
320,192,198210,1,0,0:0:0:0:
448,192,198368,1,0,0:0:0:0:
320,192,198368,1,0,0:0:0:0:
448,192,198526,1,0,0:0:0:0:
320,192,198526,1,0,0:0:0:0:
192,192,198684,1,0,0:0:0:0:
64,192,198684,1,0,0:0:0:0:
192,192,198842,1,0,0:0:0:0:
64,192,198842,1,0,0:0:0:0:
192,192,199000,1,0,0:0:0:0:
64,192,199000,1,0,0:0:0:0:
192,192,199157,1,0,0:0:0:0:
64,192,199157,1,0,0:0:0:0:
192,192,199315,1,0,0:0:0:0:
320,192,199315,1,0,0:0:0:0:
192,192,199473,1,0,0:0:0:0:
320,192,199473,1,0,0:0:0:0:
192,192,199631,1,0,0:0:0:0:
320,192,199631,1,0,0:0:0:0:
192,192,199789,1,0,0:0:0:0:
320,192,199789,1,0,0:0:0:0:
64,192,199947,1,0,0:0:0:0:
448,192,199947,1,0,0:0:0:0:
64,192,200105,1,0,0:0:0:0:
448,192,200105,1,0,0:0:0:0:
64,192,200263,1,0,0:0:0:0:
448,192,200263,1,0,0:0:0:0:
64,192,200421,1,0,0:0:0:0:
448,192,200421,1,0,0:0:0:0:
64,192,200578,1,0,0:0:0:0:
192,192,200578,1,0,0:0:0:0:
320,192,200657,1,0,0:0:0:0:
448,192,200657,1,0,0:0:0:0:
192,192,200736,1,0,0:0:0:0:
64,192,200736,1,0,0:0:0:0:
320,192,200815,1,0,0:0:0:0:
448,192,200815,1,0,0:0:0:0:
192,192,200894,1,0,0:0:0:0:
64,192,200894,1,0,0:0:0:0:
320,192,200973,1,0,0:0:0:0:
448,192,200973,1,0,0:0:0:0:
64,192,201052,1,0,0:0:0:0:
192,192,201052,1,0,0:0:0:0:
320,192,201131,1,0,0:0:0:0:
448,192,201131,1,0,0:0:0:0:
64,192,201210,1,0,0:0:0:0:
192,192,201210,1,0,0:0:0:0:
320,192,201289,1,0,0:0:0:0:
448,192,201289,1,0,0:0:0:0:
64,192,201368,1,0,0:0:0:0:
192,192,201368,1,0,0:0:0:0:
320,192,201447,1,0,0:0:0:0:
448,192,201447,1,0,0:0:0:0:
64,192,201526,1,0,0:0:0:0:
192,192,201526,1,0,0:0:0:0:
320,192,201605,1,0,0:0:0:0:
448,192,201605,1,0,0:0:0:0:
64,192,201684,1,0,0:0:0:0:
192,192,201684,1,0,0:0:0:0:
320,192,201763,1,0,0:0:0:0:
448,192,201763,1,0,0:0:0:0:
64,192,201842,1,0,0:0:0:0:
192,192,201842,1,0,0:0:0:0:
320,192,201842,1,0,0:0:0:0:
64,192,203105,5,0,0:0:0:0:
192,192,203105,1,0,0:0:0:0:
448,192,203184,1,0,0:0:0:0:
320,192,203263,1,0,0:0:0:0:
192,192,203342,1,0,0:0:0:0:
64,192,203421,1,0,0:0:0:0:
448,192,203421,1,0,0:0:0:0:
192,192,203500,1,0,0:0:0:0:
320,192,203578,1,0,0:0:0:0:
192,192,203657,1,0,0:0:0:0:
64,192,203736,1,0,0:0:0:0:
320,192,203736,1,0,0:0:0:0:
448,192,203815,1,0,0:0:0:0:
320,192,203894,1,0,0:0:0:0:
192,192,203973,1,0,0:0:0:0:
64,192,204052,1,0,0:0:0:0:
448,192,204052,1,0,0:0:0:0:
320,192,204131,1,0,0:0:0:0:
448,192,204210,1,0,0:0:0:0:
192,192,204210,1,0,0:0:0:0:
64,192,204289,1,0,0:0:0:0:
192,192,204368,1,0,0:0:0:0:
320,192,204368,1,0,0:0:0:0:
448,192,204447,1,0,0:0:0:0:
64,192,204526,1,0,0:0:0:0:
192,192,204526,1,0,0:0:0:0:
320,192,204605,1,0,0:0:0:0:
448,192,204684,1,0,0:0:0:0:
64,192,204684,1,0,0:0:0:0:
320,192,204763,1,0,0:0:0:0:
192,192,204842,1,0,0:0:0:0:
320,192,204921,1,0,0:0:0:0:
64,192,205000,1,0,0:0:0:0:
448,192,205000,1,0,0:0:0:0:
192,192,205078,1,0,0:0:0:0:
320,192,205157,1,0,0:0:0:0:
192,192,205236,1,0,0:0:0:0:
448,192,205315,1,0,0:0:0:0:
320,192,205315,1,0,0:0:0:0:
192,192,205394,1,0,0:0:0:0:
64,192,205473,1,0,0:0:0:0:
448,192,205473,1,0,0:0:0:0:
192,192,205552,1,0,0:0:0:0:
320,192,205631,1,0,0:0:0:0:
448,192,205631,1,0,0:0:0:0:
192,192,205710,1,0,0:0:0:0:
64,192,205789,1,0,0:0:0:0:
320,192,205868,1,0,0:0:0:0:
448,192,205947,1,0,0:0:0:0:
192,192,205947,1,0,0:0:0:0:
320,192,206026,1,0,0:0:0:0:
192,192,206105,1,0,0:0:0:0:
64,192,206184,1,0,0:0:0:0:
192,192,206263,1,0,0:0:0:0:
320,192,206263,1,0,0:0:0:0:
448,192,206342,1,0,0:0:0:0:
320,192,206421,1,0,0:0:0:0:
192,192,206500,1,0,0:0:0:0:
64,192,206578,1,0,0:0:0:0:
448,192,206578,1,0,0:0:0:0:
192,192,206657,1,0,0:0:0:0:
320,192,206736,1,0,0:0:0:0:
448,192,206736,1,0,0:0:0:0:
192,192,206815,1,0,0:0:0:0:
64,192,206894,1,0,0:0:0:0:
448,192,206894,1,0,0:0:0:0:
192,192,206973,1,0,0:0:0:0:
320,192,207052,1,0,0:0:0:0:
64,192,207052,1,0,0:0:0:0:
448,192,207131,1,0,0:0:0:0:
320,192,207210,1,0,0:0:0:0:
192,192,207210,1,0,0:0:0:0:
64,192,207289,1,0,0:0:0:0:
192,192,207368,1,0,0:0:0:0:
320,192,207447,1,0,0:0:0:0:
448,192,207526,1,0,0:0:0:0:
64,192,207526,1,0,0:0:0:0:
320,192,207605,1,0,0:0:0:0:
192,192,207684,1,0,0:0:0:0:
64,192,207763,1,0,0:0:0:0:
192,192,207842,1,0,0:0:0:0:
448,192,207842,1,0,0:0:0:0:
320,192,207921,1,0,0:0:0:0:
448,192,208000,1,0,0:0:0:0:
64,192,208000,1,0,0:0:0:0:
320,192,208078,1,0,0:0:0:0:
192,192,208157,1,0,0:0:0:0:
64,192,208236,1,0,0:0:0:0:
192,192,208315,1,0,0:0:0:0:
320,192,208315,1,0,0:0:0:0:
448,192,208394,1,0,0:0:0:0:
320,192,208473,1,0,0:0:0:0:
64,192,208473,1,0,0:0:0:0:
192,192,208552,1,0,0:0:0:0:
64,192,208631,1,0,0:0:0:0:
192,192,208710,1,0,0:0:0:0:
320,192,208789,1,0,0:0:0:0:
448,192,208789,1,0,0:0:0:0:
192,192,208868,1,0,0:0:0:0:
64,192,208947,1,0,0:0:0:0:
192,192,209026,1,0,0:0:0:0:
320,192,209105,1,0,0:0:0:0:
448,192,209105,1,0,0:0:0:0:
192,192,209184,1,0,0:0:0:0:
64,192,209263,1,0,0:0:0:0:
448,192,209263,1,0,0:0:0:0:
192,192,209342,1,0,0:0:0:0:
320,192,209421,1,0,0:0:0:0:
64,192,209421,1,0,0:0:0:0:
448,192,209500,1,0,0:0:0:0:
320,192,209578,1,0,0:0:0:0:
192,192,209578,1,0,0:0:0:0:
64,192,209657,1,0,0:0:0:0:
192,192,209736,1,0,0:0:0:0:
448,192,209736,1,0,0:0:0:0:
320,192,209815,1,0,0:0:0:0:
448,192,209894,1,0,0:0:0:0:
320,192,209973,1,0,0:0:0:0:
64,192,210052,1,0,0:0:0:0:
192,192,210052,1,0,0:0:0:0:
320,192,210131,1,0,0:0:0:0:
192,192,210210,1,0,0:0:0:0:
320,192,210289,1,0,0:0:0:0:
64,192,210368,1,0,0:0:0:0:
448,192,210368,1,0,0:0:0:0:
320,192,210447,1,0,0:0:0:0:
192,192,210526,1,0,0:0:0:0:
64,192,210526,1,0,0:0:0:0:
320,192,210605,1,0,0:0:0:0:
448,192,210684,1,0,0:0:0:0:
192,192,210684,1,0,0:0:0:0:
64,192,210763,1,0,0:0:0:0:
192,192,210842,1,0,0:0:0:0:
320,192,210921,1,0,0:0:0:0:
448,192,210921,1,0,0:0:0:0:
192,192,211000,1,0,0:0:0:0:
64,192,211078,1,0,0:0:0:0:
192,192,211157,1,0,0:0:0:0:
448,192,211157,1,0,0:0:0:0:
320,192,211236,1,0,0:0:0:0:
192,192,211315,1,0,0:0:0:0:
64,192,211315,1,0,0:0:0:0:
320,192,211394,1,0,0:0:0:0:
448,192,211473,1,0,0:0:0:0:
320,192,211552,1,0,0:0:0:0:
192,192,211552,1,0,0:0:0:0:
64,192,211631,1,0,0:0:0:0:
320,192,211710,1,0,0:0:0:0:
448,192,211710,1,0,0:0:0:0:
64,192,211789,1,0,0:0:0:0:
192,192,211789,1,0,0:0:0:0:
320,192,211868,1,0,0:0:0:0:
448,192,211947,1,0,0:0:0:0:
64,192,211947,1,0,0:0:0:0:
320,192,212026,1,0,0:0:0:0:
192,192,212105,1,0,0:0:0:0:
64,192,212184,1,0,0:0:0:0:
192,192,212263,1,0,0:0:0:0:
320,192,212342,1,0,0:0:0:0:
64,192,212421,1,0,0:0:0:0:
192,192,212500,1,0,0:0:0:0:
320,192,212578,1,0,0:0:0:0:
192,192,212657,1,0,0:0:0:0:
64,192,212736,1,0,0:0:0:0:
448,192,212815,1,0,0:0:0:0:
320,192,212894,1,0,0:0:0:0:
192,192,212973,1,0,0:0:0:0:
64,192,213052,1,0,0:0:0:0:
192,192,213131,1,0,0:0:0:0:
64,192,213368,1,0,0:0:0:0:
448,192,213368,1,0,0:0:0:0:
320,192,213368,1,0,0:0:0:0:
192,192,213447,1,0,0:0:0:0:
320,192,213526,1,0,0:0:0:0:
448,192,213526,1,0,0:0:0:0:
192,192,213605,1,0,0:0:0:0:
64,192,213684,1,0,0:0:0:0:
448,192,213684,1,0,0:0:0:0:
192,192,213763,1,0,0:0:0:0:
64,192,213842,1,0,0:0:0:0:
320,192,213842,1,0,0:0:0:0:
448,192,213921,1,0,0:0:0:0:
320,192,214000,1,0,0:0:0:0:
192,192,214078,1,0,0:0:0:0:
64,192,214157,1,0,0:0:0:0:
448,192,214157,1,0,0:0:0:0:
192,192,214236,1,0,0:0:0:0:
320,192,214315,1,0,0:0:0:0:
448,192,214315,1,0,0:0:0:0:
64,192,214394,1,0,0:0:0:0:
192,192,214394,1,0,0:0:0:0:
320,192,214473,1,0,0:0:0:0:
448,192,214473,1,0,0:0:0:0:
192,192,214552,1,0,0:0:0:0:
320,192,214631,1,0,0:0:0:0:
448,192,214631,1,0,0:0:0:0:
64,192,214710,1,0,0:0:0:0:
192,192,214710,1,0,0:0:0:0:
320,192,214789,1,0,0:0:0:0:
448,192,214868,1,0,0:0:0:0:
64,192,214868,1,0,0:0:0:0:
192,192,214947,1,0,0:0:0:0:
320,192,214947,1,0,0:0:0:0:
448,192,215026,1,0,0:0:0:0:
320,192,215105,1,0,0:0:0:0:
64,192,215105,1,0,0:0:0:0:
192,192,215184,1,0,0:0:0:0:
448,192,215184,1,0,0:0:0:0:
320,192,215263,1,0,0:0:0:0:
64,192,215342,1,0,0:0:0:0:
448,192,215342,1,0,0:0:0:0:
192,192,215421,1,0,0:0:0:0:
320,192,215421,1,0,0:0:0:0:
64,192,215500,1,0,0:0:0:0:
192,192,215578,1,0,0:0:0:0:
320,192,215657,1,0,0:0:0:0:
448,192,215736,1,0,0:0:0:0:
64,192,215736,1,0,0:0:0:0:
320,192,215815,1,0,0:0:0:0:
192,192,215894,1,0,0:0:0:0:
64,192,215973,1,0,0:0:0:0:
192,192,216052,1,0,0:0:0:0:
448,192,216052,1,0,0:0:0:0:
320,192,216131,1,0,0:0:0:0:
448,192,216210,1,0,0:0:0:0:
320,192,216289,1,0,0:0:0:0:
64,192,216368,1,0,0:0:0:0:
192,192,216368,1,0,0:0:0:0:
320,192,216447,1,0,0:0:0:0:
448,192,216526,1,0,0:0:0:0:
320,192,216605,1,0,0:0:0:0:
192,192,216684,1,0,0:0:0:0:
64,192,216684,1,0,0:0:0:0:
320,192,216763,1,0,0:0:0:0:
64,192,216842,1,0,0:0:0:0:
448,192,216842,1,0,0:0:0:0:
320,192,216921,1,0,0:0:0:0:
64,192,217000,1,0,0:0:0:0:
192,192,217000,1,0,0:0:0:0:
320,192,217078,1,0,0:0:0:0:
448,192,217157,1,0,0:0:0:0:
64,192,217157,1,0,0:0:0:0:
320,192,217236,1,0,0:0:0:0:
192,192,217315,1,0,0:0:0:0:
448,192,217315,1,0,0:0:0:0:
64,192,217394,1,0,0:0:0:0:
192,192,217473,1,0,0:0:0:0:
320,192,217552,1,0,0:0:0:0:
448,192,217631,1,0,0:0:0:0:
64,192,217631,1,0,0:0:0:0:
320,192,217710,1,0,0:0:0:0:
192,192,217789,1,0,0:0:0:0:
64,192,217868,1,0,0:0:0:0:
192,192,217947,1,0,0:0:0:0:
320,192,217947,1,0,0:0:0:0:
448,192,218026,1,0,0:0:0:0:
320,192,218105,1,0,0:0:0:0:
192,192,218184,1,0,0:0:0:0:
448,192,218263,1,0,0:0:0:0:
320,192,218263,1,0,0:0:0:0:
64,192,218342,1,0,0:0:0:0:
192,192,218342,1,0,0:0:0:0:
320,192,218421,1,0,0:0:0:0:
448,192,218500,1,0,0:0:0:0:
64,192,218500,1,0,0:0:0:0:
192,192,218578,1,0,0:0:0:0:
320,192,218578,1,0,0:0:0:0:
448,192,218657,1,0,0:0:0:0:
320,192,218736,1,0,0:0:0:0:
192,192,218815,1,0,0:0:0:0:
64,192,218815,1,0,0:0:0:0:
320,192,218894,1,0,0:0:0:0:
448,192,218894,1,0,0:0:0:0:
192,192,218973,1,0,0:0:0:0:
64,192,219052,1,0,0:0:0:0:
448,192,219052,1,0,0:0:0:0:
192,192,219131,1,0,0:0:0:0:
320,192,219131,1,0,0:0:0:0:
64,192,219210,1,0,0:0:0:0:
192,192,219289,1,0,0:0:0:0:
320,192,219368,1,0,0:0:0:0:
448,192,219447,1,0,0:0:0:0:
64,192,219526,1,0,0:0:0:0:
192,192,219526,1,0,0:0:0:0:
320,192,219605,5,0,0:0:0:0:
448,192,219605,1,0,0:0:0:0:
192,192,219684,1,0,0:0:0:0:
64,192,219763,1,0,0:0:0:0:
448,192,219763,1,0,0:0:0:0:
192,192,219842,1,0,0:0:0:0:
320,192,219842,1,0,0:0:0:0:
64,192,219921,1,0,0:0:0:0:
192,192,220000,1,0,0:0:0:0:
320,192,220078,1,0,0:0:0:0:
448,192,220078,1,0,0:0:0:0:
64,192,220157,1,0,0:0:0:0:
192,192,220157,1,0,0:0:0:0:
320,192,220236,1,0,0:0:0:0:
64,192,220315,1,0,0:0:0:0:
448,192,220315,1,0,0:0:0:0:
192,192,220394,1,0,0:0:0:0:
320,192,220394,1,0,0:0:0:0:
448,192,220473,1,0,0:0:0:0:
320,192,220552,1,0,0:0:0:0:
192,192,220631,1,0,0:0:0:0:
64,192,220710,1,0,0:0:0:0:
448,192,220789,5,0,0:0:0:0:
64,192,220868,1,0,0:0:0:0:
448,192,220947,1,0,0:0:0:0:
64,192,221026,1,0,0:0:0:0:
448,192,221105,1,0,0:0:0:0:
64,192,221184,1,0,0:0:0:0:
448,192,221263,1,0,0:0:0:0:
64,192,221342,1,0,0:0:0:0:
448,192,221421,1,0,0:0:0:0:
64,192,221500,1,0,0:0:0:0:
448,192,221578,1,0,0:0:0:0:
64,192,221657,1,0,0:0:0:0:
448,192,221736,1,0,0:0:0:0:
64,192,221815,1,0,0:0:0:0:
448,192,221894,1,0,0:0:0:0:
64,192,221973,1,0,0:0:0:0:
448,192,222052,1,0,0:0:0:0:
64,192,222131,1,0,0:0:0:0:
448,192,222210,1,0,0:0:0:0:
64,192,222289,1,0,0:0:0:0:
320,192,222368,1,0,0:0:0:0:
448,192,222368,1,0,0:0:0:0:
64,192,222447,1,0,0:0:0:0:
192,192,222447,1,0,0:0:0:0:
320,192,222526,1,0,0:0:0:0:
448,192,222526,1,0,0:0:0:0:
64,192,222605,1,0,0:0:0:0:
192,192,222605,1,0,0:0:0:0:
320,192,222684,1,0,0:0:0:0:
448,192,222684,1,0,0:0:0:0:
64,192,222763,1,0,0:0:0:0:
192,192,222763,1,0,0:0:0:0:
320,192,222842,1,0,0:0:0:0:
448,192,222842,1,0,0:0:0:0:
64,192,222921,1,0,0:0:0:0:
192,192,222921,1,0,0:0:0:0:
320,192,223000,1,0,0:0:0:0:
448,192,223000,1,0,0:0:0:0:
64,192,223078,1,0,0:0:0:0:
192,192,223078,1,0,0:0:0:0:
320,192,223157,1,0,0:0:0:0:
448,192,223157,1,0,0:0:0:0:
64,192,223236,1,0,0:0:0:0:
192,192,223236,1,0,0:0:0:0:
320,192,223315,1,0,0:0:0:0:
448,192,223315,1,0,0:0:0:0:
320,192,223414,1,0,0:0:0:0:
192,192,223414,1,0,0:0:0:0:
192,192,223532,1,0,0:0:0:0:
64,192,223532,1,0,0:0:0:0:
448,192,223631,1,0,0:0:0:0:
320,192,223631,1,0,0:0:0:0:
192,192,223710,1,0,0:0:0:0:
64,192,223789,1,0,0:0:0:0:
192,192,223868,1,0,0:0:0:0:
320,192,223947,1,0,0:0:0:0:
448,192,223947,1,0,0:0:0:0:
192,192,224026,1,0,0:0:0:0:
64,192,224105,1,0,0:0:0:0:
192,192,224184,1,0,0:0:0:0:
320,192,224263,1,0,0:0:0:0:
64,192,224263,1,0,0:0:0:0:
448,192,224342,1,0,0:0:0:0:
320,192,224421,1,0,0:0:0:0:
192,192,224421,1,0,0:0:0:0:
64,192,224500,1,0,0:0:0:0:
192,192,224578,1,0,0:0:0:0:
448,192,224578,1,0,0:0:0:0:
320,192,224657,1,0,0:0:0:0:
448,192,224736,1,0,0:0:0:0:
64,192,224736,1,0,0:0:0:0:
320,192,224815,1,0,0:0:0:0:
192,192,224894,1,0,0:0:0:0:
64,192,224894,1,0,0:0:0:0:
320,192,224973,1,0,0:0:0:0:
448,192,225052,1,0,0:0:0:0:
320,192,225131,1,0,0:0:0:0:
448,192,225210,1,0,0:0:0:0:
192,192,225210,1,0,0:0:0:0:
64,192,225289,1,0,0:0:0:0:
192,192,225368,1,0,0:0:0:0:
320,192,225447,1,0,0:0:0:0:
448,192,225447,1,0,0:0:0:0:
192,192,225526,1,0,0:0:0:0:
64,192,225605,1,0,0:0:0:0:
192,192,225684,1,0,0:0:0:0:
320,192,225684,1,0,0:0:0:0:
448,192,225763,1,0,0:0:0:0:
64,192,225842,1,0,0:0:0:0:
192,192,225842,1,0,0:0:0:0:
320,192,225921,1,0,0:0:0:0:
448,192,225921,1,0,0:0:0:0:
64,192,226000,1,0,0:0:0:0:
192,192,226000,1,0,0:0:0:0:
320,192,226078,1,0,0:0:0:0:
448,192,226078,1,0,0:0:0:0:
64,192,226157,1,0,0:0:0:0:
192,192,226157,1,0,0:0:0:0:
320,192,226236,1,0,0:0:0:0:
448,192,226315,1,0,0:0:0:0:
320,192,226394,1,0,0:0:0:0:
192,192,226394,1,0,0:0:0:0:
64,192,226473,1,0,0:0:0:0:
448,192,226473,1,0,0:0:0:0:
320,192,226552,1,0,0:0:0:0:
192,192,226631,1,0,0:0:0:0:
64,192,226710,1,0,0:0:0:0:
448,192,226710,1,0,0:0:0:0:
192,192,226789,1,0,0:0:0:0:
320,192,226789,1,0,0:0:0:0:
64,192,226868,1,0,0:0:0:0:
192,192,226947,1,0,0:0:0:0:
448,192,226947,1,0,0:0:0:0:
320,192,227026,1,0,0:0:0:0:
448,192,227105,1,0,0:0:0:0:
64,192,227105,1,0,0:0:0:0:
320,192,227184,1,0,0:0:0:0:
192,192,227263,1,0,0:0:0:0:
64,192,227342,1,0,0:0:0:0:
448,192,227342,1,0,0:0:0:0:
192,192,227421,1,0,0:0:0:0:
320,192,227500,1,0,0:0:0:0:
448,192,227578,1,0,0:0:0:0:
64,192,227578,1,0,0:0:0:0:
320,192,227657,1,0,0:0:0:0:
192,192,227736,1,0,0:0:0:0:
64,192,227815,1,0,0:0:0:0:
320,192,227815,1,0,0:0:0:0:
448,192,227894,1,0,0:0:0:0:
320,192,227973,1,0,0:0:0:0:
192,192,228052,1,0,0:0:0:0:
64,192,228052,1,0,0:0:0:0:
320,192,228131,1,0,0:0:0:0:
448,192,228210,1,0,0:0:0:0:
320,192,228289,1,0,0:0:0:0:
192,192,228368,1,0,0:0:0:0:
64,192,228447,1,0,0:0:0:0:
320,192,228526,1,0,0:0:0:0:
448,192,228526,1,0,0:0:0:0:
192,192,228605,1,0,0:0:0:0:
320,192,228684,1,0,0:0:0:0:
64,192,228684,1,0,0:0:0:0:
448,192,228763,1,0,0:0:0:0:
320,192,228842,1,0,0:0:0:0:
192,192,228921,1,0,0:0:0:0:
64,192,229000,1,0,0:0:0:0:
448,192,229000,1,0,0:0:0:0:
192,192,229078,1,0,0:0:0:0:
320,192,229157,1,0,0:0:0:0:
448,192,229236,1,0,0:0:0:0:
64,192,229236,1,0,0:0:0:0:
320,192,229315,1,0,0:0:0:0:
192,192,229394,1,0,0:0:0:0:
64,192,229394,1,0,0:0:0:0:
320,192,229473,1,0,0:0:0:0:
448,192,229552,1,0,0:0:0:0:
64,192,229631,1,0,0:0:0:0:
320,192,229631,1,0,0:0:0:0:
192,192,229710,1,0,0:0:0:0:
64,192,229789,1,0,0:0:0:0:
448,192,229789,1,0,0:0:0:0:
192,192,229868,1,0,0:0:0:0:
320,192,229947,1,0,0:0:0:0:
448,192,229947,1,0,0:0:0:0:
192,192,230026,1,0,0:0:0:0:
64,192,230105,1,0,0:0:0:0:
192,192,230184,1,0,0:0:0:0:
320,192,230263,1,0,0:0:0:0:
448,192,230263,1,0,0:0:0:0:
192,192,230342,1,0,0:0:0:0:
64,192,230421,1,0,0:0:0:0:
192,192,230500,1,0,0:0:0:0:
320,192,230578,1,0,0:0:0:0:
448,192,230657,1,0,0:0:0:0:
320,192,230736,1,0,0:0:0:0:
192,192,230815,1,0,0:0:0:0:
64,192,230894,1,0,0:0:0:0:
448,192,230894,1,0,0:0:0:0:
192,192,230973,1,0,0:0:0:0:
320,192,230973,1,0,0:0:0:0:
64,192,231052,1,0,0:0:0:0:
448,192,231052,1,0,0:0:0:0:
192,192,231131,1,0,0:0:0:0:
320,192,231210,1,0,0:0:0:0:
448,192,231289,1,0,0:0:0:0:
320,192,231368,1,0,0:0:0:0:
192,192,231368,1,0,0:0:0:0:
64,192,231447,1,0,0:0:0:0:
448,192,231447,1,0,0:0:0:0:
192,192,231526,1,0,0:0:0:0:
320,192,231526,1,0,0:0:0:0:
448,192,231605,1,0,0:0:0:0:
320,192,231684,1,0,0:0:0:0:
192,192,231763,1,0,0:0:0:0:
64,192,231842,1,0,0:0:0:0:
448,192,231842,1,0,0:0:0:0:
192,192,231921,1,0,0:0:0:0:
320,192,231921,1,0,0:0:0:0:
64,192,232000,1,0,0:0:0:0:
448,192,232000,1,0,0:0:0:0:
192,192,232078,1,0,0:0:0:0:
320,192,232157,1,0,0:0:0:0:
448,192,232236,1,0,0:0:0:0:
64,192,232315,1,0,0:0:0:0:
192,192,232315,1,0,0:0:0:0:
320,192,232394,1,0,0:0:0:0:
448,192,232394,1,0,0:0:0:0:
64,192,232473,1,0,0:0:0:0:
192,192,232473,1,0,0:0:0:0:
320,192,232552,1,0,0:0:0:0:
192,192,232631,1,0,0:0:0:0:
64,192,232710,1,0,0:0:0:0:
192,192,232789,1,0,0:0:0:0:
320,192,232789,1,0,0:0:0:0:
64,192,232868,1,0,0:0:0:0:
192,192,232947,1,0,0:0:0:0:
320,192,233026,1,0,0:0:0:0:
448,192,233026,1,0,0:0:0:0:
192,192,233105,1,0,0:0:0:0:
64,192,233184,1,0,0:0:0:0:
192,192,233263,1,0,0:0:0:0:
448,192,233263,1,0,0:0:0:0:
320,192,233342,1,0,0:0:0:0:
448,192,233421,1,0,0:0:0:0:
64,192,233421,1,0,0:0:0:0:
320,192,233500,1,0,0:0:0:0:
192,192,233578,1,0,0:0:0:0:
64,192,233657,1,0,0:0:0:0:
192,192,233736,1,0,0:0:0:0:
320,192,233736,1,0,0:0:0:0:
64,192,233815,1,0,0:0:0:0:
192,192,233894,1,0,0:0:0:0:
320,192,233973,1,0,0:0:0:0:
448,192,234052,1,0,0:0:0:0:
64,192,234052,1,0,0:0:0:0:
320,192,234131,1,0,0:0:0:0:
192,192,234210,1,0,0:0:0:0:
64,192,234210,1,0,0:0:0:0:
320,192,234289,1,0,0:0:0:0:
448,192,234289,1,0,0:0:0:0:
192,192,234368,1,0,0:0:0:0:
320,192,234447,1,0,0:0:0:0:
448,192,234447,1,0,0:0:0:0:
64,192,234526,1,0,0:0:0:0:
192,192,234526,1,0,0:0:0:0:
320,192,234605,1,0,0:0:0:0:
448,192,234684,1,0,0:0:0:0:
64,192,234684,1,0,0:0:0:0:
320,192,234763,1,0,0:0:0:0:
192,192,234842,1,0,0:0:0:0:
64,192,234842,1,0,0:0:0:0:
320,192,234921,1,0,0:0:0:0:
448,192,235000,1,0,0:0:0:0:
64,192,235000,1,0,0:0:0:0:
320,192,235078,1,0,0:0:0:0:
192,192,235157,1,0,0:0:0:0:
64,192,235236,1,0,0:0:0:0:
192,192,235315,1,0,0:0:0:0:
448,192,235315,1,0,0:0:0:0:
320,192,235394,1,0,0:0:0:0:
64,192,235473,1,0,0:0:0:0:
192,192,235473,1,0,0:0:0:0:
320,192,235552,1,0,0:0:0:0:
448,192,235552,1,0,0:0:0:0:
192,192,235631,1,0,0:0:0:0:
64,192,235710,1,0,0:0:0:0:
448,192,235710,1,0,0:0:0:0:
192,192,235789,1,0,0:0:0:0:
320,192,235789,1,0,0:0:0:0:
64,192,235868,1,0,0:0:0:0:
192,192,235947,1,0,0:0:0:0:
320,192,236026,1,0,0:0:0:0:
448,192,236105,1,0,0:0:0:0:
64,192,236105,1,0,0:0:0:0:
320,192,236184,1,0,0:0:0:0:
192,192,236263,1,0,0:0:0:0:
64,192,236263,1,0,0:0:0:0:
320,192,236342,1,0,0:0:0:0:
448,192,236421,1,0,0:0:0:0:
64,192,236421,1,0,0:0:0:0:
320,192,236500,1,0,0:0:0:0:
192,192,236578,1,0,0:0:0:0:
448,192,236578,1,0,0:0:0:0:
64,192,236657,1,0,0:0:0:0:
192,192,236736,1,0,0:0:0:0:
320,192,236815,1,0,0:0:0:0:
448,192,236894,1,0,0:0:0:0:
64,192,236894,1,0,0:0:0:0:
320,192,236973,1,0,0:0:0:0:
192,192,237052,1,0,0:0:0:0:
448,192,237052,1,0,0:0:0:0:
320,192,237131,1,0,0:0:0:0:
192,192,237210,1,0,0:0:0:0:
64,192,237210,1,0,0:0:0:0:
320,192,237289,1,0,0:0:0:0:
448,192,237368,1,0,0:0:0:0:
320,192,237447,1,0,0:0:0:0:
64,192,237526,1,0,0:0:0:0:
192,192,237526,1,0,0:0:0:0:
320,192,237605,1,0,0:0:0:0:
448,192,237684,1,0,0:0:0:0:
64,192,237684,1,0,0:0:0:0:
320,192,237763,1,0,0:0:0:0:
192,192,237842,1,0,0:0:0:0:
448,192,237842,1,0,0:0:0:0:
64,192,237921,1,0,0:0:0:0:
192,192,238000,1,0,0:0:0:0:
320,192,238078,1,0,0:0:0:0:
448,192,238157,1,0,0:0:0:0:
320,192,238236,1,0,0:0:0:0:
192,192,238315,1,0,0:0:0:0:
64,192,238394,1,0,0:0:0:0:
320,192,238473,1,0,0:0:0:0:
448,192,238473,1,0,0:0:0:0:
192,192,238552,1,0,0:0:0:0:
320,192,238631,1,0,0:0:0:0:
448,192,238631,1,0,0:0:0:0:
64,192,238671,1,0,0:0:0:0:
192,192,238671,1,0,0:0:0:0:
320,192,238710,1,0,0:0:0:0:
448,192,238710,1,0,0:0:0:0:
64,192,238750,1,0,0:0:0:0:
192,192,238750,1,0,0:0:0:0:
320,192,238789,1,0,0:0:0:0:
448,192,238789,1,0,0:0:0:0:
64,192,238868,1,0,0:0:0:0:
192,192,238868,1,0,0:0:0:0:
320,192,238947,1,0,0:0:0:0:
64,192,239026,1,0,0:0:0:0:
192,192,239026,1,0,0:0:0:0:
320,192,239065,1,0,0:0:0:0:
448,192,239065,1,0,0:0:0:0:
64,192,239105,1,0,0:0:0:0:
192,192,239105,1,0,0:0:0:0:
320,192,239184,1,0,0:0:0:0:
448,192,239263,1,0,0:0:0:0:
64,192,239263,1,0,0:0:0:0:
192,192,239342,1,0,0:0:0:0:
320,192,239342,1,0,0:0:0:0:
64,192,239421,1,0,0:0:0:0:
448,192,239421,1,0,0:0:0:0:
320,192,239500,1,0,0:0:0:0:
192,192,239578,1,0,0:0:0:0:
64,192,239657,1,0,0:0:0:0:
192,192,239736,1,0,0:0:0:0:
320,192,239736,1,0,0:0:0:0:
448,192,239815,1,0,0:0:0:0:
64,192,239894,1,0,0:0:0:0:
192,192,239894,1,0,0:0:0:0:
320,192,239934,1,0,0:0:0:0:
448,192,239934,1,0,0:0:0:0:
64,192,239973,1,0,0:0:0:0:
192,192,239973,1,0,0:0:0:0:
320,192,240013,1,0,0:0:0:0:
448,192,240013,1,0,0:0:0:0:
64,192,240052,1,0,0:0:0:0:
192,192,240052,1,0,0:0:0:0:
320,192,240131,1,0,0:0:0:0:
448,192,240131,1,0,0:0:0:0:
192,192,240210,1,0,0:0:0:0:
320,192,240289,1,0,0:0:0:0:
448,192,240289,1,0,0:0:0:0:
64,192,240328,1,0,0:0:0:0:
192,192,240328,1,0,0:0:0:0:
320,192,240368,1,0,0:0:0:0:
448,192,240368,1,0,0:0:0:0:
192,192,240447,1,0,0:0:0:0:
64,192,240526,1,0,0:0:0:0:
448,192,240526,1,0,0:0:0:0:
192,192,240605,1,0,0:0:0:0:
320,192,240605,1,0,0:0:0:0:
64,192,240684,1,0,0:0:0:0:
448,192,240684,1,0,0:0:0:0:
192,192,240763,1,0,0:0:0:0:
320,192,240842,1,0,0:0:0:0:
448,192,240921,1,0,0:0:0:0:
64,192,241000,1,0,0:0:0:0:
192,192,241000,1,0,0:0:0:0:
320,192,241039,1,0,0:0:0:0:
448,192,241039,1,0,0:0:0:0:
64,192,241078,1,0,0:0:0:0:
192,192,241078,1,0,0:0:0:0:
320,192,241118,1,0,0:0:0:0:
448,192,241118,1,0,0:0:0:0:
64,192,241157,1,0,0:0:0:0:
192,192,241157,1,0,0:0:0:0:
320,192,241236,1,0,0:0:0:0:
448,192,241236,1,0,0:0:0:0:
64,192,241315,1,0,0:0:0:0:
192,192,241315,1,0,0:0:0:0:
320,192,241355,1,0,0:0:0:0:
448,192,241355,1,0,0:0:0:0:
64,192,241394,1,0,0:0:0:0:
192,192,241394,1,0,0:0:0:0:
320,192,241434,1,0,0:0:0:0:
448,192,241434,1,0,0:0:0:0:
64,192,241473,1,0,0:0:0:0:
192,192,241473,1,0,0:0:0:0:
320,192,241552,1,0,0:0:0:0:
448,192,241552,1,0,0:0:0:0:
64,192,241631,1,0,0:0:0:0:
192,192,241631,1,0,0:0:0:0:
448,192,241671,1,0,0:0:0:0:
320,192,241671,1,0,0:0:0:0:
64,192,241710,1,0,0:0:0:0:
192,192,241710,1,0,0:0:0:0:
320,192,241750,1,0,0:0:0:0:
448,192,241750,1,0,0:0:0:0:
64,192,241789,1,0,0:0:0:0:
192,192,241789,1,0,0:0:0:0:
320,192,241868,1,0,0:0:0:0:
448,192,241868,1,0,0:0:0:0:
64,192,241947,1,0,0:0:0:0:
192,192,241947,1,0,0:0:0:0:
448,192,241986,1,0,0:0:0:0:
320,192,241986,1,0,0:0:0:0:
64,192,242026,1,0,0:0:0:0:
192,192,242026,1,0,0:0:0:0:
320,192,242065,1,0,0:0:0:0:
448,192,242065,1,0,0:0:0:0:
64,192,242105,1,0,0:0:0:0:
192,192,242105,1,0,0:0:0:0:
320,192,242184,1,0,0:0:0:0:
448,192,242184,1,0,0:0:0:0:
64,192,242263,1,0,0:0:0:0:
192,192,242263,1,0,0:0:0:0:
448,192,242342,5,0,0:0:0:0:
320,192,242421,1,0,0:0:0:0:
192,192,242500,1,0,0:0:0:0:
64,192,242578,1,0,0:0:0:0:
192,192,242657,1,0,0:0:0:0:
320,192,242736,1,0,0:0:0:0:
64,192,242815,1,0,0:0:0:0:
192,192,242894,1,0,0:0:0:0:
320,192,242973,1,0,0:0:0:0:
448,192,243052,1,0,0:0:0:0:
320,192,243131,1,0,0:0:0:0:
192,192,243210,1,0,0:0:0:0:
448,192,243289,1,0,0:0:0:0:
320,192,243368,1,0,0:0:0:0:
192,192,243447,1,0,0:0:0:0:
64,192,243526,5,0,0:0:0:0:
448,192,243526,1,0,0:0:0:0:
320,192,243684,1,0,0:0:0:0:
448,192,243842,1,0,0:0:0:0:
192,192,244000,1,0,0:0:0:0:
64,192,244157,1,0,0:0:0:0:
192,192,244315,1,0,0:0:0:0:
320,192,244473,1,0,0:0:0:0:
192,192,244631,1,0,0:0:0:0:
448,192,244789,1,0,0:0:0:0:
64,192,244947,1,0,0:0:0:0:
320,192,245105,1,0,0:0:0:0:
192,192,245263,1,0,0:0:0:0:
320,192,245421,1,0,0:0:0:0:
64,192,245578,1,0,0:0:0:0:
192,192,245736,1,0,0:0:0:0:
320,192,245894,1,0,0:0:0:0:
192,192,246052,1,0,0:0:0:0:
448,192,246210,1,0,0:0:0:0:
320,192,246368,1,0,0:0:0:0:
192,192,246526,1,0,0:0:0:0:
64,192,246684,1,0,0:0:0:0:
320,192,246842,1,0,0:0:0:0:
192,192,247000,1,0,0:0:0:0:
64,192,247157,1,0,0:0:0:0:
320,192,247315,1,0,0:0:0:0:
192,192,247473,1,0,0:0:0:0:
320,192,247631,1,0,0:0:0:0:
448,192,247789,1,0,0:0:0:0:
320,192,247947,1,0,0:0:0:0:
192,192,248105,1,0,0:0:0:0:
320,192,248263,1,0,0:0:0:0:
448,192,248421,1,0,0:0:0:0:
192,192,248578,1,0,0:0:0:0:
64,192,248736,1,0,0:0:0:0:
192,192,248894,1,0,0:0:0:0:
320,192,249052,1,0,0:0:0:0:
448,192,249210,1,0,0:0:0:0:
320,192,249368,1,0,0:0:0:0:
192,192,249526,1,0,0:0:0:0:
320,192,249684,1,0,0:0:0:0:
192,192,249842,1,0,0:0:0:0:
64,192,250000,1,0,0:0:0:0:
192,192,250157,1,0,0:0:0:0:
320,192,250315,1,0,0:0:0:0:
192,192,250473,1,0,0:0:0:0:
320,192,250631,1,0,0:0:0:0:
448,192,250789,1,0,0:0:0:0:
320,192,250947,1,0,0:0:0:0:
192,192,251105,1,0,0:0:0:0:
64,192,251263,1,0,0:0:0:0:
192,192,251421,1,0,0:0:0:0:
320,192,251578,1,0,0:0:0:0:
192,192,251736,1,0,0:0:0:0:
448,192,251894,1,0,0:0:0:0:
320,192,252052,1,0,0:0:0:0:
64,192,252210,1,0,0:0:0:0:
192,192,252368,1,0,0:0:0:0:
320,192,252526,1,0,0:0:0:0:
448,192,252684,1,0,0:0:0:0:
320,192,252842,1,0,0:0:0:0:
64,192,253000,1,0,0:0:0:0:
192,192,253157,1,0,0:0:0:0:
320,192,253315,1,0,0:0:0:0:
64,192,253473,1,0,0:0:0:0:
192,192,253631,1,0,0:0:0:0:
448,192,253789,1,0,0:0:0:0:
320,192,253947,1,0,0:0:0:0:
192,192,254105,1,0,0:0:0:0:
320,192,254263,1,0,0:0:0:0:
192,192,254421,1,0,0:0:0:0:
64,192,254578,1,0,0:0:0:0:
192,192,254736,1,0,0:0:0:0:
320,192,254894,1,0,0:0:0:0:
64,192,255052,1,0,0:0:0:0:
192,192,255210,1,0,0:0:0:0:
448,192,255368,1,0,0:0:0:0:
320,192,255526,1,0,0:0:0:0:
192,192,255684,1,0,0:0:0:0:
320,192,255842,1,0,0:0:0:0:
64,192,256000,1,0,0:0:0:0:
192,192,256157,1,0,0:0:0:0:
320,192,256315,1,0,0:0:0:0:
448,192,256473,1,0,0:0:0:0:
320,192,256631,1,0,0:0:0:0:
192,192,256789,1,0,0:0:0:0:
448,192,256947,1,0,0:0:0:0:
320,192,257105,1,0,0:0:0:0:
192,192,257263,1,0,0:0:0:0:
64,192,257421,1,0,0:0:0:0:
192,192,257578,1,0,0:0:0:0:
320,192,257736,1,0,0:0:0:0:
64,192,257894,1,0,0:0:0:0:
192,192,258052,1,0,0:0:0:0:
320,192,258210,1,0,0:0:0:0:
192,192,258368,1,0,0:0:0:0:
320,192,258526,1,0,0:0:0:0:
64,192,258684,5,0,0:0:0:0:
320,192,258842,1,0,0:0:0:0:
448,192,259000,1,0,0:0:0:0:
192,192,259157,1,0,0:0:0:0:
64,192,259315,1,0,0:0:0:0:
192,192,259473,1,0,0:0:0:0:
320,192,259631,1,0,0:0:0:0:
192,192,259789,1,0,0:0:0:0:
448,192,259947,1,0,0:0:0:0:
64,192,260105,1,0,0:0:0:0:
320,192,260263,1,0,0:0:0:0:
192,192,260421,1,0,0:0:0:0:
320,192,260578,1,0,0:0:0:0:
64,192,260736,1,0,0:0:0:0:
192,192,260894,1,0,0:0:0:0:
320,192,261052,1,0,0:0:0:0:
192,192,261210,1,0,0:0:0:0:
448,192,261368,1,0,0:0:0:0:
320,192,261526,1,0,0:0:0:0:
192,192,261684,1,0,0:0:0:0:
64,192,261842,1,0,0:0:0:0:
320,192,262000,1,0,0:0:0:0:
192,192,262157,1,0,0:0:0:0:
64,192,262315,1,0,0:0:0:0:
320,192,262473,1,0,0:0:0:0:
192,192,262631,1,0,0:0:0:0:
320,192,262789,1,0,0:0:0:0:
448,192,262947,1,0,0:0:0:0:
320,192,263105,1,0,0:0:0:0:
192,192,263263,1,0,0:0:0:0:
320,192,263421,1,0,0:0:0:0:
192,192,263578,1,0,0:0:0:0:
64,192,263736,1,0,0:0:0:0:
