osu file format v14

[General]
AudioFilename: audio.mp3
AudioLeadIn: 0
PreviewTime: -1
Countdown: 1
SampleSet: Normal
StackLeniency: 0.7
Mode: 0
LetterboxInBreaks: 0
WidescreenStoryboard: 0

[Editor]
Bookmarks: 5269,5436,5603,5769,5853,10769,12269,13603,20936,69103,69936
DistanceSpacing: 1.6
BeatDivisor: 4
GridSize: 4
TimelineZoom: 1

[Metadata]
Title:Extraterrestrial [Miku]
TitleUnicode:Extraterrestrial [Miku]
Artist:Camellia
ArtistUnicode:Camellia
Creator:Oxia
Version:Extra
Source:
Tags:
BeatmapID:924067
BeatmapSetID:428101

[Difficulty]
HPDrainRate:7
CircleSize:4.3
OverallDifficulty:8
ApproachRate:10
SliderMultiplier:1.4
SliderTickRate:1

[Events]
//Background and Video events
//Break Periods
//Storyboard Layer 0 (Background)
//Storyboard Layer 1 (Fail)
//Storyboard Layer 2 (Pass)
//Storyboard Layer 3 (Foreground)
//Storyboard Sound Samples

[TimingPoints]
3270,333.333333333333,4,1,0,100,1,0
5519,-133.333333333333,4,1,0,100,0,0
5853,-100,4,1,0,100,0,0
7769,-200,4,1,0,100,0,0
8603,-100,4,1,0,100,0,0
12186,-133.333333333333,4,1,0,100,0,0
29269,-66.6666666666667,4,1,0,100,0,0

[HitObjects]
72,64,2603,6,0,L|96:96,6,35
116,180,3269,2,0,P|144:220|228:204,1,140
288,192,3769,2,0,P|241:144|178:164,1,140
236,224,4269,2,0,L|181:95,1,140
120,212,4769,2,0,L|176:336,1,105
200,308,5103,5,0,0:0:0:0:
224,308,5186,1,0,0:0:0:0:
248,300,5269,1,0,0:0:0:0:
332,224,5436,1,0,0:0:0:0:
276,112,5603,2,0,P|216:128|216:140,1,78.7500030040742
180,180,5936,6,0,P|128:228|108:300,1,140
212,268,6436,2,0,P|263:221|283:155,1,140
208,160,6936,2,0,P|228:93|279:47,1,140
300,128,7436,2,0,P|279:194|228:240,1,140
196,236,7853,5,0,0:0:0:0:
178,232,7936,1,0,0:0:0:0:
162,225,8019,1,0,0:0:0:0:
147,216,8102,1,0,0:0:0:0:
134,205,8186,1,0,0:0:0:0:
122,192,8269,1,0,0:0:0:0:
112,178,8353,1,0,0:0:0:0:
105,162,8436,1,0,0:0:0:0:
101,145,8519,1,0,0:0:0:0:
100,120,8603,6,0,P|148:96|236:92,1,140
316,140,9103,2,0,P|252:168|182:168,1,140
104,272,9603,2,0,P|173:271|237:243,1,140
372,328,10103,2,0,B|344:260|392:220|324:124,1,210
300,116,10686,1,0,0:0:0:0:
268,116,10769,1,0,0:0:0:0:
156,172,10936,6,0,L|144:216,2,35
288,232,11269,2,0,P|188:208|136:240,1,140
220,280,11769,2,0,P|320:304|372:272,1,140
488,184,12269,2,0,P|420:132|108:172,1,420.000016021729
100,196,13686,1,0,0:0:0:0:
92,224,13769,1,0,0:0:0:0:
192,312,13936,6,0,P|232:280|232:272,1,52.5000020027161
284,224,14269,1,0,0:0:0:0:
376,136,14436,2,0,P|361:157|336:163,1,52.5000020027161
256,96,14769,1,0,0:0:0:0:
136,168,14936,1,0,0:0:0:0:
136,168,15019,1,0,0:0:0:0:
136,168,15103,1,0,0:0:0:0:
180,264,15269,6,0,P|220:296|224:292,1,52.5000020027161
280,264,15603,1,0,0:0:0:0:
388,256,15769,2,0,P|366:243|364:218,1,52.5000020027161
336,116,16103,1,0,0:0:0:0:
232,96,16269,1,0,0:0:0:0:
232,96,16353,1,0,0:0:0:0:
232,96,16436,1,0,0:0:0:0:
140,180,16603,6,0,P|124:212|136:224,1,52.5000020027161
256,276,16936,1,0,0:0:0:0:
364,216,17103,2,0,P|380:184|368:172,1,52.5000020027161
292,76,17436,1,0,0:0:0:0:
172,120,17603,1,0,0:0:0:0:
172,120,17686,1,0,0:0:0:0:
172,120,17769,1,0,0:0:0:0:
112,236,17936,6,0,P|124:264|152:264,2,52.5000020027161
212,148,18436,1,0,0:0:0:0:
344,144,18603,1,0,0:0:0:0:
344,144,18686,1,0,0:0:0:0:
344,144,18769,1,0,0:0:0:0:
416,240,18936,1,0,0:0:0:0:
316,300,19103,1,0,0:0:0:0:
316,300,19186,1,0,0:0:0:0:
316,300,19269,2,0,P|312:272|296:276,1,52.5000020027161
188,228,19603,5,0,0:0:0:0:
204,116,19769,1,0,0:0:0:0:
204,116,19853,1,0,0:0:0:0:
204,116,19936,1,0,0:0:0:0:
212,288,20103,1,0,0:0:0:0:
204,116,20269,1,0,0:0:0:0:
204,116,20353,1,0,0:0:0:0:
204,116,20436,1,0,0:0:0:0:
336,132,20603,6,0,P|368:136|368:148,1,52.5000020027161
372,240,20936,1,0,0:0:0:0:
372,240,21019,1,0,0:0:0:0:
372,240,21103,1,0,0:0:0:0:
280,308,21269,2,0,P|252:296|248:272,1,52.5000020027161
208,168,21603,1,0,0:0:0:0:
208,168,21686,1,0,0:0:0:0:
208,168,21769,2,0,P|216:136|232:136,1,52.5000020027161
344,108,22103,5,0,0:0:0:0:
344,108,22186,1,0,0:0:0:0:
344,108,22269,1,0,0:0:0:0:
272,196,22436,1,0,0:0:0:0:
188,276,22603,1,0,0:0:0:0:
188,276,22686,1,0,0:0:0:0:
188,276,22769,1,0,0:0:0:0:
304,164,22936,5,0,0:0:0:0:
232,236,23103,2,0,L|256:216,2,26.2500010013581
348,116,23436,1,0,0:0:0:0:
252,219,23603,2,0,L|224:251,2,26.2500010013581
152,252,23936,2,0,L|116:216,1,26.2500010013581
104,236,24103,2,0,L|76:276,1,26.2500010013581
56,268,24269,5,0,0:0:0:0:
38,248,24352,1,0,0:0:0:0:
27,224,24435,1,0,0:0:0:0:
24,198,24518,1,0,0:0:0:0:
28,168,24603,2,0,P|60:144|76:144,1,52.5000020027161
192,168,24936,1,0,0:0:0:0:
192,168,25019,1,0,0:0:0:0:
192,168,25103,1,0,0:0:0:0:
340,164,25269,5,0,0:0:0:0:
407,254,25436,1,0,0:0:0:0:
407,254,25519,1,0,0:0:0:0:
407,254,25603,1,0,0:0:0:0:
288,272,25769,1,0,0:0:0:0:
388,188,25936,5,0,0:0:0:0:
388,188,26019,1,0,0:0:0:0:
388,188,26103,1,0,0:0:0:0:
348,272,26269,1,0,0:0:0:0:
272,192,26436,1,0,0:0:0:0:
272,192,26519,1,0,0:0:0:0:
272,192,26603,1,0,0:0:0:0:
356,196,26769,5,0,0:0:0:0:
356,196,26853,1,0,0:0:0:0:
356,196,26936,1,0,0:0:0:0:
292,68,27103,1,0,0:0:0:0:
420,28,27269,1,0,0:0:0:0:
420,28,27353,1,0,0:0:0:0:
420,28,27436,1,0,0:0:0:0:
492,136,27603,1,0,0:0:0:0:
416,248,27769,5,0,0:0:0:0:
416,248,27853,1,0,0:0:0:0:
416,248,27936,1,0,0:0:0:0:
336,136,28103,1,0,0:0:0:0:
260,248,28269,1,0,0:0:0:0:
260,248,28353,1,0,0:0:0:0:
260,248,28436,1,0,0:0:0:0:
400,172,28603,5,0,0:0:0:0:
332,260,28769,1,0,0:0:0:0:
332,260,28853,1,0,0:0:0:0:
332,260,28936,1,0,0:0:0:0:
256,168,29103,1,0,0:0:0:0:
172,272,29269,1,0,0:0:0:0:
172,272,29353,1,0,0:0:0:0:
172,272,29436,2,0,P|116:228|184:132,1,210.000008010865
200,132,29853,5,0,0:0:0:0:
224,148,29936,1,0,0:0:0:0:
328,80,30103,1,0,0:0:0:0:
372,196,30269,1,0,0:0:0:0:
372,196,30353,1,0,0:0:0:0:
372,196,30436,1,0,0:0:0:0:
256,92,30603,5,0,0:0:0:0:
264,216,30769,1,0,0:0:0:0:
264,216,30853,1,0,0:0:0:0:
264,216,30936,1,0,0:0:0:0:
364,140,31103,1,0,0:0:0:0:
196,152,31269,6,0,L|140:144,2,52.5000020027161
284,64,31603,1,0,0:0:0:0:
320,204,31769,2,0,L|364:256,2,52.5000020027161
260,224,32103,2,0,L|264:280,2,52.5000020027161
