osu file format v14

[General]
AudioFilename: audio.mp3
AudioLeadIn: 0
PreviewTime: 239181
Countdown: 0
SampleSet: Soft
StackLeniency: 0.7
Mode: 3
LetterboxInBreaks: 0
SpecialStyle: 0
WidescreenStoryboard: 1

[Editor]
DistanceSpacing: 0.8
BeatDivisor: 4
GridSize: 8
TimelineZoom: 2.400001

[Metadata]
Title:Exit This Earth's Atomosphere
TitleUnicode:Exit This Earth's Atomosphere
Artist:Camellia
ArtistUnicode:かめりあ
Creator:Protastic101
Version:463.89 m/s
Source:
Tags:PLANET//SHAPER drumstep kamelcamellia cametek Atmosphere dnb dubstep drumstep drum_and_bass CTCD-011
BeatmapID:1265675
BeatmapSetID:575053

[Difficulty]
HPDrainRate:7.6
CircleSize:4
OverallDifficulty:7.6
ApproachRate:5
SliderMultiplier:1.4
SliderTickRate:1

[Events]
//Background and Video events
0,0,"Life on Mars.jpg",0,0
//Break Periods
//Storyboard Layer 0 (Background)
//Storyboard Layer 1 (Fail)
//Storyboard Layer 2 (Pass)
//Storyboard Layer 3 (Foreground)
//Storyboard Sound Samples
Sample,80887,0,"F#7.wav",100
Sample,205122,0,"F#7.wav",100
Sample,275181,0,"normal-hitclap.wav",50
Sample,275534,0,"normal-hitclap.wav",50
Sample,276063,0,"normal-hitclap.wav",50
Sample,276240,0,"normal-hitclap.wav",50
Sample,278004,0,"normal-hitclap.wav",50
Sample,278357,0,"normal-hitclap.wav",50
Sample,278710,0,"normal-hitclap.wav",50
Sample,279769,0,"normal-hitclap.wav",50
Sample,279946,0,"normal-hitclap.wav",50
Sample,281004,0,"normal-hitclap.wav",50
Sample,281181,0,"normal-hitclap.wav",50
Sample,281357,0,"normal-hitclap.wav",50

[TimingPoints]
2005,352.941176470588,4,2,1,50,1,0
126240,-100,4,2,1,50,0,1
146004,-100,4,2,1,50,0,0
148828,-100,4,2,1,50,0,1
171063,-100,4,2,1,50,0,0
239181,-100,4,2,1,50,0,1
258946,-100,4,2,1,50,0,0
261769,-100,4,2,1,50,0,1
284357,-100,4,2,1,50,0,0

[HitObjects]
64,192,2004,5,4,1:0:0:0:
192,192,2004,1,0,1:0:0:0:
448,192,2004,1,0,0:0:0:0:
320,192,2357,1,0,1:0:0:0:
64,192,2710,1,0,1:0:0:0:
192,192,3063,1,0,1:0:0:0:
448,192,3416,1,0,1:0:0:0:
320,192,3769,1,0,1:0:0:0:
64,192,4122,1,0,1:0:0:0:
192,192,4475,128,0,4828:1:0:0:0:
320,192,4828,1,0,1:0:0:0:
448,192,5181,1,0,1:0:0:0:
192,192,5534,1,0,1:0:0:0:
64,192,5887,1,0,1:0:0:0:
448,192,6240,1,0,1:0:0:0:
320,192,6593,1,0,1:0:0:0:
192,192,6946,1,0,1:0:0:0:
320,192,7122,128,0,7299:0:0:0:0:
448,192,7299,1,0,1:0:0:0:
64,192,7387,1,0,0:0:0:0:
320,192,7475,1,0,0:0:0:0:
192,192,7563,1,0,0:0:0:0:
64,192,7652,1,0,1:0:0:0:
192,192,8004,1,0,1:0:0:0:
320,192,8357,1,0,1:0:0:0:
448,192,8710,1,0,1:0:0:0:
192,192,9063,1,0,1:0:0:0:
64,192,9416,1,0,1:0:0:0:
320,192,9769,1,0,1:0:0:0:
448,192,10122,128,0,10475:1:0:0:0:
64,192,10475,1,0,1:0:0:0:
192,192,10828,1,0,1:0:0:0:
448,192,11181,1,0,1:0:0:0:
320,192,11534,1,0,1:0:0:0:
192,192,11887,1,0,1:0:0:0:
64,192,12240,1,0,1:0:0:0:
320,192,12593,1,0,1:0:0:0:
448,192,13122,1,0,1:0:0:0:
192,192,13299,1,0,1:0:0:0:
64,192,13652,1,0,1:0:0:0:
448,192,14004,1,0,1:0:0:0:
192,192,14357,1,0,1:0:0:0:
320,192,14710,1,0,1:0:0:0:
64,192,15063,1,0,1:0:0:0:
192,192,15416,1,0,1:0:0:0:
448,192,15769,128,0,16122:1:0:0:0:
320,192,16122,1,0,1:0:0:0:
192,192,16475,1,0,1:0:0:0:
320,192,16828,1,0,1:0:0:0:
64,192,17181,1,0,1:0:0:0:
448,192,17534,1,0,1:0:0:0:
192,192,17887,1,0,1:0:0:0:
320,192,18240,1,0,1:0:0:0:
64,192,18416,128,0,18593:0:0:0:50:hat.wav
448,192,18593,1,0,1:0:0:0:
320,192,18681,1,0,0:0:0:0:
192,192,18769,1,0,0:0:0:50:hat.wav
64,192,18857,1,0,0:0:0:0:
448,192,18946,1,0,1:0:0:0:
192,192,19299,1,0,1:0:0:0:
64,192,19652,1,0,1:0:0:0:
448,192,20004,1,0,1:0:0:0:
320,192,20357,1,0,1:0:0:0:
64,192,20710,1,0,1:0:0:0:
192,192,21063,1,0,1:0:0:0:
448,192,21416,128,0,21769:1:0:0:0:
320,192,21769,1,0,1:0:0:0:
64,192,21769,1,2,0:0:0:0:
192,192,22122,1,2,0:0:0:0:
320,192,22122,1,0,1:0:0:0:
448,192,22475,1,0,1:0:0:0:
192,192,22475,1,2,0:0:0:0:
64,192,22828,1,2,0:0:0:0:
448,192,22828,1,0,1:0:0:0:
192,192,23181,1,2,0:0:0:0:
320,192,23181,1,8,1:0:0:0:
448,192,23269,1,8,1:0:0:0:
64,192,23357,1,8,1:0:0:0:
192,192,23446,1,8,1:0:0:0:
448,192,23534,1,8,1:0:0:0:
320,192,23622,1,8,1:0:0:0:
192,192,23710,1,8,1:0:0:0:
64,192,23799,1,8,1:0:0:0:
448,192,23887,1,8,1:0:0:0:
320,192,23975,1,8,1:0:0:0:
64,192,24063,1,8,1:0:0:0:
192,192,24152,1,8,1:0:0:0:
320,192,24240,1,8,1:0:0:0:
448,192,24328,1,8,1:0:0:0:
64,192,24416,1,8,1:0:0:0:
320,192,24504,1,8,1:0:0:0:
64,192,24593,1,2,0:0:0:0:
448,192,24593,1,0,0:0:0:0:
192,192,24593,1,4,0:0:0:0:
320,192,24769,1,0,0:0:0:0:
64,192,24946,1,8,0:0:0:0:
192,192,24946,1,2,0:0:0:0:
448,192,25122,1,0,0:0:0:0:
320,192,25299,1,0,0:0:0:0:
64,192,25299,1,2,0:0:0:0:
192,192,25475,1,0,0:0:0:0:
320,192,25652,1,8,0:0:0:0:
448,192,25652,1,2,0:0:0:0:
64,192,25828,1,0,0:0:0:0:
192,192,26004,1,2,0:0:0:0:
320,192,26004,1,0,0:0:0:0:
448,192,26181,1,0,0:0:0:0:
64,192,26357,1,8,0:0:0:0:
192,192,26357,1,2,0:0:0:0:
320,192,26534,1,0,0:0:0:0:
448,192,26710,1,0,0:0:0:0:
64,192,26710,1,2,0:0:0:0:
192,192,26887,1,0,0:0:0:0:
320,192,27063,1,8,0:0:0:0:
448,192,27063,1,2,0:0:0:0:
192,192,27240,1,0,0:0:0:0:
64,192,27416,1,2,0:0:0:0:
320,192,27416,1,0,0:0:0:0:
448,192,27593,1,0,0:0:0:0:
192,192,27769,1,2,0:0:0:0:
64,192,27769,1,8,0:0:0:0:
320,192,27946,1,0,0:0:0:0:
448,192,28122,1,0,0:0:0:0:
192,192,28122,1,2,0:0:0:0:
64,192,28299,1,0,0:0:0:0:
320,192,28475,1,8,0:0:0:0:
448,192,28475,1,2,0:0:0:0:
192,192,28652,1,0,0:0:0:0:
64,192,28828,1,2,0:0:0:0:
448,192,28828,1,0,0:0:0:0:
320,192,29004,1,0,0:0:0:0:
192,192,29181,1,2,0:0:0:0:
64,192,29181,1,8,0:0:0:0:
320,192,29357,1,0,0:0:0:0:
448,192,29534,1,0,0:0:0:0:
64,192,29534,1,2,0:0:0:0:
192,192,29710,1,0,0:0:0:0:
64,192,29887,1,8,0:0:0:0:
320,192,29887,1,2,0:0:0:0:
448,192,30063,1,0,0:0:0:0:
192,192,30240,1,2,0:0:0:0:
64,192,30240,1,0,0:0:0:0:
448,192,30416,1,0,0:0:0:0:
320,192,30593,1,2,0:0:0:0:
64,192,30593,1,8,0:0:0:0:
192,192,30769,1,0,0:0:0:0:
64,192,30946,1,2,0:0:0:0:
448,192,30946,1,0,0:0:0:0:
320,192,31122,1,0,0:0:0:0:
192,192,31299,1,8,0:0:0:0:
448,192,31299,1,2,0:0:0:0:
64,192,31475,1,0,0:0:0:0:
320,192,31652,1,2,0:0:0:0:
448,192,31652,1,0,0:0:0:0:
192,192,31828,1,0,0:0:0:0:
64,192,32004,1,8,0:0:0:0:
320,192,32004,1,2,0:0:0:0:
448,192,32181,1,0,0:0:0:0:
64,192,32357,1,0,0:0:0:0:
192,192,32357,1,2,0:0:0:0:
320,192,32534,1,0,0:0:0:0:
448,192,32710,1,2,0:0:0:0:
192,192,32710,1,8,0:0:0:0:
64,192,32887,1,0,0:0:0:0:
320,192,33063,1,2,0:0:0:0:
448,192,33063,1,0,0:0:0:0:
192,192,33240,1,0,0:0:0:0:
64,192,33416,1,8,0:0:0:0:
448,192,33416,1,2,0:0:0:0:
320,192,33593,1,0,0:0:0:0:
192,192,33769,1,2,0:0:0:0:
64,192,33769,1,0,0:0:0:0:
448,192,33946,1,0,0:0:0:0:
320,192,34122,1,2,0:0:0:0:
64,192,34122,1,8,0:0:0:0:
192,192,34299,1,0,0:0:0:0:
448,192,34475,1,0,0:0:0:0:
320,192,34475,1,2,0:0:0:0:
192,192,34563,1,8,1:0:0:0:
64,192,34652,1,8,1:0:0:0:
448,192,34740,1,8,1:0:0:0:
320,192,34828,1,10,0:0:0:0:
192,192,34916,1,8,1:0:0:0:
320,192,35004,1,8,1:0:0:0:
64,192,35093,1,8,1:0:0:0:
192,192,35181,1,2,0:0:0:0:
320,192,35269,1,8,1:0:0:0:
448,192,35357,1,8,1:0:0:0:
64,192,35446,1,8,1:0:0:0:
192,192,35534,1,10,0:0:0:0:
448,192,35622,1,8,1:0:0:0:
320,192,35710,1,8,1:0:0:0:
192,192,35799,1,8,1:0:0:0:
320,192,35887,1,4,0:0:0:0:
64,192,35887,1,8,1:0:0:0:
448,192,35887,1,2,0:0:0:0:
192,192,36063,1,0,0:0:0:0:
448,192,36240,1,8,1:0:0:0:
64,192,36240,1,10,0:0:0:0:
320,192,36416,1,0,0:0:0:0:
192,192,36593,1,8,1:0:0:0:
64,192,36593,1,2,0:0:0:0:
448,192,36769,1,0,0:0:0:0:
320,192,36946,1,8,1:0:0:0:
64,192,36946,1,10,0:0:0:0:
192,192,37122,1,0,0:0:0:0:
320,192,37299,1,2,0:0:0:0:
448,192,37299,1,8,1:0:0:0:
64,192,37475,1,0,0:0:0:0:
192,192,37652,1,10,0:0:0:0:
448,192,37652,1,8,1:0:0:0:
320,192,37828,1,0,0:0:0:0:
192,192,38004,1,2,0:0:0:0:
64,192,38004,1,8,1:0:0:0:
448,192,38181,1,0,0:0:0:0:
320,192,38357,1,8,1:0:0:0:
192,192,38357,1,10,0:0:0:0:
64,192,38534,1,0,0:0:0:0:
448,192,38710,1,8,1:0:0:0:
320,192,38710,1,2,0:0:0:0:
192,192,38887,1,8,1:0:0:0:
64,192,39063,1,10,0:0:0:0:
448,192,39063,1,8,1:0:0:0:
320,192,39240,1,8,1:0:0:0:
192,192,39416,1,8,1:0:0:0:
64,192,39416,1,2,0:0:0:0:
320,192,39593,1,8,1:0:0:0:
448,192,39769,1,8,1:0:0:0:
64,192,39769,1,10,0:0:0:0:
192,192,39946,1,8,1:0:0:0:
320,192,40122,1,8,1:0:0:0:
64,192,40122,1,2,0:0:0:0:
448,192,40299,1,8,1:0:0:0:
192,192,40475,1,8,1:0:0:0:
64,192,40475,1,10,0:0:0:0:
320,192,40652,1,8,1:0:0:0:
448,192,40828,1,8,1:0:0:0:
192,192,40828,1,2,0:0:0:0:
320,192,41004,1,8,1:0:0:0:
448,192,41181,1,8,1:0:0:0:
64,192,41181,1,10,0:0:0:0:
192,192,41357,1,8,1:0:0:0:
320,192,41534,1,2,0:0:0:0:
448,192,41534,1,8,1:0:0:0:
448,192,41710,1,8,1:0:0:0:
320,192,41887,1,8,1:0:0:0:
192,192,41887,1,10,0:0:0:0:
320,192,42063,1,8,1:0:0:0:
64,192,42240,1,2,0:0:0:0:
448,192,42240,1,8,1:0:0:0:
64,192,42416,1,8,1:0:0:0:
448,192,42593,1,8,1:0:0:0:
192,192,42593,1,10,0:0:0:0:
192,192,42769,1,8,1:0:0:0:
320,192,42946,1,8,1:0:0:0:
64,192,42946,1,2,0:0:0:0:
320,192,43122,1,8,1:0:0:0:
192,192,43299,1,10,0:0:0:0:
448,192,43299,1,8,1:0:0:0:
448,192,43475,1,8,1:0:0:0:
64,192,43652,1,2,0:0:0:0:
320,192,43652,1,8,1:0:0:0:
64,192,43828,1,8,1:0:0:0:
192,192,44004,1,10,0:0:0:0:
448,192,44004,1,8,1:0:0:0:
448,192,44181,1,8,1:0:0:0:
64,192,44357,1,2,0:0:0:0:
192,192,44446,1,8,1:0:0:0:
320,192,44534,1,8,1:0:0:0:
448,192,44622,1,8,1:0:0:0:
192,192,44710,1,10,0:0:0:0:
64,192,44799,1,8,1:0:0:0:
448,192,44887,1,8,1:0:0:0:
320,192,44975,1,8,1:0:0:0:
192,192,45063,1,2,0:0:0:0:
64,192,45152,1,8,1:0:0:0:
320,192,45240,1,8,1:0:0:0:
192,192,45328,1,8,1:0:0:0:
448,192,45416,1,10,0:0:0:0:
320,192,45504,1,8,1:0:0:0:
64,192,45593,1,8,1:0:0:0:
192,192,45681,1,8,1:0:0:0:
320,192,45769,1,2,0:0:0:0:
448,192,45857,1,8,1:0:0:0:
192,192,45946,1,8,1:0:0:0:
64,192,46034,1,8,1:0:0:0:
320,192,46122,1,10,0:0:0:0:
192,192,46210,1,8,1:0:0:0:
448,192,46299,1,8,1:0:0:0:
320,192,46387,1,8,1:0:0:0:
64,192,46475,1,2,0:0:0:0:
320,192,46563,1,8,1:0:0:0:
192,192,46652,1,8,1:0:0:0:
448,192,46740,1,8,1:0:0:0:
64,192,46828,1,10,0:0:0:0:
192,192,46916,1,8,1:0:0:0:
320,192,47004,1,8,1:0:0:0:
192,192,47093,1,8,1:0:0:0:
320,192,47181,1,4,1:0:0:0:
64,192,47181,1,4,0:0:0:0:
448,192,47181,128,0,50004:0:0:0:0:
192,192,50004,128,0,50181:0:0:0:0:
320,192,50181,128,0,50357:0:0:0:0:
64,192,50357,128,0,50534:0:0:0:0:
448,192,50534,128,0,50710:0:0:0:0:
320,192,50710,128,0,50887:0:0:0:0:
192,192,50887,128,0,51063:0:0:0:0:
448,192,51063,128,0,51240:0:0:0:0:
64,192,51240,128,0,51416:0:0:0:0:
192,192,51416,128,0,51593:0:0:0:0:
320,192,51593,128,0,51769:0:0:0:0:
448,192,51769,128,0,51946:0:0:0:0:
192,192,51946,1,0,0:0:0:0:
320,192,52122,128,0,52299:0:0:0:0:
64,192,52299,128,0,52475:0:0:0:0:
448,192,52475,128,0,52652:0:0:0:0:
192,192,52652,1,0,0:0:0:0:
320,192,52828,128,0,53004:0:0:0:0:
64,192,53004,128,0,53181:0:0:0:0:
192,192,53181,128,0,53357:0:0:0:0:
448,192,53357,128,0,53534:0:0:0:0:
320,192,53534,128,0,53710:0:0:0:0:
192,192,53710,128,0,53887:0:0:0:0:
64,192,53887,128,0,54063:0:0:0:0:
320,192,54063,128,0,54240:0:0:0:0:
448,192,54240,128,0,54416:0:0:0:0:
192,192,54416,128,0,54593:0:0:0:0:
320,192,54593,128,0,54769:0:0:0:0:
64,192,54769,128,0,54946:0:0:0:0:
192,192,54946,128,0,55122:0:0:0:0:
320,192,55122,128,0,55299:0:0:0:0:
448,192,55299,128,0,55475:0:0:0:0:
64,192,55475,128,0,55652:0:0:0:0:
192,192,55652,128,0,55828:0:0:0:0:
320,192,55828,128,0,56004:0:0:0:0:
448,192,56004,128,0,58475:0:0:0:0:
64,192,56181,128,0,56357:0:0:0:0:
320,192,56357,128,0,56534:0:0:0:0:
192,192,56534,128,0,56710:0:0:0:0:
64,192,56710,128,0,56887:0:0:0:0:
320,192,56887,128,0,57063:0:0:0:0:
192,192,57063,128,0,57240:0:0:0:0:
64,192,57240,128,0,57416:0:0:0:0:
320,192,57416,128,0,57593:0:0:0:0:
64,192,57593,128,0,57769:0:0:0:0:
192,192,57769,128,0,57946:0:0:0:0:
320,192,57946,128,0,58122:0:0:0:0:
64,192,58122,128,0,58299:0:0:0:0:
192,192,58299,128,0,58475:0:0:0:0:
64,192,58475,1,0,0:0:0:100:A#6.wav
320,192,58475,1,4,1:0:0:0:
192,192,58652,1,0,0:0:0:100:B6.wav
448,192,58828,1,0,0:0:0:100:C#7.wav
64,192,59004,1,0,0:0:0:100:F#7.wav
320,192,59181,1,0,0:0:0:100:C#7.wav
192,192,59357,1,0,0:0:0:100:B6.wav
448,192,59534,1,0,0:0:0:100:A#6.wav
320,192,59710,1,0,0:0:0:100:B6.wav
192,192,59887,1,0,0:0:0:100:C#7.wav
64,192,59887,1,0,0:0:0:100:C#5.wav
448,192,60063,1,0,0:0:0:100:F#7.wav
320,192,60240,1,0,0:0:0:100:C#7.wav
64,192,60416,1,0,0:0:0:100:F#7.wav
192,192,60593,1,0,0:0:0:100:G#7.wav
320,192,60769,1,0,0:0:0:100:C#7.wav
448,192,60946,1,0,0:0:0:100:F7.wav
320,192,61122,1,0,0:0:0:100:C#7.wav
64,192,61299,1,0,0:0:0:100:Eb5.wav
192,192,61299,1,0,0:0:0:100:A#6.wav
448,192,61475,1,0,0:0:0:100:B6.wav
320,192,61652,1,0,0:0:0:100:C#7.wav
64,192,61828,1,0,0:0:0:100:F#7.wav
192,192,62004,1,0,0:0:0:100:C#7.wav
448,192,62181,1,0,0:0:0:100:B6.wav
192,192,62357,1,0,0:0:0:100:A#6.wav
320,192,62534,1,0,0:0:0:100:B6.wav
64,192,62710,1,0,0:0:0:100:C#7.wav
448,192,62887,1,0,0:0:0:100:F#7.wav
192,192,63063,1,0,0:0:0:100:C#7.wav
320,192,63240,1,0,0:0:0:100:B6.wav
448,192,63416,1,0,0:0:0:100:A#6.wav
64,192,63593,1,0,0:0:0:100:B6.wav
192,192,63769,1,0,0:0:0:100:F#7.wav
448,192,63946,1,0,0:0:0:100:C#7.wav
192,192,64122,1,0,0:0:0:100:A#6.wav
64,192,64122,1,0,0:0:0:100:Eb5.wav
320,192,64299,1,0,0:0:0:100:B6.wav
448,192,64475,1,0,0:0:0:100:C#7.wav
64,192,64652,1,0,0:0:0:100:F#7.wav
192,192,64828,1,0,0:0:0:100:C#7.wav
448,192,65004,1,0,0:0:0:100:B6.wav
320,192,65181,1,0,0:0:0:100:A#6.wav
192,192,65357,1,0,0:0:0:100:B6.wav
64,192,65534,1,0,0:0:0:100:F5.wav
448,192,65534,1,0,0:0:0:100:C#7.wav
320,192,65710,1,0,0:0:0:100:F#7.wav
192,192,65887,1,0,0:0:0:100:C#7.wav
448,192,66063,1,0,0:0:0:100:B6.wav
64,192,66240,1,0,0:0:0:100:A#6.wav
192,192,66416,1,0,0:0:0:100:B6.wav
320,192,66593,1,0,0:0:0:100:A#6.wav
448,192,66769,1,0,0:0:0:100:F#6.wav
64,192,66946,1,0,0:0:0:100:A#6.wav
192,192,66946,1,0,0:0:0:100:Eb5.wav
448,192,67122,1,0,0:0:0:100:B6.wav
64,192,67299,1,0,0:0:0:100:C#7.wav
320,192,67475,1,0,0:0:0:100:G#7.wav
192,192,67652,1,0,0:0:0:100:C#7.wav
448,192,67828,1,0,0:0:0:100:B6.wav
64,192,68004,1,0,0:0:0:100:A#6.wav
320,192,68181,1,0,0:0:0:100:B6.wav
64,192,68357,1,0,0:0:0:100:Eb5.wav
192,192,68357,1,0,0:0:0:100:C#7.wav
320,192,68534,1,0,0:0:0:100:A#7.wav
448,192,68710,1,0,0:0:0:100:G#7.wav
64,192,68887,1,0,0:0:0:100:Eb7.wav
320,192,69063,1,0,0:0:0:100:D5.wav
448,192,69063,1,0,0:0:0:100:D7.wav
192,192,69240,1,0,0:0:0:100:Eb7.wav
64,192,69416,1,0,0:0:0:100:F7.wav
320,192,69593,1,0,0:0:0:100:F#7.wav
64,192,69769,1,0,0:0:0:100:A#6.wav
448,192,69769,1,0,0:0:0:100:Eb5.wav
192,192,69946,1,0,0:0:0:100:B6.wav
320,192,70122,1,0,0:0:0:100:C#7.wav
448,192,70299,1,0,0:0:0:100:F#7.wav
192,192,70475,1,0,0:0:0:100:C#7.wav
64,192,70652,1,0,0:0:0:100:B6.wav
320,192,70828,1,0,0:0:0:100:A#6.wav
192,192,71004,1,0,0:0:0:100:B6.wav
448,192,71181,1,0,0:0:0:100:C#7.wav
64,192,71181,1,0,0:0:0:100:C#5.wav
320,192,71357,1,0,0:0:0:100:F#7.wav
64,192,71534,1,0,0:0:0:100:C#7.wav
192,192,71710,1,0,0:0:0:100:F#7.wav
320,192,71887,1,0,0:0:0:100:G#7.wav
448,192,72063,1,0,0:0:0:100:C#7.wav
192,192,72240,1,0,0:0:0:100:F7.wav
320,192,72416,1,0,0:0:0:100:C#7.wav
192,192,72593,1,0,0:0:0:100:A#6.wav
64,192,72593,1,0,0:0:0:100:Eb5.wav
448,192,72769,1,0,0:0:0:100:B6.wav
320,192,72946,1,0,0:0:0:100:C#7.wav
192,192,73122,1,0,0:0:0:100:F#7.wav
64,192,73299,1,0,0:0:0:100:C#7.wav
320,192,73475,1,0,0:0:0:100:B6.wav
448,192,73652,1,0,0:0:0:100:A#6.wav
192,192,73828,1,0,0:0:0:100:B6.wav
320,192,74004,1,0,0:0:0:100:C#7.wav
64,192,74181,1,0,0:0:0:100:F#7.wav
448,192,74357,1,0,0:0:0:100:C#7.wav
192,192,74534,1,0,0:0:0:100:B6.wav
320,192,74710,1,0,0:0:0:100:A#6.wav
448,192,74887,1,0,0:0:0:100:B6.wav
64,192,75063,1,0,0:0:0:100:F#7.wav
320,192,75240,1,0,0:0:0:100:C#7.wav
64,192,75416,1,0,0:0:0:100:C#5.wav
192,192,75416,1,0,0:0:0:100:A#6.wav
448,192,75593,1,0,0:0:0:100:B6.wav
192,192,75769,1,0,0:0:0:100:C#7.wav
320,192,75946,1,0,0:0:0:100:F#7.wav
64,192,76122,1,0,0:0:0:100:C#7.wav
192,192,76299,1,0,0:0:0:100:B6.wav
320,192,76475,1,0,0:0:0:100:A#6.wav
192,192,76652,1,0,0:0:0:100:B6.wav
448,192,76828,1,0,0:0:0:100:F5.wav
64,192,76828,128,0,80357:0:0:0:100:C#7.wav
320,192,77004,1,0,0:0:0:100:F#7.wav
192,192,77181,1,0,0:0:0:100:C#7.wav
448,192,77357,1,0,0:0:0:100:B6.wav
192,192,77534,1,0,0:0:0:100:A#6.wav
320,192,77710,1,0,0:0:0:100:B6.wav
448,192,77887,1,0,0:0:0:100:A#6.wav
320,192,78063,1,0,0:0:0:100:F#6.wav
192,192,78240,1,0,0:0:0:100:G#6.wav
448,192,78240,1,0,0:0:0:100:F#5.wav
320,192,78416,1,0,0:0:0:100:A#6.wav
448,192,78593,1,0,0:0:0:100:C#7.wav
192,192,78769,1,0,0:0:0:100:G#7.wav
320,192,78946,1,0,0:0:0:100:C#7.wav
448,192,79122,1,0,0:0:0:100:B6.wav
192,192,79299,1,0,0:0:0:100:A#6.wav
448,192,79475,128,0,80357:0:0:0:100:B6.wav
320,192,79652,1,0,0:0:0:100:C#7.wav
192,192,79828,1,0,0:0:0:100:A#7.wav
320,192,80004,1,0,0:0:0:100:G#7.wav
192,192,80181,1,0,0:0:0:100:Eb7.wav
320,192,80357,1,0,0:0:0:100:D7.wav
64,192,80534,1,0,0:0:0:100:Eb7.wav
192,192,80710,128,0,81063:0:0:0:100:F7.wav
64,192,81063,1,4,0:0:0:0:
448,192,81063,1,2,0:0:0:0:
320,192,81063,128,0,83004:0:0:0:0:
448,192,83181,128,0,83357:0:0:0:0:
192,192,83357,128,0,83534:0:0:0:0:
320,192,83534,128,0,83710:0:0:0:0:
64,192,83710,128,0,84063:0:0:0:0:
448,192,84063,128,0,84240:0:0:0:0:
192,192,84240,128,0,85828:0:0:0:0:
320,192,86004,128,0,86357:0:0:0:0:
448,192,86357,128,0,86710:0:0:0:0:
64,192,86710,128,0,87769:0:0:0:0:
192,192,87769,128,0,87946:0:0:0:0:
320,192,87946,128,0,89004:0:0:0:0:
64,192,89004,128,0,89181:0:0:0:0:
448,192,89181,128,0,89357:0:0:0:0:
192,192,89357,128,0,91299:0:0:0:0:
448,192,92004,128,0,92357:0:0:0:0:
192,192,92357,1,4,0:0:0:0:
320,192,92357,1,2,0:0:0:0:
64,192,92357,128,0,94299:0:0:0:0:
320,192,92710,1,2,0:0:0:0:
192,192,92710,1,0,0:0:0:0:
320,192,93063,1,2,0:0:0:0:
192,192,93063,1,0,0:0:0:0:
192,192,93416,1,0,0:0:0:0:
320,192,93416,1,2,0:0:0:0:
192,192,93769,1,0,0:0:0:0:
320,192,93769,1,2,0:0:0:0:
192,192,94122,1,0,0:0:0:0:
320,192,94122,1,2,0:0:0:0:
320,192,94475,128,2,94652:0:0:0:0:
448,192,94475,1,0,0:0:0:0:
192,192,94652,128,0,94828:0:0:0:0:
448,192,94828,128,2,95004:0:0:0:0:
64,192,94828,1,0,0:0:0:0:
320,192,95004,128,0,95357:0:0:0:0:
192,192,95181,1,2,0:0:0:0:
64,192,95181,1,0,0:0:0:0:
448,192,95357,128,0,95534:0:0:0:0:
192,192,95534,128,2,97122:0:0:0:0:
64,192,95534,1,0,0:0:0:0:
320,192,95887,1,2,0:0:0:0:
448,192,95887,1,0,0:0:0:0:
320,192,96240,1,2,0:0:0:0:
448,192,96240,1,0,0:0:0:0:
320,192,96593,1,2,0:0:0:0:
448,192,96593,1,0,0:0:0:0:
320,192,96946,1,2,0:0:0:0:
448,192,96946,1,0,0:0:0:0:
320,192,97299,128,2,97652:0:0:0:0:
448,192,97299,1,0,0:0:0:0:
448,192,97652,128,0,98004:0:0:0:0:
192,192,97652,1,2,0:0:0:0:
64,192,98004,128,0,99063:0:0:0:0:
320,192,98004,1,2,0:0:0:0:
192,192,98357,1,0,0:0:0:0:
448,192,98357,1,2,0:0:0:0:
192,192,98710,1,0,0:0:0:0:
448,192,98710,1,2,0:0:0:0:
192,192,99063,128,0,99240:0:0:0:0:
448,192,99063,1,2,0:0:0:0:
320,192,99240,128,0,100299:0:0:0:0:
64,192,99416,1,2,0:0:0:0:
192,192,99416,1,0,0:0:0:0:
64,192,99769,1,2,0:0:0:0:
192,192,99769,1,0,0:0:0:0:
64,192,100122,1,2,0:0:0:0:
192,192,100122,1,0,0:0:0:0:
448,192,100299,128,0,100475:0:0:0:0:
192,192,100475,128,0,100652:0:0:0:0:
64,192,100475,1,2,0:0:0:0:
320,192,100652,128,0,102593:0:0:0:0:
448,192,100828,1,0,0:0:0:0:
64,192,100828,1,2,0:0:0:0:
64,192,101181,1,2,0:0:0:0:
448,192,101181,1,0,0:0:0:0:
64,192,101534,1,2,0:0:0:0:
448,192,101534,1,0,0:0:0:0:
64,192,101887,1,2,0:0:0:0:
448,192,101887,1,0,0:0:0:0:
64,192,102240,1,2,0:0:0:0:
448,192,102240,1,0,0:0:0:0:
64,192,102593,1,2,0:0:0:0:
448,192,102593,1,0,0:0:0:0:
192,192,102681,1,2,0:0:0:0:
320,192,102769,1,2,0:0:0:0:
448,192,102857,1,2,0:0:0:0:
64,192,102946,1,2,0:0:0:0:
192,192,103034,1,2,0:0:0:0:
320,192,103122,1,2,0:0:0:0:
448,192,103210,1,2,0:0:0:0:
64,192,103299,1,2,0:0:0:0:
192,192,103387,1,2,0:0:0:0:
320,192,103475,1,2,0:0:0:0:
192,192,103563,1,2,0:0:0:0:
64,192,103652,1,2,0:0:0:0:
448,192,103652,1,2,1:0:0:0:
320,192,103652,1,4,0:0:0:0:
192,192,104004,1,2,1:0:0:0:
448,192,104357,1,2,1:0:0:0:
64,192,104710,1,2,1:0:0:0:
320,192,105063,1,2,1:0:0:0:
192,192,105416,1,2,1:0:0:0:
448,192,105769,1,2,1:0:0:0:
64,192,106122,128,2,106475:1:0:0:0:
320,192,106475,1,2,1:0:0:0:
192,192,106828,1,2,1:0:0:0:
448,192,107181,1,2,1:0:0:0:
64,192,107534,1,2,1:0:0:0:
192,192,107887,1,2,1:0:0:0:
320,192,108240,1,2,1:0:0:0:
448,192,108593,128,2,108769:1:0:0:0:
448,192,108946,128,2,109299:1:0:0:0:
64,192,109299,1,2,1:0:0:0:
192,192,109652,1,2,1:0:0:0:
448,192,110004,1,2,1:0:0:0:
320,192,110357,1,2,1:0:0:0:
192,192,110710,1,2,1:0:0:0:
64,192,111063,1,2,1:0:0:0:
192,192,111416,1,2,1:0:0:0:
320,192,111769,128,2,112122:1:0:0:0:
448,192,112122,1,2,1:0:0:0:
192,192,112475,1,2,1:0:0:0:
320,192,112828,1,2,1:0:0:0:
64,192,113181,1,2,1:0:0:0:
448,192,113534,1,8,1:0:0:0:
448,192,113710,1,8,1:0:0:0:
192,192,113887,1,8,1:0:0:0:
320,192,113975,1,8,1:0:0:0:
192,192,114063,1,8,1:0:0:0:
320,192,114152,1,8,1:0:0:0:
64,192,114240,1,8,1:0:0:0:
64,192,114416,1,8,1:0:0:0:
448,192,114593,1,8,1:0:0:0:
448,192,114769,1,8,1:0:0:0:
64,192,114946,1,8,0:0:0:0:
192,192,114946,1,2,0:0:0:0:
320,192,114946,1,0,0:0:0:0:
64,192,115299,1,8,0:0:0:0:
192,192,115299,1,2,0:0:0:0:
320,192,115299,1,0,0:0:0:0:
448,192,115652,1,0,0:0:0:0:
64,192,115652,1,2,0:0:0:0:
64,192,116004,1,2,0:0:0:0:
448,192,116004,1,0,0:0:0:0:
192,192,116357,1,8,0:0:0:0:
320,192,116357,1,2,0:0:0:0:
448,192,116357,1,0,0:0:0:0:
192,192,116710,1,8,0:0:0:0:
320,192,116710,1,2,0:0:0:0:
448,192,116710,1,0,0:0:0:0:
64,192,117063,1,0,0:0:0:0:
320,192,117063,1,2,0:0:0:0:
64,192,117416,1,0,0:0:0:0:
320,192,117416,1,2,0:0:0:0:
192,192,117769,1,2,0:0:0:0:
448,192,117769,1,0,0:0:0:0:
64,192,117769,1,8,0:0:0:0:
448,192,117946,1,2,0:0:0:0:
64,192,118122,1,8,0:0:0:0:
320,192,118122,1,0,0:0:0:0:
192,192,118122,1,2,0:0:0:0:
64,192,118299,1,2,0:0:0:0:
192,192,118475,1,2,0:0:0:0:
448,192,118475,1,0,0:0:0:0:
192,192,118652,1,2,0:0:0:0:
64,192,118828,1,0,0:0:0:0:
320,192,118828,1,2,0:0:0:0:
320,192,119004,1,2,0:0:0:0:
64,192,119181,1,8,0:0:0:0:
192,192,119181,1,2,0:0:0:0:
448,192,119181,1,0,0:0:0:0:
192,192,119357,1,2,0:0:0:0:
64,192,119534,1,8,0:0:0:0:
320,192,119534,1,2,0:0:0:0:
448,192,119534,1,0,0:0:0:0:
320,192,119710,1,2,0:0:0:0:
64,192,119887,1,0,0:0:0:0:
192,192,119887,1,2,0:0:0:0:
64,192,120063,1,2,0:0:0:0:
320,192,120240,1,2,0:0:0:0:
448,192,120240,1,0,0:0:0:0:
448,192,120416,1,2,0:0:0:0:
64,192,120593,1,10,0:0:0:0:
192,192,120681,1,8,1:0:0:0:
320,192,120769,1,8,1:0:0:0:
448,192,120857,1,8,1:0:0:0:
64,192,120946,1,10,0:0:0:0:
192,192,121034,1,8,1:0:0:0:
448,192,121122,1,8,1:0:0:0:
320,192,121210,1,8,1:0:0:0:
192,192,121299,1,10,0:0:0:0:
64,192,121387,1,8,1:0:0:0:
448,192,121475,1,8,1:0:0:0:
320,192,121563,1,8,1:0:0:0:
192,192,121652,1,10,0:0:0:0:
320,192,121740,1,8,1:0:0:0:
64,192,121828,1,8,1:0:0:0:
192,192,121916,1,8,1:0:0:0:
320,192,122004,1,10,0:0:0:0:
448,192,122093,1,8,1:0:0:0:
64,192,122181,1,10,0:0:0:0:
192,192,122269,1,8,1:0:0:0:
448,192,122357,1,10,0:0:0:0:
320,192,122446,1,8,1:0:0:0:
192,192,122534,1,10,0:0:0:0:
64,192,122622,1,8,1:0:0:0:
320,192,122710,1,10,0:0:0:0:
448,192,122799,1,8,1:0:0:0:
192,192,122887,1,10,0:0:0:0:
320,192,122975,1,8,1:0:0:0:
64,192,123063,1,10,0:0:0:0:
192,192,123152,1,8,1:0:0:0:
448,192,123240,1,10,0:0:0:0:
320,192,123328,1,8,1:0:0:0:
64,192,123416,1,10,0:0:0:0:
192,192,123504,1,8,1:0:0:0:
448,192,123593,1,8,1:0:0:0:
320,192,123681,1,8,1:0:0:0:
64,192,123769,1,8,1:0:0:0:
192,192,123857,1,8,1:0:0:0:
320,192,123946,1,8,1:0:0:0:
448,192,124034,1,8,1:0:0:0:
192,192,124122,1,8,1:0:0:0:
64,192,124210,1,8,1:0:0:0:
320,192,124299,1,8,1:0:0:0:
448,192,124387,1,8,1:0:0:0:
192,192,124475,1,8,1:0:0:0:
64,192,124563,1,8,1:0:0:0:
320,192,124652,1,8,1:0:0:0:
448,192,124740,1,8,1:0:0:0:
320,192,124828,1,0,0:0:0:0:
192,192,124828,1,8,0:0:0:0:
64,192,124828,1,2,0:0:0:0:
448,192,125004,1,2,0:0:0:0:
320,192,125093,1,2,0:0:0:0:
192,192,125181,1,2,0:0:0:0:
64,192,125269,1,2,0:0:0:0:
320,192,125357,1,2,0:0:0:0:
448,192,125357,1,8,0:0:0:0:
64,192,125534,1,2,0:0:0:0:
192,192,125622,1,2,0:0:0:0:
320,192,125710,1,2,0:0:0:0:
448,192,125799,1,2,0:0:0:0:
64,192,125887,128,8,126240:0:0:0:0:
192,192,125887,1,0,0:0:0:0:
192,192,126240,1,4,0:0:0:0:
320,192,126240,1,2,0:0:0:0:
448,192,126240,1,0,0:0:0:0:
64,192,126416,128,0,126593:0:0:0:0:
320,192,126593,1,2,0:0:0:0:
448,192,126593,1,0,0:0:0:0:
192,192,126769,128,0,126946:0:0:0:0:
64,192,126946,1,2,0:0:0:0:
448,192,126946,1,0,0:0:0:0:
320,192,127122,128,0,127299:0:0:0:0:
192,192,127299,1,0,0:0:0:0:
64,192,127299,1,2,0:0:0:0:
448,192,127475,128,0,127652:0:0:0:0:
320,192,127652,1,0,0:0:0:0:
64,192,127652,1,2,0:0:0:0:
192,192,127828,128,0,128004:0:0:0:0:
64,192,128004,1,2,0:0:0:0:
448,192,128004,1,0,0:0:0:0:
320,192,128181,128,0,128357:0:0:0:0:
192,192,128357,1,2,0:0:0:0:
64,192,128357,128,0,128710:0:0:0:0:
448,192,128534,128,0,128710:0:0:0:0:
192,192,128710,1,2,0:0:0:0:
320,192,128710,128,0,129063:0:0:0:0:
64,192,128887,128,0,129063:0:0:0:0:
192,192,129063,1,2,0:0:0:0:
448,192,129063,1,0,0:0:0:0:
320,192,129240,128,0,129416:0:0:0:0:
192,192,129416,1,2,0:0:0:0:
448,192,129416,1,0,0:0:0:0:
64,192,129593,128,0,129769:0:0:0:0:
320,192,129769,1,2,0:0:0:0:
448,192,129769,1,0,0:0:0:0:
192,192,129946,128,0,130122:0:0:0:0:
64,192,130122,1,2,0:0:0:0:
320,192,130122,1,0,0:0:0:0:
448,192,130299,128,0,130475:0:0:0:0:
320,192,130475,1,0,0:0:0:0:
192,192,130475,1,2,0:0:0:0:
64,192,130652,128,0,130828:0:0:0:0:
192,192,130828,1,2,0:0:0:0:
448,192,130828,1,0,0:0:0:0:
320,192,131004,128,0,131181:0:0:0:0:
192,192,131181,1,2,0:0:0:0:
64,192,131181,128,0,131534:0:0:0:0:
448,192,131357,128,0,131534:0:0:0:0:
320,192,131534,1,2,0:0:0:0:
192,192,131534,128,0,131887:0:0:0:0:
64,192,131710,128,0,131887:0:0:0:0:
320,192,131887,1,2,0:0:0:0:
448,192,131887,128,0,132240:0:0:0:0:
192,192,132063,128,0,132240:0:0:0:0:
64,192,132240,1,0,0:0:0:0:
320,192,132240,1,2,0:0:0:0:
192,192,132416,128,0,132593:0:0:0:0:
448,192,132593,1,0,0:0:0:0:
320,192,132593,1,2,0:0:0:0:
64,192,132769,128,0,132946:0:0:0:0:
192,192,132946,1,2,0:0:0:0:
448,192,132946,1,0,0:0:0:0:
320,192,133122,128,0,133299:0:0:0:0:
192,192,133299,1,2,0:0:0:0:
64,192,133299,1,0,0:0:0:0:
448,192,133475,128,0,133652:0:0:0:0:
64,192,133652,1,0,0:0:0:0:
320,192,133652,1,2,0:0:0:0:
192,192,133828,128,0,134004:0:0:0:0:
64,192,134004,1,2,0:0:0:0:
448,192,134004,128,0,134357:0:0:0:0:
320,192,134181,128,0,134357:0:0:0:0:
64,192,134357,128,0,134710:0:0:0:0:
192,192,134357,1,2,0:0:0:0:
448,192,134534,128,0,134710:0:0:0:0:
192,192,134710,1,2,0:0:0:0:
320,192,134710,128,0,135063:0:0:0:0:
64,192,134887,128,0,135063:0:0:0:0:
192,192,135063,1,2,0:0:0:0:
448,192,135063,1,0,0:0:0:0:
320,192,135240,128,0,135416:0:0:0:0:
64,192,135416,1,0,0:0:0:0:
448,192,135416,1,2,0:0:0:0:
192,192,135593,128,0,135769:0:0:0:0:
320,192,135769,1,2,0:0:0:0:
448,192,135769,1,0,0:0:0:0:
64,192,135946,128,0,136122:0:0:0:0:
192,192,136122,1,2,0:0:0:0:
320,192,136122,128,0,136387:0:0:0:0:
64,192,136387,1,0,0:0:0:0:
448,192,136652,128,0,136828:0:0:0:0:
192,192,136828,1,2,0:0:0:0:
320,192,136916,1,2,0:0:0:0:
448,192,137181,1,0,0:0:0:0:
64,192,137269,1,0,0:0:0:0:
192,192,137357,128,8,137534:0:0:0:0:
320,192,137357,1,0,0:0:0:0:
448,192,137357,1,0,0:0:0:0:
320,192,137534,1,2,0:0:0:0:
448,192,137534,1,0,0:0:0:0:
64,192,137534,1,4,0:0:0:0:
192,192,137710,128,0,137887:0:0:0:0:
64,192,137887,1,8,0:0:0:0:
320,192,137887,1,2,0:0:0:0:
448,192,137887,1,0,0:0:0:0:
192,192,138063,128,0,138240:0:0:0:0:
320,192,138240,1,2,0:0:0:0:
448,192,138240,1,0,0:0:0:0:
64,192,138416,128,0,138593:0:0:0:0:
192,192,138593,1,8,0:0:0:0:
320,192,138593,1,2,0:0:0:0:
448,192,138593,1,0,0:0:0:0:
64,192,138769,128,0,138946:0:0:0:0:
192,192,138946,1,2,0:0:0:0:
448,192,138946,1,0,0:0:0:0:
320,192,139122,128,0,139299:0:0:0:0:
64,192,139299,1,8,0:0:0:0:
192,192,139299,1,2,0:0:0:0:
448,192,139299,1,0,0:0:0:0:
320,192,139475,128,0,139652:0:0:0:0:
64,192,139652,1,0,0:0:0:0:
192,192,139652,1,2,0:0:0:0:
448,192,139828,128,0,140004:0:0:0:0:
320,192,140004,1,2,0:0:0:0:
64,192,140004,1,8,0:0:0:0:
192,192,140004,128,0,140357:0:0:0:0:
448,192,140181,128,0,140357:0:0:0:0:
320,192,140357,1,2,0:0:0:0:
64,192,140357,1,0,0:0:0:0:
192,192,140534,128,0,140710:0:0:0:0:
320,192,140710,1,2,0:0:0:0:
448,192,140710,1,0,0:0:0:0:
64,192,140710,1,8,0:0:0:0:
192,192,140887,128,0,141063:0:0:0:0:
64,192,141063,1,0,0:0:0:0:
320,192,141063,1,2,0:0:0:0:
448,192,141240,128,0,141416:0:0:0:0:
320,192,141416,1,2,0:0:0:0:
192,192,141416,1,0,0:0:0:0:
64,192,141416,1,8,0:0:0:0:
448,192,141593,128,0,141769:0:0:0:0:
192,192,141769,1,0,0:0:0:0:
320,192,141769,1,2,0:0:0:0:
64,192,141946,128,0,142122:0:0:0:0:
320,192,142122,1,2,0:0:0:0:
448,192,142122,1,0,0:0:0:0:
192,192,142122,1,8,0:0:0:0:
64,192,142299,128,0,142475:0:0:0:0:
320,192,142475,1,2,0:0:0:0:
448,192,142475,1,0,0:0:0:0:
192,192,142652,128,0,142828:0:0:0:0:
64,192,142828,1,8,0:0:0:0:
448,192,142828,1,0,0:0:0:0:
320,192,142828,128,2,143181:0:0:0:0:
192,192,143004,128,0,143181:0:0:0:0:
448,192,143181,1,2,0:0:0:0:
64,192,143181,1,0,0:0:0:0:
320,192,143357,128,0,143534:0:0:0:0:
64,192,143534,1,8,0:0:0:0:
192,192,143534,1,0,0:0:0:0:
448,192,143534,1,2,0:0:0:0:
64,192,143710,1,2,0:0:0:0:
320,192,143710,128,0,143887:0:0:0:0:
64,192,143887,1,0,0:0:0:0:
192,192,143887,1,2,0:0:0:0:
448,192,144063,128,0,144240:0:0:0:0:
64,192,144240,1,8,0:0:0:0:
320,192,144240,1,2,0:0:0:0:
192,192,144240,1,0,0:0:0:0:
448,192,144416,128,0,144593:0:0:0:0:
192,192,144416,1,2,0:0:0:0:
192,192,144593,1,2,0:0:0:0:
320,192,144593,1,0,0:0:0:0:
64,192,144769,1,2,0:0:0:0:
192,192,144857,1,2,0:0:0:0:
320,192,144946,1,2,0:0:0:0:
448,192,144946,1,8,0:0:0:0:
192,192,145122,1,2,0:0:0:0:
320,192,145210,1,2,0:0:0:0:
64,192,145299,1,0,0:0:0:0:
448,192,145299,1,2,0:0:0:0:
320,192,145475,1,2,0:0:0:0:
192,192,145563,1,2,0:0:0:0:
64,192,145652,1,2,0:0:0:0:
448,192,145652,1,8,0:0:0:0:
192,192,145828,1,2,0:0:0:0:
320,192,145916,1,2,0:0:0:0:
448,192,146004,1,4,0:0:0:0:
64,192,146004,1,8,1:0:0:0:
64,192,146269,1,8,1:0:0:0:
64,192,146534,1,8,1:0:0:0:
64,192,146799,1,8,1:0:0:0:
64,192,147063,1,8,1:0:0:0:
320,192,147240,1,8,1:0:0:0:
192,192,147328,1,8,1:0:0:0:
448,192,147416,1,8,1:0:0:0:
448,192,147593,1,8,1:0:0:0:
64,192,147769,1,8,1:0:0:0:
320,192,147857,1,8,1:0:0:0:
64,192,147946,1,8,1:0:0:0:
320,192,148034,1,8,1:0:0:0:
192,192,148122,1,2,0:0:0:0:
448,192,148122,1,0,0:0:0:0:
64,192,148387,1,2,0:0:0:0:
320,192,148387,1,0,0:0:0:0:
192,192,148652,1,2,0:0:0:0:
448,192,148652,1,0,0:0:0:0:
64,192,148828,1,4,0:0:0:0:
192,192,148828,1,2,0:0:0:0:
320,192,148828,128,0,149181:0:0:0:0:
448,192,149181,1,0,0:0:0:0:
64,192,149446,1,0,0:0:0:0:
192,192,149446,1,2,0:0:0:0:
320,192,149534,1,8,1:0:0:0:
448,192,149534,1,0,0:0:0:0:
64,192,149887,1,0,0:0:0:0:
192,192,150152,1,2,0:0:0:0:
320,192,150152,1,0,0:0:0:0:
64,192,150240,1,2,0:0:0:0:
448,192,150240,1,0,0:0:0:0:
64,192,150593,1,2,0:0:0:0:
192,192,150593,1,0,0:0:0:0:
320,192,150946,1,0,0:0:0:0:
448,192,150946,128,0,151299:0:0:0:0:
192,192,150946,1,8,1:0:0:0:
64,192,151122,128,0,151652:0:0:0:0:
192,192,151299,128,0,151652:0:0:0:0:
320,192,151652,1,2,0:0:0:0:
448,192,151652,1,0,0:0:0:0:
192,192,152004,1,0,0:0:0:0:
64,192,152269,1,2,0:0:0:0:
320,192,152269,1,0,0:0:0:0:
192,192,152357,1,8,1:0:0:0:
448,192,152357,1,0,0:0:0:0:
320,192,152710,1,0,0:0:0:0:
64,192,152887,1,2,0:0:0:0:
448,192,152887,1,0,0:0:0:0:
64,192,153240,1,2,0:0:0:0:
448,192,153240,1,0,0:0:0:0:
64,192,153416,1,2,0:0:0:0:
448,192,153416,1,0,0:0:0:0:
192,192,153769,1,8,1:0:0:0:
320,192,153769,1,0,0:0:0:0:
64,192,153769,128,0,154299:0:0:0:0:
192,192,154034,128,0,154299:0:0:0:0:
448,192,154034,1,2,0:0:0:0:
448,192,154299,128,0,154475:0:0:0:0:
320,192,154299,1,2,0:0:0:0:
64,192,154475,1,0,0:0:0:0:
320,192,154475,1,0,0:0:0:0:
192,192,154475,128,2,154828:0:0:0:0:
320,192,154828,1,0,0:0:0:0:
448,192,155093,1,0,0:0:0:0:
64,192,155093,1,2,0:0:0:0:
192,192,155181,1,8,1:0:0:0:
320,192,155181,1,0,0:0:0:0:
448,192,155534,1,0,0:0:0:0:
64,192,155799,1,0,0:0:0:0:
192,192,155799,1,2,0:0:0:0:
320,192,155887,1,2,0:0:0:0:
448,192,155887,1,0,0:0:0:0:
64,192,156240,1,2,0:0:0:0:
320,192,156240,1,0,0:0:0:0:
192,192,156593,1,8,1:0:0:0:
64,192,156593,128,0,156946:0:0:0:0:
448,192,156769,128,0,157299:0:0:0:0:
320,192,156946,128,0,157299:0:0:0:0:
64,192,157299,1,2,0:0:0:0:
192,192,157299,1,0,0:0:0:0:
64,192,157563,1,2,0:0:0:0:
448,192,157563,1,0,0:0:0:0:
320,192,157652,1,0,0:0:0:0:
192,192,157652,1,2,0:0:0:0:
320,192,157828,1,2,0:0:0:0:
448,192,157828,1,0,0:0:0:0:
64,192,158181,1,2,0:0:0:0:
320,192,158181,1,0,0:0:0:0:
192,192,158357,1,2,0:0:0:0:
448,192,158357,1,0,0:0:0:0:
64,192,158710,1,0,0:0:0:0:
320,192,158710,1,2,0:0:0:0:
448,192,158975,1,0,0:0:0:0:
320,192,158975,1,2,0:0:0:0:
192,192,159063,1,2,0:0:0:0:
64,192,159063,1,0,0:0:0:0:
192,192,159240,1,2,0:0:0:0:
448,192,159240,1,0,0:0:0:0:
64,192,159593,1,0,0:0:0:0:
192,192,159593,1,2,0:0:0:0:
448,192,159769,1,0,0:0:0:0:
320,192,159769,1,2,0:0:0:0:
192,192,159887,1,0,0:0:0:0:
320,192,160004,1,0,0:0:0:0:
64,192,160122,1,4,0:0:0:0:
448,192,160122,1,0,0:0:0:0:
192,192,160122,128,2,160475:0:0:0:0:
64,192,160475,1,8,1:0:0:0:
320,192,160475,1,0,0:0:0:0:
448,192,160475,1,0,0:0:0:0:
192,192,160740,1,0,0:0:0:0:
320,192,160740,1,2,0:0:0:0:
64,192,161004,1,0,0:0:0:0:
448,192,161004,1,2,0:0:0:0:
192,192,161181,1,0,0:0:0:0:
64,192,161181,1,8,1:0:0:0:
320,192,161181,1,0,0:0:0:0:
448,192,161534,1,0,0:0:0:0:
320,192,161534,1,2,0:0:0:0:
64,192,161887,1,8,1:0:0:0:
448,192,161887,1,0,0:0:0:0:
192,192,161887,1,0,0:0:0:0:
320,192,162152,1,2,0:0:0:0:
192,192,162152,1,0,0:0:0:0:
448,192,162416,1,0,0:0:0:0:
64,192,162416,1,2,0:0:0:0:
320,192,162593,1,0,0:0:0:0:
448,192,162593,1,0,0:0:0:0:
192,192,162593,1,8,1:0:0:0:
64,192,162946,1,0,0:0:0:0:
192,192,162946,1,2,0:0:0:0:
320,192,163299,1,0,0:0:0:0:
448,192,163299,1,0,0:0:0:0:
64,192,163299,1,8,1:0:0:0:
192,192,163563,1,2,0:0:0:0:
448,192,163563,1,0,0:0:0:0:
64,192,163828,1,0,0:0:0:0:
320,192,163828,1,2,0:0:0:0:
192,192,164004,1,8,1:0:0:0:
320,192,164004,1,0,0:0:0:0:
448,192,164004,1,0,0:0:0:0:
64,192,164357,1,0,0:0:0:0:
448,192,164357,1,2,0:0:0:0:
192,192,164710,1,0,0:0:0:0:
320,192,164710,1,0,0:0:0:0:
64,192,164710,1,8,1:0:0:0:
448,192,164975,1,2,0:0:0:0:
64,192,164975,1,0,0:0:0:0:
192,192,165240,1,0,0:0:0:0:
320,192,165240,1,2,0:0:0:0:
192,192,165416,1,0,0:0:0:0:
448,192,165416,1,0,0:0:0:0:
64,192,165416,1,8,1:0:0:0:
64,192,165769,1,0,0:0:0:0:
448,192,165769,1,0,0:0:0:0:
320,192,165769,128,2,166122:0:0:0:0:
192,192,166122,1,0,0:0:0:0:
64,192,166122,1,8,1:0:0:0:
448,192,166122,1,0,0:0:0:0:
448,192,166387,1,0,0:0:0:0:
320,192,166387,1,2,0:0:0:0:
192,192,166652,1,2,0:0:0:0:
64,192,166652,1,0,0:0:0:0:
448,192,166828,1,0,0:0:0:0:
320,192,166828,1,0,0:0:0:0:
64,192,166828,1,8,1:0:0:0:
192,192,167181,1,0,0:0:0:0:
320,192,167181,1,2,0:0:0:0:
64,192,167534,1,8,1:0:0:0:
192,192,167534,1,0,0:0:0:0:
448,192,167534,1,0,0:0:0:0:
64,192,167799,1,0,0:0:0:0:
320,192,167799,1,2,0:0:0:0:
192,192,168063,1,2,0:0:0:0:
448,192,168063,1,0,0:0:0:0:
64,192,168240,1,8,1:0:0:0:
320,192,168240,1,0,0:0:0:0:
448,192,168240,1,0,0:0:0:0:
64,192,168593,1,8,1:0:0:0:
448,192,168593,1,2,0:0:0:0:
192,192,168710,1,2,0:0:0:0:
320,192,168828,1,2,0:0:0:0:
448,192,168946,1,2,0:0:0:0:
64,192,168946,1,8,1:0:0:0:
192,192,169063,1,2,0:0:0:0:
320,192,169181,1,2,0:0:0:0:
192,192,169299,1,2,0:0:0:0:
64,192,169299,1,8,1:0:0:0:
448,192,169416,1,2,0:0:0:0:
320,192,169534,1,2,0:0:0:0:
64,192,169652,1,8,1:0:0:0:
192,192,169652,1,2,0:0:0:0:
448,192,169769,1,2,0:0:0:0:
192,192,169887,1,2,0:0:0:0:
320,192,170004,1,8,1:0:0:0:
448,192,170004,1,2,0:0:0:0:
64,192,170122,1,2,0:0:0:0:
192,192,170240,1,2,0:0:0:0:
448,192,170357,1,2,0:0:0:0:
320,192,170357,1,8,1:0:0:0:
64,192,170475,1,2,0:0:0:0:
448,192,170593,1,2,0:0:0:0:
320,192,170710,1,2,0:0:0:0:
64,192,170710,1,8,1:0:0:0:
192,192,170828,1,2,0:0:0:0:
448,192,170946,1,2,0:0:0:0:
320,192,171063,1,2,0:0:0:0:
64,192,171063,128,8,171416:1:0:0:0:
192,192,171416,1,4,0:0:0:0:
448,192,171416,1,4,1:0:0:0:
320,192,171416,128,0,172828:0:0:0:0:
64,192,172828,128,0,173004:0:0:0:0:
192,192,173004,128,0,173181:0:0:0:0:
320,192,173181,128,0,173357:0:0:0:0:
448,192,173357,128,0,173534:0:0:0:0:
320,192,173534,128,0,173710:0:0:0:0:
192,192,173710,128,0,173887:0:0:0:0:
64,192,173887,128,0,174063:0:0:0:0:
320,192,174063,128,0,174240:0:0:0:0:
448,192,174240,128,0,174416:0:0:0:0:
192,192,174416,128,0,174593:0:0:0:0:
64,192,174593,128,0,174769:0:0:0:0:
320,192,174769,128,0,174946:0:0:0:0:
192,192,174946,128,0,175122:0:0:0:0:
448,192,175122,128,0,175299:0:0:0:0:
320,192,175299,128,0,175475:0:0:0:0:
64,192,175475,128,0,175652:0:0:0:0:
192,192,175652,128,0,175828:0:0:0:0:
320,192,175828,128,0,176004:0:0:0:0:
448,192,176004,128,0,176181:0:0:0:0:
64,192,176181,1,0,0:0:0:0:
192,192,176357,128,0,176534:0:0:0:0:
320,192,176534,128,0,176710:0:0:0:0:
64,192,176710,1,0,0:0:0:0:
448,192,176887,128,0,177063:0:0:0:0:
192,192,177063,128,0,177240:0:0:0:0:
320,192,177240,128,0,177416:0:0:0:0:
64,192,177416,128,0,177593:0:0:0:0:
192,192,177593,128,0,177769:0:0:0:0:
320,192,177769,128,0,177946:0:0:0:0:
448,192,177946,128,0,178122:0:0:0:0:
64,192,178122,128,0,178299:0:0:0:0:
320,192,178299,128,0,178475:0:0:0:0:
192,192,178475,128,0,178652:0:0:0:0:
448,192,178652,128,0,178828:0:0:0:0:
320,192,178828,128,0,179004:0:0:0:0:
192,192,179004,128,0,179181:0:0:0:0:
64,192,179181,128,0,179357:0:0:0:0:
320,192,179357,128,0,179534:0:0:0:0:
448,192,179534,128,0,179710:0:0:0:0:
192,192,179710,128,0,179887:0:0:0:0:
320,192,179887,128,0,180063:0:0:0:0:
64,192,180063,128,0,180240:0:0:0:0:
192,192,180240,128,0,180416:0:0:0:0:
320,192,180416,128,0,180593:0:0:0:0:
448,192,180593,128,0,180769:0:0:0:0:
64,192,180769,128,0,180946:0:0:0:0:
320,192,180946,128,0,181122:0:0:0:0:
192,192,181122,128,0,181299:0:0:0:0:
64,192,181299,128,0,181475:0:0:0:0:
448,192,181475,128,0,181652:0:0:0:0:
64,192,181652,128,0,182710:0:0:0:0:
192,192,181828,128,0,182004:0:0:0:0:
448,192,182004,128,0,182181:0:0:0:0:
320,192,182181,128,0,182357:0:0:0:0:
192,192,182357,128,0,182534:0:0:0:0:
448,192,182534,128,0,182710:0:0:0:0:
320,192,182710,1,0,0:0:0:100:Eb5.wav
192,192,182710,1,0,0:0:0:100:A#6.wav
64,192,182887,1,0,0:0:0:100:B6.wav
448,192,183063,1,0,0:0:0:100:C#7.wav
320,192,183240,1,0,0:0:0:100:F#7.wav
64,192,183416,1,0,0:0:0:100:C#7.wav
192,192,183593,1,0,0:0:0:100:B6.wav
320,192,183769,1,0,0:0:0:100:A#6.wav
448,192,183946,1,0,0:0:0:100:B6.wav
64,192,184122,1,0,0:0:0:100:C#5.wav
192,192,184122,1,0,0:0:0:100:C#7.wav
320,192,184299,1,0,0:0:0:100:F#7.wav
64,192,184475,1,0,0:0:0:100:C#7.wav
320,192,184652,1,0,0:0:0:100:F#7.wav
448,192,184828,1,0,0:0:0:100:G#7.wav
64,192,185004,1,0,0:0:0:100:C#7.wav
192,192,185181,1,0,0:0:0:100:F7.wav
448,192,185357,1,0,0:0:0:100:C#7.wav
320,192,185534,1,0,0:0:0:100:A#6.wav
64,192,185534,1,0,0:0:0:100:Eb5.wav
192,192,185710,1,0,0:0:0:100:B6.wav
448,192,185887,1,0,0:0:0:100:C#7.wav
64,192,186063,1,0,0:0:0:100:F#7.wav
320,192,186240,1,0,0:0:0:100:C#7.wav
192,192,186416,1,0,0:0:0:100:B6.wav
64,192,186593,1,0,0:0:0:100:A#6.wav
448,192,186769,1,0,0:0:0:100:B6.wav
320,192,186946,1,0,0:0:0:100:C#7.wav
192,192,187122,1,0,0:0:0:100:F#7.wav
320,192,187299,1,0,0:0:0:100:C#7.wav
448,192,187475,1,0,0:0:0:100:B6.wav
64,192,187652,1,0,0:0:0:100:A#6.wav
192,192,187828,1,0,0:0:0:100:B6.wav
448,192,188004,1,0,0:0:0:100:F#7.wav
64,192,188181,1,0,0:0:0:100:C#7.wav
320,192,188357,1,0,0:0:0:100:A#6.wav
448,192,188357,1,0,0:0:0:100:Eb5.wav
192,192,188534,1,0,0:0:0:100:B6.wav
448,192,188710,1,0,0:0:0:100:C#7.wav
64,192,188887,1,0,0:0:0:100:F#7.wav
192,192,189063,1,0,0:0:0:100:C#7.wav
320,192,189240,1,0,0:0:0:100:B6.wav
448,192,189416,1,0,0:0:0:100:A#6.wav
320,192,189593,1,0,0:0:0:100:B6.wav
192,192,189769,1,0,0:0:0:100:C#7.wav
448,192,189769,1,0,0:0:0:100:F5.wav
64,192,189946,1,0,0:0:0:100:F#7.wav
320,192,190122,1,0,0:0:0:100:C#7.wav
192,192,190299,1,0,0:0:0:100:B6.wav
448,192,190475,1,0,0:0:0:100:A#6.wav
320,192,190652,1,0,0:0:0:100:B6.wav
64,192,190828,1,0,0:0:0:100:A#6.wav
192,192,191004,1,0,0:0:0:100:F#6.wav
320,192,191181,1,0,0:0:0:100:Eb5.wav
64,192,191181,1,0,0:0:0:100:A#6.wav
448,192,191357,1,0,0:0:0:100:B6.wav
192,192,191534,1,0,0:0:0:100:C#7.wav
64,192,191710,1,0,0:0:0:100:G#7.wav
320,192,191887,1,0,0:0:0:100:C#7.wav
192,192,192063,1,0,0:0:0:100:B6.wav
320,192,192240,1,0,0:0:0:100:A#6.wav
448,192,192416,1,0,0:0:0:100:B6.wav
64,192,192593,1,0,0:0:0:100:Eb5.wav
192,192,192593,1,0,0:0:0:100:C#7.wav
320,192,192769,1,0,0:0:0:100:A#7.wav
448,192,192946,1,0,0:0:0:100:G#7.wav
192,192,193122,1,0,0:0:0:100:Eb7.wav
64,192,193299,1,0,0:0:0:100:D7.wav
320,192,193299,1,0,0:0:0:100:D5.wav
448,192,193475,1,0,0:0:0:100:Eb7.wav
192,192,193652,1,0,0:0:0:100:F7.wav
320,192,193828,1,0,0:0:0:100:F#7.wav
64,192,194004,1,0,0:0:0:100:Eb5.wav
448,192,194004,1,0,0:0:0:100:A#6.wav
192,192,194181,1,0,0:0:0:100:B6.wav
320,192,194357,1,0,0:0:0:100:C#7.wav
192,192,194534,1,0,0:0:0:100:F#7.wav
64,192,194710,1,0,0:0:0:100:C#7.wav
448,192,194887,1,0,0:0:0:100:B6.wav
320,192,195063,1,0,0:0:0:100:A#6.wav
64,192,195240,1,0,0:0:0:100:B6.wav
192,192,195416,1,0,0:0:0:100:C#5.wav
448,192,195416,1,0,0:0:0:100:C#7.wav
320,192,195593,1,0,0:0:0:100:F#7.wav
64,192,195769,1,0,0:0:0:100:C#7.wav
192,192,195946,1,0,0:0:0:100:F#7.wav
448,192,196122,1,0,0:0:0:100:G#7.wav
320,192,196299,1,0,0:0:0:100:C#7.wav
192,192,196475,1,0,0:0:0:100:F7.wav
64,192,196652,1,0,0:0:0:100:C#7.wav
320,192,196828,1,0,0:0:0:100:A#6.wav
192,192,196828,1,0,0:0:0:100:Eb5.wav
448,192,197004,1,0,0:0:0:100:B6.wav
192,192,197181,1,0,0:0:0:100:C#7.wav
320,192,197357,1,0,0:0:0:100:F#7.wav
64,192,197534,1,0,0:0:0:100:C#7.wav
192,192,197710,1,0,0:0:0:100:B6.wav
448,192,197887,1,0,0:0:0:100:A#6.wav
64,192,198063,1,0,0:0:0:100:B6.wav
320,192,198240,1,0,0:0:0:100:C#7.wav
192,192,198416,1,0,0:0:0:100:F#7.wav
64,192,198593,1,0,0:0:0:100:C#7.wav
320,192,198769,1,0,0:0:0:100:B6.wav
448,192,198946,1,0,0:0:0:100:A#6.wav
64,192,199122,1,0,0:0:0:100:B6.wav
192,192,199299,1,0,0:0:0:100:F#7.wav
448,192,199475,1,0,0:0:0:100:C#7.wav
320,192,199652,1,0,0:0:0:100:A#6.wav
64,192,199652,1,0,0:0:0:100:C#5.wav
192,192,199828,1,0,0:0:0:100:B6.wav
448,192,200004,1,0,0:0:0:100:C#7.wav
192,192,200181,1,0,0:0:0:100:F#7.wav
320,192,200357,1,0,0:0:0:100:C#7.wav
64,192,200534,1,0,0:0:0:100:B6.wav
192,192,200710,1,0,0:0:0:100:A#6.wav
320,192,200887,1,0,0:0:0:100:B6.wav
448,192,201063,1,0,0:0:0:100:F5.wav
64,192,201063,1,0,0:0:0:100:C#7.wav
192,192,201240,1,0,0:0:0:100:F#7.wav
448,192,201416,1,0,0:0:0:100:C#7.wav
320,192,201593,1,0,0:0:0:100:B6.wav
192,192,201769,1,0,0:0:0:100:A#6.wav
64,192,201946,1,0,0:0:0:100:B6.wav
320,192,202122,1,0,0:0:0:100:A#6.wav
448,192,202299,1,0,0:0:0:100:F#6.wav
64,192,202475,1,0,0:0:0:100:G#6.wav
192,192,202475,1,0,0:0:0:100:F#5.wav
320,192,202652,1,0,0:0:0:100:A#6.wav
448,192,202828,1,0,0:0:0:100:C#7.wav
192,192,203004,1,0,0:0:0:100:G#7.wav
64,192,203181,1,0,0:0:0:100:C#7.wav
320,192,203357,1,0,0:0:0:100:B6.wav
192,192,203534,1,0,0:0:0:100:A#6.wav
448,192,203710,1,0,0:0:0:100:B6.wav
320,192,203887,1,0,0:0:0:100:C#7.wav
64,192,204063,1,0,0:0:0:100:A#7.wav
192,192,204240,1,0,0:0:0:100:G#7.wav
448,192,204416,1,0,0:0:0:100:Eb7.wav
320,192,204593,1,0,0:0:0:100:D7.wav
64,192,204769,1,0,0:0:0:100:Eb7.wav
448,192,204946,128,0,205299:0:0:0:100:F7.wav
64,192,205299,1,2,0:0:0:0:
320,192,205299,1,4,0:0:0:0:
192,192,205299,128,0,207240:0:0:0:0:
448,192,207416,128,0,207593:0:0:0:0:
320,192,207593,128,0,207769:0:0:0:0:
64,192,207769,128,0,207946:0:0:0:0:
192,192,207946,128,0,208299:0:0:0:0:
320,192,208299,128,0,208475:0:0:0:0:
448,192,208475,128,0,210063:0:0:0:0:
64,192,210240,128,0,210593:0:0:0:0:
192,192,210593,128,0,210946:0:0:0:0:
320,192,210946,128,0,212004:0:0:0:0:
192,192,212004,128,0,212181:0:0:0:0:
64,192,212181,128,0,213240:0:0:0:0:
448,192,212357,1,2,0:0:0:0:
320,192,212710,1,2,0:0:0:0:
192,192,213063,1,2,0:0:0:0:
320,192,213240,128,0,213416:0:0:0:0:
192,192,213416,128,2,213593:0:0:0:0:
448,192,213593,128,0,215534:0:0:0:0:
64,192,213769,1,2,0:0:0:0:
192,192,214122,1,2,0:0:0:0:
320,192,214475,1,2,0:0:0:0:
64,192,214828,1,2,0:0:0:0:
320,192,215181,1,2,0:0:0:0:
192,192,215534,1,2,0:0:0:0:
64,192,215534,1,0,0:0:0:0:
320,192,215887,1,2,0:0:0:0:
448,192,215887,1,0,0:0:0:0:
64,192,216240,1,0,0:0:0:0:
448,192,216240,1,2,0:0:0:0:
192,192,216593,1,2,0:0:0:0:
64,192,216593,1,4,0:0:0:0:
320,192,216593,128,0,218534:0:0:0:0:
64,192,216946,1,2,0:0:0:0:
192,192,216946,1,0,0:0:0:0:
64,192,217299,1,2,0:0:0:0:
192,192,217299,1,0,0:0:0:0:
64,192,217652,1,2,0:0:0:0:
192,192,217652,1,0,0:0:0:0:
192,192,218004,1,0,0:0:0:0:
64,192,218004,1,2,0:0:0:0:
64,192,218357,1,2,0:0:0:0:
192,192,218357,1,0,0:0:0:0:
192,192,218710,128,0,218887:0:0:0:0:
448,192,218710,1,2,0:0:0:0:
320,192,218887,128,0,219063:0:0:0:0:
64,192,219063,1,0,0:0:0:0:
448,192,219063,128,2,219240:0:0:0:0:
192,192,219240,128,0,219593:0:0:0:0:
64,192,219416,1,0,0:0:0:0:
448,192,219416,1,2,0:0:0:0:
320,192,219593,128,0,219769:0:0:0:0:
64,192,219769,128,0,221357:0:0:0:0:
192,192,219769,1,2,0:0:0:0:
448,192,220122,1,0,0:0:0:0:
320,192,220122,1,2,0:0:0:0:
320,192,220475,1,2,0:0:0:0:
448,192,220475,1,0,0:0:0:0:
320,192,220828,1,2,0:0:0:0:
448,192,220828,1,0,0:0:0:0:
320,192,221181,1,2,0:0:0:0:
448,192,221181,1,0,0:0:0:0:
192,192,221534,128,2,221887:0:0:0:0:
64,192,221534,1,0,0:0:0:0:
320,192,221887,128,2,222240:0:0:0:0:
448,192,221887,1,0,0:0:0:0:
192,192,222240,128,0,223299:0:0:0:0:
64,192,222240,1,2,0:0:0:0:
448,192,222593,1,0,0:0:0:0:
64,192,222593,1,2,0:0:0:0:
64,192,222946,1,2,0:0:0:0:
448,192,222946,1,0,0:0:0:0:
64,192,223299,1,2,0:0:0:0:
448,192,223299,128,0,223475:0:0:0:0:
320,192,223475,128,0,224534:0:0:0:0:
64,192,223652,1,2,0:0:0:0:
192,192,223652,1,0,0:0:0:0:
448,192,224004,1,0,0:0:0:0:
192,192,224004,1,2,0:0:0:0:
192,192,224357,1,2,0:0:0:0:
448,192,224357,1,0,0:0:0:0:
64,192,224534,128,0,224710:0:0:0:0:
192,192,224710,128,2,224887:0:0:0:0:
320,192,224710,1,0,0:0:0:0:
448,192,224887,128,0,226475:0:0:0:0:
64,192,225063,1,0,0:0:0:0:
320,192,225063,1,2,0:0:0:0:
64,192,225416,1,0,0:0:0:0:
320,192,225416,1,2,0:0:0:0:
64,192,225769,1,0,0:0:0:0:
320,192,225769,1,2,0:0:0:0:
64,192,226122,1,0,0:0:0:0:
320,192,226122,1,2,0:0:0:0:
64,192,226475,1,2,0:0:0:0:
192,192,226475,1,8,1:0:0:0:
320,192,226563,1,8,1:0:0:0:
448,192,226652,1,8,1:0:0:0:
64,192,226740,1,8,1:0:0:0:
192,192,226828,1,2,0:0:0:0:
448,192,226916,1,8,1:0:0:0:
320,192,227004,1,8,1:0:0:0:
192,192,227093,1,8,1:0:0:0:
64,192,227181,1,2,0:0:0:0:
320,192,227269,1,8,1:0:0:0:
448,192,227357,1,8,1:0:0:0:
192,192,227446,1,8,1:0:0:0:
64,192,227534,1,2,0:0:0:0:
320,192,227622,1,8,1:0:0:0:
192,192,227710,1,8,1:0:0:0:
448,192,227799,1,8,1:0:0:0:
320,192,227887,1,2,0:0:0:0:
192,192,227887,1,4,0:0:0:0:
64,192,227887,1,8,0:0:0:0:
64,192,228240,1,8,0:0:0:0:
192,192,228240,1,2,0:0:0:0:
320,192,228240,1,0,0:0:0:0:
320,192,228593,1,2,0:0:0:0:
448,192,228593,1,0,0:0:0:0:
320,192,228946,1,2,0:0:0:0:
448,192,228946,1,0,0:0:0:0:
64,192,229299,1,8,0:0:0:0:
192,192,229299,1,2,0:0:0:0:
448,192,229299,1,0,0:0:0:0:
64,192,229652,1,8,0:0:0:0:
192,192,229652,1,2,0:0:0:0:
448,192,229652,1,0,0:0:0:0:
320,192,230004,1,0,0:0:0:0:
192,192,230004,1,2,0:0:0:0:
192,192,230357,1,2,0:0:0:0:
320,192,230357,1,0,0:0:0:0:
64,192,230710,1,8,0:0:0:0:
448,192,230710,1,0,0:0:0:0:
320,192,230710,1,2,0:0:0:0:
320,192,230887,1,2,0:0:0:0:
64,192,231063,1,8,0:0:0:0:
448,192,231063,1,0,0:0:0:0:
192,192,231063,1,2,0:0:0:0:
192,192,231240,1,2,0:0:0:0:
320,192,231416,1,2,0:0:0:0:
448,192,231416,1,0,0:0:0:0:
448,192,231593,1,2,0:0:0:0:
64,192,231769,1,0,0:0:0:0:
320,192,231769,1,2,0:0:0:0:
64,192,231946,1,2,0:0:0:0:
192,192,232122,1,8,0:0:0:0:
320,192,232122,1,2,0:0:0:0:
448,192,232122,1,0,0:0:0:0:
320,192,232299,1,2,0:0:0:0:
64,192,232475,1,8,0:0:0:0:
448,192,232475,1,2,0:0:0:0:
192,192,232475,1,0,0:0:0:0:
64,192,232652,1,2,0:0:0:0:
192,192,232828,1,2,0:0:0:0:
320,192,232828,1,0,0:0:0:0:
192,192,233004,1,2,0:0:0:0:
448,192,233181,1,2,0:0:0:0:
320,192,233181,1,0,0:0:0:0:
448,192,233357,1,2,0:0:0:0:
192,192,233534,1,10,0:0:0:0:
64,192,233534,1,8,1:0:0:0:
320,192,233622,1,8,1:0:0:0:
448,192,233710,1,8,1:0:0:0:
64,192,233799,1,8,1:0:0:0:
192,192,233887,1,10,0:0:0:0:
320,192,233975,1,8,1:0:0:0:
448,192,234063,1,8,1:0:0:0:
192,192,234152,1,8,1:0:0:0:
64,192,234240,1,10,0:0:0:0:
448,192,234328,1,8,1:0:0:0:
320,192,234416,1,8,1:0:0:0:
192,192,234504,1,8,1:0:0:0:
64,192,234593,1,10,0:0:0:0:
448,192,234681,1,8,1:0:0:0:
320,192,234769,1,8,1:0:0:0:
64,192,234857,1,8,1:0:0:0:
192,192,234946,1,10,0:0:0:0:
320,192,235034,1,8,1:0:0:0:
448,192,235122,1,10,0:0:0:0:
192,192,235210,1,8,1:0:0:0:
64,192,235299,1,10,0:0:0:0:
320,192,235387,1,8,1:0:0:0:
448,192,235475,1,10,0:0:0:0:
64,192,235563,1,8,1:0:0:0:
192,192,235652,1,10,0:0:0:0:
320,192,235740,1,8,1:0:0:0:
448,192,235828,1,10,0:0:0:0:
192,192,235916,1,8,1:0:0:0:
64,192,236004,1,10,0:0:0:0:
448,192,236093,1,8,1:0:0:0:
320,192,236181,1,10,0:0:0:0:
192,192,236269,1,8,1:0:0:0:
64,192,236357,1,10,0:0:0:0:
448,192,236446,1,8,1:0:0:0:
320,192,236534,1,8,1:0:0:0:
64,192,236622,1,8,1:0:0:0:
192,192,236710,1,8,1:0:0:0:
320,192,236799,1,8,1:0:0:0:
192,192,236887,1,8,1:0:0:0:
64,192,236975,1,8,1:0:0:0:
448,192,237063,1,8,1:0:0:0:
320,192,237152,1,8,1:0:0:0:
192,192,237240,1,8,1:0:0:0:
320,192,237328,1,8,1:0:0:0:
448,192,237416,1,8,1:0:0:0:
192,192,237504,1,8,1:0:0:0:
320,192,237593,1,8,1:0:0:0:
64,192,237681,1,8,1:0:0:0:
192,192,237769,1,2,0:0:0:0:
448,192,237769,1,8,1:0:0:0:
320,192,237769,1,0,0:0:0:0:
64,192,237946,1,2,0:0:0:0:
192,192,238034,5,2,0:0:0:0:
448,192,238122,1,2,0:0:0:0:
320,192,238210,1,2,0:0:0:0:
192,192,238299,1,2,0:0:0:0:
64,192,238299,1,8,0:0:0:0:
320,192,238475,1,2,0:0:0:0:
448,192,238563,1,2,0:0:0:0:
192,192,238652,1,2,0:0:0:0:
320,192,238740,1,2,0:0:0:0:
64,192,238828,128,8,239181:0:0:0:0:
448,192,238828,1,0,0:0:0:0:
320,192,239181,5,4,0:0:0:0:
192,192,239181,1,2,0:0:0:0:
448,192,239181,1,0,0:0:0:0:
64,192,239357,1,0,0:0:0:0:
320,192,239534,1,2,0:0:0:0:
448,192,239534,1,8,0:0:0:0:
192,192,239710,1,0,0:0:0:0:
320,192,239799,1,0,0:0:0:0:
448,192,239887,1,0,0:0:0:0:
64,192,239887,1,2,0:0:0:0:
192,192,239975,1,0,0:0:0:0:
320,192,240063,1,0,0:0:0:0:
192,192,240240,1,2,0:0:0:0:
448,192,240240,1,8,0:0:0:0:
64,192,240416,1,0,0:0:0:0:
192,192,240593,1,2,0:0:0:0:
320,192,240593,1,0,0:0:0:0:
448,192,240769,1,0,0:0:0:0:
64,192,240946,1,2,0:0:0:0:
192,192,240946,1,8,0:0:0:0:
320,192,241122,1,0,0:0:0:0:
64,192,241210,1,0,0:0:0:0:
192,192,241299,1,2,0:0:0:0:
448,192,241299,1,0,0:0:0:0:
320,192,241387,1,0,0:0:0:0:
64,192,241475,1,0,0:0:0:0:
320,192,241652,1,2,0:0:0:0:
448,192,241652,1,8,0:0:0:0:
192,192,241828,1,0,0:0:0:0:
64,192,242004,1,2,0:0:0:0:
320,192,242004,1,0,0:0:0:0:
448,192,242181,1,0,0:0:0:0:
192,192,242357,1,8,0:0:0:0:
64,192,242357,1,2,0:0:0:0:
320,192,242534,1,0,0:0:0:0:
192,192,242622,1,0,0:0:0:0:
448,192,242710,1,0,0:0:0:0:
64,192,242710,1,2,0:0:0:0:
320,192,242799,1,0,0:0:0:0:
192,192,242887,1,0,0:0:0:0:
64,192,243063,1,2,0:0:0:0:
320,192,243063,1,8,0:0:0:0:
192,192,243240,1,0,0:0:0:0:
64,192,243416,1,2,0:0:0:0:
448,192,243416,1,0,0:0:0:0:
448,192,243593,1,0,0:0:0:0:
192,192,243769,1,2,0:0:0:0:
320,192,243769,1,8,0:0:0:0:
448,192,243946,1,0,0:0:0:0:
64,192,244034,1,0,0:0:0:0:
192,192,244122,1,2,0:0:0:0:
320,192,244122,1,0,0:0:0:0:
448,192,244210,1,0,0:0:0:0:
64,192,244299,1,0,0:0:0:0:
192,192,244475,1,2,0:0:0:0:
448,192,244475,1,8,0:0:0:0:
192,192,244652,1,0,0:0:0:0:
64,192,244828,1,0,0:0:0:0:
320,192,244828,1,2,0:0:0:0:
448,192,245004,1,0,0:0:0:0:
192,192,245181,1,2,0:0:0:0:
320,192,245181,1,8,0:0:0:0:
64,192,245357,1,0,0:0:0:0:
192,192,245446,1,0,0:0:0:0:
320,192,245534,1,2,0:0:0:0:
448,192,245534,1,0,0:0:0:0:
64,192,245622,1,0,0:0:0:0:
192,192,245710,1,0,0:0:0:0:
64,192,245887,1,8,0:0:0:0:
448,192,245887,1,2,0:0:0:0:
320,192,246063,1,0,0:0:0:0:
192,192,246240,1,2,0:0:0:0:
64,192,246240,1,0,0:0:0:0:
448,192,246416,1,0,0:0:0:0:
64,192,246593,1,8,0:0:0:0:
320,192,246593,1,2,0:0:0:0:
192,192,246769,1,0,0:0:0:0:
64,192,246857,1,0,0:0:0:0:
448,192,246946,1,0,0:0:0:0:
320,192,246946,1,2,0:0:0:0:
192,192,247034,1,0,0:0:0:0:
64,192,247122,1,0,0:0:0:0:
448,192,247299,1,8,0:0:0:0:
192,192,247299,1,2,0:0:0:0:
320,192,247475,1,0,0:0:0:0:
64,192,247652,1,2,0:0:0:0:
448,192,247652,1,0,0:0:0:0:
192,192,247828,1,0,0:0:0:0:
320,192,248004,1,8,0:0:0:0:
64,192,248004,1,2,0:0:0:0:
448,192,248181,1,0,0:0:0:0:
320,192,248269,1,0,0:0:0:0:
192,192,248357,1,0,0:0:0:0:
64,192,248357,1,2,0:0:0:0:
448,192,248446,1,0,0:0:0:0:
320,192,248534,1,0,0:0:0:0:
64,192,248710,1,2,0:0:0:0:
448,192,248710,1,8,0:0:0:0:
192,192,248887,1,0,0:0:0:0:
320,192,248975,1,0,0:0:0:0:
448,192,249063,1,0,0:0:0:0:
64,192,249063,1,2,0:0:0:0:
64,192,249240,1,0,0:0:0:0:
192,192,249416,1,2,0:0:0:0:
320,192,249416,1,8,0:0:0:0:
448,192,249593,1,0,0:0:0:0:
64,192,249681,1,0,0:0:0:0:
192,192,249769,1,2,0:0:0:0:
448,192,249769,1,0,0:0:0:0:
320,192,249857,1,0,0:0:0:0:
192,192,249946,1,0,0:0:0:0:
64,192,250122,1,8,0:0:0:0:
448,192,250122,1,0,0:0:0:0:
320,192,250299,1,2,0:0:0:0:
192,192,250299,1,0,0:0:0:0:
192,192,250475,1,2,0:0:0:0:
448,192,250475,1,0,0:0:0:0:
64,192,250475,1,4,0:0:0:0:
320,192,250652,1,0,0:0:0:0:
64,192,250828,1,8,0:0:0:0:
192,192,250828,1,2,0:0:0:0:
448,192,251004,1,0,0:0:0:0:
320,192,251093,1,0,0:0:0:0:
192,192,251181,1,2,0:0:0:0:
64,192,251181,1,0,0:0:0:0:
448,192,251269,1,0,0:0:0:0:
320,192,251357,1,0,0:0:0:0:
64,192,251534,1,2,0:0:0:0:
448,192,251534,1,8,0:0:0:0:
192,192,251710,1,0,0:0:0:0:
320,192,251887,1,2,0:0:0:0:
448,192,251887,1,0,0:0:0:0:
64,192,252063,1,0,0:0:0:0:
192,192,252240,1,2,0:0:0:0:
448,192,252240,1,8,0:0:0:0:
320,192,252416,1,0,0:0:0:0:
192,192,252504,1,0,0:0:0:0:
64,192,252593,1,2,0:0:0:0:
448,192,252593,1,0,0:0:0:0:
320,192,252681,1,0,0:0:0:0:
192,192,252769,1,0,0:0:0:0:
64,192,252946,1,2,0:0:0:0:
320,192,252946,1,8,0:0:0:0:
448,192,253122,1,0,0:0:0:0:
192,192,253299,1,2,0:0:0:0:
320,192,253299,1,0,0:0:0:0:
64,192,253475,1,0,0:0:0:0:
320,192,253652,1,2,0:0:0:0:
448,192,253652,1,8,0:0:0:0:
192,192,253828,1,0,0:0:0:0:
320,192,253916,1,0,0:0:0:0:
192,192,254004,1,2,0:0:0:0:
448,192,254004,1,0,0:0:0:0:
64,192,254093,1,0,0:0:0:0:
320,192,254181,1,0,0:0:0:0:
64,192,254357,1,8,0:0:0:0:
192,192,254357,1,2,0:0:0:0:
448,192,254534,1,0,0:0:0:0:
320,192,254710,1,0,0:0:0:0:
64,192,254710,1,2,0:0:0:0:
320,192,254887,1,0,0:0:0:0:
64,192,255063,1,2,0:0:0:0:
448,192,255063,1,8,0:0:0:0:
192,192,255240,1,0,0:0:0:0:
320,192,255328,1,0,0:0:0:0:
448,192,255416,1,0,0:0:0:0:
64,192,255416,1,2,0:0:0:0:
192,192,255504,1,0,0:0:0:0:
448,192,255593,1,0,0:0:0:0:
64,192,255769,1,2,0:0:0:0:
192,192,255769,1,8,0:0:0:0:
192,192,255946,1,0,0:0:0:0:
320,192,256122,1,4,0:0:0:0:
448,192,256122,1,0,0:0:0:0:
64,192,256122,1,2,0:0:0:0:
192,192,256299,1,0,0:0:0:0:
448,192,256475,1,8,0:0:0:0:
64,192,256475,1,2,0:0:0:0:
320,192,256652,1,0,0:0:0:0:
192,192,256740,1,0,0:0:0:0:
448,192,256828,1,0,0:0:0:0:
320,192,256828,1,2,0:0:0:0:
64,192,256916,1,0,0:0:0:0:
192,192,257004,1,0,0:0:0:0:
448,192,257181,128,0,257534:0:0:0:0:
64,192,257534,1,4,0:0:0:0:
192,192,257534,1,2,0:0:0:0:
320,192,257534,1,0,0:0:0:0:
448,192,257710,1,0,0:0:0:0:
64,192,257887,1,2,0:0:0:0:
192,192,257887,1,8,0:0:0:0:
448,192,258063,1,0,0:0:0:0:
64,192,258152,1,0,0:0:0:0:
192,192,258240,1,2,0:0:0:0:
320,192,258240,1,0,0:0:0:0:
448,192,258328,1,0,0:0:0:0:
64,192,258416,1,0,0:0:0:0:
192,192,258593,1,0,0:0:0:0:
320,192,258681,1,0,0:0:0:0:
192,192,258769,1,0,0:0:0:0:
320,192,258857,1,0,0:0:0:0:
64,192,258946,1,4,0:0:0:0:
192,192,258946,1,2,0:0:0:0:
448,192,258946,1,8,1:0:0:0:
320,192,259034,1,8,1:0:0:0:
192,192,259122,1,8,1:0:0:0:
64,192,259210,1,8,1:0:0:0:
448,192,259299,1,8,1:0:0:0:
320,192,259387,1,8,1:0:0:0:
192,192,259475,1,8,1:0:0:0:
64,192,259563,1,8,1:0:0:0:
192,192,259652,1,8,1:0:0:0:
320,192,259740,1,8,1:0:0:0:
448,192,259828,1,8,1:0:0:0:
64,192,259916,1,8,1:0:0:0:
192,192,260004,1,8,1:0:0:0:
320,192,260093,1,8,1:0:0:0:
448,192,260181,1,8,1:0:0:0:
64,192,260269,1,8,1:0:0:0:
192,192,260357,1,8,1:0:0:0:
320,192,260446,1,8,1:0:0:0:
192,192,260534,1,8,1:0:0:0:
448,192,260622,1,8,1:0:0:0:
320,192,260710,1,8,1:0:0:0:
192,192,260799,1,8,1:0:0:0:
64,192,260887,1,8,1:0:0:0:
320,192,260975,1,8,1:0:0:0:
448,192,261063,1,8,1:0:0:0:
64,192,261152,1,8,1:0:0:0:
448,192,261240,1,8,1:0:0:0:
64,192,261328,1,8,1:0:0:0:
320,192,261416,1,0,0:0:0:100:F#6.wav
64,192,261769,1,0,0:0:0:100:C#7.wav
192,192,261769,1,4,0:0:0:0:
448,192,261769,1,2,0:0:0:0:
320,192,261946,1,0,0:0:0:0:
192,192,262122,1,2,0:0:0:0:
448,192,262122,1,8,0:0:0:0:
64,192,262299,1,0,0:0:0:0:
192,192,262387,1,0,0:0:0:0:
320,192,262475,1,2,0:0:0:0:
448,192,262475,1,0,0:0:0:0:
64,192,262563,1,0,0:0:0:0:
192,192,262652,1,0,0:0:0:0:
448,192,262828,1,8,0:0:0:0:
64,192,262828,1,2,0:0:0:0:
320,192,263004,1,0,0:0:0:0:
192,192,263181,1,0,0:0:0:0:
64,192,263181,1,2,0:0:0:0:
448,192,263357,1,0,0:0:0:0:
320,192,263534,1,8,0:0:0:0:
64,192,263534,1,2,0:0:0:0:
192,192,263710,1,0,0:0:0:0:
320,192,263799,1,0,0:0:0:0:
448,192,263887,1,0,0:0:0:100:C#7.wav
64,192,263887,1,2,0:0:0:0:
192,192,263975,1,0,0:0:0:0:
320,192,264063,1,0,0:0:0:100:B6.wav
64,192,264240,1,10,0:0:0:0:
192,192,264240,1,0,0:0:0:100:A#6.wav
448,192,264416,1,0,0:0:0:100:B6.wav
192,192,264593,1,2,0:0:0:0:
320,192,264593,1,0,0:0:0:0:
64,192,264769,1,0,0:0:0:100:A#6.wav
320,192,264946,1,10,0:0:0:0:
448,192,264946,1,0,0:0:0:100:F#6.wav
192,192,265122,1,0,0:0:0:0:
448,192,265210,1,0,0:0:0:0:
320,192,265299,1,2,0:0:0:0:
64,192,265299,1,0,0:0:0:0:
192,192,265387,1,0,0:0:0:0:
448,192,265475,1,0,0:0:0:0:
192,192,265652,1,2,0:0:0:0:
64,192,265652,1,8,0:0:0:0:
320,192,265828,1,0,0:0:0:0:
448,192,266004,1,0,0:0:0:0:
64,192,266004,1,2,0:0:0:0:
64,192,266181,1,0,0:0:0:0:
320,192,266357,1,8,0:0:0:0:
192,192,266357,1,2,0:0:0:0:
448,192,266534,1,0,0:0:0:0:
64,192,266622,1,0,0:0:0:0:
192,192,266710,1,2,0:0:0:0:
448,192,266710,1,0,0:0:0:100:C#6.wav
320,192,266799,1,0,0:0:0:0:
64,192,266887,1,0,0:0:0:0:
448,192,267063,1,0,0:0:0:100:G#6.wav
320,192,267063,1,10,0:0:0:0:
448,192,267240,1,0,0:0:0:0:
64,192,267416,1,0,0:0:0:100:A#6.wav
320,192,267416,1,2,0:0:0:0:
192,192,267593,1,0,0:0:0:0:
64,192,267769,1,8,0:0:0:0:
448,192,267769,1,2,0:0:0:0:
320,192,267946,1,0,0:0:0:0:
192,192,268034,1,0,0:0:0:0:
64,192,268122,1,0,0:0:0:100:A#6.wav
448,192,268122,1,2,0:0:0:0:
320,192,268210,1,0,0:0:0:0:
192,192,268299,1,0,0:0:0:0:
448,192,268475,1,8,0:0:0:100:B6.wav
320,192,268475,1,10,0:0:0:0:
64,192,268652,1,0,0:0:0:100:C#7.wav
192,192,268828,1,2,0:0:0:0:
448,192,268828,1,0,0:0:0:0:
320,192,269004,1,0,0:0:0:0:
64,192,269181,1,8,0:0:0:0:
192,192,269181,1,2,0:0:0:0:
448,192,269357,1,0,0:0:0:0:
320,192,269446,1,0,0:0:0:0:
192,192,269534,1,2,0:0:0:0:
64,192,269534,1,0,0:0:0:0:
448,192,269622,1,0,0:0:0:0:
320,192,269710,1,0,0:0:0:100:F#7.wav
448,192,269887,1,10,0:0:0:0:
64,192,269887,1,0,0:0:0:100:F7.wav
192,192,270063,1,0,0:0:0:100:C#7.wav
448,192,270240,1,0,0:0:0:0:
320,192,270240,1,2,0:0:0:0:
192,192,270416,1,0,0:0:0:0:
448,192,270593,1,8,0:0:0:0:
64,192,270593,1,2,0:0:0:0:
192,192,270769,1,0,0:0:0:0:
320,192,270857,1,0,0:0:0:0:
192,192,270946,1,0,0:0:0:0:
64,192,270946,1,2,0:0:0:0:
320,192,271034,1,0,0:0:0:0:
448,192,271122,1,0,0:0:0:0:
320,192,271299,1,8,0:0:0:0:
64,192,271299,1,2,0:0:0:0:
192,192,271475,1,0,0:0:0:0:
320,192,271563,1,0,0:0:0:0:
448,192,271652,1,8,1:0:0:0:
64,192,271652,1,2,0:0:0:0:
192,192,271740,1,8,1:0:0:0:
320,192,271828,1,8,1:0:0:0:
448,192,271916,1,8,1:0:0:0:
192,192,272004,1,8,0:0:0:0:
64,192,272004,1,8,1:0:0:0:
320,192,272093,1,8,1:0:0:0:
448,192,272181,1,8,1:0:0:0:
192,192,272269,1,8,1:0:0:0:
64,192,272357,1,8,1:0:0:0:
448,192,272446,1,8,1:0:0:0:
320,192,272534,1,8,1:0:0:0:
192,192,272622,1,8,1:0:0:0:
64,192,272710,1,8,0:0:0:0:
448,192,272710,1,0,0:0:0:100:F#6.wav
320,192,272799,1,8,1:0:0:0:
192,192,272887,1,8,1:0:0:0:
64,192,272975,1,8,1:0:0:0:
320,192,273063,1,2,0:0:0:0:
448,192,273063,1,0,0:0:0:100:C#7.wav
192,192,273063,1,4,0:0:0:0:
64,192,273240,1,0,0:0:0:0:
320,192,273416,1,2,0:0:0:0:
448,192,273416,1,8,0:0:0:0:
192,192,273593,1,0,0:0:0:0:
448,192,273681,1,0,0:0:0:0:
320,192,273769,1,2,0:0:0:0:
64,192,273769,1,0,0:0:0:0:
192,192,273857,1,0,0:0:0:0:
448,192,273946,1,0,0:0:0:0:
192,192,274122,1,8,0:0:0:0:
320,192,274122,1,2,0:0:0:0:
64,192,274299,1,0,0:0:0:0:
448,192,274475,1,8,1:0:0:0:
320,192,274475,1,2,0:0:0:0:
192,192,274652,1,0,0:0:0:0:
64,192,274828,1,8,1:0:0:0:
320,192,274828,1,10,0:0:0:0:
448,192,275004,1,0,0:0:0:0:
64,192,275093,1,0,0:0:0:0:
192,192,275181,1,0,0:0:0:100:C#7.wav
320,192,275181,1,2,0:0:0:0:
448,192,275269,1,0,0:0:0:0:
64,192,275357,1,0,0:0:0:100:B6.wav
192,192,275534,1,10,0:0:0:0:
448,192,275534,1,0,0:0:0:100:A#6.wav
320,192,275710,1,0,0:0:0:100:B6.wav
64,192,275887,1,8,1:0:0:0:
192,192,275887,1,2,0:0:0:0:
448,192,276063,1,0,0:0:0:100:A#6.wav
320,192,276240,1,10,0:0:0:0:
64,192,276240,1,0,0:0:0:100:F#6.wav
448,192,276416,1,8,1:0:0:0:
192,192,276504,1,0,0:0:0:0:
64,192,276593,1,2,0:0:0:0:
448,192,276593,1,8,1:0:0:0:
320,192,276681,1,0,0:0:0:0:
64,192,276769,1,8,1:0:0:0:
192,192,276946,1,10,0:0:0:0:
448,192,276946,1,8,1:0:0:0:
320,192,277122,1,8,1:0:0:0:
64,192,277299,1,8,1:0:0:0:
192,192,277299,1,2,0:0:0:0:
448,192,277475,1,8,1:0:0:0:
320,192,277652,1,8,1:0:0:0:
192,192,277652,1,10,0:0:0:0:
64,192,277828,1,8,1:0:0:0:
192,192,277916,1,0,0:0:0:0:
320,192,278004,1,2,0:0:0:0:
448,192,278004,1,0,0:0:0:100:C#6.wav
64,192,278093,1,0,0:0:0:0:
192,192,278181,1,8,1:0:0:0:
448,192,278357,1,0,0:0:0:100:G#6.wav
64,192,278357,1,10,0:0:0:0:
320,192,278534,1,8,1:0:0:0:
192,192,278710,1,0,0:0:0:100:A#6.wav
64,192,278710,1,2,0:0:0:0:
192,192,278887,1,8,1:0:0:0:
320,192,279063,1,10,0:0:0:0:
448,192,279063,1,8,1:0:0:0:
448,192,279240,1,8,1:0:0:0:
64,192,279328,1,8,1:0:0:0:
192,192,279416,1,8,1:0:0:0:
320,192,279416,1,2,0:0:0:0:
448,192,279504,1,8,1:0:0:0:
192,192,279593,1,8,1:0:0:0:
64,192,279769,1,0,0:0:0:100:B6.wav
320,192,279769,1,10,0:0:0:0:
320,192,279946,1,0,0:0:0:100:C#7.wav
64,192,280122,1,2,0:0:0:0:
448,192,280122,1,8,1:0:0:0:
64,192,280299,1,8,1:0:0:0:
192,192,280475,1,10,0:0:0:0:
448,192,280475,1,8,1:0:0:0:
448,192,280652,1,8,1:0:0:0:
320,192,280740,1,8,1:0:0:0:
64,192,280828,1,8,1:0:0:0:
192,192,280828,1,2,0:0:0:0:
320,192,280916,1,8,1:0:0:0:
192,192,281004,1,0,0:0:0:100:C#7.wav
448,192,281181,1,0,0:0:0:100:G#7.wav
64,192,281181,1,10,0:0:0:0:
64,192,281357,1,0,0:0:0:100:F#7.wav
320,192,281534,1,2,0:0:0:0:
448,192,281534,1,8,1:0:0:0:
192,192,281622,1,8,1:0:0:0:
64,192,281710,1,8,1:0:0:0:
448,192,281799,1,8,1:0:0:0:
192,192,281887,1,8,1:0:0:0:
320,192,281975,1,8,1:0:0:0:
192,192,282063,1,8,1:0:0:0:
320,192,282152,1,8,1:0:0:0:
64,192,282240,1,8,1:0:0:0:
192,192,282328,1,8,1:0:0:0:
448,192,282416,1,8,1:0:0:0:
320,192,282504,1,8,1:0:0:0:
192,192,282593,1,8,1:0:0:0:
64,192,282681,1,8,1:0:0:0:
320,192,282769,1,8,1:0:0:0:
448,192,282857,1,8,1:0:0:0:
192,192,282946,1,8,1:0:0:0:
320,192,283034,1,8,1:0:0:0:
64,192,283122,1,8,1:0:0:0:
192,192,283210,1,8,1:0:0:0:
448,192,283299,1,8,1:0:0:0:
320,192,283387,1,8,1:0:0:0:
192,192,283475,1,8,1:0:0:0:
320,192,283563,1,8,1:0:0:0:
448,192,283652,1,8,1:0:0:0:
64,192,283740,1,8,1:0:0:0:
192,192,283828,1,8,1:0:0:0:
320,192,283916,1,8,1:0:0:0:
192,192,284004,1,8,1:0:0:0:
64,192,284093,1,8,1:0:0:0:
448,192,284181,1,8,1:0:0:0:
320,192,284269,1,8,1:0:0:0:
64,192,284357,1,4,0:0:0:0:
192,192,284357,1,2,0:0:0:0:
448,192,284357,1,0,0:0:0:0:
320,192,284534,1,0,0:0:0:0:
64,192,284710,1,2,0:0:0:0:
192,192,284710,1,8,0:0:0:0:
448,192,284887,1,0,0:0:0:0:
320,192,285063,1,0,0:0:0:0:
192,192,285063,1,2,0:0:0:0:
64,192,285240,1,0,0:0:0:0:
448,192,285416,1,8,0:0:0:0:
320,192,285416,1,2,0:0:0:0:
192,192,285593,1,0,0:0:0:0:
64,192,285769,1,2,0:0:0:0:
448,192,285769,1,0,0:0:0:0:
320,192,285946,1,0,0:0:0:0:
192,192,286122,1,2,0:0:0:0:
448,192,286122,1,8,0:0:0:0:
64,192,286299,1,0,0:0:0:0:
320,192,286475,1,2,0:0:0:0:
448,192,286475,1,0,0:0:0:0:
192,192,286652,1,0,0:0:0:0:
64,192,286828,1,8,0:0:0:0:
320,192,286828,1,2,0:0:0:0:
448,192,287004,1,0,0:0:0:0:
64,192,287181,1,0,0:0:0:0:
192,192,287181,1,2,0:0:0:0:
320,192,287357,1,0,0:0:0:0:
448,192,287534,1,8,0:0:0:0:
64,192,287534,1,2,0:0:0:0:
192,192,287710,1,0,0:0:0:0:
320,192,287887,1,0,0:0:0:0:
64,192,287887,1,2,0:0:0:0:
448,192,288063,1,0,0:0:0:0:
320,192,288240,1,8,0:0:0:0:
192,192,288240,1,2,0:0:0:0:
64,192,288416,1,0,0:0:0:0:
448,192,288593,1,0,0:0:0:0:
192,192,288593,1,2,0:0:0:0:
320,192,288769,1,0,0:0:0:0:
64,192,288946,1,8,0:0:0:0:
192,192,288946,1,2,0:0:0:0:
320,192,289122,1,0,0:0:0:0:
448,192,289299,1,0,0:0:0:0:
64,192,289299,1,2,0:0:0:0:
192,192,289475,1,0,0:0:0:0:
448,192,289652,1,8,0:0:0:0:
320,192,289652,1,2,0:0:0:0:
64,192,289828,1,0,0:0:0:0:
192,192,290004,1,2,0:0:0:0:
320,192,290004,1,0,0:0:0:0:
448,192,290181,1,0,0:0:0:0:
64,192,290357,1,8,0:0:0:0:
192,192,290357,1,2,0:0:0:0:
320,192,290534,1,0,0:0:0:0:
448,192,290710,1,0,0:0:0:0:
192,192,290710,1,2,0:0:0:0:
320,192,290887,1,0,0:0:0:0:
64,192,291063,1,8,0:0:0:0:
192,192,291063,1,2,0:0:0:0:
448,192,291240,1,0,0:0:0:0:
320,192,291416,1,2,0:0:0:0:
64,192,291416,1,0,0:0:0:0:
192,192,291593,1,0,0:0:0:0:
320,192,291769,1,2,0:0:0:0:
448,192,291769,1,8,0:0:0:0:
64,192,291946,1,0,0:0:0:0:
192,192,292122,1,2,0:0:0:0:
448,192,292122,1,0,0:0:0:0:
320,192,292299,1,0,0:0:0:0:
192,192,292475,1,2,0:0:0:0:
64,192,292475,1,8,0:0:0:0:
448,192,292652,1,0,0:0:0:0:
320,192,292828,1,0,0:0:0:0:
192,192,292828,1,2,0:0:0:0:
64,192,293004,1,0,0:0:0:0:
448,192,293181,1,8,0:0:0:0:
320,192,293181,1,2,0:0:0:0:
192,192,293357,1,0,0:0:0:0:
64,192,293534,1,2,0:0:0:0:
448,192,293534,1,0,0:0:0:0:
320,192,293710,1,0,0:0:0:0:
192,192,293887,1,2,0:0:0:0:
64,192,293887,1,8,0:0:0:0:
320,192,294063,1,0,0:0:0:0:
448,192,294240,1,0,0:0:0:0:
64,192,294240,1,2,0:0:0:0:
192,192,294416,1,0,0:0:0:0:
320,192,294593,1,8,0:0:0:0:
64,192,294593,1,2,0:0:0:0:
192,192,294769,1,0,0:0:0:0:
320,192,294946,1,2,0:0:0:0:
448,192,294946,1,0,0:0:0:0:
64,192,295122,1,0,0:0:0:0:
192,192,295299,1,2,0:0:0:0:
448,192,295299,1,8,0:0:0:0:
320,192,295475,1,0,0:0:0:0:
64,192,295652,1,4,0:0:0:0:
448,192,295652,1,0,0:0:0:0:
192,192,295652,1,2,0:0:0:0:
320,192,295828,1,0,0:0:0:0:
64,192,296004,1,2,0:0:0:0:
448,192,296004,1,8,0:0:0:0:
192,192,296181,1,0,0:0:0:0:
64,192,296357,1,2,0:0:0:0:
320,192,296357,1,0,0:0:0:0:
448,192,296534,1,0,0:0:0:0:
64,192,296710,1,2,0:0:0:0:
192,192,296710,1,8,0:0:0:0:
320,192,296887,1,0,0:0:0:0:
448,192,297063,1,0,0:0:0:0:
64,192,297063,1,2,0:0:0:0:
192,192,297240,1,0,0:0:0:0:
448,192,297416,1,2,0:0:0:0:
320,192,297416,1,8,0:0:0:0:
192,192,297593,1,0,0:0:0:0:
64,192,297769,1,0,0:0:0:0:
448,192,297769,1,2,0:0:0:0:
320,192,297946,1,0,0:0:0:0:
192,192,298122,1,2,0:0:0:0:
64,192,298122,1,8,0:0:0:0:
448,192,298299,1,0,0:0:0:0:
320,192,298475,1,0,0:0:0:0:
192,192,298475,1,2,0:0:0:0:
64,192,298652,1,0,0:0:0:0:
448,192,298828,1,8,0:0:0:0:
320,192,298828,1,2,0:0:0:0:
192,192,299004,1,0,0:0:0:0:
64,192,299181,1,0,0:0:0:0:
320,192,299181,1,2,0:0:0:0:
448,192,299357,1,0,0:0:0:0:
192,192,299534,1,8,0:0:0:0:
64,192,299534,1,2,0:0:0:0:
320,192,299710,1,0,0:0:0:0:
448,192,299887,1,0,0:0:0:0:
64,192,299887,1,2,0:0:0:0:
192,192,300063,1,0,0:0:0:0:
320,192,300240,1,8,0:0:0:0:
64,192,300240,1,2,0:0:0:0:
448,192,300416,1,0,0:0:0:0:
192,192,300593,1,0,0:0:0:0:
320,192,300593,1,2,0:0:0:0:
64,192,300769,1,0,0:0:0:0:
320,192,300946,1,2,0:0:0:0:
448,192,300946,1,8,0:0:0:0:
192,192,301122,1,0,0:0:0:0:
64,192,301299,1,0,0:0:0:0:
320,192,301299,1,2,0:0:0:0:
192,192,301475,1,0,0:0:0:0:
320,192,301652,1,2,0:0:0:0:
448,192,301652,1,8,0:0:0:0:
64,192,301828,1,0,0:0:0:0:
192,192,302004,1,0,0:0:0:0:
320,192,302004,1,2,0:0:0:0:
448,192,302181,1,0,0:0:0:0:
64,192,302357,1,2,0:0:0:0:
192,192,302357,1,8,0:0:0:0:
320,192,302534,1,0,0:0:0:0:
448,192,302710,1,0,0:0:0:0:
64,192,302710,1,2,0:0:0:0:
192,192,302887,1,0,0:0:0:0:
320,192,303063,1,2,0:0:0:0:
448,192,303063,1,8,0:0:0:0:
192,192,303240,1,0,0:0:0:0:
64,192,303416,1,0,0:0:0:0:
320,192,303416,1,2,0:0:0:0:
448,192,303593,1,0,0:0:0:0:
192,192,303769,1,8,0:0:0:0:
64,192,303769,1,2,0:0:0:0:
320,192,303946,1,0,0:0:0:0:
448,192,304122,1,0,0:0:0:0:
64,192,304122,1,2,0:0:0:0:
192,192,304299,1,0,0:0:0:0:
320,192,304475,1,8,0:0:0:0:
64,192,304475,1,2,0:0:0:0:
192,192,304652,1,0,0:0:0:0:
320,192,304828,1,0,0:0:0:0:
448,192,304828,1,2,0:0:0:0:
64,192,305004,1,0,0:0:0:0:
192,192,305181,1,8,0:0:0:0:
448,192,305181,1,2,0:0:0:0:
320,192,305357,1,0,0:0:0:0:
64,192,305534,1,0,0:0:0:0:
192,192,305534,1,2,0:0:0:0:
448,192,305710,1,0,0:0:0:0:
64,192,305887,1,8,0:0:0:0:
320,192,305887,1,2,0:0:0:0:
192,192,306063,1,0,0:0:0:0:
320,192,306240,1,2,0:0:0:0:
448,192,306240,1,0,0:0:0:0:
192,192,306416,1,0,0:0:0:0:
64,192,306593,1,8,0:0:0:0:
448,192,306593,1,2,0:0:0:0:
320,192,306769,1,0,0:0:0:0:
192,192,306946,1,0,1:0:0:0:
448,192,306946,1,0,0:0:0:0:
64,192,306946,1,4,1:0:0:0:
320,192,307299,1,0,1:0:0:0:
192,192,307652,1,0,1:0:0:0:
448,192,308004,1,0,1:0:0:0:
64,192,308357,1,0,1:0:0:0:
192,192,308710,1,0,1:0:0:0:
320,192,309063,1,0,1:0:0:0:
448,192,309416,128,0,309769:1:0:0:0:
64,192,309769,1,0,1:0:0:0:
192,192,310122,1,0,1:0:0:0:
448,192,310475,1,0,1:0:0:0:
320,192,310828,1,0,1:0:0:0:
192,192,311181,1,0,1:0:0:0:
64,192,311534,1,0,1:0:0:0:
448,192,311887,1,0,1:0:0:0:
320,192,312063,128,0,312240:0:0:0:50:hat.wav
64,192,312240,1,0,1:0:0:0:
192,192,312328,1,0,0:0:0:0:
320,192,312416,1,0,0:0:0:50:hat.wav
448,192,312504,1,0,0:0:0:0:
192,192,312593,1,0,1:0:0:0:
64,192,312946,1,0,1:0:0:0:
192,192,313299,1,0,1:0:0:0:
448,192,313652,1,0,1:0:0:0:
192,192,314004,1,0,1:0:0:0:
320,192,314357,1,0,1:0:0:0:
64,192,314710,1,0,1:0:0:0:
192,192,315063,128,0,315416:1:0:0:0:
320,192,315416,1,0,1:0:0:0:
448,192,315769,1,0,1:0:0:0:
64,192,316122,1,0,1:0:0:0:
192,192,316475,1,0,1:0:0:0:
448,192,316828,1,0,1:0:0:0:
320,192,317181,1,0,1:0:0:0:
192,192,317534,1,0,1:0:0:0:
320,192,317710,1,0,0:0:0:50:hat.wav
448,192,318063,1,0,1:0:0:0:
64,192,318240,1,0,1:0:0:0:
320,192,318593,1,0,1:0:0:0:
192,192,318946,1,0,1:0:0:0:
448,192,319299,1,0,1:0:0:0:
64,192,319652,1,0,1:0:0:0:
192,192,320004,1,0,1:0:0:0:
448,192,320357,1,0,1:0:0:0:
320,192,320710,128,0,321063:1:0:0:0:
192,192,321063,128,0,329534:1:0:0:0:
448,192,321416,1,0,1:0:0:0:
320,192,321769,1,0,1:0:0:0:
64,192,322122,1,0,1:0:0:0:
320,192,322475,1,0,1:0:0:0:
448,192,322828,1,0,1:0:0:0:
64,192,323181,1,0,1:0:0:0:
448,192,323357,128,0,323534:0:0:0:0:
320,192,323534,1,0,1:0:0:0:
64,192,323622,1,0,0:0:0:0:
448,192,323710,1,0,0:0:0:0:
320,192,323799,1,0,0:0:0:0:
64,192,323887,1,0,1:0:0:0:
320,192,324240,1,0,1:0:0:0:
448,192,324593,1,0,1:0:0:0:
64,192,324946,1,0,1:0:0:0:
448,192,325299,1,0,1:0:0:0:
320,192,325652,1,0,1:0:0:0:
64,192,326004,1,0,1:0:0:0:
448,192,326357,128,0,326710:1:0:0:0:
64,192,326710,1,0,1:0:0:0:
320,192,327063,1,0,1:0:0:0:
448,192,327416,1,0,1:0:0:0:
64,192,327769,1,0,1:0:0:0:
320,192,328122,1,0,1:0:0:0:
