osu file format v14

[General]
AudioFilename: audio.mp3
AudioLeadIn: 0
PreviewTime: 239181
Countdown: 0
SampleSet: Soft
StackLeniency: 0.7
Mode: 3
LetterboxInBreaks: 0
SpecialStyle: 0
WidescreenStoryboard: 0

[Editor]
DistanceSpacing: 0.8
BeatDivisor: 4
GridSize: 8
TimelineZoom: 2.4

[Metadata]
Title:Exit This Earth's Atomosphere
TitleUnicode:Exit This Earth's Atomosphere
Artist:Camellia
ArtistUnicode:かめりあ
Creator:Protastic101
Version:11.186 km/s
Source:
Tags:PLANET//SHAPER drumstep kamelcamellia cametek Atmosphere dnb dubstep drumstep drum_and_bass CTCD-011
BeatmapID:1217803
BeatmapSetID:575053

[Difficulty]
HPDrainRate:8.8
CircleSize:4
OverallDifficulty:8.8
ApproachRate:5
SliderMultiplier:1.4
SliderTickRate:1

[Events]
//Background and Video events
0,0,"Life on Mars.jpg",0,0
//Break Periods
//Storyboard Layer 0 (Background)
//Storyboard Layer 1 (Fail)
//Storyboard Layer 2 (Pass)
//Storyboard Layer 3 (Foreground)
//Storyboard Sound Samples
Sample,80887,0,"F#7.wav",100
Sample,205122,0,"F#7.wav",100
Sample,275181,0,"normal-hitclap.wav",50
Sample,278004,0,"normal-hitclap.wav",50
Sample,278710,0,"normal-hitclap.wav",50

[TimingPoints]
2005,352.941176470588,4,2,1,50,1,0
2006,-111.111111111111,4,2,1,50,0,0
2269,-76.9230769230769,4,2,1,50,0,0
2357,-111.111111111111,4,2,1,50,0,0
2622,-76.9230769230769,4,2,1,50,0,0
2710,-111.111111111111,4,2,1,50,0,0
2975,-76.9230769230769,4,2,1,50,0,0
3063,-111.111111111111,4,2,1,50,0,0
3328,-76.9230769230769,4,2,1,50,0,0
3416,-111.111111111111,4,2,1,50,0,0
3681,-76.9230769230769,4,2,1,50,0,0
3769,-111.111111111111,4,2,1,50,0,0
4034,-76.9230769230769,4,2,1,50,0,0
4122,-111.111111111111,4,2,1,50,0,0
4387,-76.9230769230769,4,2,1,50,0,0
4475,-133.333333333333,4,2,1,50,0,0
4740,-57.1428571428571,4,2,1,50,0,0
4828,-111.111111111111,4,2,1,50,0,0
5093,-76.9230769230769,4,2,1,50,0,0
5181,-111.111111111111,4,2,1,50,0,0
5446,-76.9230769230769,4,2,1,50,0,0
5534,-111.111111111111,4,2,1,50,0,0
5799,-76.9230769230769,4,2,1,50,0,0
5887,-111.111111111111,4,2,1,50,0,0
6152,-76.9230769230769,4,2,1,50,0,0
6240,-111.111111111111,4,2,1,50,0,0
6504,-76.9230769230769,4,2,1,50,0,0
6593,-111.111111111111,4,2,1,50,0,0
6857,-76.9230769230769,4,2,1,50,0,0
6946,-111.111111111111,4,2,1,50,0,0
7034,-90.9090909090909,4,2,1,50,0,0
7122,-133.333333333333,4,2,1,50,0,0
7210,-80,4,2,1,50,0,0
7299,-133.333333333333,4,2,1,50,0,0
7343,-80,4,2,1,50,0,0
7387,-133.333333333333,4,2,1,50,0,0
7431,-80,4,2,1,50,0,0
7475,-133.333333333333,4,2,1,50,0,0
7519,-80,4,2,1,50,0,0
7563,-133.333333333333,4,2,1,50,0,0
7607,-80,4,2,1,50,0,0
7652,-111.111111111111,4,2,1,50,0,0
7916,-76.9230769230769,4,2,1,50,0,0
8004,-111.111111111111,4,2,1,50,0,0
8269,-76.9230769230769,4,2,1,50,0,0
8357,-111.111111111111,4,2,1,50,0,0
8622,-76.9230769230769,4,2,1,50,0,0
8710,-111.111111111111,4,2,1,50,0,0
8975,-76.9230769230769,4,2,1,50,0,0
9063,-111.111111111111,4,2,1,50,0,0
9328,-76.9230769230769,4,2,1,50,0,0
9416,-111.111111111111,4,2,1,50,0,0
9681,-76.9230769230769,4,2,1,50,0,0
9769,-111.111111111111,4,2,1,50,0,0
10034,-76.9230769230769,4,2,1,50,0,0
10122,-133.333333333333,4,2,1,50,0,0
10387,-57.1428571428571,4,2,1,50,0,0
10475,-111.111111111111,4,2,1,50,0,0
10740,-76.9230769230769,4,2,1,50,0,0
10828,-111.111111111111,4,2,1,50,0,0
11093,-76.9230769230769,4,2,1,50,0,0
11181,-111.111111111111,4,2,1,50,0,0
11446,-76.9230769230769,4,2,1,50,0,0
11534,-111.111111111111,4,2,1,50,0,0
11799,-76.9230769230769,4,2,1,50,0,0
11887,-111.111111111111,4,2,1,50,0,0
12152,-76.9230769230769,4,2,1,50,0,0
12240,-111.111111111111,4,2,1,50,0,0
12504,-76.9230769230769,4,2,1,50,0,0
12593,-111.111111111111,4,2,1,50,0,0
13034,-66.6666666666667,4,2,1,50,0,0
13122,-111.111111111111,4,2,1,50,0,0
13210,-76.9230769230769,4,2,1,50,0,0
13299,-111.111111111111,4,2,1,50,0,0
13387,-90.9090909090908,4,2,1,50,0,0
13475,-111.111111111111,4,2,1,50,0,0
13563,-90.9090909090909,4,2,1,50,0,0
13652,-111.111111111111,4,2,1,50,0,0
13740,-90.9090909090909,4,2,1,50,0,0
13828,-111.111111111111,4,2,1,50,0,0
13916,-90.9090909090909,4,2,1,50,0,0
14004,-111.111111111111,4,2,1,50,0,0
14093,-90.9090909090909,4,2,1,50,0,0
14181,-111.111111111111,4,2,1,50,0,0
14269,-90.9090909090909,4,2,1,50,0,0
14357,-111.111111111111,4,2,1,50,0,0
14446,-90.9090909090909,4,2,1,50,0,0
14534,-111.111111111111,4,2,1,50,0,0
14622,-90.9090909090909,4,2,1,50,0,0
14710,-111.111111111111,4,2,1,50,0,0
14799,-90.9090909090909,4,2,1,50,0,0
14887,-111.111111111111,4,2,1,50,0,0
14975,-90.9090909090909,4,2,1,50,0,0
15063,-111.111111111111,4,2,1,50,0,0
15152,-90.9090909090909,4,2,1,50,0,0
15240,-111.111111111111,4,2,1,50,0,0
15328,-90.9090909090909,4,2,1,50,0,0
15416,-111.111111111111,4,2,1,50,0,0
15504,-90.9090909090909,4,2,1,50,0,0
15593,-111.111111111111,4,2,1,50,0,0
15681,-90.9090909090909,4,2,1,50,0,0
15769,-133.333333333333,4,2,1,50,0,0
16034,-57.1428571428571,4,2,1,50,0,0
16122,-111.111111111111,4,2,1,50,0,0
16210,-90.9090909090909,4,2,1,50,0,0
16299,-111.111111111111,4,2,1,50,0,0
16387,-90.9090909090909,4,2,1,50,0,0
16475,-111.111111111111,4,2,1,50,0,0
16563,-90.9090909090909,4,2,1,50,0,0
16652,-111.111111111111,4,2,1,50,0,0
16740,-90.9090909090909,4,2,1,50,0,0
16828,-111.111111111111,4,2,1,50,0,0
16916,-90.9090909090909,4,2,1,50,0,0
17004,-111.111111111111,4,2,1,50,0,0
17093,-90.9090909090909,4,2,1,50,0,0
17181,-111.111111111111,4,2,1,50,0,0
17269,-90.9090909090909,4,2,1,50,0,0
17357,-111.111111111111,4,2,1,50,0,0
17446,-90.9090909090909,4,2,1,50,0,0
17534,-111.111111111111,4,2,1,50,0,0
17622,-90.9090909090909,4,2,1,50,0,0
17710,-111.111111111111,4,2,1,50,0,0
17799,-90.9090909090909,4,2,1,50,0,0
17887,-111.111111111111,4,2,1,50,0,0
17975,-90.9090909090909,4,2,1,50,0,0
18063,-111.111111111111,4,2,1,50,0,0
18152,-90.9090909090909,4,2,1,50,0,0
18240,-111.111111111111,4,2,1,50,0,0
18328,-90.9090909090909,4,2,1,50,0,0
18416,-133.333333333333,4,2,1,50,0,0
18504,-80,4,2,1,50,0,0
18593,-133.333333333333,4,2,1,50,0,0
18637,-80,4,2,1,50,0,0
18681,-133.333333333333,4,2,1,50,0,0
18725,-80,4,2,1,50,0,0
18769,-133.333333333333,4,2,1,50,0,0
18813,-80,4,2,1,50,0,0
18857,-133.333333333333,4,2,1,50,0,0
18902,-80,4,2,1,50,0,0
18946,-111.111111111111,4,2,1,50,0,0
19034,-90.9090909090909,4,2,1,50,0,0
19122,-111.111111111111,4,2,1,50,0,0
19210,-90.9090909090909,4,2,1,50,0,0
19299,-111.111111111111,4,2,1,50,0,0
19387,-90.9090909090909,4,2,1,50,0,0
19475,-111.111111111111,4,2,1,50,0,0
19563,-90.9090909090909,4,2,1,50,0,0
19652,-111.111111111111,4,2,1,50,0,0
19740,-90.9090909090909,4,2,1,50,0,0
19828,-111.111111111111,4,2,1,50,0,0
19916,-90.9090909090909,4,2,1,50,0,0
20004,-111.111111111111,4,2,1,50,0,0
20093,-90.9090909090909,4,2,1,50,0,0
20181,-111.111111111111,4,2,1,50,0,0
20269,-90.9090909090909,4,2,1,50,0,0
20357,-111.111111111111,4,2,1,50,0,0
20446,-90.9090909090909,4,2,1,50,0,0
20534,-111.111111111111,4,2,1,50,0,0
20622,-90.9090909090909,4,2,1,50,0,0
20710,-111.111111111111,4,2,1,50,0,0
20799,-90.9090909090909,4,2,1,50,0,0
20887,-111.111111111111,4,2,1,50,0,0
20975,-90.9090909090909,4,2,1,50,0,0
21063,-111.111111111111,4,2,1,50,0,0
21152,-90.9090909090909,4,2,1,50,0,0
21240,-111.111111111111,4,2,1,50,0,0
21328,-90.9090909090909,4,2,1,50,0,0
21416,-133.333333333333,4,2,1,50,0,0
21681,-57.1428571428571,4,2,1,50,0,0
21769,-133.333333333333,4,2,1,50,0,0
21857,-80,4,2,1,50,0,0
21946,-133.333333333333,4,2,1,50,0,0
22034,-80,4,2,1,50,0,0
22122,-133.333333333333,4,2,1,50,0,0
22210,-80,4,2,1,50,0,0
22299,-133.333333333333,4,2,1,50,0,0
22387,-80,4,2,1,50,0,0
22475,-133.333333333333,4,2,1,50,0,0
22563,-80,4,2,1,50,0,0
22652,-133.333333333333,4,2,1,50,0,0
22740,-80,4,2,1,50,0,0
22828,-133.333333333333,4,2,1,50,0,0
22916,-80,4,2,1,50,0,0
23004,-133.333333333333,4,2,1,50,0,0
23093,-80,4,2,1,50,0,0
23181,-100,4,2,1,50,0,0
34475,-133.333333333333,4,2,1,50,0,0
34519,-80,4,2,1,50,0,0
34563,-133.333333333333,4,2,1,50,0,0
34607,-80,4,2,1,50,0,0
34652,-133.333333333333,4,2,1,50,0,0
34696,-80,4,2,1,50,0,0
34740,-133.333333333333,4,2,1,50,0,0
34784,-80,4,2,1,50,0,0
34828,-133.333333333333,4,2,1,50,0,0
34872,-80,4,2,1,50,0,0
34916,-133.333333333333,4,2,1,50,0,0
34960,-80,4,2,1,50,0,0
35004,-133.333333333333,4,2,1,50,0,0
35049,-80,4,2,1,50,0,0
35093,-133.333333333333,4,2,1,50,0,0
35137,-80,4,2,1,50,0,0
35181,-133.333333333333,4,2,1,50,0,0
35225,-80,4,2,1,50,0,0
35269,-133.333333333333,4,2,1,50,0,0
35313,-80,4,2,1,50,0,0
35357,-133.333333333333,4,2,1,50,0,0
35402,-80,4,2,1,50,0,0
35446,-133.333333333333,4,2,1,50,0,0
35490,-80,4,2,1,50,0,0
35534,-133.333333333333,4,2,1,50,0,0
35578,-80,4,2,1,50,0,0
35622,-133.333333333333,4,2,1,50,0,0
35666,-80,4,2,1,50,0,0
35710,-133.333333333333,4,2,1,50,0,0
35754,-80,4,2,1,50,0,0
35799,-133.333333333333,4,2,1,50,0,0
35843,-80,4,2,1,50,0,0
35887,-100,4,2,1,50,0,0
38710,-117.647058823529,4,2,1,50,0,0
38754,-86.9565217391304,4,2,1,50,0,0
38799,-117.647058823529,4,2,1,50,0,0
38843,-86.9565217391304,4,2,1,50,0,0
38887,-117.647058823529,4,2,1,50,0,0
38931,-86.9565217391304,4,2,1,50,0,0
38975,-117.647058823529,4,2,1,50,0,0
39019,-86.9565217391304,4,2,1,50,0,0
39063,-117.647058823529,4,2,1,50,0,0
39107,-86.9565217391304,4,2,1,50,0,0
39152,-117.647058823529,4,2,1,50,0,0
39196,-86.9565217391304,4,2,1,50,0,0
39240,-117.647058823529,4,2,1,50,0,0
39284,-86.9565217391304,4,2,1,50,0,0
39328,-117.647058823529,4,2,1,50,0,0
39372,-86.9565217391304,4,2,1,50,0,0
39416,-117.647058823529,4,2,1,50,0,0
39460,-86.9565217391304,4,2,1,50,0,0
39504,-117.647058823529,4,2,1,50,0,0
39549,-86.9565217391304,4,2,1,50,0,0
39593,-117.647058823529,4,2,1,50,0,0
39637,-86.9565217391304,4,2,1,50,0,0
39681,-117.647058823529,4,2,1,50,0,0
39725,-86.9565217391304,4,2,1,50,0,0
39769,-117.647058823529,4,2,1,50,0,0
39813,-86.9565217391304,4,2,1,50,0,0
39857,-117.647058823529,4,2,1,50,0,0
39902,-86.9565217391304,4,2,1,50,0,0
39946,-117.647058823529,4,2,1,50,0,0
39990,-86.9565217391304,4,2,1,50,0,0
40034,-117.647058823529,4,2,1,50,0,0
40078,-86.9565217391304,4,2,1,50,0,0
40122,-117.647058823529,4,2,1,50,0,0
40166,-86.9565217391304,4,2,1,50,0,0
40210,-117.647058823529,4,2,1,50,0,0
40254,-86.9565217391304,4,2,1,50,0,0
40299,-117.647058823529,4,2,1,50,0,0
40343,-86.9565217391304,4,2,1,50,0,0
40387,-117.647058823529,4,2,1,50,0,0
40431,-86.9565217391304,4,2,1,50,0,0
40475,-117.647058823529,4,2,1,50,0,0
40519,-86.9565217391304,4,2,1,50,0,0
40563,-117.647058823529,4,2,1,50,0,0
40607,-86.9565217391304,4,2,1,50,0,0
40652,-117.647058823529,4,2,1,50,0,0
40696,-86.9565217391304,4,2,1,50,0,0
40740,-117.647058823529,4,2,1,50,0,0
40784,-86.9565217391304,4,2,1,50,0,0
40828,-117.647058823529,4,2,1,50,0,0
40872,-86.9565217391304,4,2,1,50,0,0
40916,-117.647058823529,4,2,1,50,0,0
40960,-86.9565217391304,4,2,1,50,0,0
41004,-117.647058823529,4,2,1,50,0,0
41049,-86.9565217391304,4,2,1,50,0,0
41093,-117.647058823529,4,2,1,50,0,0
41137,-86.9565217391304,4,2,1,50,0,0
41181,-117.647058823529,4,2,1,50,0,0
41225,-86.9565217391304,4,2,1,50,0,0
41269,-117.647058823529,4,2,1,50,0,0
41313,-86.9565217391304,4,2,1,50,0,0
41357,-117.647058823529,4,2,1,50,0,0
41402,-86.9565217391304,4,2,1,50,0,0
41446,-117.647058823529,4,2,1,50,0,0
41490,-86.9565217391304,4,2,1,50,0,0
41534,-133.333333333333,4,2,1,50,0,0
41578,-80,4,2,1,50,0,0
41622,-133.333333333333,4,2,1,50,0,0
41666,-80,4,2,1,50,0,0
41710,-133.333333333333,4,2,1,50,0,0
41754,-80,4,2,1,50,0,0
41799,-133.333333333333,4,2,1,50,0,0
41843,-80,4,2,1,50,0,0
41887,-133.333333333333,4,2,1,50,0,0
41931,-80,4,2,1,50,0,0
41975,-133.333333333333,4,2,1,50,0,0
42019,-80,4,2,1,50,0,0
42063,-133.333333333333,4,2,1,50,0,0
42107,-80,4,2,1,50,0,0
42152,-133.333333333333,4,2,1,50,0,0
42196,-80,4,2,1,50,0,0
42240,-133.333333333333,4,2,1,50,0,0
42284,-80,4,2,1,50,0,0
42328,-133.333333333333,4,2,1,50,0,0
42372,-80,4,2,1,50,0,0
42416,-133.333333333333,4,2,1,50,0,0
42460,-80,4,2,1,50,0,0
42504,-133.333333333333,4,2,1,50,0,0
42549,-80,4,2,1,50,0,0
42593,-133.333333333333,4,2,1,50,0,0
42637,-80,4,2,1,50,0,0
42681,-133.333333333333,4,2,1,50,0,0
42725,-80,4,2,1,50,0,0
42769,-133.333333333333,4,2,1,50,0,0
42813,-80,4,2,1,50,0,0
42857,-133.333333333333,4,2,1,50,0,0
42902,-80,4,2,1,50,0,0
42946,-133.333333333333,4,2,1,50,0,0
42990,-80,4,2,1,50,0,0
43034,-133.333333333333,4,2,1,50,0,0
43078,-80,4,2,1,50,0,0
43122,-133.333333333333,4,2,1,50,0,0
43166,-80,4,2,1,50,0,0
43210,-133.333333333333,4,2,1,50,0,0
43254,-80,4,2,1,50,0,0
43299,-133.333333333333,4,2,1,50,0,0
43343,-80,4,2,1,50,0,0
43387,-133.333333333333,4,2,1,50,0,0
43431,-80,4,2,1,50,0,0
43475,-133.333333333333,4,2,1,50,0,0
43519,-80,4,2,1,50,0,0
43563,-133.333333333333,4,2,1,50,0,0
43607,-80,4,2,1,50,0,0
43652,-133.333333333333,4,2,1,50,0,0
43696,-80,4,2,1,50,0,0
43740,-133.333333333333,4,2,1,50,0,0
43784,-80,4,2,1,50,0,0
43828,-133.333333333333,4,2,1,50,0,0
43872,-80,4,2,1,50,0,0
43916,-133.333333333333,4,2,1,50,0,0
43960,-80,4,2,1,50,0,0
44004,-133.333333333333,4,2,1,50,0,0
44049,-80,4,2,1,50,0,0
44093,-133.333333333333,4,2,1,50,0,0
44137,-80,4,2,1,50,0,0
44181,-133.333333333333,4,2,1,50,0,0
44225,-80,4,2,1,50,0,0
44269,-133.333333333333,4,2,1,50,0,0
44313,-80,4,2,1,50,0,0
44357,-100,4,2,1,50,0,0
80710,-166.666666666667,4,2,1,50,0,0
80975,-45.4545454545455,4,2,1,50,0,0
81063,-100,4,2,1,50,0,0
92004,-166.666666666667,4,2,1,50,0,0
92269,-45.4545454545455,4,2,1,50,0,0
92357,-100,4,2,1,50,0,0
103652,-111.111111111111,4,2,1,50,0,0
103916,-76.9230769230769,4,2,1,50,0,0
104004,-111.111111111111,4,2,1,50,0,0
104269,-76.9230769230769,4,2,1,50,0,0
104357,-111.111111111111,4,2,1,50,0,0
104622,-76.9230769230769,4,2,1,50,0,0
104710,-111.111111111111,4,2,1,50,0,0
104975,-76.9230769230769,4,2,1,50,0,0
105063,-111.111111111111,4,2,1,50,0,0
105328,-76.9230769230769,4,2,1,50,0,0
105416,-111.111111111111,4,2,1,50,0,0
105681,-76.9230769230769,4,2,1,50,0,0
105769,-111.111111111111,4,2,1,50,0,0
105857,-90.9090909090909,4,2,1,50,0,0
105946,-111.111111111111,4,2,1,50,0,0
106034,-90.9090909090909,4,2,1,50,0,0
106122,-133.333333333333,4,2,1,50,0,0
106387,-57.1428571428571,4,2,1,50,0,0
106475,-111.111111111111,4,2,1,50,0,0
106740,-76.9230769230769,4,2,1,50,0,0
106828,-111.111111111111,4,2,1,50,0,0
107093,-76.9230769230769,4,2,1,50,0,0
107181,-133.333333333333,4,2,1,50,0,0
107225,-80,4,2,1,50,0,0
107269,-133.333333333333,4,2,1,50,0,0
107313,-80,4,2,1,50,0,0
107357,-133.333333333333,4,2,1,50,0,0
107402,-80,4,2,1,50,0,0
107446,-133.333333333333,4,2,1,50,0,0
107490,-80,4,2,1,50,0,0
107534,-111.111111111111,4,2,1,50,0,0
107622,-90.9090909090909,4,2,1,50,0,0
107710,-111.111111111111,4,2,1,50,0,0
107799,-90.9090909090909,4,2,1,50,0,0
107887,-111.111111111111,4,2,1,50,0,0
107975,-90.9090909090909,4,2,1,50,0,0
108063,-111.111111111111,4,2,1,50,0,0
108152,-90.9090909090909,4,2,1,50,0,0
108240,-111.111111111111,4,2,1,50,0,0
108328,-90.9090909090909,4,2,1,50,0,0
108416,-111.111111111111,4,2,1,50,0,0
108504,-90.9090909090909,4,2,1,50,0,0
108593,-111.111111111111,4,2,1,50,0,0
108681,-90.9090909090909,4,2,1,50,0,0
108769,-111.111111111111,4,2,1,50,0,0
108857,-90.9090909090909,4,2,1,50,0,0
108946,-111.111111111111,4,2,1,50,0,0
109210,-76.9230769230769,4,2,1,50,0,0
109299,-111.111111111111,4,2,1,50,0,0
109387,-90.9090909090909,4,2,1,50,0,0
109475,-111.111111111111,4,2,1,50,0,0
109563,-90.9090909090909,4,2,1,50,0,0
109652,-111.111111111111,4,2,1,50,0,0
109740,-90.9090909090909,4,2,1,50,0,0
109828,-111.111111111111,4,2,1,50,0,0
109916,-90.9090909090909,4,2,1,50,0,0
110004,-111.111111111111,4,2,1,50,0,0
110093,-90.9090909090909,4,2,1,50,0,0
110181,-111.111111111111,4,2,1,50,0,0
110269,-90.9090909090909,4,2,1,50,0,0
110357,-111.111111111111,4,2,1,50,0,0
110446,-90.9090909090909,4,2,1,50,0,0
110534,-111.111111111111,4,2,1,50,0,0
110622,-90.9090909090909,4,2,1,50,0,0
110710,-111.111111111111,4,2,1,50,0,0
110799,-90.9090909090909,4,2,1,50,0,0
110887,-111.111111111111,4,2,1,50,0,0
110975,-90.9090909090909,4,2,1,50,0,0
111063,-111.111111111111,4,2,1,50,0,0
111152,-90.9090909090909,4,2,1,50,0,0
111240,-111.111111111111,4,2,1,50,0,0
111328,-90.9090909090909,4,2,1,50,0,0
111416,-111.111111111111,4,2,1,50,0,0
111504,-90.9090909090909,4,2,1,50,0,0
111593,-111.111111111111,4,2,1,50,0,0
111681,-90.9090909090909,4,2,1,50,0,0
111769,-133.333333333333,4,2,1,50,0,0
112034,-57.1428571428571,4,2,1,50,0,0
112122,-111.111111111111,4,2,1,50,0,0
112210,-90.9090909090909,4,2,1,50,0,0
112299,-111.111111111111,4,2,1,50,0,0
112387,-90.9090909090909,4,2,1,50,0,0
112475,-111.111111111111,4,2,1,50,0,0
112563,-90.9090909090909,4,2,1,50,0,0
112652,-111.111111111111,4,2,1,50,0,0
112740,-90.9090909090909,4,2,1,50,0,0
112828,-111.111111111111,4,2,1,50,0,0
112916,-90.9090909090909,4,2,1,50,0,0
113004,-111.111111111111,4,2,1,50,0,0
113093,-90.9090909090909,4,2,1,50,0,0
113181,-111.111111111111,4,2,1,50,0,0
113269,-90.9090909090909,4,2,1,50,0,0
113357,-111.111111111111,4,2,1,50,0,0
113446,-90.9090909090909,4,2,1,50,0,0
113534,-133.333333333333,4,2,1,50,0,0
113578,-80,4,2,1,50,0,0
113622,-133.333333333333,4,2,1,50,0,0
113666,-80,4,2,1,50,0,0
113710,-133.333333333333,4,2,1,50,0,0
113754,-80,4,2,1,50,0,0
113799,-133.333333333333,4,2,1,50,0,0
113843,-80,4,2,1,50,0,0
113887,-66.6666666666667,4,2,1,50,0,0
113931,-200,4,2,1,50,0,0
113975,-66.6666666666667,4,2,1,50,0,0
114019,-200,4,2,1,50,0,0
114063,-66.6666666666667,4,2,1,50,0,0
114107,-200,4,2,1,50,0,0
114152,-66.6666666666667,4,2,1,50,0,0
114196,-200,4,2,1,50,0,0
114240,-80,4,2,1,50,0,0
114284,-133.333333333333,4,2,1,50,0,0
114328,-80,4,2,1,50,0,0
114372,-133.333333333333,4,2,1,50,0,0
114416,-80,4,2,1,50,0,0
114460,-133.333333333333,4,2,1,50,0,0
114504,-80,4,2,1,50,0,0
114549,-133.333333333333,4,2,1,50,0,0
114593,-80,4,2,1,50,0,0
114637,-133.333333333333,4,2,1,50,0,0
114681,-80,4,2,1,50,0,0
114725,-133.333333333333,4,2,1,50,0,0
114769,-80,4,2,1,50,0,0
114813,-133.333333333333,4,2,1,50,0,0
114857,-80,4,2,1,50,0,0
114902,-133.333333333333,4,2,1,50,0,0
114946,-100,4,2,1,50,0,0
124828,-133.333333333333,4,2,1,50,0,0
124960,-57.1428571428571,4,2,1,50,0,0
125004,-133.333333333333,4,2,1,50,0,0
125049,-80,4,2,1,50,0,0
125093,-133.333333333333,4,2,1,50,0,0
125137,-80,4,2,1,50,0,0
125181,-133.333333333333,4,2,1,50,0,0
125225,-80,4,2,1,50,0,0
125269,-133.333333333333,4,2,1,50,0,0
125313,-80,4,2,1,50,0,0
125357,-133.333333333333,4,2,1,50,0,0
125490,-57.1428571428571,4,2,1,50,0,0
125534,-200,4,2,1,50,0,0
125578,-66.6666666666667,4,2,1,50,0,0
125622,-200,4,2,1,50,0,0
125666,-66.6666666666667,4,2,1,50,0,0
125710,-200,4,2,1,50,0,0
125754,-66.6666666666667,4,2,1,50,0,0
125799,-200,4,2,1,50,0,0
125843,-66.6666666666667,4,2,1,50,0,0
125887,-166.666666666667,4,2,1,50,0,0
126152,-45.4545454545455,4,2,1,50,0,0
126240,-100,4,2,1,50,0,1
126593,-133.333333333333,4,2,1,50,0,1
126637,-80,4,2,1,50,0,1
126681,-133.333333333333,4,2,1,50,0,1
126725,-80,4,2,1,50,0,1
126769,-133.333333333333,4,2,1,50,0,1
126813,-80,4,2,1,50,0,1
126857,-133.333333333333,4,2,1,50,0,1
126902,-80,4,2,1,50,0,1
126946,-100,4,2,1,50,0,1
127122,-133.333333333333,4,2,1,50,0,1
127166,-80,4,2,1,50,0,1
127210,-133.333333333333,4,2,1,50,0,1
127254,-80,4,2,1,50,0,1
127299,-100,4,2,1,50,0,1
127828,-133.333333333333,4,2,1,50,0,1
127872,-80,4,2,1,50,0,1
127916,-133.333333333333,4,2,1,50,0,1
127960,-80,4,2,1,50,0,1
128004,-100,4,2,1,50,0,1
129416,-133.333333333333,4,2,1,50,0,1
129460,-80,4,2,1,50,0,1
129504,-133.333333333333,4,2,1,50,0,1
129549,-80,4,2,1,50,0,1
129593,-133.333333333333,4,2,1,50,0,1
129637,-80,4,2,1,50,0,1
129681,-133.333333333333,4,2,1,50,0,1
129725,-80,4,2,1,50,0,1
129769,-100,4,2,1,50,0,1
129946,-133.333333333333,4,2,1,50,0,1
129990,-80,4,2,1,50,0,1
130034,-133.333333333333,4,2,1,50,0,1
130078,-80,4,2,1,50,0,1
130122,-100,4,2,1,50,0,1
130475,-200,4,2,1,50,0,1
130519,-66.6666666666667,4,2,1,50,0,1
130563,-200,4,2,1,50,0,1
130607,-66.6666666666667,4,2,1,50,0,1
130652,-200,4,2,1,50,0,1
130696,-66.6666666666667,4,2,1,50,0,1
130740,-200,4,2,1,50,0,1
130784,-66.6666666666667,4,2,1,50,0,1
130828,-200,4,2,1,50,0,1
130872,-66.6666666666667,4,2,1,50,0,1
130916,-200,4,2,1,50,0,1
130960,-66.6666666666667,4,2,1,50,0,1
131004,-100,4,2,1,50,0,1
132240,-133.333333333333,4,2,1,50,0,1
132284,-80,4,2,1,50,0,1
132328,-133.333333333333,4,2,1,50,0,1
132372,-80,4,2,1,50,0,1
132416,-133.333333333333,4,2,1,50,0,1
132460,-80,4,2,1,50,0,1
132504,-133.333333333333,4,2,1,50,0,1
132549,-80,4,2,1,50,0,1
132593,-100,4,2,1,50,0,1
132769,-133.333333333333,4,2,1,50,0,1
132813,-80,4,2,1,50,0,1
132857,-133.333333333333,4,2,1,50,0,1
132902,-80,4,2,1,50,0,1
132946,-100,4,2,1,50,0,1
133475,-133.333333333333,4,2,1,50,0,1
133519,-80,4,2,1,50,0,1
133563,-133.333333333333,4,2,1,50,0,1
133607,-80,4,2,1,50,0,1
133652,-100,4,2,1,50,0,1
135946,-200,4,2,1,50,0,1
135990,-66.6666666666667,4,2,1,50,0,1
136034,-200,4,2,1,50,0,1
136078,-66.6666666666667,4,2,1,50,0,1
136122,-100,4,2,1,50,0,1
137357,-200,4,2,1,50,0,1
137490,-40,4,2,1,50,0,1
137534,-100,4,2,1,50,0,1
143534,-66.6666666666667,4,2,1,50,0,1
143578,-200,4,2,1,50,0,1
143622,-66.6666666666667,4,2,1,50,0,1
143666,-200,4,2,1,50,0,1
143710,-66.6666666666667,4,2,1,50,0,1
143754,-200,4,2,1,50,0,1
143799,-66.6666666666667,4,2,1,50,0,1
143843,-200,4,2,1,50,0,1
143887,-100,4,2,1,50,0,1
144240,-66.6666666666667,4,2,1,50,0,1
144284,-200,4,2,1,50,0,1
144328,-66.6666666666667,4,2,1,50,0,1
144372,-200,4,2,1,50,0,1
144416,-66.6666666666667,4,2,1,50,0,1
144460,-200,4,2,1,50,0,1
144504,-66.6666666666667,4,2,1,50,0,1
144549,-200,4,2,1,50,0,1
144593,-100,4,2,1,50,0,1
144769,-57.1428571428571,4,2,1,50,0,1
144813,-400,4,2,1,50,0,1
144857,-57.1428571428571,4,2,1,50,0,1
144902,-400,4,2,1,50,0,1
144946,-100,4,2,1,50,0,1
145122,-57.1428571428571,4,2,1,50,0,1
145166,-400,4,2,1,50,0,1
145210,-57.1428571428571,4,2,1,50,0,1
145254,-400,4,2,1,50,0,1
145299,-100,4,2,1,50,0,1
145475,-57.1428571428571,4,2,1,50,0,1
145519,-400,4,2,1,50,0,1
145563,-57.1428571428571,4,2,1,50,0,1
145607,-400,4,2,1,50,0,1
145652,-100,4,2,1,50,0,1
145828,-66.6666666666667,4,2,1,50,0,1
145872,-200,4,2,1,50,0,1
145916,-66.6666666666667,4,2,1,50,0,1
145960,-200,4,2,1,50,0,1
146004,-33.3333333333333,4,2,1,50,0,0
146049,-166.666666666667,4,2,1,50,0,0
146269,-33.3333333333333,4,2,1,50,0,0
146313,-166.666666666667,4,2,1,50,0,0
146534,-33.3333333333333,4,2,1,50,0,0
146578,-166.666666666667,4,2,1,50,0,0
146799,-33.3333333333333,4,2,1,50,0,0
146843,-166.666666666667,4,2,1,50,0,0
147063,-33.3333333333333,4,2,1,50,0,0
147107,-303.030303030303,4,2,1,50,0,0
147240,-45.4545454545455,4,2,1,50,0,0
147262,-166.666666666667,4,2,1,50,0,0
147328,-45.4545454545455,4,2,1,50,0,0
147350,-166.666666666667,4,2,1,50,0,0
147416,-50,4,2,1,50,0,0
147460,-149.253731343284,4,2,1,50,0,0
147593,-50,4,2,1,50,0,0
147637,-149.253731343284,4,2,1,50,0,0
147769,-45.4545454545455,4,2,1,50,0,0
147791,-166.666666666667,4,2,1,50,0,0
147857,-45.4545454545455,4,2,1,50,0,0
147879,-166.666666666667,4,2,1,50,0,0
147946,-45.4545454545455,4,2,1,50,0,0
147968,-166.666666666667,4,2,1,50,0,0
148034,-45.4545454545455,4,2,1,50,0,0
148056,-166.666666666667,4,2,1,50,0,0
148122,-33.3333333333333,4,2,1,50,0,0
148166,-166.666666666667,4,2,1,50,0,0
148387,-33.3333333333333,4,2,1,50,0,0
148431,-166.666666666667,4,2,1,50,0,0
148652,-33.3333333333333,4,2,1,50,0,0
148696,-303.030303030303,4,2,1,50,0,0
148828,-100,4,2,1,50,0,1
149181,-80,4,2,1,50,0,1
149210,-133.333333333333,4,2,1,50,0,1
149240,-80,4,2,1,50,0,1
149269,-133.333333333333,4,2,1,50,0,1
149299,-80,4,2,1,50,0,1
149328,-133.333333333333,4,2,1,50,0,1
149357,-66.6666666666667,4,2,1,50,0,1
149402,-200,4,2,1,50,0,1
149446,-66.6666666666667,4,2,1,50,0,1
149490,-200,4,2,1,50,0,1
149534,-100,4,2,1,50,0,1
150063,-66.6666666666667,4,2,1,50,0,1
150107,-200,4,2,1,50,0,1
150152,-66.6666666666667,4,2,1,50,0,1
150196,-200,4,2,1,50,0,1
150240,-100,4,2,1,50,0,1
151299,-133.333333333333,4,2,1,50,0,1
151563,-57.1428571428571,4,2,1,50,0,1
151652,-100,4,2,1,50,0,1
152004,-80,4,2,1,50,0,1
152034,-133.333333333333,4,2,1,50,0,1
152063,-80,4,2,1,50,0,1
152093,-133.333333333333,4,2,1,50,0,1
152122,-80,4,2,1,50,0,1
152152,-133.333333333333,4,2,1,50,0,1
152181,-66.6666666666667,4,2,1,50,0,1
152225,-200,4,2,1,50,0,1
152269,-66.6666666666667,4,2,1,50,0,1
152313,-200,4,2,1,50,0,1
152357,-100,4,2,1,50,0,1
153063,-80,4,2,1,50,0,1
153107,-133.333333333333,4,2,1,50,0,1
153152,-80,4,2,1,50,0,1
153196,-133.333333333333,4,2,1,50,0,1
153240,-66.6666666666667,4,2,1,50,0,1
153284,-200,4,2,1,50,0,1
153328,-80,4,2,1,50,0,1
153372,-133.333333333333,4,2,1,50,0,1
153416,-66.6666666666667,4,2,1,50,0,1
153460,-200,4,2,1,50,0,1
153504,-80,4,2,1,50,0,1
153549,-133.333333333333,4,2,1,50,0,1
153593,-80,4,2,1,50,0,1
153681,-133.333333333333,4,2,1,50,0,1
153769,-66.6666666666667,4,2,1,50,0,1
153857,-133.333333333333,4,2,1,50,0,1
154034,-66.6666666666667,4,2,1,50,0,1
154122,-133.333333333333,4,2,1,50,0,1
154299,-66.6666666666667,4,2,1,50,0,1
154343,-133.333333333333,4,2,1,50,0,1
154475,-100,4,2,1,50,0,1
154828,-80,4,2,1,50,0,1
154857,-133.333333333333,4,2,1,50,0,1
154887,-80,4,2,1,50,0,1
154916,-133.333333333333,4,2,1,50,0,1
154946,-80,4,2,1,50,0,1
154975,-133.333333333333,4,2,1,50,0,1
155004,-66.6666666666667,4,2,1,50,0,1
155049,-200,4,2,1,50,0,1
155093,-66.6666666666667,4,2,1,50,0,1
155137,-200,4,2,1,50,0,1
155181,-100,4,2,1,50,0,1
155710,-66.6666666666667,4,2,1,50,0,1
155754,-200,4,2,1,50,0,1
155799,-66.6666666666667,4,2,1,50,0,1
155843,-200,4,2,1,50,0,1
155887,-100,4,2,1,50,0,1
156946,-45.4545454545455,4,2,1,50,0,1
157034,-166.666666666667,4,2,1,50,0,1
157299,-40,4,2,1,50,0,1
157343,-142.857142857143,4,2,1,50,0,1
157563,-45.4545454545455,4,2,1,50,0,1
157585,-166.666666666667,4,2,1,50,0,1
157652,-33.3333333333333,4,2,1,50,0,1
157696,-303.030303030303,4,2,1,50,0,1
157828,-40,4,2,1,50,0,1
157872,-142.857142857143,4,2,1,50,0,1
158093,-45.4545454545455,4,2,1,50,0,1
158115,-166.666666666667,4,2,1,50,0,1
158181,-33.3333333333333,4,2,1,50,0,1
158225,-303.030303030303,4,2,1,50,0,1
158357,-33.3333333333333,4,2,1,50,0,1
158402,-303.030303030303,4,2,1,50,0,1
158534,-66.6666666666667,4,2,1,50,0,1
158578,-200,4,2,1,50,0,1
158622,-66.6666666666667,4,2,1,50,0,1
158666,-200,4,2,1,50,0,1
158710,-40,4,2,1,50,0,1
158754,-142.857142857143,4,2,1,50,0,1
158975,-45.4545454545455,4,2,1,50,0,1
158997,-166.666666666667,4,2,1,50,0,1
159063,-33.3333333333333,4,2,1,50,0,1
159107,-303.030303030303,4,2,1,50,0,1
159240,-40,4,2,1,50,0,1
159284,-142.857142857143,4,2,1,50,0,1
159504,-45.4545454545455,4,2,1,50,0,1
159527,-166.666666666667,4,2,1,50,0,1
159593,-33.3333333333333,4,2,1,50,0,1
159637,-303.030303030303,4,2,1,50,0,1
159769,-66.6666666666667,4,2,1,50,0,1
159799,-200,4,2,1,50,0,1
159828,-66.6666666666667,4,2,1,50,0,1
159857,-200,4,2,1,50,0,1
159887,-66.6666666666667,4,2,1,50,0,1
159916,-200,4,2,1,50,0,1
159946,-66.6666666666667,4,2,1,50,0,1
159975,-200,4,2,1,50,0,1
160004,-66.6666666666667,4,2,1,50,0,1
160034,-200,4,2,1,50,0,1
160063,-66.6666666666667,4,2,1,50,0,1
160093,-400,4,2,1,50,0,1
160122,-100,4,2,1,50,0,1
164357,-66.6666666666667,4,2,1,50,0,1
164402,-200,4,2,1,50,0,1
164446,-66.6666666666667,4,2,1,50,0,1
164490,-200,4,2,1,50,0,1
164534,-66.6666666666667,4,2,1,50,0,1
164578,-200,4,2,1,50,0,1
164622,-66.6666666666667,4,2,1,50,0,1
164666,-200,4,2,1,50,0,1
164710,-66.6666666666667,4,2,1,50,0,1
164754,-200,4,2,1,50,0,1
164799,-66.6666666666667,4,2,1,50,0,1
164843,-200,4,2,1,50,0,1
164887,-66.6666666666667,4,2,1,50,0,1
164931,-200,4,2,1,50,0,1
164975,-100,4,2,1,50,0,1
168593,-66.6666666666667,4,2,1,50,0,1
168652,-200,4,2,1,50,0,1
168710,-66.6666666666667,4,2,1,50,0,1
168769,-200,4,2,1,50,0,1
168828,-66.6666666666667,4,2,1,50,0,1
168887,-200,4,2,1,50,0,1
168946,-66.6666666666667,4,2,1,50,0,1
169004,-200,4,2,1,50,0,1
169063,-66.6666666666667,4,2,1,50,0,1
169122,-200,4,2,1,50,0,1
169181,-66.6666666666667,4,2,1,50,0,1
169240,-200,4,2,1,50,0,1
169299,-66.6666666666667,4,2,1,50,0,1
169357,-200,4,2,1,50,0,1
169416,-66.6666666666667,4,2,1,50,0,1
169475,-200,4,2,1,50,0,1
169534,-66.6666666666667,4,2,1,50,0,1
169593,-200,4,2,1,50,0,1
169652,-66.6666666666667,4,2,1,50,0,1
169710,-200,4,2,1,50,0,1
169769,-66.6666666666667,4,2,1,50,0,1
169828,-200,4,2,1,50,0,1
169887,-66.6666666666667,4,2,1,50,0,1
169946,-200,4,2,1,50,0,1
170004,-66.6666666666667,4,2,1,50,0,1
170063,-200,4,2,1,50,0,1
170122,-66.6666666666667,4,2,1,50,0,1
170181,-200,4,2,1,50,0,1
170240,-66.6666666666667,4,2,1,50,0,1
170299,-200,4,2,1,50,0,1
170357,-66.6666666666667,4,2,1,50,0,1
170416,-200,4,2,1,50,0,1
170475,-66.6666666666667,4,2,1,50,0,1
170534,-200,4,2,1,50,0,1
170593,-66.6666666666667,4,2,1,50,0,1
170652,-200,4,2,1,50,0,1
170710,-66.6666666666667,4,2,1,50,0,1
170769,-200,4,2,1,50,0,1
170828,-66.6666666666667,4,2,1,50,0,1
170887,-200,4,2,1,50,0,1
170946,-66.6666666666667,4,2,1,50,0,1
171004,-200,4,2,1,50,0,1
171063,-100,4,2,1,50,0,0
204946,-166.666666666667,4,2,1,50,0,0
205210,-45.4545454545455,4,2,1,50,0,0
205299,-100,4,2,1,50,0,0
226475,-133.333333333333,4,2,1,50,0,0
226519,-80,4,2,1,50,0,0
226563,-133.333333333333,4,2,1,50,0,0
226607,-80,4,2,1,50,0,0
226652,-133.333333333333,4,2,1,50,0,0
226696,-80,4,2,1,50,0,0
226740,-133.333333333333,4,2,1,50,0,0
226784,-80,4,2,1,50,0,0
226828,-133.333333333333,4,2,1,50,0,0
226872,-80,4,2,1,50,0,0
226916,-133.333333333333,4,2,1,50,0,0
226960,-80,4,2,1,50,0,0
227004,-133.333333333333,4,2,1,50,0,0
227049,-80,4,2,1,50,0,0
227093,-133.333333333333,4,2,1,50,0,0
227137,-80,4,2,1,50,0,0
227181,-133.333333333333,4,2,1,50,0,0
227225,-80,4,2,1,50,0,0
227269,-133.333333333333,4,2,1,50,0,0
227313,-80,4,2,1,50,0,0
227357,-133.333333333333,4,2,1,50,0,0
227402,-80,4,2,1,50,0,0
227446,-133.333333333333,4,2,1,50,0,0
227490,-80,4,2,1,50,0,0
227534,-133.333333333333,4,2,1,50,0,0
227578,-80,4,2,1,50,0,0
227622,-133.333333333333,4,2,1,50,0,0
227666,-80,4,2,1,50,0,0
227710,-133.333333333333,4,2,1,50,0,0
227754,-80,4,2,1,50,0,0
227799,-133.333333333333,4,2,1,50,0,0
227843,-80,4,2,1,50,0,0
227887,-100,4,2,1,50,0,0
237769,-133.333333333333,4,2,1,50,0,0
237902,-57.1428571428571,4,2,1,50,0,0
237946,-133.333333333333,4,2,1,50,0,0
237990,-80,4,2,1,50,0,0
238034,-133.333333333333,4,2,1,50,0,0
238078,-80,4,2,1,50,0,0
238122,-133.333333333333,4,2,1,50,0,0
238166,-80,4,2,1,50,0,0
238210,-80,4,2,1,50,0,0
238254,-80,4,2,1,50,0,0
238299,-133.333333333333,4,2,1,50,0,0
238431,-57.1428571428571,4,2,1,50,0,0
238475,-200,4,2,1,50,0,0
238519,-66.6666666666667,4,2,1,50,0,0
238563,-200,4,2,1,50,0,0
238607,-66.6666666666667,4,2,1,50,0,0
238652,-200,4,2,1,50,0,0
238696,-66.6666666666667,4,2,1,50,0,0
238740,-200,4,2,1,50,0,0
238784,-66.6666666666667,4,2,1,50,0,0
238828,-166.666666666667,4,2,1,50,0,0
239093,-45.4545454545455,4,2,1,50,0,0
239181,-100,4,2,1,50,0,1
257181,-166.666666666667,4,2,1,50,0,1
257446,-45.4545454545455,4,2,1,50,0,1
257534,-100,4,2,1,50,0,1
258593,-66.6666666666667,4,2,1,50,0,1
258637,-200,4,2,1,50,0,1
258681,-66.6666666666667,4,2,1,50,0,1
258725,-200,4,2,1,50,0,1
258769,-66.6666666666667,4,2,1,50,0,1
258813,-200,4,2,1,50,0,1
258857,-66.6666666666667,4,2,1,50,0,1
258902,-200,4,2,1,50,0,1
258946,-133.333333333333,4,2,1,50,0,0
258990,-80,4,2,1,50,0,0
259034,-133.333333333333,4,2,1,50,0,0
259078,-80,4,2,1,50,0,0
259122,-133.333333333333,4,2,1,50,0,0
259166,-80,4,2,1,50,0,0
259210,-133.333333333333,4,2,1,50,0,0
259254,-80,4,2,1,50,0,0
259299,-133.333333333333,4,2,1,50,0,0
259343,-80,4,2,1,50,0,0
259387,-133.333333333333,4,2,1,50,0,0
259431,-80,4,2,1,50,0,0
259475,-133.333333333333,4,2,1,50,0,0
259519,-80,4,2,1,50,0,0
259563,-133.333333333333,4,2,1,50,0,0
259607,-80,4,2,1,50,0,0
259652,-133.333333333333,4,2,1,50,0,0
259696,-80,4,2,1,50,0,0
259740,-133.333333333333,4,2,1,50,0,0
259784,-80,4,2,1,50,0,0
259828,-133.333333333333,4,2,1,50,0,0
259872,-80,4,2,1,50,0,0
259916,-133.333333333333,4,2,1,50,0,0
259960,-80,4,2,1,50,0,0
260004,-133.333333333333,4,2,1,50,0,0
260049,-80,4,2,1,50,0,0
260093,-133.333333333333,4,2,1,50,0,0
260137,-80,4,2,1,50,0,0
260181,-133.333333333333,4,2,1,50,0,0
260225,-80,4,2,1,50,0,0
260269,-133.333333333333,4,2,1,50,0,0
260313,-80,4,2,1,50,0,0
260357,-100,4,2,1,50,0,0
261416,-200,4,2,1,50,0,0
261681,-40,4,2,1,50,0,0
261769,-100,4,2,1,50,0,1
271652,-133.333333333333,4,2,1,50,0,1
271696,-80,4,2,1,50,0,1
271740,-133.333333333333,4,2,1,50,0,1
271784,-80,4,2,1,50,0,1
271828,-133.333333333333,4,2,1,50,0,1
271872,-80,4,2,1,50,0,1
271916,-133.333333333333,4,2,1,50,0,1
271960,-80,4,2,1,50,0,1
272004,-133.333333333333,4,2,1,50,0,1
272049,-80,4,2,1,50,0,1
272093,-133.333333333333,4,2,1,50,0,1
272137,-80,4,2,1,50,0,1
272181,-133.333333333333,4,2,1,50,0,1
272225,-80,4,2,1,50,0,1
272269,-133.333333333333,4,2,1,50,0,1
272313,-80,4,2,1,50,0,1
272357,-133.333333333333,4,2,1,50,0,1
272402,-80,4,2,1,50,0,1
272446,-133.333333333333,4,2,1,50,0,1
272490,-80,4,2,1,50,0,1
272534,-133.333333333333,4,2,1,50,0,1
272578,-80,4,2,1,50,0,1
272622,-133.333333333333,4,2,1,50,0,1
272666,-80,4,2,1,50,0,1
272710,-133.333333333333,4,2,1,50,0,1
272754,-80,4,2,1,50,0,1
272799,-133.333333333333,4,2,1,50,0,1
272843,-80,4,2,1,50,0,1
272887,-133.333333333333,4,2,1,50,0,1
272931,-80,4,2,1,50,0,1
272975,-133.333333333333,4,2,1,50,0,1
273019,-80,4,2,1,50,0,1
273063,-100,4,2,1,50,0,1
275887,-117.647058823529,4,2,1,50,0,1
275931,-86.9565217391304,4,2,1,50,0,1
275975,-117.647058823529,4,2,1,50,0,1
276019,-86.9565217391304,4,2,1,50,0,1
276063,-117.647058823529,4,2,1,50,0,1
276107,-86.9565217391304,4,2,1,50,0,1
276152,-117.647058823529,4,2,1,50,0,1
276196,-86.9565217391304,4,2,1,50,0,1
276240,-117.647058823529,4,2,1,50,0,1
276284,-86.9565217391304,4,2,1,50,0,1
276328,-117.647058823529,4,2,1,50,0,1
276372,-86.9565217391304,4,2,1,50,0,1
276416,-117.647058823529,4,2,1,50,0,1
276460,-86.9565217391304,4,2,1,50,0,1
276504,-117.647058823529,4,2,1,50,0,1
276549,-86.9565217391304,4,2,1,50,0,1
276593,-117.647058823529,4,2,1,50,0,1
276637,-86.9565217391304,4,2,1,50,0,1
276681,-117.647058823529,4,2,1,50,0,1
276725,-86.9565217391304,4,2,1,50,0,1
276769,-117.647058823529,4,2,1,50,0,1
276813,-86.9565217391304,4,2,1,50,0,1
276857,-117.647058823529,4,2,1,50,0,1
276902,-86.9565217391304,4,2,1,50,0,1
276946,-117.647058823529,4,2,1,50,0,1
276990,-86.9565217391304,4,2,1,50,0,1
277034,-117.647058823529,4,2,1,50,0,1
277078,-86.9565217391304,4,2,1,50,0,1
277122,-117.647058823529,4,2,1,50,0,1
277166,-86.9565217391304,4,2,1,50,0,1
277210,-117.647058823529,4,2,1,50,0,1
277254,-86.9565217391304,4,2,1,50,0,1
277299,-117.647058823529,4,2,1,50,0,1
277343,-86.9565217391304,4,2,1,50,0,1
277387,-117.647058823529,4,2,1,50,0,1
277431,-86.9565217391304,4,2,1,50,0,1
277475,-117.647058823529,4,2,1,50,0,1
277519,-86.9565217391304,4,2,1,50,0,1
277563,-117.647058823529,4,2,1,50,0,1
277607,-86.9565217391304,4,2,1,50,0,1
277652,-117.647058823529,4,2,1,50,0,1
277696,-86.9565217391304,4,2,1,50,0,1
277740,-117.647058823529,4,2,1,50,0,1
277784,-86.9565217391304,4,2,1,50,0,1
277828,-117.647058823529,4,2,1,50,0,1
277872,-86.9565217391304,4,2,1,50,0,1
277916,-117.647058823529,4,2,1,50,0,1
277960,-86.9565217391304,4,2,1,50,0,1
278004,-117.647058823529,4,2,1,50,0,1
278049,-86.9565217391304,4,2,1,50,0,1
278093,-117.647058823529,4,2,1,50,0,1
278137,-86.9565217391304,4,2,1,50,0,1
278181,-117.647058823529,4,2,1,50,0,1
278225,-86.9565217391304,4,2,1,50,0,1
278269,-117.647058823529,4,2,1,50,0,1
278313,-86.9565217391304,4,2,1,50,0,1
278357,-117.647058823529,4,2,1,50,0,1
278402,-86.9565217391304,4,2,1,50,0,1
278446,-117.647058823529,4,2,1,50,0,1
278490,-86.9565217391304,4,2,1,50,0,1
278534,-117.647058823529,4,2,1,50,0,1
278578,-86.9565217391304,4,2,1,50,0,1
278622,-117.647058823529,4,2,1,50,0,1
278666,-86.9565217391304,4,2,1,50,0,1
278710,-133.333333333333,4,2,1,50,0,1
278754,-80,4,2,1,50,0,1
278799,-133.333333333333,4,2,1,50,0,1
278843,-80,4,2,1,50,0,1
278887,-133.333333333333,4,2,1,50,0,1
278931,-80,4,2,1,50,0,1
278975,-133.333333333333,4,2,1,50,0,1
279019,-80,4,2,1,50,0,1
279063,-133.333333333333,4,2,1,50,0,1
279107,-80,4,2,1,50,0,1
279152,-133.333333333333,4,2,1,50,0,1
279196,-80,4,2,1,50,0,1
279240,-133.333333333333,4,2,1,50,0,1
279284,-80,4,2,1,50,0,1
279328,-133.333333333333,4,2,1,50,0,1
279372,-80,4,2,1,50,0,1
279416,-133.333333333333,4,2,1,50,0,1
279460,-80,4,2,1,50,0,1
279504,-133.333333333333,4,2,1,50,0,1
279549,-80,4,2,1,50,0,1
279593,-133.333333333333,4,2,1,50,0,1
279637,-80,4,2,1,50,0,1
279681,-133.333333333333,4,2,1,50,0,1
279725,-80,4,2,1,50,0,1
279769,-133.333333333333,4,2,1,50,0,1
279813,-80,4,2,1,50,0,1
279857,-133.333333333333,4,2,1,50,0,1
279902,-80,4,2,1,50,0,1
279946,-133.333333333333,4,2,1,50,0,1
279990,-80,4,2,1,50,0,1
280034,-133.333333333333,4,2,1,50,0,1
280078,-80,4,2,1,50,0,1
280122,-133.333333333333,4,2,1,50,0,1
280166,-80,4,2,1,50,0,1
280210,-133.333333333333,4,2,1,50,0,1
280254,-80,4,2,1,50,0,1
280299,-133.333333333333,4,2,1,50,0,1
280343,-80,4,2,1,50,0,1
280387,-133.333333333333,4,2,1,50,0,1
280431,-80,4,2,1,50,0,1
280475,-133.333333333333,4,2,1,50,0,1
280519,-80,4,2,1,50,0,1
280563,-133.333333333333,4,2,1,50,0,1
280607,-80,4,2,1,50,0,1
280652,-133.333333333333,4,2,1,50,0,1
280696,-80,4,2,1,50,0,1
280740,-133.333333333333,4,2,1,50,0,1
280784,-80,4,2,1,50,0,1
280828,-133.333333333333,4,2,1,50,0,1
280872,-80,4,2,1,50,0,1
280916,-133.333333333333,4,2,1,50,0,1
280960,-80,4,2,1,50,0,1
281004,-133.333333333333,4,2,1,50,0,1
281049,-80,4,2,1,50,0,1
281093,-133.333333333333,4,2,1,50,0,1
281137,-80,4,2,1,50,0,1
281181,-133.333333333333,4,2,1,50,0,1
281225,-80,4,2,1,50,0,1
281269,-133.333333333333,4,2,1,50,0,1
281313,-80,4,2,1,50,0,1
281357,-133.333333333333,4,2,1,50,0,1
281402,-80,4,2,1,50,0,1
281446,-133.333333333333,4,2,1,50,0,1
281490,-80,4,2,1,50,0,1
281534,-100,4,2,1,50,0,1
284357,-100,4,2,1,50,0,0
306946,-111.111111111111,4,2,1,50,0,0
307034,-90.9090909090909,4,2,1,50,0,0
307122,-111.111111111111,4,2,1,50,0,0
307210,-90.9090909090909,4,2,1,50,0,0
307299,-111.111111111111,4,2,1,50,0,0
307387,-90.9090909090909,4,2,1,50,0,0
307475,-111.111111111111,4,2,1,50,0,0
307563,-90.9090909090909,4,2,1,50,0,0
307652,-111.111111111111,4,2,1,50,0,0
307740,-90.9090909090909,4,2,1,50,0,0
307828,-111.111111111111,4,2,1,50,0,0
307916,-90.9090909090909,4,2,1,50,0,0
308004,-111.111111111111,4,2,1,50,0,0
308093,-90.9090909090909,4,2,1,50,0,0
308181,-111.111111111111,4,2,1,50,0,0
308269,-90.9090909090909,4,2,1,50,0,0
308357,-111.111111111111,4,2,1,50,0,0
308446,-90.9090909090909,4,2,1,50,0,0
308534,-111.111111111111,4,2,1,50,0,0
308622,-90.9090909090909,4,2,1,50,0,0
308710,-111.111111111111,4,2,1,50,0,0
308799,-90.9090909090909,4,2,1,50,0,0
308887,-111.111111111111,4,2,1,50,0,0
308975,-90.9090909090909,4,2,1,50,0,0
309063,-111.111111111111,4,2,1,50,0,0
309152,-90.9090909090909,4,2,1,50,0,0
309240,-111.111111111111,4,2,1,50,0,0
309328,-90.9090909090909,4,2,1,50,0,0
309416,-133.333333333333,4,2,1,50,0,0
309681,-57.1428571428571,4,2,1,50,0,0
309769,-111.111111111111,4,2,1,50,0,0
309857,-90.9090909090909,4,2,1,50,0,0
309946,-111.111111111111,4,2,1,50,0,0
310034,-90.9090909090909,4,2,1,50,0,0
310122,-111.111111111111,4,2,1,50,0,0
310210,-90.9090909090909,4,2,1,50,0,0
310299,-111.111111111111,4,2,1,50,0,0
310387,-90.9090909090909,4,2,1,50,0,0
310475,-111.111111111111,4,2,1,50,0,0
310563,-90.9090909090909,4,2,1,50,0,0
310652,-111.111111111111,4,2,1,50,0,0
310740,-90.9090909090909,4,2,1,50,0,0
310828,-111.111111111111,4,2,1,50,0,0
310916,-90.9090909090909,4,2,1,50,0,0
311004,-111.111111111111,4,2,1,50,0,0
311093,-90.9090909090909,4,2,1,50,0,0
311181,-111.111111111111,4,2,1,50,0,0
311269,-90.9090909090909,4,2,1,50,0,0
311357,-111.111111111111,4,2,1,50,0,0
311446,-90.9090909090909,4,2,1,50,0,0
311534,-111.111111111111,4,2,1,50,0,0
311622,-90.9090909090909,4,2,1,50,0,0
311710,-111.111111111111,4,2,1,50,0,0
311799,-90.9090909090909,4,2,1,50,0,0
311887,-111.111111111111,4,2,1,50,0,0
311975,-90.9090909090909,4,2,1,50,0,0
312063,-133.333333333333,4,2,1,50,0,0
312152,-80,4,2,1,50,0,0
312240,-133.333333333333,4,2,1,50,0,0
312284,-80,4,2,1,50,0,0
312328,-133.333333333333,4,2,1,50,0,0
312372,-80,4,2,1,50,0,0
312416,-133.333333333333,4,2,1,50,0,0
312460,-80,4,2,1,50,0,0
312504,-133.333333333333,4,2,1,50,0,0
312549,-80,4,2,1,50,0,0
312593,-111.111111111111,4,2,1,50,0,0
312681,-90.9090909090909,4,2,1,50,0,0
312769,-111.111111111111,4,2,1,50,0,0
312857,-90.9090909090909,4,2,1,50,0,0
312946,-111.111111111111,4,2,1,50,0,0
313034,-90.9090909090909,4,2,1,50,0,0
313122,-111.111111111111,4,2,1,50,0,0
313210,-90.9090909090909,4,2,1,50,0,0
313299,-111.111111111111,4,2,1,50,0,0
313387,-90.9090909090909,4,2,1,50,0,0
313475,-111.111111111111,4,2,1,50,0,0
313563,-90.9090909090909,4,2,1,50,0,0
313652,-111.111111111111,4,2,1,50,0,0
313740,-90.9090909090909,4,2,1,50,0,0
313828,-111.111111111111,4,2,1,50,0,0
313916,-90.9090909090909,4,2,1,50,0,0
314004,-111.111111111111,4,2,1,50,0,0
314093,-90.9090909090909,4,2,1,50,0,0
314181,-111.111111111111,4,2,1,50,0,0
314269,-90.9090909090909,4,2,1,50,0,0
314357,-111.111111111111,4,2,1,50,0,0
314446,-90.9090909090909,4,2,1,50,0,0
314534,-111.111111111111,4,2,1,50,0,0
314622,-90.9090909090909,4,2,1,50,0,0
314710,-111.111111111111,4,2,1,50,0,0
314799,-90.9090909090909,4,2,1,50,0,0
314887,-111.111111111111,4,2,1,50,0,0
314975,-90.9090909090909,4,2,1,50,0,0
315063,-133.333333333333,4,2,1,50,0,0
315328,-57.1428571428571,4,2,1,50,0,0
315416,-111.111111111111,4,2,1,50,0,0
315504,-90.9090909090909,4,2,1,50,0,0
315593,-111.111111111111,4,2,1,50,0,0
315681,-90.9090909090909,4,2,1,50,0,0
315769,-111.111111111111,4,2,1,50,0,0
315857,-90.9090909090909,4,2,1,50,0,0
315946,-111.111111111111,4,2,1,50,0,0
316034,-90.9090909090909,4,2,1,50,0,0
316122,-111.111111111111,4,2,1,50,0,0
316210,-90.9090909090909,4,2,1,50,0,0
316299,-111.111111111111,4,2,1,50,0,0
316387,-90.9090909090909,4,2,1,50,0,0
316475,-111.111111111111,4,2,1,50,0,0
316563,-90.9090909090909,4,2,1,50,0,0
316652,-111.111111111111,4,2,1,50,0,0
316740,-90.9090909090909,4,2,1,50,0,0
316828,-111.111111111111,4,2,1,50,0,0
316916,-90.9090909090909,4,2,1,50,0,0
317004,-111.111111111111,4,2,1,50,0,0
317093,-90.9090909090909,4,2,1,50,0,0
317181,-111.111111111111,4,2,1,50,0,0
317269,-90.9090909090909,4,2,1,50,0,0
317357,-111.111111111111,4,2,1,50,0,0
317446,-90.9090909090909,4,2,1,50,0,0
317534,-111.111111111111,4,2,1,50,0,0
317975,-66.6666666666667,4,2,1,50,0,0
318063,-111.111111111111,4,2,1,50,0,0
318152,-90.9090909090909,4,2,1,50,0,0
318240,-111.111111111111,4,2,1,50,0,0
318504,-76.9230769230769,4,2,1,50,0,0
318593,-111.111111111111,4,2,1,50,0,0
318857,-76.9230769230769,4,2,1,50,0,0
318946,-111.111111111111,4,2,1,50,0,0
319210,-76.9230769230769,4,2,1,50,0,0
319299,-111.111111111111,4,2,1,50,0,0
319563,-76.9230769230769,4,2,1,50,0,0
319652,-111.111111111111,4,2,1,50,0,0
319916,-76.9230769230769,4,2,1,50,0,0
320004,-111.111111111111,4,2,1,50,0,0
320269,-76.9230769230769,4,2,1,50,0,0
320357,-111.111111111111,4,2,1,50,0,0
320622,-76.9230769230769,4,2,1,50,0,0
320710,-133.333333333333,4,2,1,50,0,0
320975,-57.1428571428571,4,2,1,50,0,0
321063,-111.111111111111,4,2,1,50,0,0
321328,-76.9230769230769,4,2,1,50,0,0
321416,-111.111111111111,4,2,1,50,0,0
321681,-76.9230769230769,4,2,1,50,0,0
321769,-111.111111111111,4,2,1,50,0,0
322034,-76.9230769230769,4,2,1,50,0,0
322122,-111.111111111111,4,2,1,50,0,0
322387,-76.9230769230769,4,2,1,50,0,0
322475,-111.111111111111,4,2,1,50,0,0
322740,-76.9230769230769,4,2,1,50,0,0
322828,-111.111111111111,4,2,1,50,0,0
323093,-76.9230769230769,4,2,1,50,0,0
323181,-111.111111111111,4,2,1,50,0,0
323357,-133.333333333333,4,2,1,50,0,0
323446,-80,4,2,1,50,0,0
323534,-133.333333333333,4,2,1,50,0,0
323578,-80,4,2,1,50,0,0
323622,-133.333333333333,4,2,1,50,0,0
323666,-80,4,2,1,50,0,0
323710,-133.333333333333,4,2,1,50,0,0
323754,-80,4,2,1,50,0,0
323799,-133.333333333333,4,2,1,50,0,0
323843,-80,4,2,1,50,0,0
323887,-111.111111111111,4,2,1,50,0,0
324152,-76.9230769230769,4,2,1,50,0,0
324240,-111.111111111111,4,2,1,50,0,0
324504,-76.9230769230769,4,2,1,50,0,0
324593,-111.111111111111,4,2,1,50,0,0
324857,-76.9230769230769,4,2,1,50,0,0
324946,-111.111111111111,4,2,1,50,0,0
325210,-76.9230769230769,4,2,1,50,0,0
325299,-111.111111111111,4,2,1,50,0,0
325563,-76.9230769230769,4,2,1,50,0,0
325652,-111.111111111111,4,2,1,50,0,0
325916,-76.9230769230769,4,2,1,50,0,0
326004,-111.111111111111,4,2,1,50,0,0
326269,-76.9230769230769,4,2,1,50,0,0
326357,-133.333333333333,4,2,1,50,0,0
326622,-57.1428571428571,4,2,1,50,0,0
326710,-111.111111111111,4,2,1,50,0,0
326975,-76.9230769230769,4,2,1,50,0,0
327063,-111.111111111111,4,2,1,50,0,0
327328,-76.9230769230769,4,2,1,50,0,0
327416,-111.111111111111,4,2,1,50,0,0
327681,-76.9230769230769,4,2,1,50,0,0
327769,-111.111111111111,4,2,1,50,0,0
328034,-76.9230769230769,4,2,1,50,0,0
328122,-100,4,2,1,50,0,0

[HitObjects]
64,192,2004,5,4,1:0:0:0:
192,192,2004,1,0,1:0:0:0:
448,192,2004,1,0,0:0:0:0:
64,192,2357,1,0,1:0:0:0:
64,192,2710,1,0,1:0:0:0:
64,192,3063,1,0,1:0:0:0:
64,192,3416,1,0,1:0:0:0:
64,192,3769,1,0,1:0:0:0:
64,192,4122,1,0,1:0:0:0:
64,192,4475,128,0,4828:1:0:0:0:
448,192,4828,1,0,1:0:0:0:
448,192,5181,1,0,1:0:0:0:
448,192,5534,1,0,1:0:0:0:
448,192,5887,1,0,1:0:0:0:
448,192,6240,1,0,1:0:0:0:
448,192,6593,1,0,1:0:0:0:
448,192,6946,1,0,1:0:0:0:
192,192,7122,128,0,7299:0:0:0:0:
448,192,7299,1,0,1:0:0:0:
320,192,7387,1,0,0:0:0:0:
192,192,7475,1,0,0:0:0:0:
64,192,7563,1,0,0:0:0:0:
320,192,7652,1,0,1:0:0:0:
320,192,8004,1,0,1:0:0:0:
320,192,8357,1,0,1:0:0:0:
320,192,8710,1,0,1:0:0:0:
320,192,9063,1,0,1:0:0:0:
320,192,9416,1,0,1:0:0:0:
320,192,9769,1,0,1:0:0:0:
320,192,10122,128,0,10475:1:0:0:0:
192,192,10475,1,0,1:0:0:0:
192,192,10828,1,0,1:0:0:0:
192,192,11181,1,0,1:0:0:0:
192,192,11534,1,0,1:0:0:0:
192,192,11887,1,0,1:0:0:0:
192,192,12240,1,0,1:0:0:0:
192,192,12593,1,0,1:0:0:0:
64,192,13122,1,0,1:0:0:0:
64,192,13299,1,0,1:0:0:0:
448,192,13475,1,0,0:0:0:50:hat.wav
64,192,13652,1,0,1:0:0:0:
320,192,13828,1,0,0:0:0:50:hat.wav
64,192,14004,1,0,1:0:0:0:
448,192,14181,1,0,0:0:0:50:hat.wav
64,192,14357,1,0,1:0:0:0:
320,192,14534,1,0,0:0:0:50:hat.wav
64,192,14710,1,0,1:0:0:0:
448,192,14887,1,0,0:0:0:50:hat.wav
64,192,15063,1,0,1:0:0:0:
320,192,15240,1,0,0:0:0:50:hat.wav
64,192,15416,1,0,1:0:0:0:
448,192,15593,1,0,0:0:0:50:hat.wav
64,192,15769,128,0,16122:1:0:0:0:
192,192,16122,1,0,1:0:0:0:
320,192,16299,1,0,0:0:0:50:hat.wav
192,192,16475,1,0,1:0:0:0:
448,192,16652,1,0,0:0:0:50:hat.wav
192,192,16828,1,0,1:0:0:0:
320,192,17004,1,0,0:0:0:50:hat.wav
192,192,17181,1,0,1:0:0:0:
448,192,17357,1,0,0:0:0:50:hat.wav
192,192,17534,1,0,1:0:0:0:
320,192,17710,1,0,0:0:0:50:hat.wav
192,192,17887,1,0,1:0:0:0:
448,192,18063,1,0,0:0:0:50:hat.wav
192,192,18240,1,0,1:0:0:0:
448,192,18416,128,0,18593:0:0:0:50:hat.wav
64,192,18593,1,0,1:0:0:0:
320,192,18681,1,0,0:0:0:0:
192,192,18769,1,0,0:0:0:50:hat.wav
448,192,18857,1,0,0:0:0:0:
320,192,18946,1,0,1:0:0:0:
64,192,19122,1,0,0:0:0:50:hat.wav
320,192,19299,1,0,1:0:0:0:
192,192,19475,1,0,0:0:0:50:hat.wav
320,192,19652,1,0,1:0:0:0:
64,192,19828,1,0,0:0:0:50:hat.wav
320,192,20004,1,0,1:0:0:0:
192,192,20181,1,0,0:0:0:50:hat.wav
320,192,20357,1,0,1:0:0:0:
64,192,20534,1,0,0:0:0:50:hat.wav
320,192,20710,1,0,1:0:0:0:
192,192,20887,1,0,0:0:0:50:hat.wav
320,192,21063,1,0,1:0:0:0:
64,192,21240,1,0,0:0:0:50:hat.wav
320,192,21416,128,0,21769:1:0:0:0:
192,192,21769,1,0,1:0:0:0:
448,192,21769,1,2,0:0:0:0:
320,192,21946,1,0,0:0:0:50:hat.wav
448,192,22122,1,2,0:0:0:0:
64,192,22122,1,0,1:0:0:0:
192,192,22299,1,0,0:0:0:50:hat.wav
448,192,22475,1,2,0:0:0:0:
320,192,22475,1,0,1:0:0:0:
64,192,22652,1,0,0:0:0:50:hat.wav
448,192,22828,1,2,0:0:0:0:
192,192,22828,1,0,1:0:0:0:
320,192,23004,1,0,0:0:0:50:hat.wav
448,192,23181,1,2,0:0:0:0:
64,192,23181,1,8,1:0:0:0:
192,192,23225,1,8,1:0:0:0:
320,192,23269,1,8,1:0:0:0:
448,192,23313,1,8,1:0:0:0:
64,192,23357,1,8,1:0:0:0:
192,192,23402,1,8,1:0:0:0:
320,192,23446,1,8,1:0:0:0:
448,192,23490,1,8,1:0:0:0:
64,192,23534,1,8,1:0:0:0:
192,192,23578,1,8,1:0:0:0:
448,192,23622,1,8,1:0:0:0:
320,192,23666,1,8,1:0:0:0:
64,192,23710,1,8,1:0:0:0:
192,192,23754,1,8,1:0:0:0:
448,192,23799,1,8,1:0:0:0:
320,192,23843,1,8,1:0:0:0:
64,192,23887,1,8,1:0:0:0:
192,192,23931,1,8,1:0:0:0:
320,192,23975,1,8,1:0:0:0:
448,192,24019,1,8,1:0:0:0:
64,192,24063,1,8,1:0:0:0:
192,192,24107,1,8,1:0:0:0:
448,192,24152,1,8,1:0:0:0:
320,192,24196,1,8,1:0:0:0:
192,192,24240,1,8,1:0:0:0:
64,192,24284,1,8,1:0:0:0:
448,192,24328,1,8,1:0:0:0:
320,192,24372,1,8,1:0:0:0:
64,192,24416,1,8,1:0:0:0:
192,192,24460,1,8,1:0:0:0:
448,192,24504,1,8,1:0:0:0:
320,192,24549,1,8,1:0:0:0:
64,192,24593,1,4,0:0:0:0:
192,192,24593,1,2,0:0:0:0:
320,192,24681,1,0,0:0:0:0:
448,192,24769,1,0,0:0:0:0:
64,192,24857,1,0,0:0:0:0:
192,192,24946,1,2,0:0:0:0:
320,192,24946,1,8,0:0:0:0:
448,192,24946,1,0,0:0:0:0:
64,192,25034,1,0,0:0:0:0:
448,192,25122,1,0,0:0:0:0:
320,192,25210,1,0,0:0:0:0:
192,192,25299,1,0,0:0:0:0:
64,192,25299,1,2,0:0:0:0:
448,192,25387,1,0,0:0:0:0:
320,192,25475,1,0,0:0:0:0:
192,192,25563,1,0,0:0:0:0:
320,192,25652,1,0,0:0:0:0:
448,192,25652,1,8,0:0:0:0:
64,192,25652,1,2,0:0:0:0:
192,192,25740,1,0,0:0:0:0:
320,192,25828,1,0,0:0:0:0:
448,192,25916,1,0,0:0:0:0:
64,192,26004,1,2,0:0:0:0:
192,192,26004,1,0,0:0:0:0:
320,192,26093,1,0,0:0:0:0:
448,192,26181,1,0,0:0:0:0:
64,192,26269,1,0,0:0:0:0:
192,192,26357,1,2,0:0:0:0:
448,192,26357,1,8,0:0:0:0:
320,192,26357,1,0,0:0:0:0:
64,192,26446,1,0,0:0:0:0:
192,192,26534,1,0,0:0:0:0:
448,192,26622,1,0,0:0:0:0:
64,192,26710,1,2,0:0:0:0:
320,192,26710,1,0,0:0:0:0:
192,192,26799,1,0,0:0:0:0:
448,192,26887,1,0,0:0:0:0:
320,192,26975,1,0,0:0:0:0:
192,192,27063,1,8,0:0:0:0:
448,192,27063,1,0,0:0:0:0:
64,192,27063,1,2,0:0:0:0:
320,192,27152,1,0,0:0:0:0:
192,192,27240,1,0,0:0:0:0:
64,192,27328,1,0,0:0:0:0:
448,192,27416,1,2,0:0:0:0:
320,192,27416,1,0,0:0:0:0:
192,192,27504,1,0,0:0:0:0:
64,192,27593,1,0,0:0:0:0:
448,192,27681,1,0,0:0:0:0:
192,192,27769,1,0,0:0:0:0:
320,192,27769,1,8,0:0:0:0:
64,192,27769,1,2,0:0:0:0:
448,192,27857,1,0,0:0:0:0:
192,192,27946,1,0,0:0:0:0:
320,192,28034,1,0,0:0:0:0:
192,192,28122,1,0,0:0:0:0:
64,192,28122,1,2,0:0:0:0:
320,192,28210,1,0,0:0:0:0:
448,192,28299,1,0,0:0:0:0:
192,192,28387,1,0,0:0:0:0:
64,192,28475,1,2,0:0:0:0:
448,192,28475,1,8,0:0:0:0:
320,192,28475,1,0,0:0:0:0:
192,192,28563,1,0,0:0:0:0:
320,192,28652,1,0,0:0:0:0:
64,192,28740,1,0,0:0:0:0:
448,192,28828,1,0,0:0:0:0:
320,192,28828,1,2,0:0:0:0:
192,192,28916,1,0,0:0:0:0:
64,192,29004,1,0,0:0:0:0:
320,192,29093,1,0,0:0:0:0:
64,192,29181,1,2,0:0:0:0:
448,192,29181,1,8,0:0:0:0:
192,192,29181,1,0,0:0:0:0:
320,192,29269,1,0,0:0:0:0:
192,192,29357,1,0,0:0:0:0:
448,192,29446,1,0,0:0:0:0:
320,192,29534,1,0,0:0:0:0:
64,192,29534,1,2,0:0:0:0:
192,192,29622,1,0,0:0:0:0:
448,192,29710,1,0,0:0:0:0:
320,192,29799,1,0,0:0:0:0:
192,192,29887,1,8,0:0:0:0:
448,192,29887,1,0,0:0:0:0:
64,192,29887,1,2,0:0:0:0:
320,192,29975,1,0,0:0:0:0:
64,192,30063,1,0,0:0:0:0:
192,192,30152,1,0,0:0:0:0:
448,192,30240,1,0,0:0:0:0:
320,192,30240,1,2,0:0:0:0:
64,192,30328,1,0,0:0:0:0:
192,192,30416,1,0,0:0:0:0:
320,192,30504,1,0,0:0:0:0:
448,192,30593,1,8,0:0:0:0:
192,192,30593,1,2,0:0:0:0:
64,192,30593,1,0,0:0:0:0:
320,192,30681,1,0,0:0:0:0:
64,192,30769,1,0,0:0:0:0:
448,192,30857,1,0,0:0:0:0:
192,192,30946,1,2,0:0:0:0:
320,192,30946,1,0,0:0:0:0:
64,192,31034,1,0,0:0:0:0:
448,192,31122,1,0,0:0:0:0:
320,192,31210,1,0,0:0:0:0:
192,192,31299,1,0,0:0:0:0:
64,192,31299,1,2,0:0:0:0:
448,192,31299,1,8,0:0:0:0:
320,192,31387,1,0,0:0:0:0:
192,192,31475,1,0,0:0:0:0:
64,192,31563,1,0,0:0:0:0:
448,192,31652,1,2,0:0:0:0:
320,192,31652,1,0,0:0:0:0:
192,192,31740,1,0,0:0:0:0:
64,192,31828,1,0,0:0:0:0:
320,192,31916,1,0,0:0:0:0:
64,192,32004,1,2,0:0:0:0:
448,192,32004,1,0,0:0:0:0:
192,192,32004,1,8,0:0:0:0:
320,192,32093,1,0,0:0:0:0:
192,192,32181,1,0,0:0:0:0:
64,192,32269,1,0,0:0:0:0:
448,192,32357,1,0,0:0:0:0:
320,192,32357,1,2,0:0:0:0:
192,192,32446,1,0,0:0:0:0:
64,192,32534,1,0,0:0:0:0:
448,192,32622,1,0,0:0:0:0:
320,192,32710,1,8,0:0:0:0:
64,192,32710,1,0,0:0:0:0:
192,192,32710,1,2,0:0:0:0:
448,192,32799,1,0,0:0:0:0:
192,192,32887,1,0,0:0:0:0:
320,192,32975,1,0,0:0:0:0:
64,192,33063,1,2,0:0:0:0:
448,192,33063,1,0,0:0:0:0:
192,192,33152,1,0,0:0:0:0:
320,192,33240,1,0,0:0:0:0:
64,192,33328,1,0,0:0:0:0:
320,192,33416,1,2,0:0:0:0:
192,192,33416,1,0,0:0:0:0:
448,192,33416,1,8,0:0:0:0:
64,192,33504,1,0,0:0:0:0:
448,192,33593,1,0,0:0:0:0:
192,192,33681,1,0,0:0:0:0:
64,192,33769,1,2,0:0:0:0:
320,192,33769,1,0,0:0:0:0:
448,192,33857,1,0,0:0:0:0:
192,192,33946,1,0,0:0:0:0:
320,192,34034,1,0,0:0:0:0:
192,192,34122,1,0,0:0:0:0:
64,192,34122,1,2,0:0:0:0:
448,192,34122,1,8,0:0:0:0:
320,192,34210,1,0,0:0:0:0:
448,192,34299,1,0,0:0:0:0:
64,192,34387,1,0,0:0:0:0:
192,192,34475,1,2,0:0:0:0:
320,192,34475,1,8,1:0:0:0:
448,192,34563,1,8,1:0:0:0:
64,192,34652,1,8,1:0:0:0:
448,192,34740,1,8,1:0:0:0:
64,192,34828,1,0,0:0:0:0:
192,192,34828,1,10,0:0:0:0:
320,192,34828,1,8,1:0:0:0:
448,192,34916,1,8,1:0:0:0:
192,192,35004,1,8,1:0:0:0:
320,192,35093,1,8,1:0:0:0:
192,192,35181,1,8,1:0:0:0:
64,192,35181,1,2,0:0:0:0:
320,192,35269,1,8,1:0:0:0:
448,192,35357,1,8,1:0:0:0:
192,192,35446,1,8,1:0:0:0:
448,192,35534,1,0,0:0:0:0:
320,192,35534,1,8,1:0:0:0:
64,192,35534,1,10,0:0:0:0:
192,192,35622,1,8,1:0:0:0:
448,192,35710,1,8,1:0:0:0:
192,192,35799,1,8,1:0:0:0:
64,192,35887,1,4,0:0:0:0:
448,192,35887,1,8,1:0:0:0:
320,192,35887,1,2,0:0:0:0:
192,192,35975,1,0,0:0:0:0:
320,192,36063,1,0,0:0:0:0:
448,192,36152,1,0,0:0:0:0:
192,192,36240,1,8,1:0:0:0:
320,192,36240,1,10,0:0:0:0:
64,192,36240,1,0,0:0:0:0:
448,192,36328,1,0,0:0:0:0:
64,192,36416,1,0,0:0:0:0:
192,192,36504,1,0,0:0:0:0:
448,192,36593,1,8,1:0:0:0:
320,192,36593,1,2,0:0:0:0:
64,192,36681,1,0,0:0:0:0:
192,192,36769,1,0,0:0:0:0:
448,192,36857,1,0,0:0:0:0:
192,192,36946,1,0,0:0:0:0:
320,192,36946,1,8,1:0:0:0:
64,192,36946,1,10,0:0:0:0:
448,192,37034,1,0,0:0:0:0:
320,192,37122,1,0,0:0:0:0:
192,192,37210,1,0,0:0:0:0:
448,192,37299,1,2,0:0:0:0:
64,192,37299,1,8,1:0:0:0:
320,192,37387,1,0,0:0:0:0:
192,192,37475,1,0,0:0:0:0:
64,192,37563,1,0,0:0:0:0:
448,192,37652,1,8,1:0:0:0:
192,192,37652,1,0,0:0:0:0:
320,192,37652,1,10,0:0:0:0:
64,192,37740,1,0,0:0:0:0:
448,192,37828,1,0,0:0:0:0:
320,192,37916,1,0,0:0:0:0:
192,192,38004,1,8,1:0:0:0:
64,192,38004,1,2,0:0:0:0:
448,192,38093,1,0,0:0:0:0:
320,192,38181,1,0,0:0:0:0:
192,192,38269,1,0,0:0:0:0:
320,192,38357,1,0,0:0:0:0:
448,192,38357,1,10,0:0:0:0:
64,192,38357,1,8,1:0:0:0:
192,192,38446,1,0,0:0:0:0:
320,192,38534,1,0,0:0:0:0:
448,192,38622,1,0,0:0:0:0:
192,192,38710,1,2,0:0:0:0:
64,192,38710,1,8,1:0:0:0:
320,192,38799,1,0,0:0:0:0:
448,192,38887,1,8,1:0:0:0:
64,192,38975,1,0,0:0:0:0:
448,192,39063,1,10,0:0:0:0:
320,192,39063,1,8,1:0:0:0:
192,192,39063,1,0,0:0:0:0:
64,192,39152,1,0,0:0:0:0:
448,192,39240,1,8,1:0:0:0:
320,192,39328,1,0,0:0:0:0:
192,192,39416,1,8,1:0:0:0:
64,192,39416,1,2,0:0:0:0:
448,192,39504,1,0,0:0:0:0:
64,192,39593,1,8,1:0:0:0:
192,192,39681,1,0,0:0:0:0:
448,192,39769,1,10,0:0:0:0:
64,192,39769,1,8,1:0:0:0:
320,192,39769,1,0,0:0:0:0:
192,192,39857,1,0,0:0:0:0:
448,192,39946,1,8,1:0:0:0:
320,192,40034,1,0,0:0:0:0:
448,192,40122,1,2,0:0:0:0:
64,192,40122,1,8,1:0:0:0:
192,192,40210,1,0,0:0:0:0:
64,192,40299,1,8,1:0:0:0:
320,192,40387,1,0,0:0:0:0:
448,192,40475,1,0,0:0:0:0:
192,192,40475,1,10,0:0:0:0:
64,192,40475,1,8,1:0:0:0:
320,192,40563,1,0,0:0:0:0:
448,192,40652,1,8,1:0:0:0:
64,192,40740,1,0,0:0:0:0:
192,192,40828,1,2,0:0:0:0:
448,192,40828,1,8,1:0:0:0:
320,192,40916,1,0,0:0:0:0:
64,192,41004,1,8,1:0:0:0:
192,192,41093,1,0,0:0:0:0:
320,192,41181,1,0,0:0:0:0:
64,192,41181,1,8,1:0:0:0:
448,192,41181,1,10,0:0:0:0:
192,192,41269,1,0,0:0:0:0:
448,192,41357,1,8,1:0:0:0:
320,192,41446,1,0,0:0:0:0:
192,192,41534,1,2,0:0:0:0:
64,192,41534,1,8,1:0:0:0:
448,192,41622,1,8,1:0:0:0:
64,192,41710,1,8,1:0:0:0:
320,192,41710,1,0,0:0:0:0:
192,192,41799,1,8,1:0:0:0:
448,192,41887,1,2,0:0:0:0:
320,192,41887,1,8,0:0:0:0:
64,192,41887,1,8,1:0:0:0:
192,192,41975,1,8,1:0:0:0:
320,192,42063,1,8,1:0:0:0:
448,192,42063,1,0,0:0:0:0:
64,192,42152,1,8,1:0:0:0:
192,192,42240,1,8,1:0:0:0:
448,192,42240,1,2,0:0:0:0:
320,192,42328,1,8,1:0:0:0:
64,192,42416,1,0,0:0:0:0:
192,192,42416,1,8,1:0:0:0:
448,192,42504,1,8,1:0:0:0:
320,192,42593,1,8,1:0:0:0:
192,192,42593,1,8,0:0:0:0:
64,192,42593,1,2,0:0:0:0:
448,192,42681,1,8,1:0:0:0:
320,192,42769,1,8,1:0:0:0:
64,192,42769,1,0,0:0:0:0:
192,192,42857,1,8,1:0:0:0:
448,192,42946,1,2,0:0:0:0:
320,192,42946,1,8,1:0:0:0:
64,192,43034,1,8,1:0:0:0:
192,192,43122,1,8,1:0:0:0:
448,192,43122,1,0,0:0:0:0:
320,192,43210,1,8,1:0:0:0:
192,192,43299,1,2,0:0:0:0:
448,192,43299,1,8,1:0:0:0:
64,192,43299,1,8,0:0:0:0:
320,192,43387,1,8,1:0:0:0:
64,192,43475,1,8,1:0:0:0:
192,192,43475,1,0,0:0:0:0:
448,192,43563,1,8,1:0:0:0:
192,192,43652,1,2,0:0:0:0:
320,192,43652,1,8,1:0:0:0:
64,192,43740,1,8,1:0:0:0:
448,192,43828,1,8,1:0:0:0:
320,192,43828,1,0,0:0:0:0:
192,192,43916,1,8,1:0:0:0:
64,192,44004,1,8,1:0:0:0:
448,192,44004,1,2,0:0:0:0:
320,192,44004,1,8,0:0:0:0:
192,192,44093,1,8,1:0:0:0:
64,192,44181,1,8,1:0:0:0:
448,192,44181,1,0,0:0:0:0:
320,192,44269,1,8,1:0:0:0:
64,192,44357,1,8,1:0:0:0:
448,192,44357,1,2,0:0:0:0:
192,192,44402,1,8,1:0:0:0:
320,192,44446,1,8,1:0:0:0:
448,192,44490,1,8,1:0:0:0:
64,192,44534,1,8,1:0:0:0:
192,192,44578,1,8,1:0:0:0:
320,192,44622,1,8,1:0:0:0:
448,192,44666,1,8,1:0:0:0:
64,192,44710,1,8,1:0:0:0:
192,192,44754,1,8,1:0:0:0:
448,192,44799,1,8,1:0:0:0:
320,192,44843,1,8,1:0:0:0:
64,192,44887,1,8,1:0:0:0:
192,192,44931,1,8,1:0:0:0:
448,192,44975,1,8,1:0:0:0:
320,192,45019,1,8,1:0:0:0:
192,192,45063,1,8,1:0:0:0:
64,192,45107,1,8,1:0:0:0:
448,192,45152,1,8,1:0:0:0:
320,192,45196,1,8,1:0:0:0:
192,192,45240,1,8,1:0:0:0:
64,192,45284,1,8,1:0:0:0:
448,192,45328,1,8,1:0:0:0:
320,192,45372,1,8,1:0:0:0:
64,192,45416,1,8,1:0:0:0:
192,192,45460,1,8,1:0:0:0:
448,192,45504,1,8,1:0:0:0:
320,192,45549,1,8,1:0:0:0:
64,192,45593,1,8,1:0:0:0:
192,192,45637,1,8,1:0:0:0:
320,192,45681,1,8,1:0:0:0:
448,192,45725,1,8,1:0:0:0:
64,192,45769,1,2,0:0:0:0:
192,192,45769,1,8,1:0:0:0:
320,192,45813,1,8,1:0:0:0:
448,192,45857,1,8,1:0:0:0:
64,192,45902,1,8,1:0:0:0:
320,192,45946,1,0,0:0:0:0:
192,192,45946,1,8,1:0:0:0:
448,192,45990,5,8,1:0:0:0:
64,192,46034,1,8,1:0:0:0:
192,192,46078,1,8,1:0:0:0:
448,192,46122,1,10,0:0:0:0:
320,192,46122,1,8,1:0:0:0:
64,192,46166,1,8,1:0:0:0:
192,192,46210,1,8,1:0:0:0:
320,192,46254,1,8,1:0:0:0:
448,192,46299,1,0,0:0:0:0:
64,192,46299,1,8,1:0:0:0:
192,192,46343,1,8,1:0:0:0:
320,192,46387,1,8,1:0:0:0:
64,192,46431,1,8,1:0:0:0:
448,192,46475,1,8,1:0:0:0:
192,192,46475,1,2,0:0:0:0:
320,192,46519,1,8,1:0:0:0:
64,192,46563,1,8,1:0:0:0:
192,192,46607,1,8,1:0:0:0:
320,192,46652,1,0,0:0:0:0:
448,192,46652,1,8,1:0:0:0:
64,192,46696,1,8,1:0:0:0:
192,192,46740,1,8,1:0:0:0:
320,192,46784,1,8,1:0:0:0:
448,192,46828,1,10,0:0:0:0:
64,192,46828,1,8,1:0:0:0:
192,192,46872,1,8,1:0:0:0:
320,192,46916,1,8,1:0:0:0:
64,192,46960,1,8,1:0:0:0:
448,192,47004,1,0,0:0:0:0:
192,192,47004,1,8,1:0:0:0:
320,192,47049,1,8,1:0:0:0:
64,192,47093,1,8,1:0:0:0:
192,192,47137,1,8,1:0:0:0:
448,192,47181,5,4,0:0:0:0:
320,192,47181,128,4,50004:1:0:0:0:
448,192,50004,128,0,50357:0:0:0:0:
64,192,50181,128,0,50357:0:0:0:0:
192,192,50357,128,0,50710:0:0:0:0:
448,192,50534,128,0,50710:0:0:0:0:
320,192,50710,128,0,51063:0:0:0:0:
192,192,50887,128,0,51063:0:0:0:0:
64,192,51063,128,0,51416:0:0:0:0:
320,192,51240,128,0,51416:0:0:0:0:
448,192,51416,128,0,51769:0:0:0:0:
192,192,51593,128,0,51769:0:0:0:0:
320,192,51769,128,0,51946:0:0:0:0:
64,192,51946,1,0,0:0:0:0:
192,192,52122,128,0,52475:0:0:0:0:
448,192,52299,128,0,52475:0:0:0:0:
320,192,52475,128,0,52652:0:0:0:0:
64,192,52652,1,0,0:0:0:0:
192,192,52828,128,0,53181:0:0:0:0:
320,192,53004,128,0,53181:0:0:0:0:
448,192,53181,128,0,53534:0:0:0:0:
64,192,53357,128,0,53534:0:0:0:0:
192,192,53534,128,0,53887:0:0:0:0:
448,192,53710,128,0,53887:0:0:0:0:
320,192,53887,128,0,54240:0:0:0:0:
192,192,54063,128,0,54240:0:0:0:0:
64,192,54240,128,0,54593:0:0:0:0:
320,192,54416,128,0,54593:0:0:0:0:
448,192,54593,128,0,54946:0:0:0:0:
192,192,54769,128,0,54946:0:0:0:0:
320,192,54946,128,0,55299:0:0:0:0:
64,192,55122,128,0,55299:0:0:0:0:
192,192,55299,128,0,55652:0:0:0:0:
448,192,55475,128,0,55652:0:0:0:0:
320,192,55652,128,0,56004:0:0:0:0:
192,192,55828,128,0,56004:0:0:0:0:
64,192,56004,128,0,58475:0:0:0:0:
448,192,56181,128,0,56357:0:0:0:0:
192,192,56357,128,0,56710:0:0:0:0:
320,192,56534,128,0,56710:0:0:0:0:
448,192,56710,128,0,57063:0:0:0:0:
192,192,56887,128,0,57063:0:0:0:0:
320,192,57063,128,0,57416:0:0:0:0:
448,192,57240,128,0,57416:0:0:0:0:
192,192,57416,128,0,57769:0:0:0:0:
320,192,57593,128,0,57769:0:0:0:0:
448,192,57769,128,0,58122:0:0:0:0:
320,192,57946,128,0,58122:0:0:0:0:
192,192,58122,128,0,58299:0:0:0:0:
448,192,58299,128,0,58475:0:0:0:0:
192,192,58475,128,0,59004:0:0:0:100:A#6.wav
320,192,58475,128,4,58828:1:0:0:0:
448,192,58652,128,0,59004:0:0:0:100:B6.wav
64,192,58828,128,0,59181:0:0:0:100:C#7.wav
320,192,59004,128,0,59357:0:0:0:100:F#7.wav
192,192,59181,128,0,59534:0:0:0:100:C#7.wav
448,192,59357,128,0,59710:0:0:0:100:B6.wav
320,192,59534,128,0,59887:0:0:0:100:A#6.wav
192,192,59710,128,0,60063:0:0:0:100:B6.wav
448,192,59887,128,0,60416:0:0:0:100:C#7.wav
64,192,59887,128,0,60240:0:0:0:100:C#5.wav
320,192,60063,128,0,60416:0:0:0:100:F#7.wav
192,192,60240,128,0,60593:0:0:0:100:C#7.wav
64,192,60416,128,0,60769:0:0:0:100:F#7.wav
448,192,60593,128,0,60946:0:0:0:100:G#7.wav
192,192,60769,128,0,61122:0:0:0:100:C#7.wav
64,192,60946,128,0,61299:0:0:0:100:F7.wav
448,192,61122,128,0,61475:0:0:0:100:C#7.wav
320,192,61299,128,0,61828:0:0:0:100:A#6.wav
192,192,61299,128,0,61652:0:0:0:100:Eb5.wav
64,192,61475,128,0,61828:0:0:0:100:B6.wav
448,192,61652,128,0,62004:0:0:0:100:C#7.wav
192,192,61828,128,0,62181:0:0:0:100:F#7.wav
320,192,62004,128,0,62357:0:0:0:100:C#7.wav
64,192,62181,128,0,62534:0:0:0:100:B6.wav
448,192,62357,128,0,62710:0:0:0:100:A#6.wav
192,192,62534,128,0,62887:0:0:0:100:B6.wav
320,192,62710,128,0,63063:0:0:0:100:C#7.wav
64,192,62887,128,0,63240:0:0:0:100:F#7.wav
448,192,63063,128,0,63416:0:0:0:100:C#7.wav
192,192,63240,128,0,63593:0:0:0:100:B6.wav
64,192,63416,128,0,63769:0:0:0:100:A#6.wav
320,192,63593,128,0,63946:0:0:0:100:B6.wav
448,192,63769,128,0,64122:0:0:0:100:F#7.wav
64,192,63946,128,0,64299:0:0:0:100:C#7.wav
192,192,64122,128,0,64652:0:0:0:100:Eb5.wav
320,192,64122,128,0,64475:0:0:0:100:A#6.wav
448,192,64299,128,0,64652:0:0:0:100:B6.wav
64,192,64475,128,0,64828:0:0:0:100:C#7.wav
320,192,64652,128,0,65004:0:0:0:100:F#7.wav
192,192,64828,128,0,65181:0:0:0:100:C#7.wav
64,192,65004,128,0,65357:0:0:0:100:B6.wav
320,192,65181,128,0,65534:0:0:0:100:A#6.wav
192,192,65357,128,0,65710:0:0:0:100:B6.wav
448,192,65534,128,0,66063:0:0:0:100:C#7.wav
64,192,65534,128,0,65887:0:0:0:100:F5.wav
320,192,65710,128,0,66063:0:0:0:100:F#7.wav
192,192,65887,128,0,66240:0:0:0:100:C#7.wav
64,192,66063,128,0,66416:0:0:0:100:B6.wav
320,192,66240,128,0,66593:0:0:0:100:A#6.wav
192,192,66416,128,0,66769:0:0:0:100:B6.wav
448,192,66593,128,0,66946:0:0:0:100:A#6.wav
64,192,66769,128,0,67122:0:0:0:100:F#6.wav
320,192,66946,128,0,67475:0:0:0:100:A#6.wav
192,192,66946,128,0,67299:0:0:0:100:Eb5.wav
448,192,67122,128,0,67475:0:0:0:100:B6.wav
64,192,67299,128,0,67652:0:0:0:100:C#7.wav
192,192,67475,128,0,67828:0:0:0:100:G#7.wav
448,192,67652,128,0,68004:0:0:0:100:C#7.wav
320,192,67828,128,0,68181:0:0:0:100:B6.wav
64,192,68004,128,0,68357:0:0:0:100:A#6.wav
448,192,68181,128,0,68534:0:0:0:100:B6.wav
192,192,68357,128,0,68887:0:0:0:100:Eb5.wav
320,192,68357,128,0,68710:0:0:0:100:C#7.wav
64,192,68534,128,0,68887:0:0:0:100:A#7.wav
448,192,68710,128,0,69063:0:0:0:100:G#7.wav
320,192,68887,128,0,69240:0:0:0:100:Eb7.wav
64,192,69063,128,0,69593:0:0:0:100:D5.wav
192,192,69063,128,0,69416:0:0:0:100:D7.wav
448,192,69240,128,0,69593:0:0:0:100:Eb7.wav
320,192,69416,128,0,69769:0:0:0:100:F7.wav
192,192,69593,128,0,69946:0:0:0:100:F#7.wav
448,192,69769,128,0,70299:0:0:0:100:A#6.wav
64,192,69769,128,0,70122:0:0:0:100:Eb5.wav
320,192,69946,128,0,70299:0:0:0:100:B6.wav
192,192,70122,128,0,70475:0:0:0:100:C#7.wav
64,192,70299,128,0,70652:0:0:0:100:F#7.wav
320,192,70475,128,0,70828:0:0:0:100:C#7.wav
448,192,70652,128,0,71004:0:0:0:100:B6.wav
192,192,70828,128,0,71181:0:0:0:100:A#6.wav
320,192,71004,128,0,71357:0:0:0:100:B6.wav
64,192,71181,128,0,71710:0:0:0:100:C#5.wav
448,192,71181,128,0,71534:0:0:0:100:C#7.wav
192,192,71357,128,0,71710:0:0:0:100:F#7.wav
320,192,71534,128,0,71887:0:0:0:100:C#7.wav
448,192,71710,128,0,72063:0:0:0:100:F#7.wav
64,192,71887,128,0,72240:0:0:0:100:G#7.wav
192,192,72063,128,0,72416:0:0:0:100:C#7.wav
448,192,72240,128,0,72593:0:0:0:100:F7.wav
64,192,72416,128,0,72769:0:0:0:100:C#7.wav
320,192,72593,128,0,73122:0:0:0:100:A#6.wav
192,192,72593,128,0,72946:0:0:0:100:Eb5.wav
448,192,72769,128,0,73122:0:0:0:100:B6.wav
64,192,72946,128,0,73299:0:0:0:100:C#7.wav
192,192,73122,128,0,73475:0:0:0:100:F#7.wav
320,192,73299,128,0,73652:0:0:0:100:C#7.wav
448,192,73475,128,0,73828:0:0:0:100:B6.wav
64,192,73652,128,0,74004:0:0:0:100:A#6.wav
192,192,73828,128,0,74181:0:0:0:100:B6.wav
448,192,74004,128,0,74357:0:0:0:100:C#7.wav
320,192,74181,128,0,74534:0:0:0:100:F#7.wav
64,192,74357,128,0,74710:0:0:0:100:C#7.wav
192,192,74534,128,0,74887:0:0:0:100:B6.wav
448,192,74710,128,0,75063:0:0:0:100:A#6.wav
64,192,74887,128,0,75240:0:0:0:100:B6.wav
320,192,75063,128,0,75416:0:0:0:100:F#7.wav
448,192,75240,128,0,75593:0:0:0:100:C#7.wav
192,192,75416,128,0,75946:0:0:0:100:A#6.wav
64,192,75416,128,0,75769:0:0:0:100:C#5.wav
320,192,75593,128,0,75946:0:0:0:100:B6.wav
448,192,75769,128,0,76122:0:0:0:100:C#7.wav
64,192,75946,128,0,76299:0:0:0:100:F#7.wav
192,192,76122,128,0,76475:0:0:0:100:C#7.wav
448,192,76299,128,0,76652:0:0:0:100:B6.wav
320,192,76475,128,0,76828:0:0:0:100:A#6.wav
192,192,76652,128,0,76828:0:0:0:100:B6.wav
448,192,76828,128,0,80357:0:0:0:100:C#7.wav
64,192,76828,128,0,77181:0:0:0:100:F5.wav
320,192,77004,128,0,77357:0:0:0:100:F#7.wav
192,192,77181,128,0,77534:0:0:0:100:C#7.wav
64,192,77357,128,0,77710:0:0:0:100:B6.wav
320,192,77534,128,0,77887:0:0:0:100:A#6.wav
192,192,77710,128,0,78063:0:0:0:100:B6.wav
64,192,77887,128,0,78063:0:0:0:100:A#6.wav
320,192,78063,128,0,78240:0:0:0:100:F#6.wav
192,192,78240,128,0,78416:0:0:0:100:G#6.wav
64,192,78240,128,0,78593:0:0:0:100:F#5.wav
320,192,78416,128,0,78769:0:0:0:100:A#6.wav
192,192,78593,128,0,78946:0:0:0:100:C#7.wav
64,192,78769,128,0,79122:0:0:0:100:G#7.wav
320,192,78946,128,0,79299:0:0:0:100:C#7.wav
192,192,79122,128,0,79475:0:0:0:100:B6.wav
64,192,79299,128,0,79652:0:0:0:100:A#6.wav
320,192,79475,128,0,79652:0:0:0:100:B6.wav
192,192,79652,128,0,80004:0:0:0:100:C#7.wav
64,192,79828,128,0,80004:0:0:0:100:A#7.wav
320,192,80004,128,0,80357:0:0:0:100:G#7.wav
192,192,80181,128,0,80357:0:0:0:100:Eb7.wav
64,192,80357,128,0,80534:0:0:0:100:D7.wav
448,192,80534,128,0,80710:0:0:0:100:Eb7.wav
192,192,80710,128,0,81063:0:0:0:100:F7.wav
448,192,81063,128,0,83004:0:0:0:0:
64,192,81063,1,4,0:0:0:0:
320,192,81063,1,2,0:0:0:0:
192,192,81240,1,0,0:0:0:0:
320,192,81416,1,0,0:0:0:0:
64,192,81593,1,0,0:0:0:0:
320,192,81769,1,0,0:0:0:0:
192,192,81946,1,0,0:0:0:0:
64,192,82122,1,0,0:0:0:0:
320,192,82299,1,0,0:0:0:0:
64,192,82475,1,0,0:0:0:0:
192,192,82652,1,0,0:0:0:0:
320,192,82828,1,0,0:0:0:0:
64,192,83004,1,0,0:0:0:0:
320,192,83181,128,0,83357:0:0:0:0:
192,192,83357,128,0,83534:0:0:0:0:
64,192,83534,128,0,83710:0:0:0:0:
192,192,83710,128,0,84063:0:0:0:0:
320,192,83887,1,0,0:0:0:0:
448,192,84063,128,0,84240:0:0:0:0:
320,192,84240,128,0,85828:0:0:0:0:
192,192,84416,1,0,0:0:0:0:
64,192,84593,1,0,0:0:0:0:
192,192,84769,1,0,0:0:0:0:
448,192,84946,1,0,0:0:0:0:
64,192,85122,1,0,0:0:0:0:
448,192,85299,1,0,0:0:0:0:
192,192,85475,1,0,0:0:0:0:
64,192,85652,1,0,0:0:0:0:
448,192,85828,1,0,0:0:0:0:
64,192,86004,128,0,86357:0:0:0:0:
320,192,86181,1,0,0:0:0:0:
192,192,86357,128,0,86710:0:0:0:0:
448,192,86534,1,0,0:0:0:0:
320,192,86710,128,0,87769:0:0:0:0:
64,192,86887,1,0,0:0:0:0:
448,192,87063,1,0,0:0:0:0:
192,192,87240,1,0,0:0:0:0:
64,192,87416,1,0,0:0:0:0:
448,192,87593,1,0,0:0:0:0:
64,192,87769,128,0,87946:0:0:0:0:
192,192,87946,128,0,89004:0:0:0:0:
320,192,88122,1,0,0:0:0:0:
448,192,88299,1,0,0:0:0:0:
320,192,88475,1,0,0:0:0:0:
64,192,88652,1,0,0:0:0:0:
320,192,88828,1,0,0:0:0:0:
448,192,89004,128,0,89181:0:0:0:0:
320,192,89181,128,0,89357:0:0:0:0:
64,192,89357,128,0,91299:0:0:0:0:
448,192,89534,1,0,0:0:0:0:
192,192,89710,1,0,0:0:0:0:
320,192,89887,1,0,0:0:0:0:
192,192,90063,1,0,0:0:0:0:
448,192,90240,1,0,0:0:0:0:
320,192,90416,1,0,0:0:0:0:
448,192,90593,1,0,0:0:0:0:
320,192,90769,1,0,0:0:0:0:
192,192,90946,1,0,0:0:0:0:
320,192,91122,1,0,0:0:0:0:
448,192,91299,1,0,0:0:0:0:
192,192,91475,1,0,0:0:0:0:
320,192,91652,1,0,0:0:0:0:
64,192,91828,1,0,0:0:0:0:
448,192,92004,128,0,92357:0:0:0:0:
320,192,92357,1,2,0:0:0:0:
192,192,92357,1,4,0:0:0:0:
64,192,92357,128,0,94299:0:0:0:0:
448,192,92534,1,0,0:0:0:0:
192,192,92710,1,0,0:0:0:0:
320,192,92710,1,2,0:0:0:0:
448,192,92887,1,0,0:0:0:0:
192,192,93063,1,0,0:0:0:0:
320,192,93063,1,2,0:0:0:0:
448,192,93240,1,0,0:0:0:0:
192,192,93416,1,0,0:0:0:0:
320,192,93416,1,2,0:0:0:0:
448,192,93593,1,0,0:0:0:0:
192,192,93769,1,0,0:0:0:0:
320,192,93769,1,2,0:0:0:0:
448,192,93946,1,0,0:0:0:0:
192,192,94122,1,0,0:0:0:0:
320,192,94122,1,2,0:0:0:0:
448,192,94299,1,0,0:0:0:0:
320,192,94475,128,2,94652:0:0:0:0:
192,192,94475,1,0,0:0:0:0:
64,192,94652,128,0,94828:0:0:0:0:
192,192,94828,128,0,95004:0:0:0:0:
320,192,94828,1,2,0:0:0:0:
448,192,95004,128,0,95357:0:0:0:0:
64,192,95181,1,2,0:0:0:0:
192,192,95181,1,0,0:0:0:0:
320,192,95357,128,0,95534:0:0:0:0:
192,192,95534,128,0,97122:0:0:0:0:
448,192,95534,1,2,0:0:0:0:
64,192,95710,1,0,0:0:0:0:
320,192,95887,1,0,0:0:0:0:
448,192,95887,1,2,0:0:0:0:
64,192,96063,1,0,0:0:0:0:
320,192,96240,1,0,0:0:0:0:
448,192,96240,1,2,0:0:0:0:
64,192,96416,1,0,0:0:0:0:
320,192,96593,1,0,0:0:0:0:
448,192,96593,1,2,0:0:0:0:
64,192,96769,1,0,0:0:0:0:
320,192,96946,1,0,0:0:0:0:
448,192,96946,1,2,0:0:0:0:
64,192,97122,1,0,0:0:0:0:
320,192,97299,128,0,97652:0:0:0:0:
192,192,97299,1,2,0:0:0:0:
448,192,97475,1,0,0:0:0:0:
192,192,97652,128,0,98004:0:0:0:0:
64,192,97652,1,2,0:0:0:0:
320,192,97828,1,0,0:0:0:0:
448,192,98004,128,0,99063:0:0:0:0:
64,192,98004,1,2,0:0:0:0:
192,192,98093,1,0,0:0:0:0:
64,192,98357,1,2,0:0:0:0:
320,192,98357,1,0,0:0:0:0:
192,192,98622,1,0,0:0:0:0:
64,192,98710,1,2,0:0:0:0:
320,192,98710,1,0,0:0:0:0:
192,192,98887,1,0,0:0:0:0:
64,192,99063,128,2,99240:0:0:0:0:
320,192,99063,1,0,0:0:0:0:
192,192,99240,128,0,100299:0:0:0:0:
448,192,99416,1,0,0:0:0:0:
64,192,99416,1,2,0:0:0:0:
320,192,99504,1,0,0:0:0:0:
64,192,99769,1,2,0:0:0:0:
448,192,99769,1,0,0:0:0:0:
320,192,100034,1,0,0:0:0:0:
64,192,100122,1,2,0:0:0:0:
448,192,100122,1,0,0:0:0:0:
320,192,100299,128,0,100475:0:0:0:0:
64,192,100475,128,2,100652:0:0:0:0:
192,192,100475,1,0,0:0:0:0:
448,192,100652,128,0,102593:0:0:0:0:
320,192,100828,1,0,0:0:0:0:
64,192,100828,1,2,0:0:0:0:
192,192,100916,1,0,0:0:0:0:
320,192,101181,1,0,0:0:0:0:
64,192,101181,1,2,0:0:0:0:
192,192,101446,1,0,0:0:0:0:
320,192,101534,1,0,0:0:0:0:
64,192,101534,1,2,0:0:0:0:
192,192,101710,1,0,0:0:0:0:
320,192,101887,1,0,0:0:0:0:
64,192,101887,1,2,0:0:0:0:
320,192,102063,1,0,0:0:0:0:
192,192,102152,1,0,0:0:0:0:
320,192,102240,1,0,0:0:0:0:
64,192,102240,1,2,0:0:0:0:
192,192,102416,1,0,0:0:0:0:
320,192,102593,1,0,0:0:0:0:
64,192,102593,1,2,0:0:0:0:
192,192,102681,1,2,0:0:0:0:
448,192,102769,1,2,0:0:0:0:
320,192,102857,1,2,0:0:0:0:
64,192,102946,1,0,0:0:0:0:
192,192,102946,1,2,0:0:0:0:
320,192,103034,1,2,0:0:0:0:
448,192,103034,1,0,0:0:0:0:
192,192,103122,1,2,0:0:0:0:
64,192,103122,1,0,0:0:0:0:
320,192,103210,1,2,0:0:0:0:
448,192,103210,1,0,0:0:0:0:
192,192,103299,1,2,0:0:0:0:
64,192,103299,1,0,0:0:0:0:
320,192,103387,1,2,0:0:0:0:
448,192,103387,1,0,0:0:0:0:
192,192,103475,1,2,0:0:0:0:
64,192,103475,1,0,0:0:0:0:
320,192,103563,1,2,0:0:0:0:
192,192,103652,1,4,0:0:0:0:
64,192,103652,1,2,0:0:0:0:
448,192,103652,1,2,1:0:0:0:
448,192,104004,1,2,1:0:0:0:
448,192,104357,1,2,1:0:0:0:
448,192,104710,1,2,1:0:0:0:
448,192,105063,1,2,1:0:0:0:
448,192,105416,1,2,1:0:0:0:
448,192,105769,1,2,1:0:0:0:
192,192,105946,1,0,0:0:0:0:
448,192,106122,128,2,106475:1:0:0:0:
64,192,106475,1,2,1:0:0:0:
64,192,106828,1,2,1:0:0:0:
64,192,107181,1,2,1:0:0:0:
448,192,107269,1,0,0:0:0:0:
320,192,107357,1,0,0:0:0:0:
448,192,107446,1,0,0:0:0:0:
64,192,107534,1,2,1:0:0:0:
320,192,107710,1,0,0:0:0:0:
64,192,107887,1,2,1:0:0:0:
448,192,108063,1,0,0:0:0:0:
64,192,108240,1,2,1:0:0:0:
320,192,108416,1,0,0:0:0:0:
64,192,108593,128,2,108769:1:0:0:0:
448,192,108769,1,0,0:0:0:0:
64,192,108946,128,2,109299:1:0:0:0:
320,192,109299,1,2,1:0:0:0:
192,192,109475,1,0,0:0:0:0:
320,192,109652,1,2,1:0:0:0:
64,192,109828,1,0,0:0:0:0:
320,192,110004,1,2,1:0:0:0:
192,192,110181,1,0,0:0:0:0:
320,192,110357,1,2,1:0:0:0:
64,192,110534,1,0,0:0:0:0:
192,192,110710,1,2,1:0:0:0:
448,192,110887,1,0,0:0:0:0:
192,192,111063,1,2,1:0:0:0:
320,192,111240,1,0,0:0:0:0:
192,192,111416,1,2,1:0:0:0:
448,192,111593,1,0,0:0:0:0:
192,192,111769,128,2,112122:1:0:0:0:
448,192,112122,1,2,1:0:0:0:
64,192,112299,1,0,0:0:0:0:
448,192,112475,5,2,1:0:0:0:
192,192,112652,1,0,0:0:0:0:
448,192,112828,1,2,1:0:0:0:
64,192,113004,1,0,0:0:0:0:
448,192,113181,1,2,1:0:0:0:
192,192,113357,1,0,0:0:0:0:
64,192,113534,5,8,1:0:0:0:
320,192,113622,1,8,1:0:0:0:
64,192,113710,1,8,1:0:0:0:
448,192,113799,1,8,1:0:0:0:
192,192,113887,1,8,1:0:0:0:
192,192,113975,1,8,1:0:0:0:
320,192,114063,1,8,1:0:0:0:
320,192,114152,1,8,1:0:0:0:
64,192,114240,1,8,1:0:0:0:
448,192,114328,1,8,1:0:0:0:
192,192,114416,1,8,1:0:0:0:
64,192,114504,1,8,1:0:0:0:
448,192,114593,1,8,1:0:0:0:
192,192,114681,1,8,1:0:0:0:
448,192,114769,1,8,1:0:0:0:
64,192,114857,1,8,1:0:0:0:
320,192,114946,1,2,0:0:0:0:
192,192,114946,1,8,0:0:0:0:
448,192,114946,1,4,0:0:0:0:
64,192,115122,1,0,0:0:0:0:
192,192,115210,1,0,0:0:0:0:
320,192,115299,1,8,0:0:0:0:
448,192,115299,1,2,0:0:0:0:
64,192,115387,1,0,0:0:0:0:
192,192,115475,1,0,0:0:0:0:
320,192,115652,1,0,0:0:0:0:
448,192,115652,1,2,0:0:0:0:
192,192,115828,1,0,0:0:0:0:
320,192,115916,1,0,0:0:0:0:
64,192,116004,1,0,0:0:0:0:
448,192,116004,1,2,0:0:0:0:
192,192,116093,1,0,0:0:0:0:
320,192,116181,1,0,0:0:0:0:
192,192,116357,1,8,0:0:0:0:
320,192,116357,1,2,0:0:0:0:
448,192,116534,1,0,0:0:0:0:
64,192,116622,1,0,0:0:0:0:
320,192,116710,1,8,0:0:0:0:
192,192,116710,1,2,0:0:0:0:
448,192,116799,1,0,0:0:0:0:
64,192,116887,1,0,0:0:0:0:
192,192,117063,1,2,0:0:0:0:
320,192,117063,1,0,0:0:0:0:
448,192,117240,1,0,0:0:0:0:
320,192,117328,1,0,0:0:0:0:
192,192,117416,1,2,0:0:0:0:
64,192,117416,1,0,0:0:0:0:
448,192,117504,1,0,0:0:0:0:
320,192,117593,1,0,0:0:0:0:
64,192,117769,1,8,0:0:0:0:
192,192,117769,1,2,0:0:0:0:
64,192,117946,1,0,0:0:0:0:
192,192,117946,1,2,0:0:0:0:
320,192,118034,1,0,0:0:0:0:
64,192,118122,1,8,0:0:0:0:
192,192,118122,1,2,0:0:0:0:
448,192,118210,1,0,0:0:0:0:
192,192,118299,1,2,0:0:0:0:
64,192,118299,1,0,0:0:0:0:
320,192,118475,1,2,0:0:0:0:
448,192,118475,1,0,0:0:0:0:
320,192,118652,1,2,0:0:0:0:
448,192,118652,1,0,0:0:0:0:
192,192,118740,1,0,0:0:0:0:
320,192,118828,1,2,0:0:0:0:
448,192,118828,1,0,0:0:0:0:
64,192,118916,1,0,0:0:0:0:
320,192,119004,1,2,0:0:0:0:
448,192,119004,1,0,0:0:0:0:
64,192,119181,1,8,0:0:0:0:
192,192,119181,1,2,0:0:0:0:
64,192,119357,1,0,0:0:0:0:
192,192,119357,1,2,0:0:0:0:
320,192,119446,1,0,0:0:0:0:
64,192,119534,1,8,0:0:0:0:
192,192,119534,1,2,0:0:0:0:
448,192,119622,1,0,0:0:0:0:
192,192,119710,1,2,0:0:0:0:
64,192,119710,1,0,0:0:0:0:
320,192,119887,1,0,0:0:0:0:
448,192,119887,1,2,0:0:0:0:
320,192,120063,1,0,0:0:0:0:
448,192,120063,1,2,0:0:0:0:
192,192,120152,1,0,0:0:0:0:
320,192,120240,1,0,0:0:0:0:
448,192,120240,1,2,0:0:0:0:
64,192,120328,1,0,0:0:0:0:
320,192,120416,1,0,0:0:0:0:
448,192,120416,1,2,0:0:0:0:
64,192,120593,1,10,0:0:0:0:
448,192,120593,1,8,1:0:0:0:
192,192,120681,1,8,1:0:0:0:
320,192,120769,1,2,0:0:0:0:
448,192,120769,1,8,1:0:0:0:
64,192,120857,1,8,1:0:0:0:
192,192,120946,1,10,0:0:0:0:
320,192,120946,1,8,1:0:0:0:
448,192,121034,1,8,1:0:0:0:
64,192,121122,1,2,0:0:0:0:
192,192,121122,1,8,1:0:0:0:
320,192,121210,1,8,1:0:0:0:
448,192,121299,1,8,1:0:0:0:
64,192,121299,1,10,0:0:0:0:
192,192,121387,1,8,1:0:0:0:
320,192,121475,1,2,0:0:0:0:
448,192,121475,1,8,1:0:0:0:
64,192,121563,1,8,1:0:0:0:
192,192,121652,1,10,0:0:0:0:
320,192,121652,1,8,1:0:0:0:
448,192,121740,1,8,1:0:0:0:
64,192,121828,1,2,0:0:0:0:
192,192,121828,1,8,1:0:0:0:
320,192,121916,1,8,1:0:0:0:
64,192,122004,1,10,0:0:0:0:
448,192,122004,1,8,1:0:0:0:
192,192,122093,1,8,1:0:0:0:
320,192,122181,1,10,0:0:0:0:
448,192,122181,1,8,1:0:0:0:
192,192,122269,1,8,1:0:0:0:
448,192,122357,1,8,1:0:0:0:
64,192,122357,1,10,0:0:0:0:
320,192,122446,1,8,1:0:0:0:
64,192,122534,1,10,0:0:0:0:
192,192,122534,1,8,1:0:0:0:
448,192,122622,1,8,1:0:0:0:
64,192,122710,1,10,0:0:0:0:
320,192,122710,1,8,1:0:0:0:
192,192,122799,1,8,1:0:0:0:
320,192,122887,1,10,0:0:0:0:
448,192,122887,1,8,1:0:0:0:
192,192,122975,1,8,1:0:0:0:
64,192,123063,1,10,0:0:0:0:
448,192,123063,1,8,1:0:0:0:
320,192,123152,1,8,1:0:0:0:
192,192,123240,1,10,0:0:0:0:
64,192,123240,1,8,1:0:0:0:
320,192,123328,1,8,1:0:0:0:
64,192,123416,1,10,0:0:0:0:
448,192,123416,1,8,1:0:0:0:
192,192,123460,1,8,1:0:0:0:
320,192,123504,1,8,1:0:0:0:
64,192,123549,1,8,1:0:0:0:
448,192,123593,1,8,1:0:0:0:
192,192,123593,1,2,0:0:0:0:
320,192,123637,1,8,1:0:0:0:
64,192,123681,1,8,1:0:0:0:
192,192,123725,1,8,1:0:0:0:
448,192,123769,1,8,1:0:0:0:
320,192,123769,1,2,0:0:0:0:
64,192,123813,1,8,1:0:0:0:
192,192,123857,1,8,1:0:0:0:
448,192,123902,1,8,1:0:0:0:
320,192,123946,1,8,1:0:0:0:
64,192,123946,1,2,0:0:0:0:
192,192,123990,1,8,1:0:0:0:
448,192,124034,1,8,1:0:0:0:
320,192,124078,1,8,1:0:0:0:
192,192,124122,1,8,1:0:0:0:
64,192,124122,1,2,0:0:0:0:
448,192,124166,1,8,1:0:0:0:
320,192,124210,1,8,1:0:0:0:
64,192,124254,1,8,1:0:0:0:
192,192,124299,1,8,1:0:0:0:
448,192,124299,1,2,0:0:0:0:
320,192,124343,1,8,1:0:0:0:
64,192,124387,1,8,1:0:0:0:
192,192,124431,1,8,1:0:0:0:
320,192,124475,1,8,1:0:0:0:
448,192,124475,1,2,0:0:0:0:
64,192,124519,1,8,1:0:0:0:
192,192,124563,1,8,1:0:0:0:
320,192,124607,1,8,1:0:0:0:
64,192,124652,1,8,1:0:0:0:
448,192,124652,1,2,0:0:0:0:
192,192,124696,1,8,1:0:0:0:
320,192,124740,1,8,1:0:0:0:
448,192,124784,1,8,1:0:0:0:
64,192,124828,1,2,0:0:0:0:
192,192,124828,1,8,0:0:0:0:
320,192,125004,1,2,0:0:0:0:
192,192,125093,1,2,0:0:0:0:
320,192,125181,1,2,0:0:0:0:
192,192,125269,1,2,0:0:0:0:
320,192,125357,1,2,0:0:0:0:
448,192,125357,1,8,0:0:0:0:
64,192,125357,1,0,0:0:0:0:
64,192,125534,1,2,0:0:0:0:
64,192,125622,1,2,0:0:0:0:
448,192,125710,1,2,0:0:0:0:
448,192,125799,1,2,0:0:0:0:
320,192,125887,1,8,0:0:0:0:
192,192,125887,128,0,126240:0:0:0:0:
448,192,126240,1,0,0:0:0:0:
320,192,126240,1,2,0:0:0:0:
64,192,126240,1,4,0:0:0:0:
192,192,126416,1,0,0:0:0:0:
448,192,126593,1,2,0:0:0:0:
320,192,126593,1,0,0:0:0:0:
192,192,126681,1,0,0:0:0:0:
64,192,126769,1,0,0:0:0:0:
192,192,126857,1,0,0:0:0:0:
320,192,126946,1,0,0:0:0:0:
448,192,126946,1,2,0:0:0:0:
192,192,127122,1,0,0:0:0:0:
320,192,127210,1,0,0:0:0:0:
64,192,127299,1,0,0:0:0:0:
448,192,127299,1,2,0:0:0:0:
320,192,127475,1,0,0:0:0:0:
64,192,127652,1,0,0:0:0:0:
448,192,127652,1,2,0:0:0:0:
320,192,127828,1,0,0:0:0:0:
192,192,127916,1,0,0:0:0:0:
64,192,128004,1,0,0:0:0:0:
448,192,128004,1,2,0:0:0:0:
320,192,128181,1,0,0:0:0:0:
192,192,128357,1,2,0:0:0:0:
64,192,128357,1,0,0:0:0:0:
448,192,128534,1,0,0:0:0:0:
192,192,128710,1,2,0:0:0:0:
320,192,128710,1,0,0:0:0:0:
448,192,128887,1,0,0:0:0:0:
64,192,129063,1,2,0:0:0:0:
320,192,129063,1,0,0:0:0:0:
192,192,129240,1,0,0:0:0:0:
448,192,129416,1,2,0:0:0:0:
320,192,129416,1,0,0:0:0:0:
192,192,129504,1,0,0:0:0:0:
64,192,129593,1,0,0:0:0:0:
448,192,129681,1,0,0:0:0:0:
320,192,129769,1,2,0:0:0:0:
192,192,129769,1,0,0:0:0:0:
64,192,129946,1,0,0:0:0:0:
192,192,130034,1,0,0:0:0:0:
320,192,130122,1,2,0:0:0:0:
448,192,130122,1,0,0:0:0:0:
64,192,130299,1,0,0:0:0:0:
192,192,130475,1,2,0:0:0:0:
448,192,130475,1,0,0:0:0:0:
320,192,130563,1,0,0:0:0:0:
192,192,130652,1,0,0:0:0:0:
64,192,130740,1,0,0:0:0:0:
320,192,130828,1,2,0:0:0:0:
448,192,130828,1,0,0:0:0:0:
192,192,130916,1,0,0:0:0:0:
64,192,131004,1,0,0:0:0:0:
192,192,131181,1,2,0:0:0:0:
320,192,131181,1,0,0:0:0:0:
448,192,131269,1,0,0:0:0:0:
64,192,131357,1,0,0:0:0:0:
320,192,131446,1,0,0:0:0:0:
192,192,131534,1,2,0:0:0:0:
64,192,131534,1,0,0:0:0:0:
320,192,131710,1,0,0:0:0:0:
64,192,131887,1,2,0:0:0:0:
448,192,131887,1,0,0:0:0:0:
192,192,132063,1,0,0:0:0:0:
320,192,132240,1,2,0:0:0:0:
448,192,132240,1,0,0:0:0:0:
192,192,132328,1,0,0:0:0:0:
320,192,132416,1,0,0:0:0:0:
192,192,132504,1,0,0:0:0:0:
64,192,132593,1,2,0:0:0:0:
448,192,132593,1,0,0:0:0:0:
320,192,132769,1,0,0:0:0:0:
192,192,132857,1,0,0:0:0:0:
320,192,132946,1,2,0:0:0:0:
448,192,132946,1,0,0:0:0:0:
192,192,133122,1,0,0:0:0:0:
64,192,133299,1,2,0:0:0:0:
320,192,133299,1,0,0:0:0:0:
448,192,133475,1,0,0:0:0:0:
320,192,133563,1,0,0:0:0:0:
64,192,133652,1,2,0:0:0:0:
192,192,133652,1,0,0:0:0:0:
320,192,133828,1,0,0:0:0:0:
192,192,134004,1,2,0:0:0:0:
448,192,134004,1,0,0:0:0:0:
64,192,134181,1,0,0:0:0:0:
320,192,134357,1,2,0:0:0:0:
448,192,134357,1,0,0:0:0:0:
192,192,134534,1,0,0:0:0:0:
64,192,134710,1,2,0:0:0:0:
320,192,134710,1,0,0:0:0:0:
448,192,134799,1,0,0:0:0:0:
64,192,134887,1,0,0:0:0:0:
192,192,134975,1,0,0:0:0:0:
320,192,135063,1,2,0:0:0:0:
448,192,135063,1,0,0:0:0:0:
192,192,135240,1,0,0:0:0:0:
320,192,135328,1,0,0:0:0:0:
448,192,135416,1,0,0:0:0:0:
64,192,135416,1,2,0:0:0:0:
192,192,135504,1,0,0:0:0:0:
320,192,135593,1,0,0:0:0:0:
192,192,135769,1,2,0:0:0:0:
448,192,135769,1,0,0:0:0:0:
320,192,135946,1,0,0:0:0:0:
192,192,136034,1,0,0:0:0:0:
64,192,136122,1,2,0:0:0:0:
448,192,136122,1,0,0:0:0:0:
320,192,136299,1,0,0:0:0:0:
64,192,136387,1,0,0:0:0:0:
192,192,136475,1,0,0:0:0:0:
320,192,136652,1,0,0:0:0:0:
448,192,136828,1,2,0:0:0:0:
448,192,136916,1,2,0:0:0:0:
64,192,137004,1,0,0:0:0:0:
192,192,137181,1,0,0:0:0:0:
320,192,137269,1,0,0:0:0:0:
64,192,137357,1,8,1:0:0:0:
448,192,137357,1,0,0:0:0:0:
192,192,137357,1,0,0:0:0:0:
320,192,137534,1,0,0:0:0:0:
448,192,137534,1,2,0:0:0:0:
64,192,137534,1,4,0:0:0:0:
192,192,137622,1,0,0:0:0:0:
320,192,137710,1,0,0:0:0:0:
64,192,137799,1,0,0:0:0:0:
448,192,137887,1,2,0:0:0:0:
192,192,137887,1,8,0:0:0:0:
320,192,137887,1,0,0:0:0:0:
64,192,137975,1,0,0:0:0:0:
448,192,138063,1,0,0:0:0:0:
192,192,138152,1,0,0:0:0:0:
320,192,138240,1,0,0:0:0:0:
64,192,138240,1,2,0:0:0:0:
448,192,138328,1,0,0:0:0:0:
192,192,138416,1,0,0:0:0:0:
320,192,138504,1,0,0:0:0:0:
192,192,138593,1,8,0:0:0:0:
64,192,138593,1,0,0:0:0:0:
448,192,138593,1,2,0:0:0:0:
320,192,138681,1,0,0:0:0:0:
64,192,138769,1,0,0:0:0:0:
448,192,138857,1,0,0:0:0:0:
192,192,138946,1,0,0:0:0:0:
320,192,138946,1,2,0:0:0:0:
64,192,139034,1,0,0:0:0:0:
448,192,139122,1,0,0:0:0:0:
192,192,139210,1,0,0:0:0:0:
320,192,139299,1,8,0:0:0:0:
64,192,139299,1,0,0:0:0:0:
448,192,139299,1,2,0:0:0:0:
192,192,139387,1,0,0:0:0:0:
320,192,139475,1,0,0:0:0:0:
64,192,139563,1,0,0:0:0:0:
448,192,139652,1,2,0:0:0:0:
192,192,139652,1,0,0:0:0:0:
320,192,139740,1,0,0:0:0:0:
64,192,139828,1,0,0:0:0:0:
192,192,139916,1,0,0:0:0:0:
64,192,140004,1,2,0:0:0:0:
320,192,140004,1,8,0:0:0:0:
448,192,140004,1,0,0:0:0:0:
192,192,140093,1,0,0:0:0:0:
448,192,140181,1,0,0:0:0:0:
64,192,140269,1,0,0:0:0:0:
448,192,140357,1,2,0:0:0:0:
320,192,140357,1,0,0:0:0:0:
192,192,140446,1,0,0:0:0:0:
64,192,140534,1,0,0:0:0:0:
448,192,140622,1,0,0:0:0:0:
64,192,140710,1,8,0:0:0:0:
192,192,140710,1,0,0:0:0:0:
320,192,140710,1,2,0:0:0:0:
448,192,140799,1,0,0:0:0:0:
64,192,140887,1,0,0:0:0:0:
192,192,140975,1,0,0:0:0:0:
320,192,141063,1,2,0:0:0:0:
448,192,141063,1,0,0:0:0:0:
64,192,141152,1,0,0:0:0:0:
192,192,141240,1,0,0:0:0:0:
320,192,141328,1,0,0:0:0:0:
448,192,141416,1,2,0:0:0:0:
192,192,141416,1,0,0:0:0:0:
64,192,141416,1,8,0:0:0:0:
320,192,141504,1,0,0:0:0:0:
192,192,141593,1,0,0:0:0:0:
64,192,141681,1,0,0:0:0:0:
320,192,141769,1,2,0:0:0:0:
448,192,141769,1,0,0:0:0:0:
192,192,141857,1,0,0:0:0:0:
64,192,141946,1,0,0:0:0:0:
320,192,142034,1,0,0:0:0:0:
192,192,142122,1,0,0:0:0:0:
64,192,142122,1,2,0:0:0:0:
448,192,142122,1,8,0:0:0:0:
320,192,142210,1,0,0:0:0:0:
192,192,142299,1,0,0:0:0:0:
448,192,142387,1,0,0:0:0:0:
192,192,142475,1,2,0:0:0:0:
64,192,142475,128,0,142828:0:0:0:0:
320,192,142563,1,0,0:0:0:0:
448,192,142652,1,0,0:0:0:0:
192,192,142740,1,0,0:0:0:0:
320,192,142828,1,2,0:0:0:0:
448,192,142828,128,8,143181:0:0:0:0:
192,192,142916,1,0,0:0:0:0:
64,192,143004,1,0,0:0:0:0:
192,192,143093,1,0,0:0:0:0:
320,192,143181,5,0,0:0:0:0:
64,192,143181,1,2,0:0:0:0:
192,192,143269,1,0,0:0:0:0:
320,192,143357,1,0,0:0:0:0:
448,192,143446,1,0,0:0:0:0:
192,192,143534,1,8,0:0:0:0:
320,192,143534,1,0,0:0:0:0:
64,192,143534,1,2,0:0:0:0:
448,192,143622,1,0,0:0:0:0:
192,192,143710,1,0,0:0:0:0:
64,192,143710,1,2,0:0:0:0:
320,192,143799,1,0,0:0:0:0:
448,192,143887,1,0,0:0:0:0:
64,192,143887,1,2,0:0:0:0:
192,192,143975,1,0,0:0:0:0:
320,192,144063,1,0,0:0:0:0:
64,192,144152,1,0,0:0:0:0:
192,192,144240,1,2,0:0:0:0:
448,192,144240,1,8,0:0:0:0:
320,192,144240,1,0,0:0:0:0:
64,192,144328,5,0,0:0:0:0:
448,192,144416,1,0,0:0:0:0:
320,192,144416,1,2,0:0:0:0:
192,192,144504,1,0,0:0:0:0:
64,192,144593,1,2,0:0:0:0:
448,192,144593,1,0,0:0:0:0:
320,192,144681,1,0,0:0:0:0:
192,192,144769,1,2,0:0:0:0:
448,192,144769,1,0,0:0:0:0:
64,192,144857,1,2,0:0:0:0:
320,192,144857,1,0,0:0:0:0:
192,192,144946,1,2,0:0:0:0:
448,192,144946,1,8,0:0:0:0:
320,192,145034,1,0,0:0:0:0:
64,192,145122,1,0,0:0:0:0:
192,192,145122,1,2,0:0:0:0:
448,192,145210,1,0,0:0:0:0:
320,192,145210,1,2,0:0:0:0:
64,192,145299,1,0,0:0:0:0:
192,192,145299,1,2,0:0:0:0:
320,192,145387,1,0,0:0:0:0:
448,192,145475,1,0,0:0:0:0:
64,192,145475,1,2,0:0:0:0:
192,192,145563,1,2,0:0:0:0:
320,192,145563,1,0,0:0:0:0:
64,192,145652,1,2,0:0:0:0:
448,192,145652,1,8,0:0:0:0:
192,192,145740,1,0,0:0:0:0:
448,192,145828,1,0,0:0:0:0:
320,192,145828,1,2,0:0:0:0:
192,192,145916,1,2,0:0:0:0:
64,192,146004,1,4,0:0:0:0:
320,192,146004,1,0,0:0:0:0:
448,192,146004,1,8,1:0:0:0:
320,192,146269,1,0,0:0:0:0:
448,192,146269,1,8,1:0:0:0:
320,192,146534,1,0,0:0:0:0:
448,192,146534,1,8,1:0:0:0:
320,192,146799,1,0,0:0:0:0:
448,192,146799,1,8,1:0:0:0:
320,192,147063,1,0,0:0:0:0:
448,192,147063,1,8,1:0:0:0:
64,192,147240,1,8,1:0:0:0:
192,192,147240,1,0,0:0:0:0:
320,192,147328,1,0,0:0:0:0:
448,192,147328,1,8,1:0:0:0:
192,192,147416,1,0,0:0:0:0:
64,192,147416,1,8,1:0:0:0:
64,192,147593,1,8,1:0:0:0:
192,192,147593,1,0,0:0:0:0:
64,192,147769,1,8,1:0:0:0:
192,192,147769,1,0,0:0:0:0:
320,192,147857,1,8,1:0:0:0:
448,192,147857,1,0,0:0:0:0:
192,192,147946,1,8,1:0:0:0:
64,192,147946,1,0,0:0:0:0:
320,192,148034,1,8,1:0:0:0:
192,192,148122,1,2,0:0:0:0:
64,192,148122,1,0,0:0:0:0:
448,192,148122,1,0,0:0:0:0:
320,192,148387,1,0,0:0:0:0:
192,192,148387,1,2,0:0:0:0:
64,192,148387,1,0,0:0:0:0:
448,192,148652,1,0,0:0:0:0:
320,192,148652,1,0,0:0:0:0:
192,192,148652,1,2,0:0:0:0:
64,192,148828,1,4,0:0:0:0:
320,192,148828,1,2,0:0:0:0:
448,192,148828,1,0,0:0:0:0:
192,192,149004,1,0,0:0:0:0:
64,192,149181,1,0,0:0:0:0:
448,192,149240,1,0,0:0:0:0:
320,192,149299,1,0,0:0:0:0:
192,192,149357,1,0,0:0:0:0:
320,192,149446,1,2,0:0:0:0:
448,192,149446,1,0,0:0:0:0:
64,192,149534,1,8,1:0:0:0:
448,192,149534,1,0,0:0:0:0:
320,192,149534,1,0,0:0:0:0:
192,192,149710,1,0,0:0:0:0:
320,192,149799,1,0,0:0:0:0:
64,192,149887,1,0,0:0:0:0:
192,192,150063,1,0,0:0:0:0:
320,192,150152,1,2,0:0:0:0:
448,192,150152,1,0,0:0:0:0:
320,192,150240,1,2,0:0:0:0:
448,192,150240,1,0,0:0:0:0:
192,192,150416,1,0,0:0:0:0:
320,192,150504,1,0,0:0:0:0:
64,192,150593,1,0,0:0:0:0:
448,192,150593,1,2,0:0:0:0:
192,192,150769,1,0,0:0:0:0:
320,192,150946,1,0,0:0:0:0:
448,192,150946,1,0,0:0:0:0:
64,192,150946,128,8,151299:1:0:0:0:
192,192,151122,1,0,0:0:0:0:
448,192,151299,128,0,151652:0:0:0:0:
64,192,151652,1,0,0:0:0:0:
320,192,151652,1,2,0:0:0:0:
192,192,151828,1,0,0:0:0:0:
448,192,152004,1,0,0:0:0:0:
320,192,152063,1,0,0:0:0:0:
192,192,152122,1,0,0:0:0:0:
64,192,152181,1,0,0:0:0:0:
448,192,152269,1,0,0:0:0:0:
320,192,152269,1,2,0:0:0:0:
448,192,152357,1,0,0:0:0:0:
320,192,152357,1,0,0:0:0:0:
64,192,152357,1,8,1:0:0:0:
192,192,152534,1,0,0:0:0:0:
448,192,152622,1,0,0:0:0:0:
64,192,152710,1,0,0:0:0:0:
192,192,152887,1,2,0:0:0:0:
320,192,152887,1,0,0:0:0:0:
448,192,153063,1,0,0:0:0:0:
448,192,153152,1,0,0:0:0:0:
64,192,153240,1,2,0:0:0:0:
192,192,153240,1,0,0:0:0:0:
448,192,153328,1,0,0:0:0:0:
192,192,153416,1,0,0:0:0:0:
64,192,153416,1,2,0:0:0:0:
448,192,153504,1,0,0:0:0:0:
448,192,153593,1,0,0:0:0:0:
64,192,153593,128,0,154299:0:0:0:0:
192,192,153769,1,0,0:0:0:0:
320,192,153769,1,8,1:0:0:0:
192,192,154034,1,2,0:0:0:0:
448,192,154034,128,0,154475:0:0:0:0:
192,192,154299,1,2,0:0:0:0:
320,192,154299,1,0,0:0:0:0:
192,192,154475,1,2,0:0:0:0:
64,192,154475,1,0,0:0:0:0:
320,192,154475,1,0,0:0:0:0:
448,192,154652,1,0,0:0:0:0:
64,192,154828,1,0,0:0:0:0:
192,192,154887,1,0,0:0:0:0:
320,192,154946,1,0,0:0:0:0:
448,192,155004,1,0,0:0:0:0:
64,192,155093,1,2,0:0:0:0:
192,192,155093,1,0,0:0:0:0:
64,192,155181,1,8,1:0:0:0:
192,192,155181,1,0,0:0:0:0:
448,192,155181,1,0,0:0:0:0:
320,192,155357,1,0,0:0:0:0:
64,192,155446,1,0,0:0:0:0:
192,192,155534,1,0,0:0:0:0:
448,192,155710,1,0,0:0:0:0:
320,192,155799,1,0,0:0:0:0:
64,192,155799,1,2,0:0:0:0:
64,192,155887,1,2,0:0:0:0:
320,192,155887,1,0,0:0:0:0:
192,192,156063,1,0,0:0:0:0:
448,192,156152,1,0,0:0:0:0:
64,192,156240,1,2,0:0:0:0:
320,192,156240,1,0,0:0:0:0:
192,192,156416,1,0,0:0:0:0:
320,192,156593,1,0,0:0:0:0:
448,192,156593,1,0,0:0:0:0:
64,192,156593,128,8,156946:1:0:0:0:
192,192,156769,1,0,0:0:0:0:
320,192,156946,128,0,157299:0:0:0:0:
64,192,157299,1,2,0:0:0:0:
192,192,157299,1,0,0:0:0:0:
448,192,157299,1,0,0:0:0:0:
192,192,157563,1,2,0:0:0:0:
320,192,157563,1,0,0:0:0:0:
448,192,157563,1,0,0:0:0:0:
192,192,157652,1,2,0:0:0:0:
320,192,157652,1,0,0:0:0:0:
448,192,157652,1,0,0:0:0:0:
64,192,157828,1,2,0:0:0:0:
192,192,157828,1,0,0:0:0:0:
448,192,157828,1,0,0:0:0:0:
448,192,158093,1,0,0:0:0:0:
320,192,158181,1,0,0:0:0:0:
192,192,158181,1,0,0:0:0:0:
64,192,158181,1,2,0:0:0:0:
64,192,158357,1,2,0:0:0:0:
448,192,158357,1,0,0:0:0:0:
320,192,158357,1,0,0:0:0:0:
192,192,158534,1,0,0:0:0:0:
320,192,158622,1,0,0:0:0:0:
192,192,158710,1,0,0:0:0:0:
64,192,158710,1,2,0:0:0:0:
448,192,158710,1,0,0:0:0:0:
320,192,158975,1,0,0:0:0:0:
192,192,158975,1,0,0:0:0:0:
64,192,158975,1,2,0:0:0:0:
192,192,159063,1,0,0:0:0:0:
320,192,159063,1,0,0:0:0:0:
64,192,159063,1,2,0:0:0:0:
192,192,159240,1,2,0:0:0:0:
320,192,159240,1,0,0:0:0:0:
448,192,159240,1,0,0:0:0:0:
192,192,159504,1,0,0:0:0:0:
64,192,159593,1,2,0:0:0:0:
320,192,159593,1,0,0:0:0:0:
448,192,159593,1,0,0:0:0:0:
192,192,159769,1,0,0:0:0:0:
448,192,159769,1,0,0:0:0:0:
64,192,159769,1,2,0:0:0:0:
320,192,159828,1,0,0:0:0:0:
64,192,159887,1,0,0:0:0:0:
192,192,159946,1,0,0:0:0:0:
448,192,160004,1,0,0:0:0:0:
320,192,160063,1,0,0:0:0:0:
192,192,160122,1,4,0:0:0:0:
448,192,160122,1,0,0:0:0:0:
64,192,160122,1,2,0:0:0:0:
320,192,160299,1,0,0:0:0:0:
64,192,160475,1,8,1:0:0:0:
448,192,160475,1,0,0:0:0:0:
192,192,160475,1,0,0:0:0:0:
320,192,160534,1,0,0:0:0:0:
192,192,160593,1,0,0:0:0:0:
64,192,160652,1,0,0:0:0:0:
320,192,160740,1,2,0:0:0:0:
448,192,160740,1,0,0:0:0:0:
192,192,160828,1,0,0:0:0:0:
320,192,161004,1,2,0:0:0:0:
448,192,161004,1,0,0:0:0:0:
192,192,161093,1,0,0:0:0:0:
320,192,161181,1,0,0:0:0:0:
448,192,161181,1,0,0:0:0:0:
64,192,161181,1,8,1:0:0:0:
192,192,161357,1,0,0:0:0:0:
64,192,161534,1,0,0:0:0:0:
320,192,161534,1,2,0:0:0:0:
448,192,161710,1,0,0:0:0:0:
320,192,161799,1,0,0:0:0:0:
192,192,161887,1,0,0:0:0:0:
64,192,161887,1,8,1:0:0:0:
448,192,161887,1,0,0:0:0:0:
320,192,162063,1,0,0:0:0:0:
64,192,162152,1,0,0:0:0:0:
192,192,162152,1,2,0:0:0:0:
448,192,162240,1,0,0:0:0:0:
64,192,162416,1,0,0:0:0:0:
192,192,162416,1,2,0:0:0:0:
320,192,162593,1,0,0:0:0:0:
448,192,162593,1,0,0:0:0:0:
192,192,162593,1,8,1:0:0:0:
64,192,162769,1,0,0:0:0:0:
192,192,162946,1,2,0:0:0:0:
448,192,162946,1,0,0:0:0:0:
320,192,163122,1,0,0:0:0:0:
64,192,163299,1,8,1:0:0:0:
192,192,163299,1,0,0:0:0:0:
448,192,163299,1,0,0:0:0:0:
320,192,163357,1,0,0:0:0:0:
192,192,163416,1,0,0:0:0:0:
64,192,163475,1,0,0:0:0:0:
448,192,163563,1,2,0:0:0:0:
320,192,163563,1,0,0:0:0:0:
192,192,163652,1,0,0:0:0:0:
448,192,163828,1,2,0:0:0:0:
320,192,163828,1,0,0:0:0:0:
64,192,163916,1,0,0:0:0:0:
448,192,164004,1,8,1:0:0:0:
192,192,164004,1,0,0:0:0:0:
320,192,164004,1,0,0:0:0:0:
448,192,164181,1,0,0:0:0:0:
192,192,164357,1,0,0:0:0:0:
64,192,164357,1,2,0:0:0:0:
192,192,164446,1,0,0:0:0:0:
320,192,164534,1,0,0:0:0:0:
320,192,164622,1,0,0:0:0:0:
448,192,164710,1,0,0:0:0:0:
192,192,164710,1,0,0:0:0:0:
64,192,164710,1,8,1:0:0:0:
64,192,164799,1,0,0:0:0:0:
448,192,164887,1,0,0:0:0:0:
448,192,164975,1,0,0:0:0:0:
192,192,164975,1,2,0:0:0:0:
448,192,165240,1,2,0:0:0:0:
64,192,165240,1,0,0:0:0:0:
192,192,165328,1,0,0:0:0:0:
320,192,165416,1,0,0:0:0:0:
448,192,165416,1,0,0:0:0:0:
64,192,165416,1,8,1:0:0:0:
320,192,165593,1,0,0:0:0:0:
192,192,165769,1,2,0:0:0:0:
448,192,165769,1,0,0:0:0:0:
64,192,165769,1,0,0:0:0:0:
192,192,165946,1,0,0:0:0:0:
64,192,166122,1,8,1:0:0:0:
448,192,166122,1,0,0:0:0:0:
320,192,166122,1,0,0:0:0:0:
192,192,166181,1,0,0:0:0:0:
320,192,166240,1,0,0:0:0:0:
448,192,166299,1,0,0:0:0:0:
64,192,166387,1,2,0:0:0:0:
192,192,166387,1,0,0:0:0:0:
320,192,166475,1,0,0:0:0:0:
64,192,166652,1,2,0:0:0:0:
192,192,166652,1,0,0:0:0:0:
320,192,166740,1,0,0:0:0:0:
448,192,166828,1,0,0:0:0:0:
192,192,166828,1,0,0:0:0:0:
64,192,166828,1,8,1:0:0:0:
320,192,167004,1,0,0:0:0:0:
64,192,167181,1,2,0:0:0:0:
448,192,167181,1,0,0:0:0:0:
192,192,167357,1,0,0:0:0:0:
320,192,167446,1,0,0:0:0:0:
64,192,167534,1,8,1:0:0:0:
192,192,167534,1,0,0:0:0:0:
448,192,167534,1,0,0:0:0:0:
320,192,167710,1,0,0:0:0:0:
64,192,167799,1,2,0:0:0:0:
448,192,167799,1,0,0:0:0:0:
192,192,167887,1,0,0:0:0:0:
64,192,168063,1,2,0:0:0:0:
448,192,168063,1,0,0:0:0:0:
320,192,168240,1,0,0:0:0:0:
448,192,168240,1,0,0:0:0:0:
64,192,168240,1,8,1:0:0:0:
192,192,168416,1,0,0:0:0:0:
64,192,168593,5,8,1:0:0:0:
320,192,168593,1,0,0:0:0:0:
448,192,168593,1,2,0:0:0:0:
320,192,168710,1,0,0:0:0:0:
448,192,168710,1,2,0:0:0:0:
320,192,168828,1,0,0:0:0:0:
448,192,168828,1,2,0:0:0:0:
192,192,168946,1,0,0:0:0:0:
64,192,168946,1,8,1:0:0:0:
448,192,168946,1,2,0:0:0:0:
64,192,169063,1,0,0:0:0:0:
448,192,169063,1,2,0:0:0:0:
64,192,169181,1,0,0:0:0:0:
448,192,169181,1,2,0:0:0:0:
320,192,169299,1,2,0:0:0:0:
64,192,169299,1,8,1:0:0:0:
192,192,169299,1,0,0:0:0:0:
192,192,169416,1,0,0:0:0:0:
320,192,169416,1,2,0:0:0:0:
192,192,169534,1,0,0:0:0:0:
320,192,169534,1,2,0:0:0:0:
64,192,169652,1,8,1:0:0:0:
320,192,169652,1,0,0:0:0:0:
448,192,169652,1,2,0:0:0:0:
448,192,169769,1,2,0:0:0:0:
320,192,169769,1,0,0:0:0:0:
448,192,169887,1,2,0:0:0:0:
320,192,169887,1,0,0:0:0:0:
64,192,170004,1,8,1:0:0:0:
448,192,170004,1,2,0:0:0:0:
192,192,170004,1,0,0:0:0:0:
64,192,170122,1,0,0:0:0:0:
192,192,170122,1,2,0:0:0:0:
64,192,170240,1,0,0:0:0:0:
192,192,170240,1,2,0:0:0:0:
320,192,170357,1,8,1:0:0:0:
192,192,170357,1,0,0:0:0:0:
448,192,170357,1,2,0:0:0:0:
448,192,170475,1,2,0:0:0:0:
192,192,170475,1,0,0:0:0:0:
448,192,170593,1,2,0:0:0:0:
192,192,170593,1,0,0:0:0:0:
320,192,170710,1,0,0:0:0:0:
64,192,170710,1,8,1:0:0:0:
448,192,170710,1,2,0:0:0:0:
64,192,170828,1,0,0:0:0:0:
320,192,170828,1,2,0:0:0:0:
64,192,170946,1,0,0:0:0:0:
320,192,170946,1,2,0:0:0:0:
64,192,171063,1,8,1:0:0:0:
448,192,171063,1,2,0:0:0:0:
192,192,171063,128,0,171416:0:0:0:0:
448,192,171416,1,4,0:0:0:0:
320,192,171416,1,4,1:0:0:0:
64,192,171416,128,0,172828:0:0:0:0:
320,192,172828,128,0,173181:0:0:0:0:
192,192,173004,128,0,173181:0:0:0:0:
448,192,173181,128,0,173534:0:0:0:0:
64,192,173357,128,0,173534:0:0:0:0:
320,192,173534,128,0,173887:0:0:0:0:
192,192,173710,128,0,173887:0:0:0:0:
448,192,173887,128,0,174240:0:0:0:0:
320,192,174063,128,0,174240:0:0:0:0:
192,192,174240,128,0,174593:0:0:0:0:
64,192,174416,128,0,174593:0:0:0:0:
320,192,174593,128,0,174946:0:0:0:0:
192,192,174769,128,0,174946:0:0:0:0:
448,192,174946,128,0,175299:0:0:0:0:
320,192,175122,128,0,175299:0:0:0:0:
64,192,175299,128,0,175652:0:0:0:0:
192,192,175475,128,0,175652:0:0:0:0:
448,192,175652,128,0,176004:0:0:0:0:
320,192,175828,128,0,176004:0:0:0:0:
192,192,176004,128,0,176181:0:0:0:0:
64,192,176181,1,0,0:0:0:0:
320,192,176357,128,0,176710:0:0:0:0:
64,192,176534,128,0,176710:0:0:0:0:
192,192,176710,1,0,0:0:0:0:
448,192,176887,128,0,177063:0:0:0:0:
320,192,177063,128,0,177416:0:0:0:0:
192,192,177240,128,0,177416:0:0:0:0:
64,192,177416,128,0,177769:0:0:0:0:
320,192,177593,128,0,177769:0:0:0:0:
448,192,177769,128,0,178122:0:0:0:0:
192,192,177946,128,0,178122:0:0:0:0:
320,192,178122,128,0,178475:0:0:0:0:
64,192,178299,128,0,178475:0:0:0:0:
448,192,178475,128,0,178828:0:0:0:0:
192,192,178652,128,0,178828:0:0:0:0:
320,192,178828,128,0,179181:0:0:0:0:
448,192,179004,128,0,179181:0:0:0:0:
64,192,179181,128,0,179534:0:0:0:0:
192,192,179357,128,0,179534:0:0:0:0:
320,192,179534,128,0,179887:0:0:0:0:
448,192,179710,128,0,179887:0:0:0:0:
192,192,179887,128,0,180240:0:0:0:0:
64,192,180063,128,0,180240:0:0:0:0:
448,192,180240,128,0,180593:0:0:0:0:
320,192,180416,128,0,180593:0:0:0:0:
192,192,180593,128,0,180946:0:0:0:0:
64,192,180769,128,0,180946:0:0:0:0:
448,192,180946,128,0,181299:0:0:0:0:
192,192,181122,128,0,181299:0:0:0:0:
320,192,181299,128,0,181652:0:0:0:0:
448,192,181475,128,0,181652:0:0:0:0:
64,192,181652,128,0,182710:0:0:0:0:
320,192,181828,128,0,182004:0:0:0:0:
448,192,182004,128,0,182357:0:0:0:0:
192,192,182181,128,0,182357:0:0:0:0:
320,192,182357,128,0,182534:0:0:0:0:
448,192,182534,128,0,182710:0:0:0:0:
192,192,182710,128,0,183240:0:0:0:100:A#6.wav
320,192,182710,128,0,183063:0:0:0:100:Eb5.wav
448,192,182887,128,0,183240:0:0:0:100:B6.wav
64,192,183063,128,0,183416:0:0:0:100:C#7.wav
320,192,183240,128,0,183593:0:0:0:100:F#7.wav
448,192,183416,128,0,183769:0:0:0:100:C#7.wav
192,192,183593,128,0,183946:0:0:0:100:B6.wav
64,192,183769,128,0,184122:0:0:0:100:A#6.wav
448,192,183946,128,0,184299:0:0:0:100:B6.wav
320,192,184122,128,0,184652:0:0:0:100:C#5.wav
192,192,184122,128,0,184475:0:0:0:100:C#7.wav
64,192,184299,128,0,184652:0:0:0:100:F#7.wav
448,192,184475,128,0,184828:0:0:0:100:C#7.wav
192,192,184652,128,0,185004:0:0:0:100:F#7.wav
320,192,184828,128,0,185181:0:0:0:100:G#7.wav
64,192,185004,128,0,185357:0:0:0:100:C#7.wav
192,192,185181,128,0,185534:0:0:0:100:F7.wav
448,192,185357,128,0,185710:0:0:0:100:C#7.wav
320,192,185534,128,0,185887:0:0:0:100:A#6.wav
64,192,185534,128,0,186063:0:0:0:100:Eb5.wav
192,192,185710,128,0,186063:0:0:0:100:B6.wav
448,192,185887,128,0,186240:0:0:0:100:C#7.wav
320,192,186063,128,0,186416:0:0:0:100:F#7.wav
64,192,186240,128,0,186593:0:0:0:100:C#7.wav
192,192,186416,128,0,186769:0:0:0:100:B6.wav
448,192,186593,128,0,186946:0:0:0:100:A#6.wav
320,192,186769,128,0,187122:0:0:0:100:B6.wav
64,192,186946,128,0,187475:0:0:0:100:C#7.wav
192,192,187122,128,0,187475:0:0:0:100:F#7.wav
320,192,187299,128,0,187475:0:0:0:100:C#7.wav
448,192,187475,128,0,187828:0:0:0:100:B6.wav
64,192,187652,128,0,188004:0:0:0:100:A#6.wav
192,192,187828,128,0,188004:0:0:0:100:B6.wav
448,192,188004,128,0,188357:0:0:0:100:F#7.wav
320,192,188181,128,0,188534:0:0:0:100:C#7.wav
192,192,188357,128,0,188887:0:0:0:100:Eb5.wav
64,192,188357,128,0,188710:0:0:0:100:A#6.wav
448,192,188534,128,0,188710:0:0:0:100:B6.wav
320,192,188710,128,0,189063:0:0:0:100:C#7.wav
64,192,188887,128,0,189240:0:0:0:100:F#7.wav
192,192,189063,128,0,189593:0:0:0:100:C#7.wav
320,192,189240,128,0,189593:0:0:0:100:B6.wav
448,192,189416,128,0,189593:0:0:0:100:A#6.wav
64,192,189593,128,0,189946:0:0:0:100:B6.wav
192,192,189769,128,0,190299:0:0:0:100:C#7.wav
448,192,189769,128,0,190122:0:0:0:100:F5.wav
320,192,189946,128,0,190299:0:0:0:100:F#7.wav
64,192,190122,128,0,190475:0:0:0:100:C#7.wav
448,192,190299,128,0,190652:0:0:0:100:B6.wav
192,192,190475,128,0,190828:0:0:0:100:A#6.wav
64,192,190652,128,0,191004:0:0:0:100:B6.wav
320,192,190828,128,0,191181:0:0:0:100:A#6.wav
448,192,191004,128,0,191357:0:0:0:100:F#6.wav
64,192,191181,128,0,191710:0:0:0:100:Eb5.wav
192,192,191181,128,0,191534:0:0:0:100:A#6.wav
320,192,191357,128,0,191710:0:0:0:100:B6.wav
448,192,191534,128,0,191887:0:0:0:100:C#7.wav
192,192,191710,128,0,192063:0:0:0:100:G#7.wav
320,192,191887,128,0,192240:0:0:0:100:C#7.wav
64,192,192063,128,0,192416:0:0:0:100:B6.wav
448,192,192240,128,0,192593:0:0:0:100:A#6.wav
320,192,192416,128,0,192769:0:0:0:100:B6.wav
192,192,192593,128,0,193122:0:0:0:100:C#7.wav
64,192,192593,128,0,192946:0:0:0:100:Eb5.wav
448,192,192769,128,0,193122:0:0:0:100:A#7.wav
320,192,192946,128,0,193299:0:0:0:100:G#7.wav
64,192,193122,128,0,193475:0:0:0:100:Eb7.wav
192,192,193299,128,0,193828:0:0:0:100:D7.wav
448,192,193299,128,0,193652:0:0:0:100:D5.wav
320,192,193475,128,0,193828:0:0:0:100:Eb7.wav
64,192,193652,128,0,194004:0:0:0:100:F7.wav
448,192,193828,128,0,194181:0:0:0:100:F#7.wav
192,192,194004,128,0,194534:0:0:0:100:Eb5.wav
320,192,194004,128,0,194357:0:0:0:100:A#6.wav
64,192,194181,128,0,194534:0:0:0:100:B6.wav
448,192,194357,128,0,194710:0:0:0:100:C#7.wav
320,192,194534,128,0,194887:0:0:0:100:F#7.wav
64,192,194710,128,0,195063:0:0:0:100:C#7.wav
448,192,194887,128,0,195240:0:0:0:100:B6.wav
320,192,195063,128,0,195416:0:0:0:100:A#6.wav
192,192,195240,128,0,195593:0:0:0:100:B6.wav
448,192,195416,128,0,195769:0:0:0:100:C#7.wav
64,192,195416,128,0,195946:0:0:0:100:C#5.wav
320,192,195593,128,0,195946:0:0:0:100:F#7.wav
192,192,195769,128,0,196122:0:0:0:100:C#7.wav
448,192,195946,128,0,196299:0:0:0:100:F#7.wav
320,192,196122,128,0,196475:0:0:0:100:G#7.wav
64,192,196299,128,0,196652:0:0:0:100:C#7.wav
192,192,196475,128,0,196828:0:0:0:100:F7.wav
320,192,196652,128,0,197004:0:0:0:100:C#7.wav
448,192,196828,128,0,197357:0:0:0:100:A#6.wav
64,192,196828,128,0,197181:0:0:0:100:Eb5.wav
192,192,197004,128,0,197357:0:0:0:100:B6.wav
320,192,197181,128,0,197534:0:0:0:100:C#7.wav
64,192,197357,128,0,197710:0:0:0:100:F#7.wav
448,192,197534,128,0,197887:0:0:0:100:C#7.wav
192,192,197710,128,0,197887:0:0:0:100:B6.wav
320,192,197887,128,0,198240:0:0:0:100:A#6.wav
64,192,198063,128,0,198416:0:0:0:100:B6.wav
448,192,198240,128,0,198593:0:0:0:100:C#7.wav
320,192,198416,128,0,198593:0:0:0:100:F#7.wav
64,192,198593,128,0,198946:0:0:0:100:C#7.wav
320,192,198769,128,0,199122:0:0:0:100:B6.wav
192,192,198946,128,0,199475:0:0:0:100:A#6.wav
448,192,199122,128,0,199475:0:0:0:100:B6.wav
320,192,199299,128,0,199475:0:0:0:100:F#7.wav
64,192,199475,128,0,199828:0:0:0:100:C#7.wav
448,192,199652,128,0,200181:0:0:0:100:A#6.wav
320,192,199652,128,0,200004:0:0:0:100:C#5.wav
192,192,199828,128,0,200181:0:0:0:100:B6.wav
64,192,200004,128,0,200181:0:0:0:100:C#7.wav
320,192,200181,128,0,200534:0:0:0:100:F#7.wav
448,192,200357,128,0,200887:0:0:0:100:C#7.wav
64,192,200534,128,0,200887:0:0:0:100:B6.wav
192,192,200710,128,0,200887:0:0:0:100:A#6.wav
320,192,200887,128,0,201063:0:0:0:100:B6.wav
64,192,201063,128,0,204593:0:0:0:100:F5.wav
192,192,201063,128,0,201416:0:0:0:100:C#7.wav
448,192,201240,128,0,201593:0:0:0:100:F#7.wav
320,192,201416,128,0,201769:0:0:0:100:C#7.wav
192,192,201593,128,0,201946:0:0:0:100:B6.wav
448,192,201769,128,0,202122:0:0:0:100:A#6.wav
320,192,201946,128,0,202299:0:0:0:100:B6.wav
192,192,202122,128,0,202299:0:0:0:100:A#6.wav
448,192,202299,128,0,202475:0:0:0:100:F#6.wav
320,192,202475,128,0,202828:0:0:0:100:G#6.wav
192,192,202475,128,0,202652:0:0:0:100:F#5.wav
448,192,202652,128,0,203004:0:0:0:100:A#6.wav
192,192,202828,128,0,203181:0:0:0:100:C#7.wav
320,192,203004,128,0,203357:0:0:0:100:G#7.wav
448,192,203181,128,0,203534:0:0:0:100:C#7.wav
192,192,203357,128,0,203710:0:0:0:100:B6.wav
320,192,203534,128,0,203710:0:0:0:100:A#6.wav
448,192,203710,128,0,204063:0:0:0:100:B6.wav
320,192,203887,128,0,204240:0:0:0:100:C#7.wav
192,192,204063,128,0,204416:0:0:0:100:A#7.wav
448,192,204240,128,0,204416:0:0:0:100:G#7.wav
320,192,204416,128,0,204593:0:0:0:100:Eb7.wav
448,192,204593,128,0,204769:0:0:0:100:D7.wav
64,192,204769,128,0,204946:0:0:0:100:Eb7.wav
192,192,204946,128,0,205299:0:0:0:100:F7.wav
64,192,205299,128,0,207240:0:0:0:0:
448,192,205299,1,4,0:0:0:0:
320,192,205299,1,2,0:0:0:0:
192,192,205475,1,0,0:0:0:0:
448,192,205652,1,0,0:0:0:0:
320,192,205828,1,0,0:0:0:0:
192,192,206004,1,0,0:0:0:0:
448,192,206181,1,0,0:0:0:0:
192,192,206357,1,0,0:0:0:0:
320,192,206534,1,0,0:0:0:0:
448,192,206710,1,0,0:0:0:0:
192,192,206887,1,0,0:0:0:0:
320,192,207063,1,0,0:0:0:0:
448,192,207240,1,0,0:0:0:0:
192,192,207416,128,0,207593:0:0:0:0:
320,192,207593,128,0,207769:0:0:0:0:
64,192,207769,128,0,207946:0:0:0:0:
320,192,207946,128,0,208299:0:0:0:0:
64,192,208122,1,0,0:0:0:0:
192,192,208299,128,0,208475:0:0:0:0:
448,192,208475,128,0,210063:0:0:0:0:
64,192,208652,1,0,0:0:0:0:
320,192,208828,1,0,0:0:0:0:
192,192,209004,1,0,0:0:0:0:
64,192,209181,1,0,0:0:0:0:
192,192,209357,1,0,0:0:0:0:
320,192,209534,1,0,0:0:0:0:
64,192,209710,1,0,0:0:0:0:
192,192,209887,1,0,0:0:0:0:
320,192,210063,1,0,0:0:0:0:
192,192,210240,128,0,210593:0:0:0:0:
64,192,210416,1,0,0:0:0:0:
320,192,210593,128,0,210946:0:0:0:0:
192,192,210769,1,0,0:0:0:0:
448,192,210946,128,0,212004:0:0:0:0:
64,192,211122,1,0,0:0:0:0:
192,192,211299,1,0,0:0:0:0:
320,192,211475,1,0,0:0:0:0:
64,192,211652,1,0,0:0:0:0:
320,192,211828,1,0,0:0:0:0:
192,192,212004,128,0,212181:0:0:0:0:
64,192,212181,128,0,213240:0:0:0:0:
448,192,212357,1,2,0:0:0:0:
320,192,212534,1,0,0:0:0:0:
192,192,212710,1,2,0:0:0:0:
448,192,212887,1,0,0:0:0:0:
320,192,213063,1,2,0:0:0:0:
192,192,213240,128,0,213416:0:0:0:0:
64,192,213416,128,2,213593:0:0:0:0:
448,192,213593,128,0,215534:0:0:0:0:
192,192,213769,1,2,0:0:0:0:
320,192,213946,1,0,0:0:0:0:
64,192,214122,1,2,0:0:0:0:
320,192,214299,1,0,0:0:0:0:
192,192,214475,1,2,0:0:0:0:
64,192,214652,1,0,0:0:0:0:
320,192,214828,1,2,0:0:0:0:
192,192,215004,1,0,0:0:0:0:
64,192,215181,1,2,0:0:0:0:
320,192,215357,1,0,0:0:0:0:
64,192,215534,1,2,0:0:0:0:
192,192,215534,1,0,0:0:0:0:
448,192,215710,1,0,0:0:0:0:
64,192,215887,1,2,0:0:0:0:
320,192,215887,1,0,0:0:0:0:
192,192,216063,1,0,0:0:0:0:
448,192,216240,1,2,0:0:0:0:
320,192,216240,128,0,216593:0:0:0:0:
64,192,216593,1,4,0:0:0:0:
448,192,216593,1,2,0:0:0:0:
192,192,216593,128,0,218534:0:0:0:0:
320,192,216769,1,0,0:0:0:0:
448,192,216946,1,2,0:0:0:0:
64,192,216946,1,0,0:0:0:0:
320,192,217122,1,0,0:0:0:0:
448,192,217299,1,2,0:0:0:0:
64,192,217299,1,0,0:0:0:0:
320,192,217475,1,0,0:0:0:0:
448,192,217652,1,2,0:0:0:0:
64,192,217652,1,0,0:0:0:0:
320,192,217828,1,0,0:0:0:0:
448,192,218004,1,2,0:0:0:0:
64,192,218004,1,0,0:0:0:0:
320,192,218181,1,0,0:0:0:0:
448,192,218357,1,2,0:0:0:0:
64,192,218357,1,0,0:0:0:0:
320,192,218534,1,0,0:0:0:0:
448,192,218710,128,2,218887:0:0:0:0:
192,192,218710,1,0,0:0:0:0:
64,192,218887,128,0,219063:0:0:0:0:
448,192,219063,128,2,219240:0:0:0:0:
320,192,219063,1,0,0:0:0:0:
192,192,219240,128,0,219593:0:0:0:0:
64,192,219416,1,0,0:0:0:0:
448,192,219416,1,2,0:0:0:0:
320,192,219593,128,0,219769:0:0:0:0:
64,192,219769,128,0,221357:0:0:0:0:
192,192,219769,1,2,0:0:0:0:
320,192,219946,1,0,0:0:0:0:
192,192,220122,1,0,0:0:0:0:
448,192,220122,1,2,0:0:0:0:
320,192,220299,1,0,0:0:0:0:
192,192,220475,1,0,0:0:0:0:
448,192,220475,1,2,0:0:0:0:
320,192,220652,1,0,0:0:0:0:
192,192,220828,1,0,0:0:0:0:
448,192,220828,1,2,0:0:0:0:
320,192,221004,1,0,0:0:0:0:
192,192,221181,1,0,0:0:0:0:
448,192,221181,1,2,0:0:0:0:
320,192,221357,1,0,0:0:0:0:
192,192,221534,128,0,221887:0:0:0:0:
448,192,221534,1,2,0:0:0:0:
64,192,221710,1,0,0:0:0:0:
448,192,221887,1,2,0:0:0:0:
320,192,221887,128,0,222240:0:0:0:0:
192,192,222063,1,0,0:0:0:0:
448,192,222240,128,2,223299:0:0:0:0:
64,192,222240,1,0,0:0:0:0:
192,192,222328,1,0,0:0:0:0:
64,192,222593,1,2,0:0:0:0:
320,192,222593,1,0,0:0:0:0:
192,192,222857,1,0,0:0:0:0:
64,192,222946,1,2,0:0:0:0:
320,192,222946,1,0,0:0:0:0:
192,192,223122,1,0,0:0:0:0:
320,192,223299,128,0,223475:0:0:0:0:
64,192,223299,1,2,0:0:0:0:
192,192,223475,128,0,224534:0:0:0:0:
64,192,223652,1,2,0:0:0:0:
448,192,223652,1,0,0:0:0:0:
320,192,223740,1,0,0:0:0:0:
64,192,224004,1,2,0:0:0:0:
448,192,224004,1,0,0:0:0:0:
320,192,224269,1,0,0:0:0:0:
64,192,224357,1,2,0:0:0:0:
448,192,224357,1,0,0:0:0:0:
320,192,224534,128,0,224710:0:0:0:0:
64,192,224710,128,2,224887:0:0:0:0:
192,192,224710,1,0,0:0:0:0:
448,192,224887,128,0,226475:0:0:0:0:
64,192,225063,1,2,0:0:0:0:
192,192,225063,1,0,0:0:0:0:
320,192,225152,1,0,0:0:0:0:
64,192,225416,1,2,0:0:0:0:
192,192,225416,1,0,0:0:0:0:
320,192,225681,1,0,0:0:0:0:
64,192,225769,1,2,0:0:0:0:
192,192,225769,1,0,0:0:0:0:
320,192,225946,1,0,0:0:0:0:
192,192,226122,1,0,0:0:0:0:
64,192,226122,1,2,0:0:0:0:
192,192,226299,1,0,0:0:0:0:
320,192,226387,1,0,0:0:0:0:
64,192,226475,1,2,0:0:0:0:
192,192,226475,1,8,1:0:0:0:
320,192,226563,1,8,1:0:0:0:
448,192,226652,1,8,1:0:0:0:
64,192,226740,1,8,1:0:0:0:
192,192,226828,1,2,0:0:0:0:
320,192,226828,1,8,1:0:0:0:
448,192,226916,1,8,1:0:0:0:
64,192,227004,1,8,1:0:0:0:
192,192,227093,1,8,1:0:0:0:
320,192,227181,1,2,0:0:0:0:
448,192,227181,1,8,1:0:0:0:
64,192,227269,1,8,1:0:0:0:
192,192,227357,1,8,1:0:0:0:
448,192,227446,1,8,1:0:0:0:
320,192,227534,1,8,1:0:0:0:
64,192,227534,1,2,0:0:0:0:
192,192,227622,1,8,1:0:0:0:
448,192,227710,1,8,1:0:0:0:
320,192,227799,1,8,1:0:0:0:
64,192,227887,1,4,0:0:0:0:
192,192,227887,1,2,0:0:0:0:
448,192,227887,1,8,0:0:0:0:
320,192,228063,1,0,0:0:0:0:
192,192,228152,1,0,0:0:0:0:
64,192,228240,1,8,0:0:0:0:
448,192,228240,1,2,0:0:0:0:
320,192,228328,1,0,0:0:0:0:
192,192,228416,1,0,0:0:0:0:
320,192,228593,1,0,0:0:0:0:
448,192,228593,1,2,0:0:0:0:
64,192,228769,1,0,0:0:0:0:
192,192,228857,1,0,0:0:0:0:
320,192,228946,1,0,0:0:0:0:
448,192,228946,1,2,0:0:0:0:
64,192,229034,1,0,0:0:0:0:
192,192,229122,1,0,0:0:0:0:
64,192,229299,1,8,0:0:0:0:
320,192,229299,1,2,0:0:0:0:
448,192,229475,1,0,0:0:0:0:
192,192,229563,1,0,0:0:0:0:
320,192,229652,1,2,0:0:0:0:
64,192,229652,1,8,0:0:0:0:
448,192,229740,1,0,0:0:0:0:
192,192,229828,1,0,0:0:0:0:
448,192,230004,1,0,0:0:0:0:
320,192,230004,1,2,0:0:0:0:
64,192,230181,1,0,0:0:0:0:
448,192,230269,1,0,0:0:0:0:
192,192,230357,1,0,0:0:0:0:
320,192,230357,1,2,0:0:0:0:
64,192,230446,1,0,0:0:0:0:
448,192,230534,1,0,0:0:0:0:
192,192,230710,1,2,0:0:0:0:
64,192,230710,1,8,0:0:0:0:
64,192,230887,1,0,0:0:0:0:
192,192,230887,1,2,0:0:0:0:
448,192,230975,1,0,0:0:0:0:
64,192,231063,1,8,0:0:0:0:
192,192,231063,1,2,0:0:0:0:
320,192,231152,1,0,0:0:0:0:
64,192,231240,1,0,0:0:0:0:
192,192,231240,1,2,0:0:0:0:
320,192,231416,1,2,0:0:0:0:
448,192,231416,1,0,0:0:0:0:
320,192,231593,1,2,0:0:0:0:
448,192,231593,1,0,0:0:0:0:
64,192,231681,1,0,0:0:0:0:
320,192,231769,1,2,0:0:0:0:
448,192,231769,1,0,0:0:0:0:
192,192,231857,1,0,0:0:0:0:
320,192,231946,1,2,0:0:0:0:
448,192,231946,1,0,0:0:0:0:
64,192,232122,1,8,0:0:0:0:
192,192,232122,1,2,0:0:0:0:
192,192,232299,1,2,0:0:0:0:
64,192,232299,1,0,0:0:0:0:
448,192,232387,1,0,0:0:0:0:
64,192,232475,1,8,0:0:0:0:
192,192,232475,1,2,0:0:0:0:
320,192,232563,1,0,0:0:0:0:
64,192,232652,1,0,0:0:0:0:
192,192,232652,1,2,0:0:0:0:
320,192,232828,1,2,0:0:0:0:
448,192,232828,1,0,0:0:0:0:
320,192,233004,1,2,0:0:0:0:
448,192,233004,1,0,0:0:0:0:
64,192,233093,1,0,0:0:0:0:
320,192,233181,1,2,0:0:0:0:
448,192,233181,1,0,0:0:0:0:
192,192,233269,1,0,0:0:0:0:
320,192,233357,1,2,0:0:0:0:
448,192,233357,1,0,0:0:0:0:
64,192,233534,1,10,0:0:0:0:
192,192,233534,1,8,1:0:0:0:
320,192,233622,1,8,1:0:0:0:
448,192,233710,1,8,1:0:0:0:
64,192,233710,1,2,0:0:0:0:
192,192,233799,1,8,1:0:0:0:
320,192,233887,1,10,0:0:0:0:
448,192,233887,1,8,1:0:0:0:
192,192,233975,1,8,1:0:0:0:
64,192,234063,1,2,0:0:0:0:
448,192,234063,1,8,1:0:0:0:
320,192,234152,1,8,1:0:0:0:
192,192,234240,1,8,1:0:0:0:
64,192,234240,1,10,0:0:0:0:
320,192,234328,1,8,1:0:0:0:
448,192,234416,1,8,1:0:0:0:
64,192,234416,1,2,0:0:0:0:
192,192,234504,1,8,1:0:0:0:
320,192,234593,1,10,0:0:0:0:
448,192,234593,1,8,1:0:0:0:
192,192,234681,1,8,1:0:0:0:
64,192,234769,1,8,1:0:0:0:
448,192,234769,1,2,0:0:0:0:
320,192,234857,1,8,1:0:0:0:
64,192,234946,1,10,0:0:0:0:
192,192,234946,1,8,1:0:0:0:
448,192,235034,1,8,1:0:0:0:
320,192,235122,1,8,1:0:0:0:
192,192,235122,1,10,0:0:0:0:
64,192,235210,1,8,1:0:0:0:
448,192,235299,1,10,0:0:0:0:
320,192,235299,1,8,1:0:0:0:
192,192,235387,1,8,1:0:0:0:
64,192,235475,1,10,0:0:0:0:
448,192,235475,1,8,1:0:0:0:
320,192,235563,1,8,1:0:0:0:
192,192,235652,1,8,1:0:0:0:
64,192,235652,1,10,0:0:0:0:
448,192,235740,1,8,1:0:0:0:
64,192,235828,1,10,0:0:0:0:
320,192,235828,1,8,1:0:0:0:
192,192,235916,1,8,1:0:0:0:
320,192,236004,1,10,0:0:0:0:
448,192,236004,1,8,1:0:0:0:
64,192,236093,1,8,1:0:0:0:
448,192,236181,1,10,0:0:0:0:
192,192,236181,1,8,1:0:0:0:
320,192,236269,1,8,1:0:0:0:
64,192,236357,1,10,0:0:0:0:
448,192,236357,1,8,1:0:0:0:
192,192,236402,1,8,1:0:0:0:
320,192,236446,1,8,1:0:0:0:
64,192,236490,1,8,1:0:0:0:
448,192,236534,1,8,1:0:0:0:
192,192,236534,1,10,0:0:0:0:
320,192,236578,1,8,1:0:0:0:
64,192,236622,1,8,1:0:0:0:
192,192,236666,1,8,1:0:0:0:
320,192,236710,1,8,1:0:0:0:
448,192,236710,1,10,0:0:0:0:
64,192,236754,1,8,1:0:0:0:
192,192,236799,1,8,1:0:0:0:
320,192,236843,1,8,1:0:0:0:
448,192,236887,1,8,1:0:0:0:
64,192,236887,1,10,0:0:0:0:
192,192,236931,1,8,1:0:0:0:
320,192,236975,1,8,1:0:0:0:
448,192,237019,1,8,1:0:0:0:
192,192,237063,1,8,1:0:0:0:
64,192,237063,1,10,0:0:0:0:
320,192,237107,1,8,1:0:0:0:
448,192,237152,1,8,1:0:0:0:
192,192,237196,1,8,1:0:0:0:
320,192,237240,1,8,1:0:0:0:
64,192,237240,1,10,0:0:0:0:
448,192,237284,1,8,1:0:0:0:
192,192,237328,1,8,1:0:0:0:
320,192,237372,1,8,1:0:0:0:
448,192,237416,1,8,1:0:0:0:
64,192,237416,1,10,0:0:0:0:
192,192,237460,1,8,1:0:0:0:
320,192,237504,1,8,1:0:0:0:
64,192,237549,1,8,1:0:0:0:
448,192,237593,1,8,1:0:0:0:
192,192,237593,1,10,0:0:0:0:
320,192,237637,1,8,1:0:0:0:
64,192,237681,1,8,1:0:0:0:
192,192,237725,1,8,1:0:0:0:
448,192,237769,1,2,0:0:0:0:
320,192,237769,1,8,0:0:0:0:
64,192,237946,1,2,0:0:0:0:
320,192,238034,1,2,0:0:0:0:
64,192,238122,1,2,0:0:0:0:
320,192,238210,1,2,0:0:0:0:
64,192,238299,1,8,0:0:0:0:
448,192,238299,1,2,0:0:0:0:
192,192,238299,1,0,0:0:0:0:
448,192,238475,1,2,0:0:0:0:
448,192,238563,1,2,0:0:0:0:
192,192,238652,1,2,0:0:0:0:
192,192,238740,1,2,0:0:0:0:
320,192,238828,128,8,239181:0:0:0:0:
64,192,238828,1,0,0:0:0:0:
64,192,239181,1,4,0:0:0:0:
192,192,239181,1,2,0:0:0:0:
448,192,239181,1,0,0:0:0:0:
320,192,239269,1,0,0:0:0:0:
192,192,239357,1,0,0:0:0:0:
320,192,239446,1,0,0:0:0:0:
448,192,239534,1,0,0:0:0:0:
64,192,239534,1,8,0:0:0:0:
192,192,239534,1,2,0:0:0:0:
320,192,239622,1,0,0:0:0:0:
64,192,239710,1,0,0:0:0:0:
192,192,239799,1,0,0:0:0:0:
448,192,239799,1,0,0:0:0:0:
320,192,239887,1,0,0:0:0:0:
64,192,239887,1,2,0:0:0:0:
192,192,239975,1,0,0:0:0:0:
448,192,239975,1,0,0:0:0:0:
320,192,240063,1,0,0:0:0:0:
64,192,240063,1,0,0:0:0:0:
192,192,240152,1,0,0:0:0:0:
64,192,240240,1,8,0:0:0:0:
448,192,240240,1,0,0:0:0:0:
320,192,240240,1,2,0:0:0:0:
192,192,240328,1,0,0:0:0:0:
320,192,240416,1,0,0:0:0:0:
448,192,240504,1,0,0:0:0:0:
64,192,240593,1,0,0:0:0:0:
192,192,240593,1,2,0:0:0:0:
320,192,240681,1,0,0:0:0:0:
448,192,240769,1,0,0:0:0:0:
64,192,240857,1,0,0:0:0:0:
192,192,240946,1,8,0:0:0:0:
320,192,240946,1,2,0:0:0:0:
448,192,240946,1,0,0:0:0:0:
64,192,241034,1,0,0:0:0:0:
448,192,241122,1,0,0:0:0:0:
320,192,241210,1,0,0:0:0:0:
192,192,241210,1,0,0:0:0:0:
64,192,241299,1,2,0:0:0:0:
448,192,241299,1,0,0:0:0:0:
192,192,241387,1,0,0:0:0:0:
320,192,241387,1,0,0:0:0:0:
64,192,241475,1,0,0:0:0:0:
448,192,241475,1,0,0:0:0:0:
192,192,241563,1,0,0:0:0:0:
64,192,241652,1,8,0:0:0:0:
448,192,241652,1,0,0:0:0:0:
320,192,241652,1,2,0:0:0:0:
192,192,241740,1,0,0:0:0:0:
320,192,241828,1,0,0:0:0:0:
192,192,241916,1,0,0:0:0:0:
64,192,242004,1,2,0:0:0:0:
448,192,242004,1,0,0:0:0:0:
320,192,242093,1,0,0:0:0:0:
192,192,242181,1,0,0:0:0:0:
64,192,242269,1,0,0:0:0:0:
320,192,242357,1,8,0:0:0:0:
192,192,242357,1,2,0:0:0:0:
448,192,242357,1,0,0:0:0:0:
64,192,242446,1,0,0:0:0:0:
448,192,242534,1,0,0:0:0:0:
64,192,242622,1,0,0:0:0:0:
192,192,242622,1,0,0:0:0:0:
320,192,242710,1,2,0:0:0:0:
448,192,242710,1,0,0:0:0:0:
192,192,242799,1,0,0:0:0:0:
64,192,242799,1,0,0:0:0:0:
320,192,242887,1,0,0:0:0:0:
448,192,242887,1,0,0:0:0:0:
192,192,242975,1,0,0:0:0:0:
448,192,243063,1,8,0:0:0:0:
320,192,243063,1,2,0:0:0:0:
64,192,243063,1,0,0:0:0:0:
192,192,243152,1,0,0:0:0:0:
64,192,243240,1,0,0:0:0:0:
448,192,243328,1,0,0:0:0:0:
64,192,243416,1,2,0:0:0:0:
320,192,243416,1,0,0:0:0:0:
192,192,243504,1,0,0:0:0:0:
448,192,243593,1,0,0:0:0:0:
320,192,243593,1,0,0:0:0:0:
64,192,243681,1,0,0:0:0:0:
192,192,243769,1,8,0:0:0:0:
320,192,243769,1,2,0:0:0:0:
448,192,243769,1,0,0:0:0:0:
64,192,243857,1,0,0:0:0:0:
448,192,243946,1,0,0:0:0:0:
320,192,244034,1,0,0:0:0:0:
64,192,244034,1,0,0:0:0:0:
192,192,244122,1,2,0:0:0:0:
448,192,244122,1,0,0:0:0:0:
64,192,244210,1,0,0:0:0:0:
320,192,244210,1,0,0:0:0:0:
192,192,244299,1,0,0:0:0:0:
448,192,244299,1,0,0:0:0:0:
64,192,244387,1,0,0:0:0:0:
192,192,244475,1,8,0:0:0:0:
320,192,244475,1,2,0:0:0:0:
448,192,244475,1,0,0:0:0:0:
64,192,244563,1,0,0:0:0:0:
320,192,244652,1,0,0:0:0:0:
448,192,244652,1,0,0:0:0:0:
192,192,244740,1,0,0:0:0:0:
64,192,244828,1,0,0:0:0:0:
448,192,244828,1,2,0:0:0:0:
320,192,244916,1,0,0:0:0:0:
64,192,245004,1,0,0:0:0:0:
192,192,245093,1,0,0:0:0:0:
320,192,245181,1,2,0:0:0:0:
448,192,245181,1,0,0:0:0:0:
64,192,245181,1,8,0:0:0:0:
192,192,245269,1,0,0:0:0:0:
320,192,245357,1,0,0:0:0:0:
64,192,245446,1,0,0:0:0:0:
448,192,245446,1,0,0:0:0:0:
192,192,245534,1,2,0:0:0:0:
320,192,245534,1,0,0:0:0:0:
64,192,245622,1,0,0:0:0:0:
448,192,245622,1,0,0:0:0:0:
192,192,245710,1,0,0:0:0:0:
320,192,245710,1,0,0:0:0:0:
64,192,245799,1,0,0:0:0:0:
192,192,245887,1,8,0:0:0:0:
320,192,245887,1,2,0:0:0:0:
448,192,245887,1,0,0:0:0:0:
64,192,245975,1,0,0:0:0:0:
448,192,246063,1,0,0:0:0:0:
320,192,246152,1,0,0:0:0:0:
192,192,246240,1,2,0:0:0:0:
64,192,246240,1,0,0:0:0:0:
448,192,246328,1,0,0:0:0:0:
320,192,246416,1,0,0:0:0:0:
64,192,246504,1,0,0:0:0:0:
192,192,246593,1,8,0:0:0:0:
320,192,246593,1,2,0:0:0:0:
448,192,246593,1,0,0:0:0:0:
64,192,246681,1,0,0:0:0:0:
320,192,246769,1,0,0:0:0:0:
192,192,246857,1,0,0:0:0:0:
64,192,246857,1,0,0:0:0:0:
320,192,246946,1,2,0:0:0:0:
448,192,246946,1,0,0:0:0:0:
192,192,247034,1,0,0:0:0:0:
64,192,247034,1,0,0:0:0:0:
320,192,247122,1,0,0:0:0:0:
448,192,247122,1,0,0:0:0:0:
192,192,247210,1,0,0:0:0:0:
64,192,247299,1,8,0:0:0:0:
448,192,247299,1,0,0:0:0:0:
320,192,247299,1,2,0:0:0:0:
192,192,247387,1,0,0:0:0:0:
448,192,247475,1,0,0:0:0:0:
64,192,247563,1,0,0:0:0:0:
320,192,247652,1,0,0:0:0:0:
192,192,247652,1,2,0:0:0:0:
448,192,247740,1,0,0:0:0:0:
64,192,247828,1,0,0:0:0:0:
192,192,247916,1,0,0:0:0:0:
320,192,248004,1,2,0:0:0:0:
448,192,248004,1,0,0:0:0:0:
64,192,248004,1,8,0:0:0:0:
192,192,248093,1,0,0:0:0:0:
320,192,248181,1,0,0:0:0:0:
448,192,248269,1,0,0:0:0:0:
192,192,248269,1,0,0:0:0:0:
320,192,248357,1,0,0:0:0:0:
64,192,248357,1,2,0:0:0:0:
448,192,248446,1,0,0:0:0:0:
192,192,248446,1,0,0:0:0:0:
320,192,248534,1,0,0:0:0:0:
64,192,248534,1,0,0:0:0:0:
192,192,248622,1,0,0:0:0:0:
320,192,248710,1,2,0:0:0:0:
448,192,248710,1,0,0:0:0:0:
64,192,248710,1,8,0:0:0:0:
192,192,248799,1,0,0:0:0:0:
320,192,248887,1,0,0:0:0:0:
448,192,248887,1,0,0:0:0:0:
192,192,248975,1,0,0:0:0:0:
64,192,248975,1,0,0:0:0:0:
320,192,249063,1,2,0:0:0:0:
448,192,249063,1,0,0:0:0:0:
192,192,249152,1,0,0:0:0:0:
64,192,249240,1,0,0:0:0:0:
448,192,249240,1,0,0:0:0:0:
320,192,249328,1,0,0:0:0:0:
192,192,249416,1,2,0:0:0:0:
64,192,249416,1,8,0:0:0:0:
448,192,249416,1,0,0:0:0:0:
320,192,249504,1,0,0:0:0:0:
192,192,249593,1,0,0:0:0:0:
64,192,249681,1,0,0:0:0:0:
448,192,249681,1,0,0:0:0:0:
192,192,249769,1,2,0:0:0:0:
320,192,249769,1,0,0:0:0:0:
64,192,249857,1,0,0:0:0:0:
448,192,249857,1,0,0:0:0:0:
320,192,249946,1,0,0:0:0:0:
192,192,249946,1,0,0:0:0:0:
448,192,250034,1,0,0:0:0:0:
320,192,250122,1,0,0:0:0:0:
192,192,250122,1,0,0:0:0:0:
64,192,250122,1,8,0:0:0:0:
448,192,250210,1,0,0:0:0:0:
64,192,250299,1,2,0:0:0:0:
192,192,250299,1,0,0:0:0:0:
320,192,250387,1,0,0:0:0:0:
448,192,250475,1,0,0:0:0:0:
64,192,250475,1,2,0:0:0:0:
192,192,250475,1,4,0:0:0:0:
320,192,250563,1,0,0:0:0:0:
64,192,250652,1,0,0:0:0:0:
192,192,250740,1,0,0:0:0:0:
320,192,250828,1,2,0:0:0:0:
448,192,250828,1,0,0:0:0:0:
64,192,250828,1,8,0:0:0:0:
192,192,250916,1,0,0:0:0:0:
320,192,251004,1,0,0:0:0:0:
64,192,251093,1,0,0:0:0:0:
192,192,251093,1,0,0:0:0:0:
320,192,251181,1,2,0:0:0:0:
448,192,251181,1,0,0:0:0:0:
192,192,251269,1,0,0:0:0:0:
64,192,251269,1,0,0:0:0:0:
320,192,251357,1,0,0:0:0:0:
448,192,251357,1,0,0:0:0:0:
192,192,251446,1,0,0:0:0:0:
64,192,251534,1,8,0:0:0:0:
448,192,251534,1,0,0:0:0:0:
320,192,251534,1,2,0:0:0:0:
192,192,251622,1,0,0:0:0:0:
320,192,251710,1,0,0:0:0:0:
448,192,251799,1,0,0:0:0:0:
64,192,251887,1,2,0:0:0:0:
192,192,251887,1,0,0:0:0:0:
320,192,251975,1,0,0:0:0:0:
448,192,252063,1,0,0:0:0:0:
192,192,252152,1,0,0:0:0:0:
320,192,252240,1,2,0:0:0:0:
64,192,252240,1,8,0:0:0:0:
448,192,252240,1,0,0:0:0:0:
192,192,252328,1,0,0:0:0:0:
320,192,252416,1,0,0:0:0:0:
448,192,252504,1,0,0:0:0:0:
192,192,252504,1,0,0:0:0:0:
320,192,252593,1,0,0:0:0:0:
64,192,252593,1,2,0:0:0:0:
448,192,252681,1,0,0:0:0:0:
192,192,252681,1,0,0:0:0:0:
320,192,252769,1,0,0:0:0:0:
64,192,252769,1,0,0:0:0:0:
448,192,252857,1,0,0:0:0:0:
64,192,252946,1,8,0:0:0:0:
192,192,252946,1,2,0:0:0:0:
320,192,252946,1,0,0:0:0:0:
448,192,253034,1,0,0:0:0:0:
192,192,253122,1,0,0:0:0:0:
320,192,253210,1,0,0:0:0:0:
64,192,253299,1,2,0:0:0:0:
448,192,253299,1,0,0:0:0:0:
192,192,253387,1,0,0:0:0:0:
320,192,253475,1,0,0:0:0:0:
448,192,253563,1,0,0:0:0:0:
320,192,253652,1,0,0:0:0:0:
64,192,253652,1,8,0:0:0:0:
192,192,253652,1,2,0:0:0:0:
448,192,253740,1,0,0:0:0:0:
64,192,253828,1,0,0:0:0:0:
192,192,253916,1,0,0:0:0:0:
320,192,253916,1,0,0:0:0:0:
448,192,254004,1,0,0:0:0:0:
64,192,254004,1,2,0:0:0:0:
192,192,254093,1,0,0:0:0:0:
320,192,254093,1,0,0:0:0:0:
64,192,254181,1,0,0:0:0:0:
448,192,254181,1,0,0:0:0:0:
320,192,254269,1,0,0:0:0:0:
192,192,254357,1,2,0:0:0:0:
64,192,254357,1,8,0:0:0:0:
448,192,254357,1,0,0:0:0:0:
320,192,254446,1,0,0:0:0:0:
192,192,254534,1,0,0:0:0:0:
64,192,254622,1,0,0:0:0:0:
320,192,254710,1,2,0:0:0:0:
448,192,254710,1,0,0:0:0:0:
192,192,254799,1,0,0:0:0:0:
64,192,254887,1,0,0:0:0:0:
448,192,254887,1,0,0:0:0:0:
320,192,254975,1,0,0:0:0:0:
448,192,255063,1,0,0:0:0:0:
192,192,255063,1,2,0:0:0:0:
64,192,255063,1,8,0:0:0:0:
320,192,255152,1,0,0:0:0:0:
192,192,255240,1,0,0:0:0:0:
448,192,255328,1,0,0:0:0:0:
320,192,255328,1,0,0:0:0:0:
192,192,255416,1,2,0:0:0:0:
64,192,255416,1,0,0:0:0:0:
320,192,255504,1,0,0:0:0:0:
448,192,255504,1,0,0:0:0:0:
192,192,255593,1,0,0:0:0:0:
64,192,255593,1,0,0:0:0:0:
320,192,255681,1,0,0:0:0:0:
448,192,255769,1,8,0:0:0:0:
192,192,255769,1,2,0:0:0:0:
64,192,255769,1,0,0:0:0:0:
320,192,255857,1,0,0:0:0:0:
64,192,255946,1,0,0:0:0:0:
448,192,255946,1,0,0:0:0:0:
192,192,256034,1,0,0:0:0:0:
64,192,256122,1,2,0:0:0:0:
320,192,256122,1,4,0:0:0:0:
448,192,256122,1,0,0:0:0:0:
192,192,256210,1,0,0:0:0:0:
320,192,256299,1,0,0:0:0:0:
192,192,256387,1,0,0:0:0:0:
320,192,256475,1,2,0:0:0:0:
448,192,256475,1,0,0:0:0:0:
64,192,256475,1,8,0:0:0:0:
192,192,256563,1,0,0:0:0:0:
320,192,256652,1,0,0:0:0:0:
448,192,256740,1,0,0:0:0:0:
64,192,256740,1,0,0:0:0:0:
192,192,256828,1,2,0:0:0:0:
320,192,256828,1,0,0:0:0:0:
64,192,256916,1,0,0:0:0:0:
448,192,256916,1,0,0:0:0:0:
320,192,257004,1,0,0:0:0:0:
192,192,257004,1,0,0:0:0:0:
64,192,257093,1,0,0:0:0:0:
448,192,257181,128,0,257534:0:0:0:0:
64,192,257534,1,4,0:0:0:0:
192,192,257534,1,2,0:0:0:0:
320,192,257534,1,0,0:0:0:0:
448,192,257622,1,0,0:0:0:0:
320,192,257710,1,0,0:0:0:0:
192,192,257799,1,0,0:0:0:0:
64,192,257887,1,8,0:0:0:0:
320,192,257887,1,2,0:0:0:0:
448,192,257887,1,0,0:0:0:0:
192,192,257975,1,0,0:0:0:0:
320,192,258063,1,0,0:0:0:0:
64,192,258152,1,0,0:0:0:0:
192,192,258152,1,0,0:0:0:0:
320,192,258240,1,0,0:0:0:0:
448,192,258240,1,2,0:0:0:0:
192,192,258328,1,0,0:0:0:0:
64,192,258328,1,0,0:0:0:0:
320,192,258416,1,0,0:0:0:0:
448,192,258416,1,0,0:0:0:0:
192,192,258504,1,0,0:0:0:0:
448,192,258593,1,0,0:0:0:0:
448,192,258681,1,0,0:0:0:0:
64,192,258769,1,0,0:0:0:0:
64,192,258857,1,0,0:0:0:0:
192,192,258946,1,4,0:0:0:0:
320,192,258946,1,2,0:0:0:0:
448,192,258946,1,8,1:0:0:0:
64,192,259034,1,8,1:0:0:0:
448,192,259122,1,8,1:0:0:0:
192,192,259210,1,8,1:0:0:0:
320,192,259299,1,8,1:0:0:0:
448,192,259387,1,8,1:0:0:0:
64,192,259475,1,8,1:0:0:0:
320,192,259563,1,8,1:0:0:0:
192,192,259652,1,8,1:0:0:0:
448,192,259740,1,8,1:0:0:0:
64,192,259828,1,8,1:0:0:0:
192,192,259916,1,8,1:0:0:0:
448,192,260004,1,8,1:0:0:0:
64,192,260093,1,8,1:0:0:0:
320,192,260181,1,8,1:0:0:0:
64,192,260269,1,8,1:0:0:0:
448,192,260357,1,8,1:0:0:0:
320,192,260402,1,8,1:0:0:0:
64,192,260446,1,8,1:0:0:0:
192,192,260490,1,8,1:0:0:0:
448,192,260534,1,8,1:0:0:0:
320,192,260578,1,8,1:0:0:0:
64,192,260622,1,8,1:0:0:0:
192,192,260666,1,8,1:0:0:0:
320,192,260710,1,8,1:0:0:0:
448,192,260754,1,8,1:0:0:0:
64,192,260799,1,8,1:0:0:0:
192,192,260843,1,8,1:0:0:0:
320,192,260887,1,8,1:0:0:0:
448,192,260931,1,8,1:0:0:0:
64,192,260975,1,8,1:0:0:0:
192,192,261019,1,8,1:0:0:0:
448,192,261063,1,8,1:0:0:0:
320,192,261107,1,8,1:0:0:0:
192,192,261152,1,8,1:0:0:0:
64,192,261196,1,8,1:0:0:0:
448,192,261240,1,8,1:0:0:0:
320,192,261284,1,8,1:0:0:0:
192,192,261328,1,8,1:0:0:0:
64,192,261372,1,8,1:0:0:0:
448,192,261416,1,0,0:0:0:100:F#6.wav
64,192,261769,1,4,0:0:0:0:
192,192,261769,1,2,0:0:0:0:
320,192,261769,1,0,0:0:0:100:C#7.wav
448,192,261857,1,0,0:0:0:0:
320,192,261946,1,0,0:0:0:0:
192,192,262034,1,0,0:0:0:0:
64,192,262122,1,8,0:0:0:0:
320,192,262122,1,2,0:0:0:0:
448,192,262122,1,0,0:0:0:0:
192,192,262210,1,0,0:0:0:0:
320,192,262299,1,0,0:0:0:0:
64,192,262387,1,0,0:0:0:0:
192,192,262387,1,0,0:0:0:0:
320,192,262475,1,2,0:0:0:0:
448,192,262475,1,0,0:0:0:0:
192,192,262563,1,0,0:0:0:0:
64,192,262563,1,0,0:0:0:0:
320,192,262652,1,0,0:0:0:0:
448,192,262652,1,0,0:0:0:0:
64,192,262740,1,0,0:0:0:0:
192,192,262828,1,8,0:0:0:0:
320,192,262828,1,2,0:0:0:0:
448,192,262828,1,0,0:0:0:0:
64,192,262916,1,0,0:0:0:0:
448,192,263004,1,0,0:0:0:0:
320,192,263093,1,0,0:0:0:0:
192,192,263181,1,0,0:0:0:0:
64,192,263181,1,2,0:0:0:0:
448,192,263269,1,0,0:0:0:0:
320,192,263357,1,0,0:0:0:0:
64,192,263446,1,0,0:0:0:0:
192,192,263534,1,8,0:0:0:0:
320,192,263534,1,2,0:0:0:0:
448,192,263534,1,0,0:0:0:0:
64,192,263622,1,0,0:0:0:0:
448,192,263710,1,0,0:0:0:0:
320,192,263799,1,0,0:0:0:0:
192,192,263799,1,0,0:0:0:0:
64,192,263887,1,2,0:0:0:0:
448,192,263887,1,0,0:0:0:100:C#7.wav
192,192,263975,1,0,0:0:0:0:
320,192,263975,1,0,0:0:0:0:
64,192,264063,1,0,0:0:0:0:
448,192,264063,1,0,0:0:0:100:B6.wav
192,192,264152,1,0,0:0:0:0:
320,192,264240,1,2,0:0:0:0:
448,192,264240,1,0,0:0:0:100:A#6.wav
64,192,264240,1,8,0:0:0:0:
192,192,264328,1,0,0:0:0:0:
320,192,264416,1,0,0:0:0:0:
448,192,264416,1,0,0:0:0:100:B6.wav
64,192,264504,1,0,0:0:0:0:
448,192,264593,1,0,0:0:0:0:
192,192,264593,1,2,0:0:0:0:
320,192,264681,1,0,0:0:0:0:
192,192,264769,1,0,0:0:0:100:A#6.wav
64,192,264769,1,0,0:0:0:0:
448,192,264857,1,0,0:0:0:0:
320,192,264946,1,0,0:0:0:100:F#6.wav
192,192,264946,1,2,0:0:0:0:
64,192,264946,1,8,0:0:0:0:
448,192,265034,1,0,0:0:0:0:
64,192,265122,1,0,0:0:0:0:
448,192,265210,1,0,0:0:0:0:
320,192,265210,1,0,0:0:0:0:
192,192,265299,1,2,0:0:0:0:
64,192,265299,1,0,0:0:0:0:
320,192,265387,1,0,0:0:0:0:
448,192,265387,1,0,0:0:0:0:
192,192,265475,1,0,0:0:0:0:
64,192,265475,1,0,0:0:0:0:
320,192,265563,1,0,0:0:0:0:
192,192,265652,1,2,0:0:0:0:
64,192,265652,1,8,0:0:0:0:
448,192,265652,1,0,0:0:0:0:
320,192,265740,1,0,0:0:0:0:
64,192,265828,1,0,0:0:0:0:
448,192,265916,1,0,0:0:0:0:
192,192,266004,1,2,0:0:0:0:
320,192,266004,1,0,0:0:0:0:
64,192,266093,1,0,0:0:0:0:
448,192,266181,1,0,0:0:0:0:
320,192,266181,1,0,0:0:0:0:
192,192,266269,1,0,0:0:0:0:
64,192,266357,1,8,0:0:0:0:
320,192,266357,1,2,0:0:0:0:
448,192,266357,1,0,0:0:0:0:
192,192,266446,1,0,0:0:0:0:
320,192,266534,1,0,0:0:0:0:
192,192,266622,1,0,0:0:0:0:
448,192,266622,1,0,0:0:0:0:
320,192,266710,1,2,0:0:0:0:
64,192,266710,1,0,0:0:0:100:C#6.wav
192,192,266799,1,0,0:0:0:0:
448,192,266799,1,0,0:0:0:0:
320,192,266887,1,0,0:0:0:0:
64,192,266887,1,0,0:0:0:0:
192,192,266975,1,0,0:0:0:0:
448,192,267063,1,8,0:0:0:0:
64,192,267063,1,0,0:0:0:100:G#6.wav
320,192,267063,1,2,0:0:0:0:
192,192,267152,1,0,0:0:0:0:
64,192,267240,1,0,0:0:0:0:
448,192,267240,1,0,0:0:0:0:
320,192,267328,1,0,0:0:0:0:
192,192,267416,1,2,0:0:0:0:
448,192,267416,1,0,0:0:0:100:A#6.wav
64,192,267504,1,0,0:0:0:0:
320,192,267593,1,0,0:0:0:0:
192,192,267681,1,0,0:0:0:0:
64,192,267769,1,8,0:0:0:0:
320,192,267769,1,2,0:0:0:0:
448,192,267769,1,0,0:0:0:0:
192,192,267857,1,0,0:0:0:0:
448,192,267946,1,0,0:0:0:0:
64,192,268034,1,0,0:0:0:0:
192,192,268034,1,0,0:0:0:0:
320,192,268122,1,2,0:0:0:0:
448,192,268122,1,0,0:0:0:100:A#6.wav
192,192,268210,1,0,0:0:0:0:
64,192,268210,1,0,0:0:0:0:
320,192,268299,1,0,0:0:0:0:
448,192,268299,1,0,0:0:0:0:
64,192,268387,1,0,0:0:0:0:
192,192,268475,1,8,0:0:0:0:
320,192,268475,1,2,0:0:0:0:
448,192,268475,1,0,0:0:0:100:B6.wav
64,192,268563,1,0,0:0:0:0:
320,192,268652,1,0,0:0:0:0:
448,192,268652,1,0,0:0:0:100:C#7.wav
192,192,268740,1,0,0:0:0:0:
64,192,268828,1,0,0:0:0:0:
320,192,268828,1,2,0:0:0:0:
448,192,268916,1,0,0:0:0:0:
192,192,269004,1,0,0:0:0:0:
320,192,269093,1,0,0:0:0:0:
448,192,269181,1,0,0:0:0:0:
64,192,269181,1,8,0:0:0:0:
192,192,269181,1,2,0:0:0:0:
320,192,269269,1,0,0:0:0:0:
192,192,269357,1,0,0:0:0:0:
64,192,269446,1,0,0:0:0:0:
448,192,269446,1,0,0:0:0:0:
320,192,269534,1,0,0:0:0:0:
192,192,269534,1,2,0:0:0:0:
64,192,269622,1,0,0:0:0:0:
448,192,269622,1,0,0:0:0:0:
320,192,269710,1,0,0:0:0:100:F#7.wav
192,192,269710,1,0,0:0:0:0:
448,192,269799,1,0,0:0:0:0:
64,192,269887,1,8,0:0:0:0:
192,192,269887,1,2,0:0:0:0:
320,192,269887,1,0,0:0:0:100:F7.wav
448,192,269975,1,0,0:0:0:0:
64,192,270063,1,0,0:0:0:0:
320,192,270063,1,0,0:0:0:100:C#7.wav
192,192,270152,1,0,0:0:0:0:
320,192,270240,1,2,0:0:0:0:
448,192,270240,1,0,0:0:0:0:
64,192,270328,1,0,0:0:0:0:
192,192,270416,1,0,0:0:0:0:
320,192,270504,1,0,0:0:0:0:
448,192,270593,1,0,0:0:0:0:
64,192,270593,1,8,0:0:0:0:
192,192,270593,1,2,0:0:0:0:
320,192,270681,1,0,0:0:0:0:
192,192,270769,1,0,0:0:0:0:
448,192,270857,1,0,0:0:0:0:
320,192,270857,1,0,0:0:0:0:
192,192,270946,1,2,0:0:0:0:
64,192,270946,1,0,0:0:0:0:
320,192,271034,1,0,0:0:0:0:
448,192,271034,1,0,0:0:0:0:
192,192,271122,1,0,0:0:0:0:
64,192,271122,1,0,0:0:0:0:
320,192,271210,1,0,0:0:0:0:
448,192,271299,1,0,0:0:0:0:
64,192,271299,1,8,0:0:0:0:
192,192,271299,1,2,0:0:0:0:
320,192,271387,1,0,0:0:0:0:
448,192,271475,1,0,0:0:0:0:
192,192,271475,1,0,0:0:0:0:
64,192,271563,1,0,0:0:0:0:
320,192,271563,1,0,0:0:0:0:
192,192,271652,1,2,0:0:0:0:
448,192,271652,1,8,1:0:0:0:
320,192,271740,1,8,1:0:0:0:
64,192,271828,1,8,1:0:0:0:
192,192,271916,1,8,1:0:0:0:
320,192,272004,1,8,1:0:0:0:
448,192,272004,1,0,0:0:0:0:
64,192,272004,1,8,0:0:0:0:
192,192,272093,1,8,1:0:0:0:
320,192,272181,1,8,1:0:0:0:
192,192,272269,1,8,1:0:0:0:
448,192,272357,1,8,1:0:0:0:
320,192,272446,1,8,1:0:0:0:
192,192,272534,1,8,1:0:0:0:
64,192,272622,1,8,1:0:0:0:
192,192,272710,1,8,0:0:0:0:
320,192,272710,1,8,1:0:0:0:
448,192,272710,1,0,0:0:0:100:F#6.wav
64,192,272799,1,8,1:0:0:0:
448,192,272887,1,8,1:0:0:0:
192,192,272975,1,8,1:0:0:0:
320,192,273063,1,2,0:0:0:0:
448,192,273063,1,0,0:0:0:100:C#7.wav
64,192,273063,1,4,0:0:0:0:
192,192,273152,1,0,0:0:0:0:
320,192,273240,1,0,0:0:0:0:
448,192,273328,1,0,0:0:0:0:
320,192,273416,1,0,0:0:0:0:
192,192,273416,1,2,0:0:0:0:
64,192,273416,1,8,0:0:0:0:
448,192,273504,1,0,0:0:0:0:
64,192,273593,1,0,0:0:0:0:
192,192,273681,1,0,0:0:0:0:
320,192,273681,1,0,0:0:0:0:
448,192,273769,1,0,0:0:0:0:
64,192,273769,1,2,0:0:0:0:
192,192,273857,1,0,0:0:0:0:
320,192,273857,1,0,0:0:0:0:
64,192,273946,1,0,0:0:0:0:
448,192,273946,1,0,0:0:0:0:
320,192,274034,1,0,0:0:0:0:
192,192,274122,1,2,0:0:0:0:
64,192,274122,1,8,0:0:0:0:
448,192,274122,1,0,0:0:0:0:
320,192,274210,1,0,0:0:0:0:
192,192,274299,1,0,0:0:0:0:
64,192,274387,1,0,0:0:0:0:
320,192,274475,1,2,0:0:0:0:
448,192,274475,1,8,1:0:0:0:
192,192,274563,1,0,0:0:0:0:
64,192,274652,1,0,0:0:0:0:
320,192,274740,1,0,0:0:0:0:
448,192,274828,1,8,1:0:0:0:
192,192,274828,1,2,0:0:0:0:
64,192,274828,1,8,0:0:0:0:
320,192,274916,1,0,0:0:0:0:
192,192,275004,1,0,0:0:0:0:
320,192,275093,1,0,0:0:0:0:
448,192,275093,1,0,0:0:0:0:
192,192,275181,1,2,0:0:0:0:
64,192,275181,1,0,0:0:0:100:C#7.wav
320,192,275269,1,0,0:0:0:0:
448,192,275269,1,0,0:0:0:0:
192,192,275357,1,0,0:0:0:0:
64,192,275357,1,0,0:0:0:100:B6.wav
320,192,275446,1,0,0:0:0:0:
448,192,275534,1,0,0:0:0:100:A#6.wav
64,192,275534,1,10,0:0:0:0:
192,192,275534,1,8,1:0:0:0:
320,192,275622,1,0,0:0:0:0:
192,192,275710,1,0,0:0:0:0:
448,192,275710,1,0,0:0:0:100:B6.wav
64,192,275799,1,0,0:0:0:0:
320,192,275887,1,8,1:0:0:0:
448,192,275887,1,2,0:0:0:0:
192,192,275975,1,0,0:0:0:0:
64,192,276063,1,0,0:0:0:100:A#6.wav
448,192,276063,1,8,1:0:0:0:
320,192,276152,1,0,0:0:0:0:
448,192,276240,1,0,0:0:0:100:F#6.wav
64,192,276240,1,10,0:0:0:0:
192,192,276240,1,8,1:0:0:0:
320,192,276328,1,0,0:0:0:0:
192,192,276416,1,8,1:0:0:0:
64,192,276504,1,0,0:0:0:0:
320,192,276504,1,0,0:0:0:0:
448,192,276593,1,8,1:0:0:0:
192,192,276593,1,2,0:0:0:0:
64,192,276681,1,0,0:0:0:0:
320,192,276681,1,0,0:0:0:0:
448,192,276769,1,0,0:0:0:0:
192,192,276769,1,8,1:0:0:0:
64,192,276857,1,0,0:0:0:0:
320,192,276946,1,0,0:0:0:0:
192,192,276946,1,8,1:0:0:0:
448,192,276946,1,10,0:0:0:0:
64,192,277034,1,0,0:0:0:0:
320,192,277122,1,8,1:0:0:0:
192,192,277210,1,0,0:0:0:0:
448,192,277299,1,8,1:0:0:0:
64,192,277299,1,2,0:0:0:0:
320,192,277387,1,0,0:0:0:0:
192,192,277475,1,8,1:0:0:0:
320,192,277563,1,0,0:0:0:0:
192,192,277652,1,0,0:0:0:0:
448,192,277652,1,8,1:0:0:0:
64,192,277652,1,10,0:0:0:0:
320,192,277740,1,0,0:0:0:0:
192,192,277828,1,8,1:0:0:0:
64,192,277916,1,0,0:0:0:0:
448,192,277916,1,0,0:0:0:0:
192,192,278004,1,2,0:0:0:0:
320,192,278004,1,0,0:0:0:100:C#6.wav
64,192,278093,1,0,0:0:0:0:
448,192,278093,1,0,0:0:0:0:
320,192,278181,1,0,0:0:0:0:
192,192,278181,1,8,1:0:0:0:
448,192,278269,1,0,0:0:0:0:
64,192,278357,1,10,0:0:0:0:
192,192,278357,1,0,0:0:0:100:G#6.wav
320,192,278357,1,8,1:0:0:0:
448,192,278446,1,0,0:0:0:0:
64,192,278534,1,8,1:0:0:0:
192,192,278622,1,0,0:0:0:0:
320,192,278710,1,2,0:0:0:0:
448,192,278710,1,0,0:0:0:100:A#6.wav
64,192,278799,1,8,1:0:0:0:
192,192,278887,1,8,1:0:0:0:
448,192,278887,1,0,0:0:0:0:
320,192,278975,1,8,1:0:0:0:
448,192,279063,1,8,1:0:0:0:
192,192,279063,1,0,0:0:0:0:
64,192,279063,1,10,0:0:0:0:
320,192,279152,1,8,1:0:0:0:
64,192,279240,1,8,1:0:0:0:
192,192,279240,1,0,0:0:0:0:
448,192,279328,1,8,1:0:0:0:
320,192,279328,1,0,0:0:0:0:
192,192,279416,1,2,0:0:0:0:
64,192,279416,1,8,1:0:0:0:
320,192,279504,1,8,1:0:0:0:
448,192,279504,1,0,0:0:0:0:
192,192,279593,1,8,1:0:0:0:
64,192,279593,1,0,0:0:0:0:
320,192,279681,1,8,1:0:0:0:
448,192,279769,1,8,1:0:0:0:
64,192,279769,1,10,0:0:0:0:
192,192,279769,1,0,0:0:0:100:B6.wav
320,192,279857,1,8,1:0:0:0:
448,192,279946,1,8,1:0:0:0:
64,192,279946,1,0,0:0:0:100:C#7.wav
192,192,280034,1,8,1:0:0:0:
448,192,280122,1,2,0:0:0:0:
320,192,280122,1,8,1:0:0:0:
64,192,280210,1,8,1:0:0:0:
192,192,280299,1,8,1:0:0:0:
448,192,280299,1,0,0:0:0:0:
320,192,280387,1,8,1:0:0:0:
192,192,280475,1,0,0:0:0:0:
64,192,280475,1,10,0:0:0:0:
448,192,280475,1,8,1:0:0:0:
320,192,280563,1,8,1:0:0:0:
64,192,280652,1,8,1:0:0:0:
192,192,280652,1,0,0:0:0:0:
320,192,280740,1,8,1:0:0:0:
448,192,280740,1,0,0:0:0:0:
64,192,280828,1,8,1:0:0:0:
192,192,280828,1,2,0:0:0:0:
320,192,280916,1,8,1:0:0:0:
448,192,280916,1,0,0:0:0:0:
64,192,281004,1,0,0:0:0:100:C#7.wav
192,192,281004,1,8,1:0:0:0:
448,192,281093,1,8,1:0:0:0:
64,192,281181,1,10,0:0:0:0:
192,192,281181,1,0,0:0:0:100:G#7.wav
320,192,281181,1,8,1:0:0:0:
448,192,281269,1,8,1:0:0:0:
64,192,281357,1,0,0:0:0:100:F#7.wav
192,192,281357,1,8,1:0:0:0:
320,192,281446,1,8,1:0:0:0:
448,192,281534,1,8,1:0:0:0:
64,192,281534,1,2,0:0:0:0:
192,192,281578,1,8,1:0:0:0:
320,192,281622,1,8,1:0:0:0:
448,192,281666,1,8,1:0:0:0:
64,192,281710,1,8,1:0:0:0:
192,192,281754,1,8,1:0:0:0:
320,192,281799,1,8,1:0:0:0:
448,192,281843,1,8,1:0:0:0:
64,192,281887,1,8,1:0:0:0:
192,192,281931,1,8,1:0:0:0:
448,192,281975,1,8,1:0:0:0:
320,192,282019,1,8,1:0:0:0:
64,192,282063,1,8,1:0:0:0:
192,192,282107,1,8,1:0:0:0:
448,192,282152,1,8,1:0:0:0:
320,192,282196,1,8,1:0:0:0:
192,192,282240,1,8,1:0:0:0:
64,192,282284,1,8,1:0:0:0:
448,192,282328,1,8,1:0:0:0:
320,192,282372,1,8,1:0:0:0:
192,192,282416,1,8,1:0:0:0:
64,192,282460,1,8,1:0:0:0:
448,192,282504,1,8,1:0:0:0:
320,192,282549,1,8,1:0:0:0:
64,192,282593,1,8,1:0:0:0:
192,192,282637,1,8,1:0:0:0:
320,192,282681,1,8,1:0:0:0:
448,192,282725,1,8,1:0:0:0:
192,192,282769,1,8,1:0:0:0:
64,192,282813,1,8,1:0:0:0:
448,192,282857,1,8,1:0:0:0:
320,192,282902,1,8,1:0:0:0:
64,192,282946,1,2,0:0:0:0:
192,192,282946,1,8,1:0:0:0:
448,192,282990,1,8,1:0:0:0:
320,192,283034,1,8,1:0:0:0:
192,192,283078,1,8,1:0:0:0:
64,192,283122,1,8,1:0:0:0:
448,192,283122,1,0,0:0:0:0:
320,192,283166,1,8,1:0:0:0:
192,192,283210,1,8,1:0:0:0:
64,192,283254,1,8,1:0:0:0:
448,192,283299,1,10,0:0:0:0:
320,192,283299,1,8,1:0:0:0:
192,192,283343,1,8,1:0:0:0:
64,192,283387,1,8,1:0:0:0:
448,192,283431,1,8,1:0:0:0:
192,192,283475,1,0,0:0:0:0:
320,192,283475,1,8,1:0:0:0:
64,192,283519,1,8,1:0:0:0:
448,192,283563,1,8,1:0:0:0:
320,192,283607,1,8,1:0:0:0:
64,192,283652,1,2,0:0:0:0:
192,192,283652,1,8,1:0:0:0:
448,192,283696,1,8,1:0:0:0:
320,192,283740,1,8,1:0:0:0:
192,192,283784,1,8,1:0:0:0:
64,192,283828,1,8,1:0:0:0:
448,192,283828,1,0,0:0:0:0:
320,192,283872,1,8,1:0:0:0:
192,192,283916,1,8,1:0:0:0:
64,192,283960,1,8,1:0:0:0:
448,192,284004,1,10,0:0:0:0:
320,192,284004,1,8,1:0:0:0:
192,192,284049,1,8,1:0:0:0:
64,192,284093,1,8,1:0:0:0:
448,192,284137,1,8,1:0:0:0:
320,192,284181,1,8,1:0:0:0:
192,192,284181,1,0,0:0:0:0:
64,192,284225,1,8,1:0:0:0:
448,192,284269,1,8,1:0:0:0:
320,192,284313,1,8,1:0:0:0:
64,192,284357,1,2,0:0:0:0:
192,192,284357,1,4,0:0:0:0:
320,192,284446,1,0,0:0:0:0:
448,192,284534,1,0,0:0:0:0:
64,192,284622,1,0,0:0:0:0:
192,192,284710,1,2,0:0:0:0:
320,192,284710,1,8,0:0:0:0:
448,192,284710,1,0,0:0:0:0:
64,192,284799,1,0,0:0:0:0:
448,192,284887,1,0,0:0:0:0:
320,192,284975,1,0,0:0:0:0:
192,192,285063,1,2,0:0:0:0:
64,192,285063,1,0,0:0:0:0:
448,192,285152,1,0,0:0:0:0:
320,192,285240,1,0,0:0:0:0:
192,192,285328,1,0,0:0:0:0:
64,192,285416,1,2,0:0:0:0:
320,192,285416,1,8,0:0:0:0:
448,192,285416,1,0,0:0:0:0:
192,192,285504,1,0,0:0:0:0:
448,192,285593,1,0,0:0:0:0:
320,192,285681,1,0,0:0:0:0:
192,192,285769,1,0,0:0:0:0:
64,192,285769,1,2,0:0:0:0:
448,192,285857,1,0,0:0:0:0:
320,192,285946,1,0,0:0:0:0:
192,192,286034,1,0,0:0:0:0:
448,192,286122,1,8,0:0:0:0:
64,192,286122,1,2,0:0:0:0:
320,192,286122,1,0,0:0:0:0:
192,192,286210,1,0,0:0:0:0:
320,192,286299,1,0,0:0:0:0:
448,192,286387,1,0,0:0:0:0:
64,192,286475,1,0,0:0:0:0:
192,192,286475,1,2,0:0:0:0:
320,192,286563,1,0,0:0:0:0:
448,192,286652,1,0,0:0:0:0:
192,192,286740,1,0,0:0:0:0:
64,192,286828,1,2,0:0:0:0:
320,192,286828,1,0,0:0:0:0:
448,192,286828,1,8,0:0:0:0:
192,192,286916,1,0,0:0:0:0:
320,192,287004,1,0,0:0:0:0:
192,192,287093,1,0,0:0:0:0:
64,192,287181,1,2,0:0:0:0:
448,192,287181,1,0,0:0:0:0:
320,192,287269,1,0,0:0:0:0:
192,192,287357,1,0,0:0:0:0:
448,192,287446,1,0,0:0:0:0:
64,192,287534,1,2,0:0:0:0:
320,192,287534,1,8,0:0:0:0:
192,192,287534,1,0,0:0:0:0:
448,192,287622,1,0,0:0:0:0:
64,192,287710,1,0,0:0:0:0:
320,192,287799,1,0,0:0:0:0:
448,192,287887,1,0,0:0:0:0:
192,192,287887,1,2,0:0:0:0:
64,192,287975,1,0,0:0:0:0:
448,192,288063,1,0,0:0:0:0:
320,192,288152,1,0,0:0:0:0:
448,192,288240,1,0,0:0:0:0:
192,192,288240,1,2,0:0:0:0:
64,192,288240,1,8,0:0:0:0:
320,192,288328,1,0,0:0:0:0:
192,192,288416,1,0,0:0:0:0:
64,192,288504,1,0,0:0:0:0:
320,192,288593,1,2,0:0:0:0:
448,192,288593,1,0,0:0:0:0:
192,192,288681,1,0,0:0:0:0:
64,192,288769,1,0,0:0:0:0:
448,192,288857,1,0,0:0:0:0:
192,192,288946,1,0,0:0:0:0:
64,192,288946,1,2,0:0:0:0:
320,192,288946,1,8,0:0:0:0:
448,192,289034,1,0,0:0:0:0:
192,192,289122,1,0,0:0:0:0:
320,192,289210,1,0,0:0:0:0:
448,192,289299,1,2,0:0:0:0:
64,192,289299,1,0,0:0:0:0:
192,192,289387,1,0,0:0:0:0:
320,192,289475,1,0,0:0:0:0:
192,192,289563,1,0,0:0:0:0:
64,192,289652,1,2,0:0:0:0:
320,192,289652,1,0,0:0:0:0:
448,192,289652,1,8,0:0:0:0:
192,192,289740,1,0,0:0:0:0:
448,192,289828,1,0,0:0:0:0:
320,192,289916,1,0,0:0:0:0:
64,192,290004,1,2,0:0:0:0:
192,192,290004,1,0,0:0:0:0:
448,192,290093,1,0,0:0:0:0:
320,192,290181,1,0,0:0:0:0:
64,192,290269,1,0,0:0:0:0:
192,192,290357,1,0,0:0:0:0:
320,192,290357,1,2,0:0:0:0:
448,192,290357,1,8,0:0:0:0:
64,192,290446,1,0,0:0:0:0:
192,192,290534,1,0,0:0:0:0:
448,192,290622,1,0,0:0:0:0:
64,192,290710,1,0,0:0:0:0:
320,192,290710,1,2,0:0:0:0:
192,192,290799,1,0,0:0:0:0:
64,192,290887,1,0,0:0:0:0:
448,192,290975,1,0,0:0:0:0:
192,192,291063,1,0,0:0:0:0:
320,192,291063,1,8,0:0:0:0:
64,192,291063,1,2,0:0:0:0:
448,192,291152,1,0,0:0:0:0:
192,192,291240,1,0,0:0:0:0:
320,192,291328,1,0,0:0:0:0:
448,192,291416,1,0,0:0:0:0:
64,192,291416,1,2,0:0:0:0:
192,192,291504,1,0,0:0:0:0:
320,192,291593,1,0,0:0:0:0:
448,192,291681,1,0,0:0:0:0:
192,192,291769,1,2,0:0:0:0:
64,192,291769,1,8,0:0:0:0:
320,192,291769,1,0,0:0:0:0:
448,192,291857,1,0,0:0:0:0:
64,192,291946,1,0,0:0:0:0:
192,192,292034,1,0,0:0:0:0:
448,192,292122,1,0,0:0:0:0:
320,192,292122,1,2,0:0:0:0:
64,192,292210,1,0,0:0:0:0:
192,192,292299,1,0,0:0:0:0:
320,192,292387,1,0,0:0:0:0:
192,192,292475,1,2,0:0:0:0:
64,192,292475,1,0,0:0:0:0:
448,192,292475,1,8,0:0:0:0:
320,192,292563,1,0,0:0:0:0:
192,192,292652,1,0,0:0:0:0:
64,192,292740,1,0,0:0:0:0:
448,192,292828,1,0,0:0:0:0:
320,192,292828,1,2,0:0:0:0:
192,192,292916,1,0,0:0:0:0:
64,192,293004,1,0,0:0:0:0:
320,192,293093,1,0,0:0:0:0:
192,192,293181,1,8,0:0:0:0:
448,192,293181,1,0,0:0:0:0:
64,192,293181,1,2,0:0:0:0:
320,192,293269,1,0,0:0:0:0:
192,192,293357,1,0,0:0:0:0:
64,192,293446,1,0,0:0:0:0:
448,192,293534,1,0,0:0:0:0:
320,192,293534,1,2,0:0:0:0:
192,192,293622,1,0,0:0:0:0:
64,192,293710,1,0,0:0:0:0:
448,192,293799,1,0,0:0:0:0:
64,192,293887,1,0,0:0:0:0:
192,192,293887,1,2,0:0:0:0:
320,192,293887,1,8,0:0:0:0:
448,192,293975,1,0,0:0:0:0:
192,192,294063,1,0,0:0:0:0:
320,192,294152,1,0,0:0:0:0:
448,192,294240,1,0,0:0:0:0:
64,192,294240,1,2,0:0:0:0:
192,192,294328,1,0,0:0:0:0:
320,192,294416,1,0,0:0:0:0:
192,192,294504,1,0,0:0:0:0:
64,192,294593,1,2,0:0:0:0:
320,192,294593,1,8,0:0:0:0:
448,192,294593,1,0,0:0:0:0:
192,192,294681,1,0,0:0:0:0:
448,192,294769,1,0,0:0:0:0:
320,192,294857,1,0,0:0:0:0:
64,192,294946,1,2,0:0:0:0:
192,192,294946,1,0,0:0:0:0:
320,192,295034,1,0,0:0:0:0:
448,192,295122,1,0,0:0:0:0:
192,192,295210,1,0,0:0:0:0:
448,192,295299,1,8,0:0:0:0:
320,192,295299,1,0,0:0:0:0:
64,192,295299,1,2,0:0:0:0:
192,192,295387,1,0,0:0:0:0:
448,192,295475,1,0,0:0:0:0:
320,192,295563,1,0,0:0:0:0:
64,192,295652,5,2,0:0:0:0:
192,192,295652,1,4,0:0:0:0:
448,192,295652,1,0,0:0:0:0:
320,192,295740,1,0,0:0:0:0:
192,192,295828,1,0,0:0:0:0:
64,192,295916,1,0,0:0:0:0:
192,192,296004,1,0,0:0:0:0:
320,192,296004,1,2,0:0:0:0:
448,192,296004,1,8,0:0:0:0:
64,192,296093,1,0,0:0:0:0:
448,192,296181,1,0,0:0:0:0:
320,192,296269,1,0,0:0:0:0:
192,192,296357,1,0,0:0:0:0:
64,192,296357,1,2,0:0:0:0:
320,192,296446,1,0,0:0:0:0:
448,192,296534,1,0,0:0:0:0:
192,192,296622,1,0,0:0:0:0:
448,192,296710,1,8,0:0:0:0:
64,192,296710,1,2,0:0:0:0:
320,192,296710,1,0,0:0:0:0:
192,192,296799,1,0,0:0:0:0:
320,192,296887,1,0,0:0:0:0:
448,192,296975,1,0,0:0:0:0:
192,192,297063,1,2,0:0:0:0:
64,192,297063,1,0,0:0:0:0:
320,192,297152,1,0,0:0:0:0:
448,192,297240,1,0,0:0:0:0:
192,192,297328,1,0,0:0:0:0:
448,192,297416,1,8,0:0:0:0:
320,192,297416,1,2,0:0:0:0:
64,192,297416,1,0,0:0:0:0:
192,192,297504,1,0,0:0:0:0:
320,192,297593,1,0,0:0:0:0:
64,192,297681,1,0,0:0:0:0:
192,192,297769,1,2,0:0:0:0:
448,192,297769,1,0,0:0:0:0:
320,192,297857,1,0,0:0:0:0:
64,192,297946,1,0,0:0:0:0:
192,192,298034,1,0,0:0:0:0:
320,192,298122,1,8,0:0:0:0:
64,192,298122,1,2,0:0:0:0:
448,192,298122,1,0,0:0:0:0:
192,192,298210,1,0,0:0:0:0:
320,192,298299,1,0,0:0:0:0:
64,192,298387,1,0,0:0:0:0:
448,192,298475,1,0,0:0:0:0:
192,192,298475,1,2,0:0:0:0:
320,192,298563,1,0,0:0:0:0:
64,192,298652,1,0,0:0:0:0:
192,192,298740,1,0,0:0:0:0:
320,192,298828,1,2,0:0:0:0:
448,192,298828,1,8,0:0:0:0:
64,192,298828,1,0,0:0:0:0:
192,192,298916,1,0,0:0:0:0:
448,192,299004,1,0,0:0:0:0:
64,192,299093,1,0,0:0:0:0:
192,192,299181,1,2,0:0:0:0:
320,192,299181,1,0,0:0:0:0:
448,192,299269,1,0,0:0:0:0:
64,192,299357,1,0,0:0:0:0:
192,192,299446,1,0,0:0:0:0:
448,192,299534,1,8,0:0:0:0:
64,192,299534,1,0,0:0:0:0:
320,192,299534,1,2,0:0:0:0:
192,192,299622,1,0,0:0:0:0:
448,192,299710,1,0,0:0:0:0:
320,192,299799,1,0,0:0:0:0:
192,192,299887,1,0,0:0:0:0:
64,192,299887,1,2,0:0:0:0:
448,192,299975,1,0,0:0:0:0:
320,192,300063,1,0,0:0:0:0:
192,192,300152,1,0,0:0:0:0:
64,192,300240,1,2,0:0:0:0:
448,192,300240,1,0,0:0:0:0:
320,192,300240,1,8,0:0:0:0:
192,192,300328,1,0,0:0:0:0:
448,192,300416,1,0,0:0:0:0:
64,192,300504,1,0,0:0:0:0:
192,192,300593,1,2,0:0:0:0:
448,192,300593,1,0,0:0:0:0:
320,192,300681,1,0,0:0:0:0:
64,192,300769,1,0,0:0:0:0:
448,192,300857,1,0,0:0:0:0:
64,192,300946,1,8,0:0:0:0:
320,192,300946,1,2,0:0:0:0:
192,192,300946,1,0,0:0:0:0:
448,192,301034,1,0,0:0:0:0:
192,192,301122,1,0,0:0:0:0:
320,192,301210,1,0,0:0:0:0:
448,192,301299,1,2,0:0:0:0:
64,192,301299,1,0,0:0:0:0:
192,192,301387,1,0,0:0:0:0:
320,192,301475,1,0,0:0:0:0:
448,192,301563,1,0,0:0:0:0:
320,192,301652,1,8,0:0:0:0:
64,192,301652,1,0,0:0:0:0:
192,192,301652,1,2,0:0:0:0:
448,192,301740,1,0,0:0:0:0:
192,192,301828,1,0,0:0:0:0:
320,192,301916,1,0,0:0:0:0:
448,192,302004,1,0,0:0:0:0:
64,192,302004,1,2,0:0:0:0:
192,192,302093,1,0,0:0:0:0:
320,192,302181,1,0,0:0:0:0:
448,192,302269,1,0,0:0:0:0:
64,192,302357,1,2,0:0:0:0:
192,192,302357,1,8,0:0:0:0:
320,192,302357,1,0,0:0:0:0:
448,192,302446,1,0,0:0:0:0:
64,192,302534,1,0,0:0:0:0:
320,192,302622,1,0,0:0:0:0:
448,192,302710,1,0,0:0:0:0:
192,192,302710,1,2,0:0:0:0:
64,192,302799,1,0,0:0:0:0:
320,192,302887,1,0,0:0:0:0:
192,192,302975,1,0,0:0:0:0:
320,192,303063,1,0,0:0:0:0:
64,192,303063,1,2,0:0:0:0:
448,192,303063,1,8,0:0:0:0:
192,192,303152,1,0,0:0:0:0:
320,192,303240,1,0,0:0:0:0:
448,192,303328,1,0,0:0:0:0:
192,192,303416,1,0,0:0:0:0:
64,192,303416,1,2,0:0:0:0:
320,192,303504,1,0,0:0:0:0:
448,192,303593,1,0,0:0:0:0:
64,192,303681,1,0,0:0:0:0:
448,192,303769,1,8,0:0:0:0:
320,192,303769,1,0,0:0:0:0:
192,192,303769,1,2,0:0:0:0:
64,192,303857,1,0,0:0:0:0:
448,192,303946,1,0,0:0:0:0:
320,192,304034,1,0,0:0:0:0:
64,192,304122,1,2,0:0:0:0:
192,192,304122,1,0,0:0:0:0:
320,192,304210,1,0,0:0:0:0:
448,192,304299,1,0,0:0:0:0:
64,192,304387,1,0,0:0:0:0:
448,192,304475,1,8,0:0:0:0:
320,192,304475,1,0,0:0:0:0:
192,192,304475,1,2,0:0:0:0:
64,192,304563,1,0,0:0:0:0:
320,192,304652,1,0,0:0:0:0:
192,192,304740,1,0,0:0:0:0:
448,192,304828,1,0,0:0:0:0:
64,192,304828,1,2,0:0:0:0:
320,192,304916,1,0,0:0:0:0:
192,192,305004,1,0,0:0:0:0:
64,192,305093,1,0,0:0:0:0:
320,192,305181,1,0,0:0:0:0:
192,192,305181,1,8,0:0:0:0:
448,192,305181,1,2,0:0:0:0:
64,192,305269,1,0,0:0:0:0:
448,192,305357,1,0,0:0:0:0:
320,192,305446,1,0,0:0:0:0:
192,192,305534,1,0,0:0:0:0:
64,192,305534,1,2,0:0:0:0:
448,192,305622,1,0,0:0:0:0:
320,192,305710,1,0,0:0:0:0:
192,192,305799,5,0,0:0:0:0:
448,192,305887,1,8,0:0:0:0:
64,192,305887,1,0,0:0:0:0:
320,192,305887,1,2,0:0:0:0:
192,192,305975,1,0,0:0:0:0:
320,192,306063,1,0,0:0:0:0:
448,192,306152,1,0,0:0:0:0:
64,192,306240,1,2,0:0:0:0:
192,192,306240,1,0,0:0:0:0:
320,192,306328,1,0,0:0:0:0:
448,192,306416,1,0,0:0:0:0:
64,192,306504,1,0,0:0:0:0:
320,192,306593,1,8,0:0:0:0:
448,192,306593,1,0,0:0:0:0:
192,192,306593,1,2,0:0:0:0:
64,192,306681,1,0,0:0:0:0:
448,192,306769,1,0,0:0:0:0:
192,192,306857,1,0,0:0:0:0:
320,192,306946,5,4,1:0:0:0:
448,192,306946,1,0,1:0:0:0:
64,192,306946,1,0,0:0:0:0:
192,192,307122,1,0,0:0:0:50:hat.wav
320,192,307299,1,0,1:0:0:0:
64,192,307475,1,0,0:0:0:50:hat.wav
320,192,307652,1,0,1:0:0:0:
192,192,307828,1,0,0:0:0:50:hat.wav
320,192,308004,1,0,1:0:0:0:
64,192,308181,1,0,0:0:0:50:hat.wav
320,192,308357,1,0,1:0:0:0:
192,192,308534,1,0,0:0:0:50:hat.wav
320,192,308710,1,0,1:0:0:0:
64,192,308887,1,0,0:0:0:50:hat.wav
320,192,309063,1,0,1:0:0:0:
192,192,309240,1,0,0:0:0:50:hat.wav
320,192,309416,128,0,309769:1:0:0:0:
64,192,309769,1,0,1:0:0:0:
448,192,309946,1,0,0:0:0:50:hat.wav
64,192,310122,1,0,1:0:0:0:
320,192,310299,1,0,0:0:0:50:hat.wav
64,192,310475,1,0,1:0:0:0:
448,192,310652,1,0,0:0:0:50:hat.wav
64,192,310828,1,0,1:0:0:0:
320,192,311004,1,0,0:0:0:50:hat.wav
64,192,311181,1,0,1:0:0:0:
448,192,311357,1,0,0:0:0:50:hat.wav
64,192,311534,1,0,1:0:0:0:
320,192,311710,1,0,0:0:0:50:hat.wav
64,192,311887,1,0,1:0:0:0:
192,192,312063,128,0,312240:0:0:0:50:hat.wav
448,192,312240,1,0,1:0:0:0:
192,192,312328,1,0,0:0:0:0:
320,192,312416,1,0,0:0:0:50:hat.wav
64,192,312504,1,0,0:0:0:0:
448,192,312593,1,0,1:0:0:0:
192,192,312769,1,0,0:0:0:50:hat.wav
448,192,312946,1,0,1:0:0:0:
64,192,313122,1,0,0:0:0:50:hat.wav
448,192,313299,1,0,1:0:0:0:
192,192,313475,1,0,0:0:0:50:hat.wav
448,192,313652,1,0,1:0:0:0:
64,192,313828,1,0,0:0:0:50:hat.wav
448,192,314004,1,0,1:0:0:0:
192,192,314181,1,0,0:0:0:50:hat.wav
448,192,314357,1,0,1:0:0:0:
64,192,314534,1,0,0:0:0:50:hat.wav
448,192,314710,1,0,1:0:0:0:
192,192,314887,1,0,0:0:0:50:hat.wav
448,192,315063,128,0,315416:1:0:0:0:
192,192,315416,1,0,1:0:0:0:
320,192,315593,1,0,0:0:0:50:hat.wav
192,192,315769,1,0,1:0:0:0:
448,192,315946,1,0,0:0:0:50:hat.wav
192,192,316122,1,0,1:0:0:0:
320,192,316299,1,0,0:0:0:50:hat.wav
192,192,316475,1,0,1:0:0:0:
448,192,316652,1,0,0:0:0:50:hat.wav
192,192,316828,1,0,1:0:0:0:
320,192,317004,1,0,0:0:0:50:hat.wav
192,192,317181,1,0,1:0:0:0:
448,192,317357,1,0,0:0:0:50:hat.wav
192,192,317534,1,0,1:0:0:0:
320,192,317710,1,0,0:0:0:50:hat.wav
64,192,318063,1,0,1:0:0:0:
64,192,318240,1,0,1:0:0:0:
64,192,318593,1,0,1:0:0:0:
64,192,318946,1,0,1:0:0:0:
64,192,319299,1,0,1:0:0:0:
64,192,319652,1,0,1:0:0:0:
64,192,320004,1,0,1:0:0:0:
64,192,320357,1,0,1:0:0:0:
64,192,320710,128,0,321063:1:0:0:0:
448,192,321063,128,0,329534:1:0:0:0:
320,192,321416,1,0,1:0:0:0:
320,192,321769,1,0,1:0:0:0:
320,192,322122,1,0,1:0:0:0:
320,192,322475,1,0,1:0:0:0:
320,192,322828,1,0,1:0:0:0:
320,192,323181,1,0,1:0:0:0:
192,192,323357,128,0,323534:0:0:0:0:
320,192,323534,1,0,1:0:0:0:
192,192,323622,1,0,0:0:0:0:
64,192,323710,1,0,0:0:0:0:
320,192,323799,1,0,0:0:0:0:
192,192,323887,1,0,1:0:0:0:
192,192,324240,1,0,1:0:0:0:
192,192,324593,1,0,1:0:0:0:
192,192,324946,1,0,1:0:0:0:
192,192,325299,1,0,1:0:0:0:
192,192,325652,1,0,1:0:0:0:
192,192,326004,1,0,1:0:0:0:
192,192,326357,128,0,326710:1:0:0:0:
64,192,326710,1,0,1:0:0:0:
64,192,327063,1,0,1:0:0:0:
64,192,327416,1,0,1:0:0:0:
64,192,327769,1,0,1:0:0:0:
64,192,328122,1,0,1:0:0:0:
