osu file format v14

[General]
AudioFilename: audio.mp3
AudioLeadIn: 0
PreviewTime: 311811
Countdown: 0
SampleSet: Normal
StackLeniency: 0.7
Mode: 1
LetterboxInBreaks: 0
WidescreenStoryboard: 0

[Editor]
Bookmarks: 45411,64611,86211,107811,131811,151011,160611,182211,220611,259011
DistanceSpacing: 1
BeatDivisor: 4
GridSize: 32
TimelineZoom: 2.7

[Metadata]
Title:Exit This Earth's Atomosphere (Camellia's "PLANETARY//200STEP" Remix)
TitleUnicode:Exit This Earth's Atomosphere (かめりあ's "PLANETARY//200STEP" Remix)
Artist:Camellia
ArtistUnicode:かめりあ
Creator:incandescence
Version:Weathering Heights
Source:
Tags:atmosphere electronic planet shaper cametek remix summary & vips 02 dnb drum and bass
BeatmapID:1764902
BeatmapSetID:843576

[Difficulty]
HPDrainRate:5
CircleSize:2
OverallDifficulty:7
ApproachRate:10
SliderMultiplier:1.4
SliderTickRate:1

[Events]
//Background and Video events
0,0,"earth.jpg",0,0
//Break Periods
2,220811,229761
//Storyboard Layer 0 (Background)
//Storyboard Layer 1 (Fail)
//Storyboard Layer 2 (Pass)
//Storyboard Layer 3 (Foreground)
//Storyboard Sound Samples

[TimingPoints]
7011,300,4,1,0,100,1,0
7011,-133.333333333333,4,1,0,30,0,0
45411,-133.333333333333,4,1,0,60,0,0
54411,-129.032258064516,4,1,0,70,0,0
55011,-125,4,1,0,80,0,0
59811,-117.647058823529,4,1,0,80,0,0
62211,-111.111111111111,4,1,0,90,0,0
64611,-100,4,1,0,100,0,0
95811,-99.009900990099,4,1,0,100,0,0
95961,-98.0392156862745,4,1,0,100,0,0
96111,-97.0873786407767,4,1,0,100,0,0
96261,-96.1538461538461,4,1,0,100,0,0
96411,-95.2380952380952,4,1,0,100,0,0
96561,-94.3396226415094,4,1,0,100,0,0
96711,-93.4579439252336,4,1,0,100,0,0
96861,-92.5925925925926,4,1,0,100,0,0
97011,-91.743119266055,4,1,0,100,0,0
97161,-90.9090909090909,4,1,0,100,0,0
97311,-90.0900900900901,4,1,0,100,0,0
97461,-89.2857142857143,4,1,0,100,0,0
97611,-88.4955752212389,4,1,0,100,0,0
97761,-87.719298245614,4,1,0,100,0,0
97911,-86.9565217391304,4,1,0,100,0,0
98211,-86.2068965517241,4,1,0,100,0,0
98361,-85.4700854700855,4,1,0,100,0,0
98661,-84.7457627118644,4,1,0,100,0,0
98811,-84.0336134453781,4,1,0,100,0,0
99111,-83.3333333333333,4,1,0,100,0,0
99411,-82.6446280991736,4,1,0,100,0,0
99561,-81.9672131147541,4,1,0,100,0,0
99861,-81.3008130081301,4,1,0,100,0,0
100011,-80.6451612903226,4,1,0,100,0,0
100311,-80,4,1,0,100,0,0
100461,-78.4313725490196,4,1,0,100,0,0
100611,-76.9230769230769,4,1,0,100,0,0
101661,-75.4716981132076,4,1,0,100,0,0
101811,-74.0740740740741,4,1,0,100,0,0
103011,-71.4285714285714,4,1,0,100,0,0
104211,-66.6666666666667,4,1,0,100,0,0
105411,-100,4,1,0,100,0,0
105711,-99.009900990099,4,1,0,100,0,0
105861,-98.0392156862745,4,1,0,100,0,0
106011,-97.0873786407767,4,1,0,100,0,0
106161,-96.1538461538461,4,1,0,100,0,0
106311,-95.2380952380952,4,1,0,100,0,0
106611,-94.3396226415094,4,1,0,100,0,0
106761,-93.4579439252336,4,1,0,100,0,0
106911,-92.5925925925926,4,1,0,100,0,0
107061,-91.743119266055,4,1,0,100,0,0
107211,-90.9090909090909,4,1,0,100,0,0
107361,-90.0900900900901,4,1,0,100,0,0
107436,-89.2857142857143,4,1,0,100,0,0
107511,-88.4955752212389,4,1,0,100,0,0
107661,-87.719298245614,4,1,0,100,0,0
107811,-86.9565217391304,4,1,0,100,0,1
117411,-86.9565217391304,4,1,0,100,0,0
117711,-86.9565217391304,4,1,0,100,0,1
127011,-86.9565217391304,4,1,0,100,0,0
127311,-100,4,1,0,100,0,0
131811,-100,4,1,0,100,0,1
141411,-83.3333333333333,4,1,0,100,0,1
141711,-71.4285714285714,4,1,0,100,0,1
142011,-62.5,4,1,0,100,0,1
142311,-55.5555555555556,4,1,0,100,0,1
142611,-100,4,1,0,100,0,1
146211,-83.3333333333333,4,1,0,100,0,1
146511,-71.4285714285714,4,1,0,100,0,1
146811,-62.5,4,1,0,100,0,1
147111,-55.5555555555556,4,1,0,100,0,1
147411,-100,4,1,0,100,0,1
151011,-100,4,1,0,100,0,0
152211,-125,4,1,0,100,0,0
155511,-120.048019207683,4,1,0,100,0,0
155661,-115.340253748558,4,1,0,100,0,0
155736,-112.994350282486,4,1,0,100,0,0
155811,-111.111111111111,4,1,0,100,0,0
159111,-109.89010989011,4,1,0,100,0,0
159186,-108.695652173913,4,1,0,100,0,0
159261,-107.52688172043,4,1,0,100,0,0
159336,-106.382978723404,4,1,0,100,0,0
159411,-105.263157894737,4,1,0,100,0,0
159561,-100,4,1,0,100,0,0
170211,-99.009900990099,4,1,0,100,0,0
170361,-98.0392156862745,4,1,0,100,0,0
170511,-97.0873786407767,4,1,0,100,0,0
170661,-96.1538461538461,4,1,0,100,0,0
170811,-95.2380952380952,4,1,0,100,0,0
170961,-94.3396226415094,4,1,0,100,0,0
171111,-93.4579439252336,4,1,0,100,0,0
171261,-92.5925925925926,4,1,0,100,0,0
171411,-91.743119266055,4,1,0,100,0,0
171561,-90.9090909090909,4,1,0,100,0,0
171711,-90.0900900900901,4,1,0,100,0,0
171861,-89.2857142857143,4,1,0,100,0,0
172011,-88.4955752212389,4,1,0,100,0,0
172161,-87.719298245614,4,1,0,100,0,0
172311,-86.9565217391304,4,1,0,100,0,0
172611,-86.2068965517241,4,1,0,100,0,0
172761,-85.4700854700855,4,1,0,100,0,0
173061,-84.7457627118644,4,1,0,100,0,0
173211,-84.0336134453781,4,1,0,100,0,0
173511,-83.3333333333333,4,1,0,100,0,0
173811,-82.6446280991736,4,1,0,100,0,0
173961,-81.9672131147541,4,1,0,100,0,0
174261,-81.3008130081301,4,1,0,100,0,0
174411,-80.6451612903226,4,1,0,100,0,0
174711,-80,4,1,0,100,0,0
174861,-78.4313725490196,4,1,0,100,0,0
175011,-76.9230769230769,4,1,0,100,0,0
176061,-75.4716981132076,4,1,0,100,0,0
176211,-74.0740740740741,4,1,0,100,0,0
177411,-71.4285714285714,4,1,0,100,0,0
178611,-66.6666666666667,4,1,0,100,0,0
179811,-100,4,1,0,100,0,0
180111,-98.5221674876847,4,1,0,100,0,0
180261,-97.0873786407767,4,1,0,100,0,0
180411,-96.1538461538461,4,1,0,100,0,0
180561,-95.2380952380952,4,1,0,100,0,0
180711,-94.3396226415094,4,1,0,100,0,0
180861,-94.3396226415094,4,1,0,100,0,0
181011,-92.5925925925926,4,1,0,100,0,0
181161,-91.743119266055,4,1,0,100,0,0
181311,-90.9090909090909,4,1,0,100,0,0
181461,-90.0900900900901,4,1,0,100,0,0
181611,-89.2857142857143,4,1,0,100,0,0
181761,-88.4955752212389,4,1,0,100,0,0
181911,-87.719298245614,4,1,0,100,0,0
182211,-86.9565217391304,4,1,0,100,0,1
191811,-86.9565217391304,4,1,0,100,0,0
192111,-86.9565217391304,4,1,0,100,0,1
201111,-86.9565217391304,4,1,0,100,0,0
206211,-86.9565217391304,4,1,0,100,0,1
211011,-86.9565217391304,4,1,0,100,0,0
211311,-86.9565217391304,4,1,0,100,0,1
220611,-86.9565217391304,4,1,0,100,0,0
220911,-200,4,1,0,100,0,0
230211,-200,4,1,0,30,0,0
249411,-133.333333333333,4,1,0,30,0,0
258111,-131.578947368421,4,1,0,40,0,0
258261,-129.87012987013,4,1,0,50,0,0
258411,-128.205128205128,4,1,0,60,0,0
259011,-125,4,1,0,60,0,0
263511,-121.212121212121,4,1,0,60,0,0
263811,-117.647058823529,4,1,0,60,0,0
266211,-111.111111111111,4,1,0,60,0,0
268311,-105.263157894737,4,1,0,80,0,0
268611,-100,4,1,0,100,0,0
268911,-96.1538461538461,4,1,0,100,0,0
269061,-92.5925925925926,4,1,0,100,0,0
269211,-89.2857142857143,4,1,0,100,0,0
269361,-86.2068965517241,4,1,0,100,0,0
269811,-92.5925925925926,4,1,0,100,0,0
270111,-89.2857142857143,4,1,0,100,0,0
270261,-86.2068965517241,4,1,0,100,0,0
270411,-83.3333333333333,4,1,0,100,0,0
270561,-80.6451612903226,4,1,0,100,0,0
270861,-89.2857142857143,4,1,0,100,0,0
271311,-92.5925925925926,4,1,0,100,0,0
271611,-89.2857142857143,4,1,0,100,0,0
271911,-86.2068965517241,4,1,0,100,0,0
272061,-83.3333333333333,4,1,0,100,0,0
272211,-80.6451612903226,4,1,0,100,0,0
272361,-78.125,4,1,0,100,0,0
272511,-75.7575757575758,4,1,0,100,0,0
272661,-73.5294117647059,4,1,0,100,0,0
272811,-71.4285714285714,4,1,0,100,0,0
273111,-83.3333333333333,4,1,0,100,0,0
273411,-100,4,1,0,100,0,0
273711,-96.1538461538461,4,1,0,100,0,0
273861,-92.5925925925926,4,1,0,100,0,0
274011,-89.2857142857143,4,1,0,100,0,0
274161,-86.2068965517241,4,1,0,100,0,0
274611,-83.3333333333333,4,1,0,100,0,0
274911,-80.6451612903226,4,1,0,100,0,0
275061,-78.125,4,1,0,100,0,0
275211,-75.7575757575758,4,1,0,100,0,0
275361,-73.5294117647059,4,1,0,100,0,0
275661,-84.7457627118644,4,1,0,100,0,0
276111,-87.719298245614,4,1,0,100,0,0
276411,-90.9090909090909,4,1,0,100,0,0
276711,-92.5925925925926,4,1,0,100,0,0
276861,-94.3396226415094,4,1,0,100,0,0
277011,-96.1538461538461,4,1,0,100,0,0
277311,-92.5925925925926,4,1,0,100,0,0
277611,-94.3396226415094,4,1,0,100,0,0
277761,-96.1538461538461,4,1,0,100,0,0
277911,-98.0392156862745,4,1,0,100,0,0
278211,-100,4,1,0,100,0,0
278511,-96.1538461538461,4,1,0,100,0,0
278661,-92.5925925925926,4,1,0,100,0,0
278811,-89.2857142857143,4,1,0,100,0,0
278961,-86.2068965517241,4,1,0,100,0,0
279411,-92.5925925925926,4,1,0,100,0,0
279711,-89.2857142857143,4,1,0,100,0,0
279861,-86.2068965517241,4,1,0,100,0,0
280011,-83.3333333333333,4,1,0,100,0,0
280161,-80.6451612903226,4,1,0,100,0,0
280461,-89.2857142857143,4,1,0,100,0,0
280911,-92.5925925925926,4,1,0,100,0,0
281211,-89.2857142857143,4,1,0,100,0,0
281511,-86.2068965517241,4,1,0,100,0,0
281661,-83.3333333333333,4,1,0,100,0,0
281811,-80.6451612903226,4,1,0,100,0,0
281961,-78.125,4,1,0,100,0,0
282111,-75.7575757575758,4,1,0,100,0,0
282261,-73.5294117647059,4,1,0,100,0,0
282411,-71.4285714285714,4,1,0,100,0,0
282711,-83.3333333333333,4,1,0,100,0,0
283011,-100,4,1,0,100,0,0
283311,-96.1538461538461,4,1,0,100,0,0
283461,-92.5925925925926,4,1,0,100,0,0
283611,-89.2857142857143,4,1,0,100,0,0
283761,-86.2068965517241,4,1,0,100,0,0
284211,-92.5925925925926,4,1,0,100,0,0
284511,-89.2857142857143,4,1,0,100,0,0
284661,-86.2068965517241,4,1,0,100,0,0
284811,-83.3333333333333,4,1,0,100,0,0
284961,-80.6451612903226,4,1,0,100,0,0
285261,-89.2857142857143,4,1,0,100,0,0
285411,-100,4,1,0,100,0,0
299436,-98.0392156862745,4,1,0,100,0,0
299511,-96.1538461538461,4,1,0,100,0,0
299586,-94.3396226415094,4,1,0,100,0,0
299661,-92.5925925925926,4,1,0,100,0,0
299811,-90.9090909090909,4,1,0,100,0,0
302211,-83.3333333333333,4,1,0,100,0,0
304461,-80,4,1,0,100,0,0
304611,-76.9230769230769,4,1,0,100,0,0
305661,-75.4716981132076,4,1,0,100,0,0
305811,-74.0740740740741,4,1,0,100,0,0
307011,-71.4285714285714,4,1,0,100,0,0
308211,-66.6666666666667,4,1,0,100,0,0
309411,-100,4,1,0,100,0,0
309711,-95.2380952380952,4,1,0,100,0,0
309861,-94.3396226415094,4,1,0,100,0,0
310011,-93.4579439252336,4,1,0,100,0,0
310161,-92.5925925925926,4,1,0,100,0,0
310311,-91.743119266055,4,1,0,100,0,0
310611,-90.9090909090909,4,1,0,100,0,0
310761,-90.0900900900901,4,1,0,100,0,0
310911,-89.2857142857143,4,1,0,100,0,0
311061,-88.4955752212389,4,1,0,100,0,0
311211,-87.719298245614,4,1,0,100,0,0
311361,-86.9565217391304,4,1,0,100,0,0
311436,-86.2068965517241,4,1,0,100,0,0
311511,-85.4700854700855,4,1,0,100,0,0
311661,-84.3881856540084,4,1,0,100,0,0
311811,-83.3333333333333,4,1,0,100,0,1
328611,-83.3333333333333,4,1,0,100,0,0
331011,-83.3333333333333,4,1,0,100,0,1
345711,-80,4,1,0,100,0,1
346911,-76.9230769230769,4,1,0,100,0,1
349011,-74.0740740740741,4,1,0,100,0,1
350211,-71.4285714285714,4,1,0,100,0,1
352611,-71.4285714285714,4,1,0,100,0,0
353811,-83.3333333333333,4,1,0,90,0,0
355011,-100,4,1,0,80,0,0
357411,-111.111111111111,4,1,0,70,0,0
358611,-125,4,1,0,60,0,0
359811,-142.857142857143,4,1,0,50,0,0

[HitObjects]
256,192,26211,5,8,0:0:0:0:
256,192,26361,1,0,0:0:0:0:
256,192,26511,1,8,0:0:0:0:
256,192,26661,1,8,0:0:0:0:
256,192,26811,1,0,0:0:0:0:
256,192,26961,1,8,0:0:0:0:
256,192,27111,1,0,0:0:0:0:
256,192,27261,1,0,0:0:0:0:
256,192,27411,1,8,0:0:0:0:
256,192,27561,1,0,0:0:0:0:
256,192,27711,1,8,0:0:0:0:
256,192,27861,1,8,0:0:0:0:
256,192,28011,1,0,0:0:0:0:
256,192,28161,1,8,0:0:0:0:
256,192,28311,1,0,0:0:0:0:
256,192,28461,1,0,0:0:0:0:
256,192,28611,1,8,0:0:0:0:
256,192,28761,1,8,0:0:0:0:
256,192,28911,1,0,0:0:0:0:
256,192,29061,1,8,0:0:0:0:
256,192,29211,1,0,0:0:0:0:
256,192,29361,1,0,0:0:0:0:
256,192,29511,1,8,0:0:0:0:
256,192,29661,1,0,0:0:0:0:
256,192,29811,1,8,0:0:0:0:
256,192,29961,1,8,0:0:0:0:
256,192,30111,1,0,0:0:0:0:
256,192,30261,1,0,0:0:0:0:
256,192,30411,1,8,0:0:0:0:
256,192,30561,1,0,0:0:0:0:
256,192,30711,1,8,0:0:0:0:
256,192,30861,1,0,0:0:0:0:
256,192,31011,1,8,0:0:0:0:
256,192,31161,1,0,0:0:0:0:
256,192,31311,1,8,0:0:0:0:
256,192,31461,1,8,0:0:0:0:
256,192,31611,1,0,0:0:0:0:
256,192,31761,1,8,0:0:0:0:
256,192,31911,1,0,0:0:0:0:
256,192,32061,1,0,0:0:0:0:
256,192,32211,1,8,0:0:0:0:
256,192,32361,1,0,0:0:0:0:
256,192,32511,1,8,0:0:0:0:
256,192,32661,1,8,0:0:0:0:
256,192,32811,1,0,0:0:0:0:
256,192,32961,1,8,0:0:0:0:
256,192,33111,1,0,0:0:0:0:
256,192,33261,1,0,0:0:0:0:
256,192,33411,1,8,0:0:0:0:
256,192,33561,1,8,0:0:0:0:
256,192,33711,1,0,0:0:0:0:
256,192,33861,1,8,0:0:0:0:
256,192,34011,1,0,0:0:0:0:
256,192,34161,1,0,0:0:0:0:
256,192,34311,1,8,0:0:0:0:
256,192,34461,1,0,0:0:0:0:
256,192,34611,1,8,0:0:0:0:
256,192,34761,1,8,0:0:0:0:
256,192,34911,1,0,0:0:0:0:
256,192,35061,1,0,0:0:0:0:
256,192,35211,1,8,0:0:0:0:
256,192,35361,1,0,0:0:0:0:
256,192,35511,1,8,0:0:0:0:
256,192,35661,1,0,0:0:0:0:
256,192,35811,1,8,0:0:0:0:
256,192,35961,1,0,0:0:0:0:
256,192,36111,1,8,0:0:0:0:
256,192,36261,1,8,0:0:0:0:
256,192,36411,1,0,0:0:0:0:
256,192,36561,1,8,0:0:0:0:
256,192,36711,1,0,0:0:0:0:
256,192,36861,1,0,0:0:0:0:
256,192,37011,1,8,0:0:0:0:
256,192,37161,1,0,0:0:0:0:
256,192,37311,1,8,0:0:0:0:
256,192,37461,1,8,0:0:0:0:
256,192,37611,1,0,0:0:0:0:
256,192,37761,1,8,0:0:0:0:
256,192,37911,1,0,0:0:0:0:
256,192,38061,1,0,0:0:0:0:
256,192,38211,1,8,0:0:0:0:
256,192,38361,1,8,0:0:0:0:
256,192,38511,1,0,0:0:0:0:
256,192,38661,1,8,0:0:0:0:
256,192,38811,1,0,0:0:0:0:
256,192,38961,1,0,0:0:0:0:
256,192,39111,1,8,0:0:0:0:
256,192,39261,1,0,0:0:0:0:
256,192,39411,1,8,0:0:0:0:
256,192,39561,1,8,0:0:0:0:
256,192,39711,1,0,0:0:0:0:
256,192,39861,1,0,0:0:0:0:
256,192,40011,1,8,0:0:0:0:
256,192,40161,1,0,0:0:0:0:
256,192,40311,1,8,0:0:0:0:
256,192,40461,1,0,0:0:0:0:
256,192,40611,1,8,0:0:0:0:
256,192,40761,1,0,0:0:0:0:
256,192,40911,1,8,0:0:0:0:
256,192,41061,1,8,0:0:0:0:
256,192,41211,1,0,0:0:0:0:
256,192,41361,1,8,0:0:0:0:
256,192,41511,1,0,0:0:0:0:
256,192,41661,1,0,0:0:0:0:
256,192,41811,1,8,0:0:0:0:
256,192,41961,1,0,0:0:0:0:
256,192,42111,1,8,0:0:0:0:
256,192,42261,1,8,0:0:0:0:
256,192,42411,1,0,0:0:0:0:
256,192,42561,1,8,0:0:0:0:
256,192,42711,1,0,0:0:0:0:
256,192,42861,1,0,0:0:0:0:
256,192,43011,1,8,0:0:0:0:
256,192,43161,1,8,0:0:0:0:
256,192,43311,1,0,0:0:0:0:
256,192,43461,1,8,0:0:0:0:
256,192,43611,1,0,0:0:0:0:
256,192,43761,1,0,0:0:0:0:
256,192,43911,1,8,0:0:0:0:
256,192,44061,1,0,0:0:0:0:
256,192,44211,1,8,0:0:0:0:
256,192,44361,1,8,0:0:0:0:
256,192,44511,1,0,0:0:0:0:
256,192,44661,1,0,0:0:0:0:
256,192,44811,1,8,0:0:0:0:
256,192,44961,1,0,0:0:0:0:
256,192,45111,1,8,0:0:0:0:
256,192,45261,1,0,0:0:0:0:
256,192,45411,1,8,0:0:0:0:
256,192,46611,1,0,0:0:0:0:
256,192,47811,1,8,0:0:0:0:
256,192,50211,1,8,0:0:0:0:
256,192,51411,1,0,0:0:0:0:
256,192,52611,1,0,0:0:0:0:
256,192,54411,1,0,0:0:0:0:
256,192,55011,1,8,0:0:0:0:
256,192,55761,1,0,0:0:0:0:
256,192,56211,1,8,0:0:0:0:
256,192,56811,1,0,0:0:0:0:
256,192,57261,1,8,0:0:0:0:
256,192,59811,1,0,0:0:0:0:
256,192,60561,1,0,0:0:0:0:
256,192,61011,1,8,0:0:0:0:
256,192,61611,1,8,0:0:0:0:
256,192,62061,1,0,0:0:0:0:
256,192,62211,12,0,64311,0:0:0:0:
256,192,64611,5,4,0:0:0:0:
256,192,65361,1,12,0:0:0:0:
256,192,65811,1,4,0:0:0:0:
256,192,66411,1,12,0:0:0:0:
256,192,66861,1,4,0:0:0:0:
256,192,69411,1,4,0:0:0:0:
256,192,70161,1,12,0:0:0:0:
256,192,70611,1,4,0:0:0:0:
256,192,71211,1,4,0:0:0:0:
256,192,71661,1,12,0:0:0:0:
256,192,73611,1,0,0:0:0:0:
256,192,73761,1,0,0:0:0:0:
256,192,73911,1,8,0:0:0:0:
256,192,74211,1,4,0:0:0:0:
256,192,74961,1,12,0:0:0:0:
256,192,75411,1,4,0:0:0:0:
256,192,76011,1,4,0:0:0:0:
256,192,76461,1,12,0:0:0:0:
256,192,79011,1,4,0:0:0:0:
256,192,79761,1,4,0:0:0:0:
256,192,80211,1,12,0:0:0:0:
256,192,80811,1,12,0:0:0:0:
256,192,81261,1,4,0:0:0:0:
256,192,81411,12,0,83061,0:0:0:0:
256,192,83211,5,0,0:0:0:0:
256,192,83361,1,8,0:0:0:0:
256,192,83511,1,0,0:0:0:0:
256,192,83661,1,8,0:0:0:0:
256,192,83736,1,8,0:0:0:0:
256,192,83811,1,0,0:0:0:0:
256,192,83886,1,0,0:0:0:0:
256,192,83961,1,8,0:0:0:0:
256,192,84074,12,0,85911,0:0:0:0:
256,192,86211,5,4,0:0:0:0:
256,192,86361,1,0,0:0:0:0:
256,192,86436,1,0,0:0:0:0:
256,192,86511,1,8,0:0:0:0:
256,192,86661,1,0,0:0:0:0:
256,192,86736,1,0,0:0:0:0:
256,192,86811,1,8,0:0:0:0:
256,192,86886,1,0,0:0:0:0:
256,192,86961,1,8,0:0:0:0:
256,192,87036,1,8,0:0:0:0:
256,192,87111,1,0,0:0:0:0:
256,192,87261,1,0,0:0:0:0:
256,192,87336,1,0,0:0:0:0:
256,192,87411,1,8,0:0:0:0:
256,192,87486,1,8,0:0:0:0:
256,192,87561,1,0,0:0:0:0:
256,192,87636,1,0,0:0:0:0:
256,192,87711,1,8,0:0:0:0:
256,192,87861,1,0,0:0:0:0:
256,192,87936,1,0,0:0:0:0:
256,192,88011,1,8,0:0:0:0:
256,192,88161,1,0,0:0:0:0:
256,192,88311,1,8,0:0:0:0:
256,192,88386,1,8,0:0:0:0:
256,192,88461,1,8,0:0:0:0:
256,192,88536,1,8,0:0:0:0:
256,192,88611,1,0,0:0:0:0:
256,192,88761,1,8,0:0:0:0:
256,192,88911,1,8,0:0:0:0:
256,192,88986,1,0,0:0:0:0:
256,192,89061,1,8,0:0:0:0:
256,192,89136,1,8,0:0:0:0:
256,192,89211,1,0,0:0:0:0:
256,192,89361,1,8,0:0:0:0:
256,192,89436,1,8,0:0:0:0:
256,192,89511,1,0,0:0:0:0:
256,192,89661,1,8,0:0:0:0:
256,192,89736,1,0,0:0:0:0:
256,192,89811,1,8,0:0:0:0:
256,192,89886,1,8,0:0:0:0:
256,192,89961,1,0,0:0:0:0:
256,192,90036,1,0,0:0:0:0:
256,192,90111,1,8,0:0:0:0:
256,192,90261,1,0,0:0:0:0:
256,192,90336,1,0,0:0:0:0:
256,192,90411,1,8,0:0:0:0:
256,192,90561,1,0,0:0:0:0:
256,192,90711,1,8,0:0:0:0:
256,192,90786,1,8,0:0:0:0:
256,192,90861,1,8,0:0:0:0:
256,192,90936,1,8,0:0:0:0:
256,192,91011,1,0,0:0:0:0:
256,192,91161,1,8,0:0:0:0:
256,192,91311,1,0,0:0:0:0:
256,192,91386,1,8,0:0:0:0:
256,192,91461,1,8,0:0:0:0:
256,192,91536,1,0,0:0:0:0:
256,192,91611,1,8,0:0:0:0:
256,192,91761,1,8,0:0:0:0:
256,192,91836,1,8,0:0:0:0:
256,192,91911,1,0,0:0:0:0:
256,192,92061,1,8,0:0:0:0:
256,192,92136,1,0,0:0:0:0:
256,192,92211,1,8,0:0:0:0:
256,192,92286,1,0,0:0:0:0:
256,192,92361,1,0,0:0:0:0:
256,192,92436,1,0,0:0:0:0:
256,192,92511,1,8,0:0:0:0:
256,192,92661,1,0,0:0:0:0:
256,192,92736,1,0,0:0:0:0:
256,192,92811,1,8,0:0:0:0:
256,192,92961,1,0,0:0:0:0:
256,192,93111,1,8,0:0:0:0:
256,192,93186,1,8,0:0:0:0:
256,192,93261,1,0,0:0:0:0:
256,192,93336,1,0,0:0:0:0:
256,192,93411,1,0,0:0:0:0:
256,192,93561,1,8,0:0:0:0:
256,192,93711,1,8,0:0:0:0:
256,192,93786,1,0,0:0:0:0:
256,192,93861,1,0,0:0:0:0:
256,192,93936,1,8,0:0:0:0:
256,192,94011,1,0,0:0:0:0:
256,192,94161,1,8,0:0:0:0:
256,192,94236,1,0,0:0:0:0:
256,192,94311,1,8,0:0:0:0:
256,192,94461,1,0,0:0:0:0:
256,192,94611,1,8,0:0:0:0:
256,192,94761,1,8,0:0:0:0:
256,192,94911,1,8,0:0:0:0:
256,192,94986,1,8,0:0:0:0:
256,192,95061,1,8,0:0:0:0:
256,192,95136,1,8,0:0:0:0:
256,192,95211,1,0,0:0:0:0:
256,192,95361,1,0,0:0:0:0:
256,192,95436,1,0,0:0:0:0:
256,192,95511,1,8,0:0:0:0:
256,192,95661,1,8,0:0:0:0:
256,192,95811,1,8,0:0:0:0:
256,192,95961,1,0,0:0:0:0:
256,192,96111,1,8,0:0:0:0:
256,192,96261,1,0,0:0:0:0:
256,192,96411,1,8,0:0:0:0:
256,192,96561,1,8,0:0:0:0:
256,192,96711,1,0,0:0:0:0:
256,192,96861,1,0,0:0:0:0:
256,192,97011,1,8,0:0:0:0:
256,192,97161,1,0,0:0:0:0:
256,192,97311,1,8,0:0:0:0:
256,192,97461,1,0,0:0:0:0:
256,192,97611,1,8,0:0:0:0:
256,192,97761,1,8,0:0:0:0:
256,192,97911,1,0,0:0:0:0:
256,192,98211,1,8,0:0:0:0:
256,192,98361,1,0,0:0:0:0:
256,192,98436,1,0,0:0:0:0:
256,192,98511,1,8,0:0:0:0:
256,192,98661,1,0,0:0:0:0:
256,192,98811,1,8,0:0:0:0:
256,192,98886,1,8,0:0:0:0:
256,192,98961,1,8,0:0:0:0:
256,192,99111,1,0,0:0:0:0:
256,192,99186,1,0,0:0:0:0:
256,192,99261,1,0,0:0:0:0:
256,192,99411,1,8,0:0:0:0:
256,192,99561,1,0,0:0:0:0:
256,192,99636,1,0,0:0:0:0:
256,192,99711,1,8,0:0:0:0:
256,192,99861,1,0,0:0:0:0:
256,192,100011,1,8,0:0:0:0:
256,192,100086,1,8,0:0:0:0:
256,192,100161,1,8,0:0:0:0:
256,192,100311,1,0,0:0:0:0:
256,192,100461,1,8,0:0:0:0:
256,192,100611,1,8,0:0:0:0:
256,192,100686,1,8,0:0:0:0:
256,192,100761,1,0,0:0:0:0:
256,192,100836,1,0,0:0:0:0:
256,192,100911,1,8,0:0:0:0:
256,192,100986,1,8,0:0:0:0:
256,192,101061,1,0,0:0:0:0:
256,192,101136,1,0,0:0:0:0:
256,192,101211,1,8,0:0:0:0:
256,192,101286,1,0,0:0:0:0:
256,192,101361,1,8,0:0:0:0:
256,192,101436,1,8,0:0:0:0:
256,192,101511,1,0,0:0:0:0:
256,192,101661,1,0,0:0:0:0:
256,192,101811,1,8,0:0:0:0:
256,192,101886,1,0,0:0:0:0:
256,192,101961,1,8,0:0:0:0:
256,192,102036,1,8,0:0:0:0:
256,192,102111,1,0,0:0:0:0:
256,192,102186,1,8,0:0:0:0:
256,192,102261,1,0,0:0:0:0:
256,192,102336,1,0,0:0:0:0:
256,192,102411,1,8,0:0:0:0:
256,192,102486,1,8,0:0:0:0:
256,192,102561,1,0,0:0:0:0:
256,192,102636,1,8,0:0:0:0:
256,192,102711,1,0,0:0:0:0:
256,192,103011,1,0,0:0:0:0:
256,192,103061,1,0,0:0:0:0:
256,192,103111,1,0,0:0:0:0:
256,192,103161,1,8,0:0:0:0:
256,192,103236,1,0,0:0:0:0:
256,192,103311,1,8,0:0:0:0:
256,192,103386,1,8,0:0:0:0:
256,192,103461,1,0,0:0:0:0:
256,192,103536,1,0,0:0:0:0:
256,192,103611,1,8,0:0:0:0:
256,192,103661,1,8,0:0:0:0:
256,192,103711,1,8,0:0:0:0:
256,192,103761,1,0,0:0:0:0:
256,192,103836,1,0,0:0:0:0:
256,192,103911,1,8,0:0:0:0:
256,192,103986,1,0,0:0:0:0:
256,192,104061,1,8,0:0:0:0:
256,192,104136,1,8,0:0:0:0:
256,192,104211,12,0,105411,0:0:0:0:
256,192,105711,5,8,0:0:0:0:
256,192,105861,1,8,0:0:0:0:
256,192,106011,1,8,0:0:0:0:
256,192,106161,1,0,0:0:0:0:
256,192,106311,1,8,0:0:0:0:
256,192,106611,1,8,0:0:0:0:
256,192,106761,1,8,0:0:0:0:
256,192,106911,1,8,0:0:0:0:
256,192,107061,1,0,0:0:0:0:
256,192,107211,1,8,0:0:0:0:
256,192,107361,1,8,0:0:0:0:
256,192,107436,1,8,0:0:0:0:
256,192,107511,1,0,0:0:0:0:
256,192,107661,1,8,0:0:0:0:
256,192,107811,1,4,0:0:0:0:
256,192,107961,1,8,0:0:0:0:
256,192,108111,1,0,0:0:0:0:
256,192,108161,1,0,0:0:0:0:
256,192,108211,1,0,0:0:0:0:
256,192,108261,1,8,0:0:0:0:
256,192,108336,1,8,0:0:0:0:
256,192,108411,1,0,0:0:0:0:
256,192,108561,1,8,0:0:0:0:
256,192,108636,1,8,0:0:0:0:
256,192,108711,1,0,0:0:0:0:
256,192,108861,1,8,0:0:0:0:
256,192,108936,1,8,0:0:0:0:
256,192,109011,1,0,0:0:0:0:
256,192,109086,1,0,0:0:0:0:
256,192,109161,1,8,0:0:0:0:
256,192,109236,1,0,0:0:0:0:
256,192,109311,1,8,0:0:0:0:
256,192,109386,1,8,0:0:0:0:
256,192,109461,1,0,0:0:0:0:
256,192,109536,1,0,0:0:0:0:
256,192,109611,1,8,0:0:0:0:
256,192,109761,1,0,0:0:0:0:
256,192,109836,1,0,0:0:0:0:
256,192,109911,1,8,0:0:0:0:
256,192,109986,1,8,0:0:0:0:
256,192,110061,1,8,0:0:0:0:
256,192,110136,1,8,0:0:0:0:
256,192,110211,1,0,0:0:0:0:
256,192,110361,1,8,0:0:0:0:
256,192,110511,1,0,0:0:0:0:
256,192,110561,1,0,0:0:0:0:
256,192,110611,1,0,0:0:0:0:
256,192,110661,1,8,0:0:0:0:
256,192,110736,1,8,0:0:0:0:
256,192,110811,1,0,0:0:0:0:
256,192,110961,1,8,0:0:0:0:
256,192,111036,1,8,0:0:0:0:
256,192,111111,1,0,0:0:0:0:
256,192,111186,1,0,0:0:0:0:
256,192,111261,1,8,0:0:0:0:
256,192,111411,1,0,0:0:0:0:
256,192,111486,1,8,0:0:0:0:
256,192,111561,1,8,0:0:0:0:
256,192,111636,1,8,0:0:0:0:
256,192,111711,1,0,0:0:0:0:
256,192,111786,1,8,0:0:0:0:
256,192,111861,1,8,0:0:0:0:
256,192,111936,1,0,0:0:0:0:
256,192,112011,1,8,0:0:0:0:
256,192,112086,1,0,0:0:0:0:
256,192,112161,1,0,0:0:0:0:
256,192,112236,1,8,0:0:0:0:
256,192,112311,1,0,0:0:0:0:
256,192,112461,1,8,0:0:0:0:
256,192,112611,1,4,0:0:0:0:
256,192,112911,1,8,0:0:0:0:
256,192,112961,1,8,0:0:0:0:
256,192,113011,1,8,0:0:0:0:
256,192,113061,1,0,0:0:0:0:
256,192,113136,1,0,0:0:0:0:
256,192,113211,1,8,0:0:0:0:
256,192,113361,1,8,0:0:0:0:
256,192,113436,1,8,0:0:0:0:
256,192,113511,1,0,0:0:0:0:
256,192,113586,1,0,0:0:0:0:
256,192,113661,1,8,0:0:0:0:
256,192,113736,1,0,0:0:0:0:
256,192,113811,1,8,0:0:0:0:
256,192,113961,1,8,0:0:0:0:
256,192,114036,1,0,0:0:0:0:
256,192,114111,1,8,0:0:0:0:
256,192,114186,1,8,0:0:0:0:
256,192,114261,1,0,0:0:0:0:
256,192,114336,1,0,0:0:0:0:
256,192,114411,1,8,0:0:0:0:
256,192,114561,1,0,0:0:0:0:
256,192,114711,1,8,0:0:0:0:
256,192,114861,1,0,0:0:0:0:
256,192,115011,1,8,0:0:0:0:
256,192,115086,1,0,0:0:0:0:
256,192,115161,1,8,0:0:0:0:
256,192,115236,1,8,0:0:0:0:
256,192,115311,1,0,0:0:0:0:
256,192,115386,1,0,0:0:0:0:
256,192,115461,1,8,0:0:0:0:
256,192,115536,1,0,0:0:0:0:
256,192,115611,1,8,0:0:0:0:
256,192,115686,1,8,0:0:0:0:
256,192,115761,1,0,0:0:0:0:
256,192,115836,1,0,0:0:0:0:
256,192,115911,1,8,0:0:0:0:
256,192,116061,1,0,0:0:0:0:
256,192,116211,1,8,0:0:0:0:
256,192,116361,1,0,0:0:0:0:
256,192,116436,1,8,0:0:0:0:
256,192,116586,1,8,0:0:0:0:
256,192,116661,1,0,0:0:0:0:
256,192,116811,1,8,0:0:0:0:
256,192,116886,1,0,0:0:0:0:
256,192,117036,1,0,0:0:0:0:
256,192,117111,1,8,0:0:0:0:
256,192,117261,1,8,0:0:0:0:
256,192,117411,1,4,0:0:0:0:
256,192,117711,1,0,0:0:0:0:
256,192,117761,1,0,0:0:0:0:
256,192,117811,1,0,0:0:0:0:
256,192,117861,1,8,0:0:0:0:
256,192,117936,1,8,0:0:0:0:
256,192,118011,1,0,0:0:0:0:
256,192,118161,1,8,0:0:0:0:
256,192,118236,1,0,0:0:0:0:
256,192,118311,1,0,0:0:0:0:
256,192,118386,1,0,0:0:0:0:
256,192,118461,1,8,0:0:0:0:
256,192,118536,1,8,0:0:0:0:
256,192,118611,1,0,0:0:0:0:
256,192,118686,1,8,0:0:0:0:
256,192,118761,1,0,0:0:0:0:
256,192,118836,1,0,0:0:0:0:
256,192,118911,1,8,0:0:0:0:
256,192,119061,1,8,0:0:0:0:
256,192,119136,1,0,0:0:0:0:
256,192,119211,1,8,0:0:0:0:
256,192,119361,1,0,0:0:0:0:
244,193,119436,1,0,0:0:0:0:
256,192,119511,1,8,0:0:0:0:
256,192,119586,1,0,0:0:0:0:
256,192,119661,1,8,0:0:0:0:
256,192,119736,1,8,0:0:0:0:
256,192,119811,1,0,0:0:0:0:
256,192,119961,1,8,0:0:0:0:
256,192,120111,1,0,0:0:0:0:
256,192,120161,1,0,0:0:0:0:
256,192,120211,1,0,0:0:0:0:
256,192,120261,1,8,0:0:0:0:
256,192,120336,1,8,0:0:0:0:
256,192,120411,1,0,0:0:0:0:
256,192,120561,1,8,0:0:0:0:
256,192,120636,1,8,0:0:0:0:
256,192,120711,1,0,0:0:0:0:
256,192,120786,1,0,0:0:0:0:
256,192,120861,1,8,0:0:0:0:
256,192,121011,1,8,0:0:0:0:
256,192,121086,1,0,0:0:0:0:
256,192,121161,1,0,0:0:0:0:
256,192,121236,1,8,0:0:0:0:
256,192,121311,1,0,0:0:0:0:
256,192,121386,1,0,0:0:0:0:
256,192,121461,1,8,0:0:0:0:
256,192,121536,1,8,0:0:0:0:
256,192,121611,1,0,0:0:0:0:
256,192,121761,1,8,0:0:0:0:
256,192,121836,1,0,0:0:0:0:
256,192,121911,1,8,0:0:0:0:
256,192,121986,1,8,0:0:0:0:
256,192,122061,1,0,0:0:0:0:
256,192,122211,1,4,0:0:0:0:
256,192,122511,1,8,0:0:0:0:
256,192,122561,1,8,0:0:0:0:
256,192,122611,1,8,0:0:0:0:
256,192,122661,1,0,0:0:0:0:
256,192,122736,1,0,0:0:0:0:
256,192,122811,1,8,0:0:0:0:
256,192,122961,1,8,0:0:0:0:
256,192,123036,1,8,0:0:0:0:
256,192,123111,1,0,0:0:0:0:
256,192,123261,1,0,0:0:0:0:
256,192,123411,1,8,0:0:0:0:
256,192,123561,1,0,0:0:0:0:
256,192,123636,1,0,0:0:0:0:
256,192,123711,1,8,0:0:0:0:
256,192,123861,1,0,0:0:0:0:
256,192,124011,1,8,0:0:0:0:
256,192,124161,1,8,0:0:0:0:
256,192,124236,1,0,0:0:0:0:
256,192,124311,1,0,0:0:0:0:
256,192,124461,1,8,0:0:0:0:
256,192,124611,1,0,0:0:0:0:
256,192,124761,1,0,0:0:0:0:
256,192,124836,1,0,0:0:0:0:
256,192,124911,1,8,0:0:0:0:
256,192,125061,1,8,0:0:0:0:
256,192,125136,1,0,0:0:0:0:
256,192,125211,1,8,0:0:0:0:
256,192,125286,1,8,0:0:0:0:
256,192,125361,1,0,0:0:0:0:
256,192,125436,1,0,0:0:0:0:
256,192,125511,1,8,0:0:0:0:
256,192,125661,1,0,0:0:0:0:
256,192,125736,1,0,0:0:0:0:
256,192,125811,1,8,0:0:0:0:
256,192,125886,1,0,0:0:0:0:
256,192,125961,1,8,0:0:0:0:
256,192,126036,1,8,0:0:0:0:
256,192,126111,1,0,0:0:0:0:
256,192,126186,1,0,0:0:0:0:
256,192,126261,1,8,0:0:0:0:
256,192,126336,1,0,0:0:0:0:
256,192,126411,1,8,0:0:0:0:
256,192,126486,1,8,0:0:0:0:
256,192,126561,1,0,0:0:0:0:
256,192,126636,1,0,0:0:0:0:
256,192,126711,1,8,0:0:0:0:
256,192,126861,1,8,0:0:0:0:
256,192,127011,1,4,0:0:0:0:
256,192,127311,12,0,130461,0:0:0:0:
256,192,130611,5,8,0:0:0:0:
256,192,130761,1,8,0:0:0:0:
256,192,130911,1,8,0:0:0:0:
256,192,131061,1,8,0:0:0:0:
256,192,131211,1,8,0:0:0:0:
256,192,131361,1,8,0:0:0:0:
256,192,131511,1,0,0:0:0:0:
256,192,131661,1,0,0:0:0:0:
256,192,131811,1,12,0:0:0:0:
256,192,131961,1,0,0:0:0:0:
256,192,132111,1,8,0:0:0:0:
256,192,132186,1,8,0:0:0:0:
256,192,132261,1,0,0:0:0:0:
256,192,132411,1,8,0:0:0:0:
256,192,132561,1,0,0:0:0:0:
256,192,132636,1,8,0:0:0:0:
256,192,132786,1,0,0:0:0:0:
256,192,132861,1,8,0:0:0:0:
256,192,133011,1,8,0:0:0:0:
256,192,133161,1,8,0:0:0:0:
256,192,133236,1,0,0:0:0:0:
256,192,133386,1,8,0:0:0:0:
256,192,133461,1,0,0:0:0:0:
256,192,133536,1,0,0:0:0:0:
256,192,133611,1,8,0:0:0:0:
256,192,133761,1,0,0:0:0:0:
256,192,133911,1,0,0:0:0:0:
256,192,133986,1,0,0:0:0:0:
256,192,134061,1,8,0:0:0:0:
256,192,134136,1,0,0:0:0:0:
256,192,134211,1,8,0:0:0:0:
256,192,134361,1,0,0:0:0:0:
256,192,134511,1,0,0:0:0:0:
256,192,134586,1,8,0:0:0:0:
256,192,134736,1,8,0:0:0:0:
256,192,134811,1,0,0:0:0:0:
256,192,134961,1,8,0:0:0:0:
256,192,135111,1,0,0:0:0:0:
256,192,135186,1,8,0:0:0:0:
256,192,135261,1,8,0:0:0:0:
256,192,135411,1,0,0:0:0:0:
256,192,135486,1,8,0:0:0:0:
256,192,135636,1,0,0:0:0:0:
256,192,135711,1,8,0:0:0:0:
256,192,135786,1,8,0:0:0:0:
256,192,135861,1,0,0:0:0:0:
256,192,135936,1,0,0:0:0:0:
256,192,136011,1,8,0:0:0:0:
256,192,136086,1,0,0:0:0:0:
256,192,136161,1,8,0:0:0:0:
256,192,136236,1,8,0:0:0:0:
256,192,136311,1,0,0:0:0:0:
256,192,136461,1,8,0:0:0:0:
256,192,136611,1,4,0:0:0:0:
256,192,136761,1,8,0:0:0:0:
256,192,136911,1,0,0:0:0:0:
256,192,136986,1,0,0:0:0:0:
256,192,137061,1,8,0:0:0:0:
256,192,137211,1,8,0:0:0:0:
256,192,137361,1,0,0:0:0:0:
256,192,137436,1,8,0:0:0:0:
256,192,137586,1,0,0:0:0:0:
256,192,137661,1,8,0:0:0:0:
256,192,137811,1,8,0:0:0:0:
256,192,137961,1,8,0:0:0:0:
256,192,138036,1,0,0:0:0:0:
256,192,138111,1,0,0:0:0:0:
256,192,138186,1,8,0:0:0:0:
256,192,138261,1,8,0:0:0:0:
256,192,138336,1,0,0:0:0:0:
256,192,138411,1,8,0:0:0:0:
256,192,138561,1,0,0:0:0:0:
256,192,138711,1,8,0:0:0:0:
256,192,138861,1,0,0:0:0:0:
256,192,139011,1,8,0:0:0:0:
256,192,139086,1,0,0:0:0:0:
256,192,139161,1,8,0:0:0:0:
256,192,139236,1,0,0:0:0:0:
256,192,139311,1,8,0:0:0:0:
256,192,139386,1,8,0:0:0:0:
256,192,139461,1,0,0:0:0:0:
256,192,139536,1,0,0:0:0:0:
256,192,139611,1,8,0:0:0:0:
256,192,139686,1,8,0:0:0:0:
256,192,139761,1,8,0:0:0:0:
256,192,139836,1,0,0:0:0:0:
256,192,139911,1,8,0:0:0:0:
256,192,140061,1,0,0:0:0:0:
256,192,140211,1,8,0:0:0:0:
256,192,140361,1,0,0:0:0:0:
256,192,140436,1,8,0:0:0:0:
256,192,140586,1,8,0:0:0:0:
256,192,140661,1,0,0:0:0:0:
256,192,140811,1,8,0:0:0:0:
256,192,140886,1,0,0:0:0:0:
256,192,141036,1,0,0:0:0:0:
256,192,141111,1,8,0:0:0:0:
256,192,141261,1,8,0:0:0:0:
256,192,141411,1,4,0:0:0:0:
256,192,141711,1,4,0:0:0:0:
256,192,142011,1,12,0:0:0:0:
256,192,142311,1,4,0:0:0:0:
256,192,142611,1,8,0:0:0:0:
256,192,142761,1,0,0:0:0:0:
256,192,142836,1,8,0:0:0:0:
256,192,142986,1,0,0:0:0:0:
256,192,143061,1,8,0:0:0:0:
256,192,143211,1,8,0:0:0:0:
256,192,143361,1,0,0:0:0:0:
256,192,143436,1,0,0:0:0:0:
256,192,143511,1,8,0:0:0:0:
256,192,143661,1,0,0:0:0:0:
256,192,143811,1,8,0:0:0:0:
256,192,143961,1,0,0:0:0:0:
256,192,144111,1,0,0:0:0:0:
256,192,144186,1,8,0:0:0:0:
256,192,144336,1,8,0:0:0:0:
256,192,144411,1,0,0:0:0:0:
256,192,144561,1,8,0:0:0:0:
256,192,144711,1,0,0:0:0:0:
256,192,144786,1,8,0:0:0:0:
256,192,144861,1,8,0:0:0:0:
256,192,145011,1,0,0:0:0:0:
256,192,145086,1,8,0:0:0:0:
256,192,145236,1,0,0:0:0:0:
256,192,145311,1,8,0:0:0:0:
256,192,145386,1,8,0:0:0:0:
256,192,145461,1,0,0:0:0:0:
256,192,145536,1,8,0:0:0:0:
256,192,145611,1,0,0:0:0:0:
256,192,145686,1,8,0:0:0:0:
256,192,145761,1,8,0:0:0:0:
256,192,145836,1,0,0:0:0:0:
256,192,145911,1,8,0:0:0:0:
256,192,146061,1,8,0:0:0:0:
256,192,146211,1,4,0:0:0:0:
256,192,146511,1,4,0:0:0:0:
256,192,146811,1,12,0:0:0:0:
256,192,147111,1,4,0:0:0:0:
256,192,147411,1,8,0:0:0:0:
256,192,147561,1,0,0:0:0:0:
256,192,147636,1,8,0:0:0:0:
256,192,147711,1,0,0:0:0:0:
256,192,147786,1,0,0:0:0:0:
256,192,147861,1,8,0:0:0:0:
256,192,148011,1,8,0:0:0:0:
256,192,148161,1,8,0:0:0:0:
256,192,148236,1,8,0:0:0:0:
256,192,148311,1,0,0:0:0:0:
256,192,148461,1,8,0:0:0:0:
256,192,148611,1,0,0:0:0:0:
256,192,148761,1,0,0:0:0:0:
256,192,148836,1,8,0:0:0:0:
256,192,148986,1,8,0:0:0:0:
256,192,149061,1,0,0:0:0:0:
256,192,149211,1,8,0:0:0:0:
256,192,149286,1,0,0:0:0:0:
256,192,149361,1,0,0:0:0:0:
256,192,149436,1,8,0:0:0:0:
256,192,149511,1,0,0:0:0:0:
256,192,149661,1,8,0:0:0:0:
256,192,149811,1,0,0:0:0:0:
256,192,149961,1,8,0:0:0:0:
256,192,150111,1,8,0:0:0:0:
256,192,150186,1,8,0:0:0:0:
256,192,150261,1,8,0:0:0:0:
256,192,150336,1,8,0:0:0:0:
256,192,150411,1,0,0:0:0:0:
256,192,150711,1,8,0:0:0:0:
256,192,151011,1,4,0:0:0:0:
256,192,152211,1,8,0:0:0:0:
256,192,152661,1,8,0:0:0:0:
256,192,153111,1,8,0:0:0:0:
256,192,153411,1,0,0:0:0:0:
256,192,153861,1,0,0:0:0:0:
256,192,154311,1,0,0:0:0:0:
256,192,154611,1,8,0:0:0:0:
256,192,155061,1,8,0:0:0:0:
256,192,155511,1,8,0:0:0:0:
256,192,155661,1,0,0:0:0:0:
256,192,155736,1,0,0:0:0:0:
256,192,155811,1,8,0:0:0:0:
256,192,156261,1,8,0:0:0:0:
256,192,156711,1,8,0:0:0:0:
256,192,157011,1,0,0:0:0:0:
256,192,157461,1,0,0:0:0:0:
256,192,157911,1,0,0:0:0:0:
256,192,158211,1,8,0:0:0:0:
256,192,158661,1,0,0:0:0:0:
256,192,159111,1,8,0:0:0:0:
256,192,159186,1,0,0:0:0:0:
256,192,159261,1,0,0:0:0:0:
256,192,159336,1,0,0:0:0:0:
256,192,159411,1,8,0:0:0:0:
256,192,159561,12,8,160461,0:0:0:0:
256,192,160611,5,4,0:0:0:0:
256,192,160761,1,0,0:0:0:0:
256,192,160836,1,0,0:0:0:0:
256,192,160911,1,8,0:0:0:0:
256,192,161061,1,0,0:0:0:0:
256,192,161136,1,0,0:0:0:0:
256,192,161211,1,8,0:0:0:0:
256,192,161286,1,0,0:0:0:0:
256,192,161361,1,8,0:0:0:0:
256,192,161436,1,8,0:0:0:0:
256,192,161511,1,0,0:0:0:0:
256,192,161661,1,0,0:0:0:0:
256,192,161736,1,0,0:0:0:0:
256,192,161811,1,8,0:0:0:0:
256,192,161886,1,8,0:0:0:0:
256,192,161961,1,0,0:0:0:0:
256,192,162036,1,0,0:0:0:0:
256,192,162111,1,8,0:0:0:0:
256,192,162261,1,0,0:0:0:0:
256,192,162336,1,0,0:0:0:0:
256,192,162411,1,8,0:0:0:0:
256,192,162561,1,0,0:0:0:0:
256,192,162711,1,8,0:0:0:0:
256,192,162786,1,8,0:0:0:0:
256,192,162861,1,8,0:0:0:0:
256,192,162936,1,8,0:0:0:0:
256,192,163011,1,0,0:0:0:0:
256,192,163161,1,8,0:0:0:0:
256,192,163311,1,8,0:0:0:0:
256,192,163386,1,0,0:0:0:0:
256,192,163461,1,8,0:0:0:0:
256,192,163536,1,0,0:0:0:0:
256,192,163611,1,8,0:0:0:0:
256,192,163761,1,8,0:0:0:0:
256,192,163836,1,8,0:0:0:0:
256,192,163911,1,0,0:0:0:0:
256,192,164061,1,8,0:0:0:0:
256,192,164136,1,0,0:0:0:0:
256,192,164211,1,8,0:0:0:0:
256,192,164286,1,8,0:0:0:0:
256,192,164361,1,0,0:0:0:0:
256,192,164436,1,0,0:0:0:0:
256,192,164511,1,8,0:0:0:0:
256,192,164661,1,0,0:0:0:0:
256,192,164736,1,0,0:0:0:0:
256,192,164811,1,8,0:0:0:0:
256,192,164961,1,0,0:0:0:0:
256,192,165111,1,8,0:0:0:0:
256,192,165186,1,8,0:0:0:0:
256,192,165261,1,8,0:0:0:0:
256,192,165336,1,8,0:0:0:0:
256,192,165411,1,0,0:0:0:0:
256,192,165561,1,8,0:0:0:0:
256,192,165711,1,0,0:0:0:0:
256,192,165786,1,0,0:0:0:0:
256,192,165861,1,8,0:0:0:0:
256,192,165936,1,0,0:0:0:0:
256,192,166011,1,8,0:0:0:0:
256,192,166161,1,8,0:0:0:0:
256,192,166236,1,8,0:0:0:0:
256,192,166311,1,0,0:0:0:0:
256,192,166461,1,8,0:0:0:0:
256,192,166536,1,0,0:0:0:0:
256,192,166611,1,8,0:0:0:0:
256,192,166686,1,0,0:0:0:0:
256,192,166761,1,0,0:0:0:0:
256,192,166836,1,0,0:0:0:0:
256,192,166911,1,8,0:0:0:0:
256,192,167061,1,0,0:0:0:0:
256,192,167136,1,0,0:0:0:0:
256,192,167211,1,8,0:0:0:0:
256,192,167361,1,0,0:0:0:0:
256,192,167511,1,8,0:0:0:0:
256,192,167586,1,8,0:0:0:0:
256,192,167661,1,0,0:0:0:0:
256,192,167736,1,0,0:0:0:0:
256,192,167811,1,0,0:0:0:0:
256,192,167961,1,8,0:0:0:0:
256,192,168111,1,8,0:0:0:0:
256,192,168186,1,0,0:0:0:0:
256,192,168261,1,0,0:0:0:0:
256,192,168336,1,8,0:0:0:0:
256,192,168411,1,0,0:0:0:0:
256,192,168561,1,8,0:0:0:0:
256,192,168636,1,0,0:0:0:0:
256,192,168711,1,8,0:0:0:0:
256,192,168861,1,0,0:0:0:0:
256,192,169011,1,8,0:0:0:0:
256,192,169161,1,8,0:0:0:0:
256,192,169311,1,8,0:0:0:0:
256,192,169386,1,8,0:0:0:0:
256,192,169461,1,8,0:0:0:0:
256,192,169536,1,8,0:0:0:0:
256,192,169611,1,0,0:0:0:0:
256,192,169761,1,0,0:0:0:0:
256,192,169836,1,0,0:0:0:0:
256,192,169911,1,8,0:0:0:0:
256,192,170061,1,8,0:0:0:0:
256,192,170211,1,8,0:0:0:0:
256,192,170361,1,0,0:0:0:0:
256,192,170511,1,8,0:0:0:0:
256,192,170661,1,0,0:0:0:0:
256,192,170811,1,8,0:0:0:0:
256,192,170961,1,8,0:0:0:0:
256,192,171111,1,0,0:0:0:0:
256,192,171261,1,0,0:0:0:0:
256,192,171411,1,8,0:0:0:0:
256,192,171561,1,0,0:0:0:0:
256,192,171711,1,8,0:0:0:0:
256,192,171861,1,0,0:0:0:0:
256,192,172011,1,8,0:0:0:0:
256,192,172161,1,8,0:0:0:0:
256,192,172311,1,0,0:0:0:0:
256,192,172611,1,8,0:0:0:0:
256,192,172761,1,0,0:0:0:0:
256,192,172836,1,0,0:0:0:0:
256,192,172911,1,8,0:0:0:0:
256,192,173061,1,0,0:0:0:0:
256,192,173211,1,8,0:0:0:0:
256,192,173286,1,8,0:0:0:0:
256,192,173361,1,8,0:0:0:0:
256,192,173511,1,0,0:0:0:0:
256,192,173586,1,0,0:0:0:0:
256,192,173661,1,0,0:0:0:0:
256,192,173811,1,8,0:0:0:0:
256,192,173961,1,0,0:0:0:0:
256,192,174036,1,0,0:0:0:0:
256,192,174111,1,8,0:0:0:0:
256,192,174261,1,0,0:0:0:0:
256,192,174411,1,8,0:0:0:0:
256,192,174486,1,8,0:0:0:0:
256,192,174561,1,8,0:0:0:0:
256,192,174711,1,0,0:0:0:0:
256,192,174861,1,8,0:0:0:0:
256,192,175011,1,8,0:0:0:0:
256,192,175086,1,8,0:0:0:0:
256,192,175161,1,0,0:0:0:0:
256,192,175236,1,0,0:0:0:0:
256,192,175311,1,8,0:0:0:0:
256,192,175386,1,8,0:0:0:0:
256,192,175461,1,0,0:0:0:0:
256,192,175536,1,0,0:0:0:0:
256,192,175611,1,8,0:0:0:0:
256,192,175686,1,0,0:0:0:0:
256,192,175761,1,8,0:0:0:0:
256,192,175836,1,8,0:0:0:0:
256,192,175911,1,0,0:0:0:0:
256,192,176061,1,0,0:0:0:0:
256,192,176211,1,8,0:0:0:0:
256,192,176286,1,0,0:0:0:0:
256,192,176361,1,8,0:0:0:0:
256,192,176436,1,8,0:0:0:0:
256,192,176511,1,0,0:0:0:0:
256,192,176586,1,8,0:0:0:0:
256,192,176661,1,0,0:0:0:0:
256,192,176736,1,0,0:0:0:0:
256,192,176811,1,8,0:0:0:0:
256,192,176886,1,8,0:0:0:0:
256,192,176961,1,0,0:0:0:0:
256,192,177036,1,8,0:0:0:0:
256,192,177111,1,0,0:0:0:0:
256,192,177411,1,0,0:0:0:0:
256,192,177461,1,0,0:0:0:0:
256,192,177511,1,0,0:0:0:0:
256,192,177561,1,8,0:0:0:0:
256,192,177636,1,0,0:0:0:0:
256,192,177711,1,8,0:0:0:0:
256,192,177786,1,8,0:0:0:0:
256,192,177861,1,0,0:0:0:0:
256,192,177936,1,0,0:0:0:0:
256,192,178011,1,8,0:0:0:0:
256,192,178061,1,8,0:0:0:0:
256,192,178111,1,8,0:0:0:0:
256,192,178161,1,0,0:0:0:0:
256,192,178236,1,0,0:0:0:0:
256,192,178311,1,8,0:0:0:0:
256,192,178386,1,0,0:0:0:0:
256,192,178461,1,8,0:0:0:0:
256,192,178536,1,8,0:0:0:0:
256,192,178611,12,0,179811,0:0:0:0:
256,192,180111,5,8,0:0:0:0:
256,192,180261,1,8,0:0:0:0:
256,192,180411,1,8,0:0:0:0:
256,192,180561,1,8,0:0:0:0:
256,192,180711,1,8,0:0:0:0:
256,192,180861,1,8,0:0:0:0:
256,192,181011,1,8,0:0:0:0:
256,192,181161,1,8,0:0:0:0:
256,192,181311,1,8,0:0:0:0:
256,192,181461,1,8,0:0:0:0:
256,192,181611,1,0,0:0:0:0:
256,192,181761,1,0,0:0:0:0:
256,192,181911,1,8,0:0:0:0:
256,192,182211,1,4,0:0:0:0:
256,192,182361,1,8,0:0:0:0:
256,192,182511,1,0,0:0:0:0:
256,192,182561,1,0,0:0:0:0:
256,192,182611,1,0,0:0:0:0:
256,192,182661,1,8,0:0:0:0:
256,192,182736,1,8,0:0:0:0:
256,192,182811,1,0,0:0:0:0:
256,192,182886,1,8,0:0:0:0:
256,192,182961,1,8,0:0:0:0:
256,192,183036,1,0,0:0:0:0:
256,192,183111,1,8,0:0:0:0:
256,192,183261,1,8,0:0:0:0:
256,192,183336,1,8,0:0:0:0:
256,192,183411,1,0,0:0:0:0:
256,192,183486,1,0,0:0:0:0:
256,192,183561,1,8,0:0:0:0:
256,192,183636,1,0,0:0:0:0:
256,192,183711,1,8,0:0:0:0:
256,192,183861,1,0,0:0:0:0:
256,192,183936,1,0,0:0:0:0:
256,192,184011,1,8,0:0:0:0:
256,192,184161,1,0,0:0:0:0:
256,192,184311,1,12,0:0:0:0:
256,192,184461,1,8,0:0:0:0:
256,192,184536,1,8,0:0:0:0:
256,192,184611,1,0,0:0:0:0:
256,192,184761,1,8,0:0:0:0:
256,192,184911,1,0,0:0:0:0:
256,192,184961,1,0,0:0:0:0:
256,192,185011,1,0,0:0:0:0:
256,192,185061,1,8,0:0:0:0:
256,192,185136,1,8,0:0:0:0:
256,192,185211,1,0,0:0:0:0:
256,192,185361,1,8,0:0:0:0:
256,192,185436,1,8,0:0:0:0:
256,192,185511,1,0,0:0:0:0:
256,192,185661,1,8,0:0:0:0:
256,192,185811,1,8,0:0:0:0:
256,192,185886,1,0,0:0:0:0:
256,192,185961,1,0,0:0:0:0:
256,192,186036,1,8,0:0:0:0:
256,192,186111,1,0,0:0:0:0:
256,192,186186,1,0,0:0:0:0:
256,192,186261,1,8,0:0:0:0:
256,192,186336,1,0,0:0:0:0:
256,192,186411,1,8,0:0:0:0:
256,192,186561,1,0,0:0:0:0:
256,192,186711,1,12,0:0:0:0:
256,192,186861,1,0,0:0:0:0:
256,192,187011,1,4,0:0:0:0:
256,192,187161,1,8,0:0:0:0:
256,192,187311,1,8,0:0:0:0:
256,192,187361,1,8,0:0:0:0:
256,192,187411,1,8,0:0:0:0:
256,192,187461,1,0,0:0:0:0:
256,192,187536,1,0,0:0:0:0:
256,192,187611,1,8,0:0:0:0:
256,192,187686,1,0,0:0:0:0:
256,192,187761,1,8,0:0:0:0:
256,192,187836,1,8,0:0:0:0:
256,192,187911,1,0,0:0:0:0:
256,192,188061,1,0,0:0:0:0:
256,192,188136,1,0,0:0:0:0:
256,192,188211,1,8,0:0:0:0:
256,192,188286,1,0,0:0:0:0:
256,192,188361,1,8,0:0:0:0:
256,192,188436,1,8,0:0:0:0:
256,192,188511,1,0,0:0:0:0:
256,192,188661,1,0,0:0:0:0:
256,192,188736,1,0,0:0:0:0:
256,192,188811,1,8,0:0:0:0:
256,192,188961,1,0,0:0:0:0:
256,192,189111,1,12,0:0:0:0:
256,192,189261,1,0,0:0:0:0:
256,192,189411,1,4,0:0:0:0:
256,192,189561,1,8,0:0:0:0:
256,192,189636,1,0,0:0:0:0:
256,192,189786,1,8,0:0:0:0:
256,192,189861,1,0,0:0:0:0:
256,192,189936,1,0,0:0:0:0:
256,192,190086,1,0,0:0:0:0:
256,192,190161,1,8,0:0:0:0:
256,192,190311,1,8,0:0:0:0:
256,192,190461,1,8,0:0:0:0:
256,192,190536,1,8,0:0:0:0:
256,192,190611,1,0,0:0:0:0:
256,192,190761,1,0,0:0:0:0:
256,192,190836,1,8,0:0:0:0:
256,192,190986,1,8,0:0:0:0:
256,192,191061,1,0,0:0:0:0:
256,192,191211,1,8,0:0:0:0:
256,192,191286,1,0,0:0:0:0:
256,192,191436,1,0,0:0:0:0:
256,192,191511,1,8,0:0:0:0:
256,192,191661,1,8,0:0:0:0:
256,192,191811,1,4,0:0:0:0:
256,192,192111,1,0,0:0:0:0:
256,192,192161,1,0,0:0:0:0:
256,192,192211,1,0,0:0:0:0:
256,192,192261,1,8,0:0:0:0:
256,192,192336,1,8,0:0:0:0:
256,192,192411,1,0,0:0:0:0:
256,192,192486,1,0,0:0:0:0:
256,192,192561,1,8,0:0:0:0:
256,192,192636,1,8,0:0:0:0:
256,192,192711,1,0,0:0:0:0:
256,192,192861,1,8,0:0:0:0:
256,192,192936,1,8,0:0:0:0:
256,192,193011,1,0,0:0:0:0:
256,192,193086,1,8,0:0:0:0:
256,192,193161,1,0,0:0:0:0:
256,192,193236,1,0,0:0:0:0:
256,192,193311,1,8,0:0:0:0:
256,192,193461,1,0,0:0:0:0:
256,192,193536,1,0,0:0:0:0:
256,192,193611,1,8,0:0:0:0:
256,192,193761,1,0,0:0:0:0:
256,192,193911,1,12,0:0:0:0:
256,192,194061,1,8,0:0:0:0:
256,192,194136,1,8,0:0:0:0:
256,192,194211,1,0,0:0:0:0:
256,192,194361,1,8,0:0:0:0:
256,192,194511,1,0,0:0:0:0:
256,192,194561,1,0,0:0:0:0:
256,192,194611,1,0,0:0:0:0:
256,192,194661,1,8,0:0:0:0:
256,192,194736,1,8,0:0:0:0:
256,192,194811,1,0,0:0:0:0:
256,192,194961,1,8,0:0:0:0:
256,192,195036,1,8,0:0:0:0:
256,192,195111,1,0,0:0:0:0:
256,192,195186,1,0,0:0:0:0:
256,192,195261,1,8,0:0:0:0:
256,192,195411,1,0,0:0:0:0:
256,192,195561,1,0,0:0:0:0:
256,192,195636,1,0,0:0:0:0:
256,192,195711,1,8,0:0:0:0:
256,192,195861,1,8,0:0:0:0:
256,192,195936,1,0,0:0:0:0:
256,192,196011,1,8,0:0:0:0:
256,192,196086,1,8,0:0:0:0:
256,192,196161,1,0,0:0:0:0:
256,192,196311,1,8,0:0:0:0:
256,192,196461,1,0,0:0:0:0:
256,192,196611,1,4,0:0:0:0:
256,192,196911,1,8,0:0:0:0:
256,192,196961,1,8,0:0:0:0:
256,192,197011,1,8,0:0:0:0:
256,192,197061,1,0,0:0:0:0:
256,192,197136,1,0,0:0:0:0:
256,192,197211,1,8,0:0:0:0:
256,192,197286,1,0,0:0:0:0:
256,192,197361,1,8,0:0:0:0:
256,192,197436,1,8,0:0:0:0:
256,192,197511,1,0,0:0:0:0:
256,192,197661,1,0,0:0:0:0:
256,192,197811,1,8,0:0:0:0:
256,192,197886,1,8,0:0:0:0:
256,192,197961,1,0,0:0:0:0:
256,192,198036,1,0,0:0:0:0:
256,192,198111,1,8,0:0:0:0:
256,192,198261,1,0,0:0:0:0:
256,192,198336,1,0,0:0:0:0:
256,192,198411,1,8,0:0:0:0:
256,192,198561,1,0,0:0:0:0:
256,192,198711,1,12,0:0:0:0:
256,192,198861,1,8,0:0:0:0:
256,192,198936,1,8,0:0:0:0:
256,192,199011,1,0,0:0:0:0:
256,192,199161,1,0,0:0:0:0:
256,192,199236,1,0,0:0:0:0:
256,192,199311,1,8,0:0:0:0:
256,192,199461,1,0,0:0:0:0:
256,192,199536,1,0,0:0:0:0:
256,192,199611,1,8,0:0:0:0:
256,192,199686,1,0,0:0:0:0:
256,192,199761,1,8,0:0:0:0:
256,192,199836,1,8,0:0:0:0:
256,192,199911,1,0,0:0:0:0:
256,192,200061,1,8,0:0:0:0:
256,192,200136,1,0,0:0:0:0:
256,192,200211,1,8,0:0:0:0:
256,192,200286,1,0,0:0:0:0:
256,192,200361,1,0,0:0:0:0:
256,192,200436,1,8,0:0:0:0:
256,192,200511,1,0,0:0:0:0:
256,192,200586,1,0,0:0:0:0:
256,192,200661,1,8,0:0:0:0:
256,192,200736,1,0,0:0:0:0:
256,192,200811,1,8,0:0:0:0:
256,192,200961,1,0,0:0:0:0:
256,192,201111,1,8,0:0:0:0:
256,192,201411,1,4,0:0:0:0:
256,192,201711,1,0,0:0:0:0:
256,192,201761,1,0,0:0:0:0:
256,192,201811,1,0,0:0:0:0:
256,192,201861,1,8,0:0:0:0:
256,192,201936,1,8,0:0:0:0:
256,192,202011,1,0,0:0:0:0:
256,192,202161,1,8,0:0:0:0:
256,192,202236,1,8,0:0:0:0:
256,192,202311,1,0,0:0:0:0:
256,192,202461,1,8,0:0:0:0:
256,192,202536,1,8,0:0:0:0:
256,192,202611,1,0,0:0:0:0:
256,192,202686,1,0,0:0:0:0:
256,192,202761,1,8,0:0:0:0:
256,192,202836,1,0,0:0:0:0:
256,192,202911,1,8,0:0:0:0:
256,192,203061,1,0,0:0:0:0:
256,192,203211,1,8,0:0:0:0:
256,192,203361,1,0,0:0:0:0:
256,192,203436,1,0,0:0:0:0:
256,192,203511,1,8,0:0:0:0:
256,192,203586,1,8,0:0:0:0:
256,192,203661,1,8,0:0:0:0:
256,192,203736,1,8,0:0:0:0:
256,192,203811,1,0,0:0:0:0:
256,192,203961,1,8,0:0:0:0:
256,192,204111,1,0,0:0:0:0:
256,192,204161,1,0,0:0:0:0:
256,192,204211,1,0,0:0:0:0:
256,192,204261,1,8,0:0:0:0:
256,192,204336,1,8,0:0:0:0:
256,192,204411,1,0,0:0:0:0:
256,192,204561,1,8,0:0:0:0:
256,192,204636,1,8,0:0:0:0:
256,192,204711,1,0,0:0:0:0:
256,192,204786,1,0,0:0:0:0:
256,192,204861,1,8,0:0:0:0:
256,192,205011,1,0,0:0:0:0:
256,192,205086,1,8,0:0:0:0:
256,192,205161,1,8,0:0:0:0:
256,192,205236,1,8,0:0:0:0:
256,192,205311,1,0,0:0:0:0:
256,192,205386,1,8,0:0:0:0:
256,192,205461,1,0,0:0:0:0:
256,192,205536,1,0,0:0:0:0:
256,192,205611,1,8,0:0:0:0:
256,192,205761,1,0,0:0:0:0:
256,192,205836,1,8,0:0:0:0:
256,192,205911,1,0,0:0:0:0:
256,192,206061,1,8,0:0:0:0:
256,192,206211,1,4,0:0:0:0:
256,192,206361,1,0,0:0:0:0:
256,192,206511,1,8,0:0:0:0:
256,192,206561,1,8,0:0:0:0:
256,192,206611,1,8,0:0:0:0:
256,192,206661,1,0,0:0:0:0:
256,192,206736,1,0,0:0:0:0:
256,192,206811,1,8,0:0:0:0:
256,192,206961,1,8,0:0:0:0:
256,192,207036,1,0,0:0:0:0:
256,192,207111,1,0,0:0:0:0:
256,192,207186,1,0,0:0:0:0:
256,192,207261,1,8,0:0:0:0:
256,192,207336,1,0,0:0:0:0:
256,192,207411,1,8,0:0:0:0:
256,192,207561,1,8,0:0:0:0:
256,192,207636,1,8,0:0:0:0:
256,192,207711,1,0,0:0:0:0:
256,192,207786,1,8,0:0:0:0:
256,192,207861,1,0,0:0:0:0:
256,192,207936,1,0,0:0:0:0:
256,192,208011,1,8,0:0:0:0:
256,192,208161,1,0,0:0:0:0:
256,192,208311,1,8,0:0:0:0:
256,192,208461,1,0,0:0:0:0:
256,192,208611,1,8,0:0:0:0:
256,192,208686,1,0,0:0:0:0:
256,192,208761,1,8,0:0:0:0:
256,192,208836,1,8,0:0:0:0:
256,192,208911,1,0,0:0:0:0:
256,192,208986,1,0,0:0:0:0:
256,192,209061,1,8,0:0:0:0:
256,192,209136,1,0,0:0:0:0:
256,192,209211,1,8,0:0:0:0:
256,192,209286,1,8,0:0:0:0:
256,192,209361,1,0,0:0:0:0:
256,192,209436,1,0,0:0:0:0:
256,192,209511,1,8,0:0:0:0:
256,192,209661,1,0,0:0:0:0:
256,192,209811,1,8,0:0:0:0:
256,192,209961,1,0,0:0:0:0:
256,192,210036,1,8,0:0:0:0:
256,192,210186,1,8,0:0:0:0:
256,192,210261,1,0,0:0:0:0:
256,192,210411,1,8,0:0:0:0:
256,192,210486,1,0,0:0:0:0:
256,192,210636,1,0,0:0:0:0:
256,192,210711,1,8,0:0:0:0:
256,192,210861,1,8,0:0:0:0:
256,192,211011,1,4,0:0:0:0:
256,192,211311,1,0,0:0:0:0:
256,192,211361,1,0,0:0:0:0:
256,192,211411,1,0,0:0:0:0:
256,192,211461,1,8,0:0:0:0:
256,192,211536,1,8,0:0:0:0:
256,192,211611,1,0,0:0:0:0:
256,192,211761,1,8,0:0:0:0:
256,192,211836,1,0,0:0:0:0:
256,192,211911,1,8,0:0:0:0:
256,192,211986,1,0,0:0:0:0:
256,192,212061,1,0,0:0:0:0:
256,192,212136,1,0,0:0:0:0:
256,192,212211,1,8,0:0:0:0:
256,192,212286,1,8,0:0:0:0:
256,192,212361,1,0,0:0:0:0:
256,192,212436,1,0,0:0:0:0:
256,192,212511,1,8,0:0:0:0:
256,192,212661,1,0,0:0:0:0:
256,192,212736,1,0,0:0:0:0:
256,192,212811,1,8,0:0:0:0:
256,192,212886,1,8,0:0:0:0:
256,192,212961,1,0,0:0:0:0:
256,192,213036,1,0,0:0:0:0:
256,192,213111,1,8,0:0:0:0:
256,192,213261,1,0,0:0:0:0:
256,192,213411,1,8,0:0:0:0:
256,192,213561,1,0,0:0:0:0:
256,192,213611,1,0,0:0:0:0:
256,192,213661,1,0,0:0:0:0:
256,192,213711,1,8,0:0:0:0:
256,192,213761,1,8,0:0:0:0:
256,192,213811,1,8,0:0:0:0:
256,192,213861,1,0,0:0:0:0:
256,192,213936,1,0,0:0:0:0:
256,192,214011,1,8,0:0:0:0:
256,192,214161,1,0,0:0:0:0:
256,192,214236,1,0,0:0:0:0:
256,192,214311,1,8,0:0:0:0:
256,192,214461,1,0,0:0:0:0:
256,192,214611,1,8,0:0:0:0:
256,192,214686,1,0,0:0:0:0:
256,192,214761,1,8,0:0:0:0:
256,192,214836,1,8,0:0:0:0:
256,192,214911,1,0,0:0:0:0:
256,192,214986,1,0,0:0:0:0:
256,192,215061,1,8,0:0:0:0:
256,192,215136,1,0,0:0:0:0:
256,192,215211,1,8,0:0:0:0:
256,192,215286,1,8,0:0:0:0:
256,192,215361,1,0,0:0:0:0:
256,192,215436,1,8,0:0:0:0:
256,192,215511,1,0,0:0:0:0:
256,192,215811,1,4,0:0:0:0:
256,192,216111,1,12,0:0:0:0:
256,192,216261,1,0,0:0:0:0:
256,192,216336,1,0,0:0:0:0:
256,192,216411,1,8,0:0:0:0:
256,192,216486,1,0,0:0:0:0:
256,192,216561,1,8,0:0:0:0:
256,192,216711,1,12,0:0:0:0:
256,192,216861,1,8,0:0:0:0:
256,192,216936,1,8,0:0:0:0:
256,192,217011,1,0,0:0:0:0:
256,192,217086,1,0,0:0:0:0:
256,192,217161,1,8,0:0:0:0:
256,192,217311,1,12,0:0:0:0:
256,192,217461,1,0,0:0:0:0:
256,192,217536,1,0,0:0:0:0:
256,192,217611,1,8,0:0:0:0:
256,192,217761,1,0,0:0:0:0:
256,192,217911,1,8,0:0:0:0:
256,192,218211,1,8,0:0:0:0:
256,192,218361,1,0,0:0:0:0:
256,192,218436,1,8,0:0:0:0:
256,192,218586,1,8,0:0:0:0:
256,192,218661,1,0,0:0:0:0:
256,192,218811,1,8,0:0:0:0:
256,192,218961,1,0,0:0:0:0:
256,192,219036,1,8,0:0:0:0:
256,192,219186,1,8,0:0:0:0:
256,192,219261,1,0,0:0:0:0:
256,192,219411,1,8,0:0:0:0:
256,192,219561,1,0,0:0:0:0:
256,192,219636,1,8,0:0:0:0:
256,192,219786,1,0,0:0:0:0:
256,192,219861,1,8,0:0:0:0:
256,192,220011,1,0,0:0:0:0:
256,192,220611,1,4,0:0:0:0:
256,192,230211,5,0,0:0:0:0:
256,192,231411,1,0,0:0:0:0:
256,192,232611,1,8,0:0:0:0:
256,192,235011,1,0,0:0:0:0:
256,192,236211,1,8,0:0:0:0:
256,192,237411,1,0,0:0:0:0:
256,192,239811,1,0,0:0:0:0:
256,192,241011,1,0,0:0:0:0:
256,192,242211,1,8,0:0:0:0:
256,192,243411,1,0,0:0:0:0:
256,192,244611,1,8,0:0:0:0:
256,192,247011,5,0,0:0:0:0:
256,192,249411,5,0,0:0:0:0:
256,192,249561,1,8,0:0:0:0:
256,192,249711,1,0,0:0:0:0:
256,192,249861,1,8,0:0:0:0:
256,192,250011,1,8,0:0:0:0:
256,192,250161,1,0,0:0:0:0:
256,192,250311,1,8,0:0:0:0:
256,192,250461,1,0,0:0:0:0:
256,192,250611,1,8,0:0:0:0:
256,192,250761,1,8,0:0:0:0:
256,192,250911,1,0,0:0:0:0:
256,192,251061,1,8,0:0:0:0:
256,192,251211,1,8,0:0:0:0:
256,192,251361,1,0,0:0:0:0:
256,192,251511,1,8,0:0:0:0:
256,192,251661,1,0,0:0:0:0:
256,192,251811,1,8,0:0:0:0:
256,192,251961,1,0,0:0:0:0:
256,192,252111,1,8,0:0:0:0:
256,192,252261,1,8,0:0:0:0:
256,192,252411,1,0,0:0:0:0:
256,192,252561,1,8,0:0:0:0:
256,192,252711,1,0,0:0:0:0:
256,192,252861,1,0,0:0:0:0:
256,192,253011,1,8,0:0:0:0:
256,192,253161,1,0,0:0:0:0:
256,192,253311,1,8,0:0:0:0:
256,192,253461,1,0,0:0:0:0:
256,192,253611,1,8,0:0:0:0:
256,192,253761,1,8,0:0:0:0:
256,192,253911,1,0,0:0:0:0:
256,192,254061,1,0,0:0:0:0:
256,192,254211,1,8,0:0:0:0:
256,192,254361,1,0,0:0:0:0:
256,192,254511,1,8,0:0:0:0:
256,192,254661,1,8,0:0:0:0:
256,192,254811,1,0,0:0:0:0:
256,192,254961,1,8,0:0:0:0:
256,192,255111,1,0,0:0:0:0:
256,192,255261,1,0,0:0:0:0:
256,192,255411,1,8,0:0:0:0:
256,192,255561,1,0,0:0:0:0:
256,192,255711,1,8,0:0:0:0:
256,192,255861,1,0,0:0:0:0:
256,192,256011,1,8,0:0:0:0:
256,192,256161,1,8,0:0:0:0:
256,192,256311,1,0,0:0:0:0:
256,192,256461,1,0,0:0:0:0:
256,192,256611,1,8,0:0:0:0:
256,192,256761,1,0,0:0:0:0:
256,192,256911,1,8,0:0:0:0:
256,192,257061,1,8,0:0:0:0:
256,192,257211,1,0,0:0:0:0:
256,192,257361,1,8,0:0:0:0:
256,192,257511,1,0,0:0:0:0:
256,192,257661,1,0,0:0:0:0:
256,192,257811,1,8,0:0:0:0:
256,192,257961,1,8,0:0:0:0:
256,192,258111,1,0,0:0:0:0:
256,192,258261,1,8,0:0:0:0:
256,192,258411,1,0,0:0:0:0:
256,192,259011,1,8,0:0:0:0:
256,192,260811,1,8,0:0:0:0:
256,192,260961,1,8,0:0:0:0:
256,192,261111,1,0,0:0:0:0:
256,192,261261,1,8,0:0:0:0:
256,192,261561,1,8,0:0:0:0:
256,192,261711,1,0,0:0:0:0:
256,192,263211,1,0,0:0:0:0:
256,192,263511,1,8,0:0:0:0:
256,192,263811,1,8,0:0:0:0:
256,192,264711,1,0,0:0:0:0:
256,192,264861,1,8,0:0:0:0:
256,192,265761,1,0,0:0:0:0:
256,192,265911,1,8,0:0:0:0:
256,192,266061,1,0,0:0:0:0:
256,192,266211,12,0,268011,0:0:0:0:
256,192,268311,5,0,0:0:0:0:
256,192,268611,1,12,0:0:0:0:
256,192,268911,1,0,0:0:0:0:
256,192,269061,1,0,0:0:0:0:
256,192,269211,1,0,0:0:0:0:
256,192,269361,1,12,0:0:0:0:
256,192,269811,1,4,0:0:0:0:
256,192,270111,1,0,0:0:0:0:
256,192,270261,1,8,0:0:0:0:
256,192,270411,1,4,0:0:0:0:
256,192,270561,1,12,0:0:0:0:
256,192,270861,1,4,0:0:0:0:
256,192,271311,1,0,0:0:0:0:
256,192,271611,1,8,0:0:0:0:
256,192,271911,1,8,0:0:0:0:
256,192,272061,1,8,0:0:0:0:
256,192,272211,1,8,0:0:0:0:
256,192,272361,1,8,0:0:0:0:
256,192,272511,1,0,0:0:0:0:
256,192,272661,1,0,0:0:0:0:
256,192,272811,1,8,0:0:0:0:
256,192,273111,1,0,0:0:0:0:
256,192,273411,1,4,0:0:0:0:
256,192,273711,1,0,0:0:0:0:
256,192,273861,1,0,0:0:0:0:
256,192,274011,1,0,0:0:0:0:
256,192,274161,1,12,0:0:0:0:
256,192,274611,1,4,0:0:0:0:
256,192,274911,1,0,0:0:0:0:
256,192,275061,1,8,0:0:0:0:
256,192,275211,1,4,0:0:0:0:
256,192,275361,1,12,0:0:0:0:
256,192,275661,1,4,0:0:0:0:
256,192,276111,1,0,0:0:0:0:
256,192,276411,1,8,0:0:0:0:
256,192,276711,1,0,0:0:0:0:
256,192,276861,1,8,0:0:0:0:
256,192,277011,1,0,0:0:0:0:
256,192,277311,1,8,0:0:0:0:
256,192,277611,1,8,0:0:0:0:
256,192,277761,1,8,0:0:0:0:
256,192,277911,1,0,0:0:0:0:
256,192,278211,1,4,0:0:0:0:
256,192,278511,1,0,0:0:0:0:
256,192,278661,1,0,0:0:0:0:
256,192,278811,1,0,0:0:0:0:
256,192,278961,1,12,0:0:0:0:
256,192,279411,1,4,0:0:0:0:
256,192,279711,1,0,0:0:0:0:
256,192,279861,1,8,0:0:0:0:
256,192,280011,1,4,0:0:0:0:
256,192,280161,1,12,0:0:0:0:
256,192,280461,1,4,0:0:0:0:
256,192,280911,1,0,0:0:0:0:
256,192,281211,1,8,0:0:0:0:
256,192,281511,1,8,0:0:0:0:
256,192,281661,1,8,0:0:0:0:
256,192,281811,1,8,0:0:0:0:
256,192,281961,1,8,0:0:0:0:
256,192,282111,1,0,0:0:0:0:
256,192,282261,1,0,0:0:0:0:
256,192,282411,1,8,0:0:0:0:
256,192,282711,1,0,0:0:0:0:
256,192,283011,1,4,0:0:0:0:
256,192,283311,1,0,0:0:0:0:
256,192,283461,1,0,0:0:0:0:
256,192,283611,1,0,0:0:0:0:
256,192,283761,1,12,0:0:0:0:
256,192,284211,1,4,0:0:0:0:
256,192,284511,1,0,0:0:0:0:
256,192,284661,1,8,0:0:0:0:
256,192,284811,1,4,0:0:0:0:
256,192,284961,1,12,0:0:0:0:
256,192,285261,1,4,0:0:0:0:
256,192,285411,12,0,287061,0:0:0:0:
256,192,287211,5,0,0:0:0:0:
256,192,287361,1,8,0:0:0:0:
256,192,287511,1,0,0:0:0:0:
256,192,287661,1,8,0:0:0:0:
256,192,287736,1,8,0:0:0:0:
256,192,287811,1,0,0:0:0:0:
256,192,287886,1,0,0:0:0:0:
256,192,287961,1,8,0:0:0:0:
256,192,288074,12,0,290061,0:0:0:0:
256,192,290211,5,4,0:0:0:0:
256,192,290361,1,0,0:0:0:0:
256,192,290436,1,0,0:0:0:0:
256,192,290511,1,8,0:0:0:0:
256,192,290661,1,8,0:0:0:0:
256,192,290736,1,0,0:0:0:0:
256,192,290886,1,0,0:0:0:0:
256,192,290961,1,8,0:0:0:0:
256,192,291111,1,8,0:0:0:0:
256,192,291261,1,8,0:0:0:0:
256,192,291336,1,8,0:0:0:0:
256,192,291411,1,0,0:0:0:0:
256,192,291561,1,0,0:0:0:0:
256,192,291636,1,0,0:0:0:0:
256,192,291711,1,8,0:0:0:0:
256,192,291861,1,0,0:0:0:0:
256,192,291936,1,8,0:0:0:0:
256,192,292086,1,8,0:0:0:0:
256,192,292161,1,0,0:0:0:0:
256,192,292311,1,8,0:0:0:0:
256,192,292461,1,0,0:0:0:0:
256,192,292536,1,0,0:0:0:0:
256,192,292611,1,8,0:0:0:0:
256,192,292761,1,8,0:0:0:0:
256,192,292836,1,8,0:0:0:0:
256,192,292911,1,0,0:0:0:0:
256,192,293061,1,8,0:0:0:0:
256,192,293136,1,0,0:0:0:0:
256,192,293286,1,0,0:0:0:0:
256,192,293361,1,8,0:0:0:0:
256,192,293511,1,8,0:0:0:0:
256,192,293661,1,0,0:0:0:0:
256,192,293736,1,0,0:0:0:0:
256,192,293811,1,8,0:0:0:0:
256,192,293961,1,0,0:0:0:0:
256,192,294111,1,8,0:0:0:0:
256,192,294261,1,8,0:0:0:0:
256,192,294336,1,0,0:0:0:0:
256,192,294486,1,0,0:0:0:0:
256,192,294561,1,8,0:0:0:0:
256,192,294711,1,0,0:0:0:0:
256,192,294861,1,8,0:0:0:0:
256,192,295011,1,0,0:0:0:0:
256,192,295161,1,8,0:0:0:0:
256,192,295236,1,8,0:0:0:0:
256,192,295311,1,0,0:0:0:0:
256,192,295461,1,8,0:0:0:0:
256,192,295536,1,0,0:0:0:0:
256,192,295686,1,0,0:0:0:0:
256,192,295761,1,8,0:0:0:0:
256,192,295911,1,0,0:0:0:0:
256,192,296061,1,8,0:0:0:0:
256,192,296136,1,8,0:0:0:0:
256,192,296211,1,0,0:0:0:0:
256,192,296361,1,0,0:0:0:0:
256,192,296436,1,8,0:0:0:0:
256,192,296511,1,0,0:0:0:0:
256,192,296661,1,0,0:0:0:0:
256,192,296736,1,8,0:0:0:0:
256,192,296886,1,8,0:0:0:0:
256,192,296961,1,0,0:0:0:0:
256,192,297111,1,8,0:0:0:0:
256,192,297261,1,0,0:0:0:0:
256,192,297336,1,0,0:0:0:0:
256,192,297411,1,8,0:0:0:0:
256,192,297561,1,8,0:0:0:0:
256,192,297636,1,0,0:0:0:0:
256,192,297711,1,0,0:0:0:0:
256,192,297861,1,8,0:0:0:0:
256,192,297936,1,0,0:0:0:0:
256,192,298086,1,0,0:0:0:0:
256,192,298161,1,8,0:0:0:0:
256,192,298311,1,0,0:0:0:0:
256,192,298461,1,8,0:0:0:0:
256,192,298536,1,8,0:0:0:0:
256,192,298611,1,0,0:0:0:0:
256,192,298761,1,0,0:0:0:0:
256,192,298911,1,8,0:0:0:0:
256,192,299061,1,0,0:0:0:0:
256,192,299136,1,8,0:0:0:0:
256,192,299286,1,8,0:0:0:0:
256,192,299436,1,0,0:0:0:0:
256,192,299511,1,0,0:0:0:0:
256,192,299586,1,8,0:0:0:0:
256,192,299661,1,8,0:0:0:0:
256,192,299811,1,8,0:0:0:0:
256,192,299886,1,0,0:0:0:0:
256,192,299961,1,0,0:0:0:0:
256,192,300036,1,0,0:0:0:0:
256,192,300111,1,8,0:0:0:0:
256,192,300186,1,0,0:0:0:0:
256,192,300261,1,8,0:0:0:0:
256,192,300336,1,8,0:0:0:0:
256,192,300411,1,0,0:0:0:0:
256,192,300486,1,0,0:0:0:0:
256,192,300561,1,8,0:0:0:0:
256,192,300636,1,0,0:0:0:0:
256,192,300711,1,8,0:0:0:0:
256,192,300786,1,8,0:0:0:0:
256,192,300861,1,0,0:0:0:0:
256,192,300936,1,0,0:0:0:0:
256,192,301011,1,8,0:0:0:0:
256,192,301086,1,0,0:0:0:0:
256,192,301161,1,0,0:0:0:0:
256,192,301236,1,0,0:0:0:0:
256,192,301311,1,8,0:0:0:0:
256,192,301386,1,8,0:0:0:0:
256,192,301461,1,0,0:0:0:0:
256,192,301536,1,0,0:0:0:0:
256,192,301611,1,8,0:0:0:0:
256,192,301686,1,0,0:0:0:0:
256,192,301761,1,8,0:0:0:0:
256,192,301836,1,8,0:0:0:0:
256,192,301911,1,0,0:0:0:0:
256,192,302211,1,8,0:0:0:0:
256,192,302286,1,0,0:0:0:0:
256,192,302361,1,0,0:0:0:0:
256,192,302436,1,0,0:0:0:0:
256,192,302511,1,8,0:0:0:0:
256,192,302586,1,0,0:0:0:0:
256,192,302661,1,8,0:0:0:0:
256,192,302736,1,8,0:0:0:0:
256,192,302811,1,0,0:0:0:0:
256,192,302886,1,0,0:0:0:0:
256,192,302961,1,8,0:0:0:0:
256,192,303036,1,0,0:0:0:0:
256,192,303111,1,8,0:0:0:0:
256,192,303186,1,8,0:0:0:0:
256,192,303261,1,0,0:0:0:0:
256,192,303336,1,0,0:0:0:0:
256,192,303411,1,8,0:0:0:0:
256,192,303486,1,0,0:0:0:0:
256,192,303561,1,0,0:0:0:0:
256,192,303636,1,0,0:0:0:0:
256,192,303711,1,8,0:0:0:0:
256,192,303786,1,8,0:0:0:0:
256,192,303861,1,0,0:0:0:0:
256,192,303936,1,0,0:0:0:0:
256,192,304011,1,8,0:0:0:0:
256,192,304086,1,8,0:0:0:0:
256,192,304161,1,8,0:0:0:0:
256,192,304236,1,0,0:0:0:0:
256,192,304311,1,8,0:0:0:0:
256,192,304461,1,8,0:0:0:0:
256,192,304611,1,8,0:0:0:0:
256,192,304686,1,0,0:0:0:0:
256,192,304761,1,8,0:0:0:0:
256,192,304836,1,0,0:0:0:0:
256,192,304911,1,8,0:0:0:0:
256,192,304986,1,0,0:0:0:0:
256,192,305061,1,0,0:0:0:0:
256,192,305136,1,8,0:0:0:0:
256,192,305211,1,0,0:0:0:0:
256,192,305286,1,8,0:0:0:0:
256,192,305361,1,8,0:0:0:0:
256,192,305436,1,0,0:0:0:0:
256,192,305511,1,0,0:0:0:0:
256,192,305661,1,0,0:0:0:0:
256,192,305811,1,8,0:0:0:0:
256,192,305886,1,0,0:0:0:0:
256,192,305961,1,8,0:0:0:0:
256,192,306036,1,0,0:0:0:0:
256,192,306111,1,0,0:0:0:0:
256,192,306186,1,8,0:0:0:0:
256,192,306261,1,0,0:0:0:0:
256,192,306336,1,0,0:0:0:0:
256,192,306411,1,8,0:0:0:0:
256,192,306486,1,8,0:0:0:0:
256,192,306561,1,0,0:0:0:0:
256,192,306636,1,8,0:0:0:0:
256,192,306711,1,0,0:0:0:0:
256,192,307011,1,0,0:0:0:0:
256,192,307061,1,0,0:0:0:0:
256,192,307111,1,0,0:0:0:0:
256,192,307161,1,8,0:0:0:0:
256,192,307236,1,0,0:0:0:0:
256,192,307311,1,8,0:0:0:0:
256,192,307386,1,8,0:0:0:0:
256,192,307461,1,0,0:0:0:0:
256,192,307536,1,0,0:0:0:0:
256,192,307611,1,8,0:0:0:0:
256,192,307661,1,8,0:0:0:0:
256,192,307711,1,8,0:0:0:0:
256,192,307761,1,0,0:0:0:0:
256,192,307836,1,0,0:0:0:0:
256,192,307911,1,8,0:0:0:0:
256,192,307986,1,0,0:0:0:0:
256,192,308061,1,8,0:0:0:0:
256,192,308136,1,8,0:0:0:0:
256,192,308211,12,0,309411,0:0:0:0:
256,192,309711,5,8,0:0:0:0:
256,192,309861,1,8,0:0:0:0:
256,192,310011,1,8,0:0:0:0:
256,192,310161,1,0,0:0:0:0:
256,192,310311,1,8,0:0:0:0:
256,192,310611,1,8,0:0:0:0:
256,192,310761,1,8,0:0:0:0:
256,192,310911,1,0,0:0:0:0:
256,192,311061,1,0,0:0:0:0:
256,192,311211,1,8,0:0:0:0:
256,192,311361,1,0,0:0:0:0:
256,192,311436,1,0,0:0:0:0:
256,192,311511,1,8,0:0:0:0:
256,192,311661,1,0,0:0:0:0:
256,192,311811,1,12,0:0:0:0:
256,192,311961,1,0,0:0:0:0:
256,192,312036,1,0,0:0:0:0:
256,192,312111,1,8,0:0:0:0:
256,192,312261,1,8,0:0:0:0:
256,192,312336,1,8,0:0:0:0:
256,192,312411,1,0,0:0:0:0:
256,192,312486,1,0,0:0:0:0:
256,192,312561,1,8,0:0:0:0:
256,192,312711,1,8,0:0:0:0:
256,192,312861,1,0,0:0:0:0:
256,192,312936,1,8,0:0:0:0:
256,192,313011,1,0,0:0:0:0:
256,192,313161,1,8,0:0:0:0:
256,192,313236,1,8,0:0:0:0:
256,192,313311,1,0,0:0:0:0:
256,192,313461,1,8,0:0:0:0:
256,192,313536,1,0,0:0:0:0:
256,192,313611,1,8,0:0:0:0:
256,192,313686,1,8,0:0:0:0:
256,192,313761,1,0,0:0:0:0:
256,192,313911,1,8,0:0:0:0:
256,192,314061,1,0,0:0:0:0:
256,192,314136,1,0,0:0:0:0:
256,192,314211,1,8,0:0:0:0:
256,192,314361,1,8,0:0:0:0:
256,192,314436,1,0,0:0:0:0:
256,192,314511,1,0,0:0:0:0:
256,192,314661,1,0,0:0:0:0:
256,192,314736,1,0,0:0:0:0:
256,192,314811,1,8,0:0:0:0:
256,192,314886,1,0,0:0:0:0:
256,192,314961,1,8,0:0:0:0:
256,192,315111,1,8,0:0:0:0:
256,192,315261,1,8,0:0:0:0:
256,192,315336,1,8,0:0:0:0:
256,192,315411,1,0,0:0:0:0:
256,192,315561,1,8,0:0:0:0:
256,192,315711,1,0,0:0:0:0:
256,192,315861,1,8,0:0:0:0:
256,192,315936,1,0,0:0:0:0:
256,192,316086,1,8,0:0:0:0:
256,192,316236,1,0,0:0:0:0:
256,192,316311,1,8,0:0:0:0:
256,192,316461,1,8,0:0:0:0:
256,192,316611,1,0,0:0:0:0:
256,192,316761,1,0,0:0:0:0:
256,192,316836,1,0,0:0:0:0:
256,192,316911,1,8,0:0:0:0:
256,192,317061,1,8,0:0:0:0:
256,192,317136,1,8,0:0:0:0:
256,192,317211,1,0,0:0:0:0:
256,192,317286,1,0,0:0:0:0:
256,192,317361,1,8,0:0:0:0:
256,192,317511,1,8,0:0:0:0:
256,192,317661,1,8,0:0:0:0:
256,192,317736,1,0,0:0:0:0:
256,192,317811,1,0,0:0:0:0:
256,192,317961,1,0,0:0:0:0:
256,192,318036,1,0,0:0:0:0:
256,192,318111,1,8,0:0:0:0:
256,192,318261,1,0,0:0:0:0:
256,192,318336,1,8,0:0:0:0:
256,192,318411,1,0,0:0:0:0:
256,192,318486,1,0,0:0:0:0:
256,192,318561,1,8,0:0:0:0:
256,192,318711,1,8,0:0:0:0:
256,192,318861,1,8,0:0:0:0:
256,192,318936,1,8,0:0:0:0:
256,192,319011,1,0,0:0:0:0:
256,192,319161,1,8,0:0:0:0:
256,192,319236,1,0,0:0:0:0:
256,192,319311,1,8,0:0:0:0:
256,192,319461,1,0,0:0:0:0:
256,192,319536,1,0,0:0:0:0:
256,192,319611,1,0,0:0:0:0:
256,192,319686,1,8,0:0:0:0:
256,192,319761,1,0,0:0:0:0:
256,192,319911,1,8,0:0:0:0:
256,192,320061,1,0,0:0:0:0:
256,192,320136,1,0,0:0:0:0:
256,192,320211,1,8,0:0:0:0:
256,192,320361,1,8,0:0:0:0:
256,192,320511,1,0,0:0:0:0:
256,192,320661,1,8,0:0:0:0:
256,192,320736,1,0,0:0:0:0:
256,192,320886,1,8,0:0:0:0:
256,192,321036,1,0,0:0:0:0:
256,192,321111,1,0,0:0:0:0:
256,192,321186,1,8,0:0:0:0:
256,192,321261,1,8,0:0:0:0:
256,192,321411,1,0,0:0:0:0:
256,192,321561,1,0,0:0:0:0:
256,192,321711,1,12,0:0:0:0:
256,192,321861,1,8,0:0:0:0:
256,192,321936,1,8,0:0:0:0:
256,192,322011,1,0,0:0:0:0:
256,192,322086,1,8,0:0:0:0:
256,192,322161,1,0,0:0:0:0:
256,192,322311,1,8,0:0:0:0:
256,192,322461,1,0,0:0:0:0:
256,192,322536,1,0,0:0:0:0:
256,192,322611,1,8,0:0:0:0:
256,192,322761,1,8,0:0:0:0:
256,192,322836,1,0,0:0:0:0:
256,192,322911,1,0,0:0:0:0:
256,192,323061,1,8,0:0:0:0:
256,192,323136,1,0,0:0:0:0:
256,192,323211,1,0,0:0:0:0:
256,192,323286,1,8,0:0:0:0:
256,192,323361,1,8,0:0:0:0:
256,192,323511,1,8,0:0:0:0:
256,192,323661,1,8,0:0:0:0:
256,192,323736,1,8,0:0:0:0:
256,192,323811,1,0,0:0:0:0:
256,192,323961,1,0,0:0:0:0:
256,192,324036,1,0,0:0:0:0:
256,192,324111,1,8,0:0:0:0:
256,192,324261,1,0,0:0:0:0:
256,192,324336,1,0,0:0:0:0:
256,192,324411,1,8,0:0:0:0:
256,192,324486,1,0,0:0:0:0:
256,192,324561,1,0,0:0:0:0:
256,192,324711,1,8,0:0:0:0:
256,192,324861,1,0,0:0:0:0:
256,192,324936,1,0,0:0:0:0:
256,192,325011,1,8,0:0:0:0:
256,192,325161,1,8,0:0:0:0:
256,192,325311,1,0,0:0:0:0:
256,192,325461,1,8,0:0:0:0:
256,192,325536,1,0,0:0:0:0:
256,192,325686,1,8,0:0:0:0:
256,192,325836,1,0,0:0:0:0:
256,192,325911,1,8,0:0:0:0:
256,192,326061,1,8,0:0:0:0:
256,192,326211,1,0,0:0:0:0:
256,192,326361,1,8,0:0:0:0:
256,192,326436,1,8,0:0:0:0:
256,192,326511,1,0,0:0:0:0:
256,192,326661,1,8,0:0:0:0:
256,192,326736,1,0,0:0:0:0:
256,192,326886,1,8,0:0:0:0:
256,192,327036,1,0,0:0:0:0:
256,192,327111,1,8,0:0:0:0:
256,192,327411,1,0,0:0:0:0:
256,192,327561,1,8,0:0:0:0:
256,192,327636,1,8,0:0:0:0:
256,192,327711,1,0,0:0:0:0:
256,192,327861,1,8,0:0:0:0:
256,192,327936,1,0,0:0:0:0:
256,192,328086,1,8,0:0:0:0:
256,192,328236,1,0,0:0:0:0:
256,192,328311,1,8,0:0:0:0:
256,192,328386,1,8,0:0:0:0:
256,192,328461,1,8,0:0:0:0:
256,192,328536,1,8,0:0:0:0:
256,192,328611,1,0,0:0:0:0:
256,192,328761,12,0,330561,0:0:0:0:
256,192,330711,5,0,0:0:0:0:
256,192,331011,1,12,0:0:0:0:
256,192,331161,1,0,0:0:0:0:
256,192,331236,1,0,0:0:0:0:
256,192,331311,1,8,0:0:0:0:
256,192,331461,1,8,0:0:0:0:
256,192,331536,1,8,0:0:0:0:
256,192,331611,1,0,0:0:0:0:
256,192,331686,1,8,0:0:0:0:
256,192,331761,1,0,0:0:0:0:
256,192,331836,1,0,0:0:0:0:
256,192,331911,1,8,0:0:0:0:
256,192,332061,1,0,0:0:0:0:
256,192,332136,1,0,0:0:0:0:
256,192,332211,1,8,0:0:0:0:
256,192,332361,1,8,0:0:0:0:
256,192,332436,1,8,0:0:0:0:
256,192,332511,1,0,0:0:0:0:
256,192,332661,1,8,0:0:0:0:
256,192,332736,1,0,0:0:0:0:
256,192,332811,1,8,0:0:0:0:
256,192,332886,1,8,0:0:0:0:
256,192,332961,1,0,0:0:0:0:
256,192,333036,1,0,0:0:0:0:
256,192,333111,1,8,0:0:0:0:
256,192,333261,1,8,0:0:0:0:
256,192,333336,1,8,0:0:0:0:
256,192,333411,1,0,0:0:0:0:
256,192,333561,1,0,0:0:0:0:
256,192,333636,1,8,0:0:0:0:
256,192,333711,1,8,0:0:0:0:
256,192,333861,1,0,0:0:0:0:
256,192,333936,1,0,0:0:0:0:
256,192,334011,1,8,0:0:0:0:
256,192,334086,1,8,0:0:0:0:
256,192,334161,1,0,0:0:0:0:
256,192,334236,1,0,0:0:0:0:
256,192,334311,1,8,0:0:0:0:
256,192,334461,1,8,0:0:0:0:
256,192,334536,1,8,0:0:0:0:
256,192,334611,1,0,0:0:0:0:
256,192,334761,1,8,0:0:0:0:
256,192,334911,1,0,0:0:0:0:
256,192,335061,1,0,0:0:0:0:
256,192,335136,1,8,0:0:0:0:
256,192,335286,1,8,0:0:0:0:
256,192,335361,1,0,0:0:0:0:
256,192,335436,1,0,0:0:0:0:
256,192,335511,1,8,0:0:0:0:
256,192,335661,1,8,0:0:0:0:
256,192,335811,1,0,0:0:0:0:
256,192,335961,1,0,0:0:0:0:
256,192,336036,1,0,0:0:0:0:
256,192,336111,1,8,0:0:0:0:
256,192,336261,1,8,0:0:0:0:
256,192,336336,1,8,0:0:0:0:
256,192,336411,1,0,0:0:0:0:
256,192,336486,1,0,0:0:0:0:
256,192,336561,1,8,0:0:0:0:
256,192,336636,1,0,0:0:0:0:
256,192,336711,1,8,0:0:0:0:
256,192,336861,1,0,0:0:0:0:
256,192,336936,1,0,0:0:0:0:
256,192,337011,1,8,0:0:0:0:
256,192,337161,1,8,0:0:0:0:
256,192,337236,1,0,0:0:0:0:
256,192,337311,1,8,0:0:0:0:
256,192,337461,1,0,0:0:0:0:
256,192,337536,1,0,0:0:0:0:
256,192,337611,1,0,0:0:0:0:
256,192,337686,1,8,0:0:0:0:
256,192,337761,1,0,0:0:0:0:
256,192,337836,1,0,0:0:0:0:
256,192,337911,1,8,0:0:0:0:
256,192,338061,1,8,0:0:0:0:
256,192,338136,1,8,0:0:0:0:
256,192,338211,1,0,0:0:0:0:
256,192,338361,1,0,0:0:0:0:
256,192,338436,1,0,0:0:0:0:
256,192,338511,1,8,0:0:0:0:
256,192,338661,1,8,0:0:0:0:
256,192,338736,1,0,0:0:0:0:
256,192,338811,1,0,0:0:0:0:
256,192,338886,1,8,0:0:0:0:
256,192,338961,1,8,0:0:0:0:
256,192,339036,1,0,0:0:0:0:
256,192,339111,1,0,0:0:0:0:
256,192,339261,1,0,0:0:0:0:
256,192,339336,1,0,0:0:0:0:
256,192,339411,1,8,0:0:0:0:
256,192,339561,1,8,0:0:0:0:
256,192,339711,1,0,0:0:0:0:
256,192,339861,1,8,0:0:0:0:
256,192,339936,1,0,0:0:0:0:
256,192,340086,1,8,0:0:0:0:
256,192,340161,1,8,0:0:0:0:
256,192,340236,1,0,0:0:0:0:
256,192,340311,1,8,0:0:0:0:
256,192,340461,1,8,0:0:0:0:
256,192,340611,1,4,0:0:0:0:
256,192,340761,1,0,0:0:0:0:
256,192,340836,1,0,0:0:0:0:
256,192,340911,1,8,0:0:0:0:
256,192,341061,1,8,0:0:0:0:
256,192,341136,1,0,0:0:0:0:
256,192,341211,1,8,0:0:0:0:
256,192,341286,1,0,0:0:0:0:
256,192,341361,1,0,0:0:0:0:
256,192,341436,1,0,0:0:0:0:
256,192,341511,1,8,0:0:0:0:
256,192,341661,1,8,0:0:0:0:
256,192,341736,1,8,0:0:0:0:
256,192,341811,1,0,0:0:0:0:
256,192,341961,1,0,0:0:0:0:
256,192,342036,1,8,0:0:0:0:
256,192,342111,1,8,0:0:0:0:
256,192,342261,1,8,0:0:0:0:
256,192,342336,1,8,0:0:0:0:
256,192,342411,1,0,0:0:0:0:
256,192,342486,1,8,0:0:0:0:
256,192,342561,1,8,0:0:0:0:
256,192,342636,1,0,0:0:0:0:
256,192,342711,1,8,0:0:0:0:
256,192,342861,1,0,0:0:0:0:
256,192,342936,1,0,0:0:0:0:
256,192,343011,1,8,0:0:0:0:
256,192,343161,1,8,0:0:0:0:
256,192,343236,1,0,0:0:0:0:
256,192,343311,1,8,0:0:0:0:
256,192,343461,1,8,0:0:0:0:
256,192,343536,1,8,0:0:0:0:
256,192,343611,1,0,0:0:0:0:
256,192,343686,1,0,0:0:0:0:
256,192,343761,1,8,0:0:0:0:
256,192,343836,1,8,0:0:0:0:
256,192,343911,1,0,0:0:0:0:
256,192,344061,1,8,0:0:0:0:
256,192,344136,1,0,0:0:0:0:
256,192,344211,1,8,0:0:0:0:
256,192,344361,1,0,0:0:0:0:
256,192,344511,1,8,0:0:0:0:
256,192,344661,1,0,0:0:0:0:
256,192,344736,1,8,0:0:0:0:
256,192,344886,1,8,0:0:0:0:
256,192,345036,1,8,0:0:0:0:
256,192,345111,1,0,0:0:0:0:
256,192,345261,1,8,0:0:0:0:
256,192,345411,1,0,0:0:0:0:
256,192,345711,1,8,0:0:0:0:
256,192,345786,1,0,0:0:0:0:
256,192,345861,1,8,0:0:0:0:
256,192,345936,1,8,0:0:0:0:
256,192,346011,1,0,0:0:0:0:
256,192,346086,1,8,0:0:0:0:
256,192,346161,1,0,0:0:0:0:
256,192,346236,1,0,0:0:0:0:
256,192,346311,1,8,0:0:0:0:
256,192,346386,1,8,0:0:0:0:
256,192,346461,1,0,0:0:0:0:
256,192,346536,1,8,0:0:0:0:
256,192,346611,1,0,0:0:0:0:
256,192,346911,1,8,0:0:0:0:
256,192,346986,1,8,0:0:0:0:
256,192,347061,1,0,0:0:0:0:
256,192,347136,1,0,0:0:0:0:
256,192,347211,1,8,0:0:0:0:
256,192,347286,1,0,0:0:0:0:
256,192,347361,1,8,0:0:0:0:
256,192,347436,1,8,0:0:0:0:
256,192,347511,1,0,0:0:0:0:
256,192,347586,1,8,0:0:0:0:
256,192,347661,1,0,0:0:0:0:
256,192,347736,1,0,0:0:0:0:
256,192,347811,1,8,0:0:0:0:
256,192,347886,1,8,0:0:0:0:
256,192,347961,1,0,0:0:0:0:
256,192,348036,1,0,0:0:0:0:
256,192,348111,1,8,0:0:0:0:
256,192,348186,1,8,0:0:0:0:
256,192,348261,1,0,0:0:0:0:
256,192,348336,1,0,0:0:0:0:
256,192,348411,1,8,0:0:0:0:
256,192,348486,1,8,0:0:0:0:
256,192,348561,1,0,0:0:0:0:
256,192,348636,1,0,0:0:0:0:
256,192,348711,1,8,0:0:0:0:
256,192,349011,1,0,0:0:0:0:
256,192,349086,1,0,0:0:0:0:
256,192,349161,1,8,0:0:0:0:
256,192,349236,1,0,0:0:0:0:
256,192,349311,1,8,0:0:0:0:
256,192,349386,1,8,0:0:0:0:
256,192,349461,1,0,0:0:0:0:
256,192,349536,1,0,0:0:0:0:
256,192,349611,1,8,0:0:0:0:
256,192,349686,1,8,0:0:0:0:
256,192,349761,1,0,0:0:0:0:
256,192,349836,1,8,0:0:0:0:
256,192,349911,1,0,0:0:0:0:
256,192,350211,1,0,0:0:0:0:
256,192,350261,1,0,0:0:0:0:
256,192,350311,1,0,0:0:0:0:
256,192,350361,1,8,0:0:0:0:
256,192,350436,1,0,0:0:0:0:
256,192,350511,1,8,0:0:0:0:
256,192,350586,1,8,0:0:0:0:
256,192,350661,1,0,0:0:0:0:
256,192,350736,1,0,0:0:0:0:
256,192,350811,1,8,0:0:0:0:
256,192,350861,1,8,0:0:0:0:
256,192,350911,1,8,0:0:0:0:
256,192,350961,1,0,0:0:0:0:
256,192,351036,1,0,0:0:0:0:
256,192,351111,1,8,0:0:0:0:
256,192,351186,1,8,0:0:0:0:
256,192,351261,1,0,0:0:0:0:
256,192,351336,1,0,0:0:0:0:
256,192,351411,1,8,0:0:0:0:
256,192,351461,1,8,0:0:0:0:
256,192,351511,1,8,0:0:0:0:
256,192,351561,1,0,0:0:0:0:
256,192,351636,1,0,0:0:0:0:
256,192,351711,1,8,0:0:0:0:
256,192,351761,1,0,0:0:0:0:
256,192,351811,1,0,0:0:0:0:
256,192,351861,1,8,0:0:0:0:
256,192,351936,1,8,0:0:0:0:
256,192,352011,1,0,0:0:0:0:
256,192,352086,1,8,0:0:0:0:
256,192,352236,1,8,0:0:0:0:
256,192,352461,1,8,0:0:0:0:
256,192,352611,1,4,0:0:0:0:
256,192,353811,1,8,0:0:0:0:
256,192,355011,1,0,0:0:0:0:
256,192,357411,1,8,0:0:0:0:
256,192,358611,1,0,0:0:0:0:
256,192,359811,1,8,0:0:0:0:
256,192,361611,1,8,0:0:0:0:
256,192,361911,1,0,0:0:0:0:
256,192,362211,1,8,0:0:0:0:
256,192,363411,1,8,0:0:0:0:
256,192,364011,1,8,0:0:0:0:
256,192,364161,1,8,0:0:0:0:
256,192,364311,1,0,0:0:0:0:
256,192,364461,1,8,0:0:0:0:
256,192,364761,1,8,0:0:0:0:
256,192,364911,1,0,0:0:0:0:
256,192,366411,1,0,0:0:0:0:
256,192,366711,1,8,0:0:0:0:
256,192,367011,1,8,0:0:0:0:
256,192,367911,1,0,0:0:0:0:
256,192,368061,1,8,0:0:0:0:
256,192,368961,1,0,0:0:0:0:
256,192,369111,1,8,0:0:0:0:
256,192,369261,1,0,0:0:0:0:
256,192,369411,12,0,371811,0:0:0:0:
