osu file format v14

[General]
AudioFilename: audio.mp3
AudioLeadIn: 0
PreviewTime: 330980
Countdown: 0
SampleSet: Soft
StackLeniency: 0.7
Mode: 2
LetterboxInBreaks: 0
WidescreenStoryboard: 0

[Editor]
Bookmarks: 6980,26180,45380,64580,86180,107780,117380,126980,138980,150980,160580,182180,191780,201380,210980,220430,220580,249380,268580,290180,311780,320180,330980,352580,371780,390980,401780
DistanceSpacing: 0.9
BeatDivisor: 4
GridSize: 8
TimelineZoom: 3.400003

[Metadata]
Title:Exit This Earth's Atomosphere (Camellia's "PLANETARY//200STEP" Remix)
TitleUnicode:Exit This Earth's Atomosphere (かめりあ's "PLANETARY//200STEP" Remix)
Artist:Camellia
ArtistUnicode:かめりあ
Creator:Verti
Version:Synthesized Collab
Source:
Tags:Cametek KamelCamellia “Remixes” Summary & VIPs 02 Collab Psycore Breakcore Trap Dubstep atmosphere -rustyy fuhie electronic instrumental featured artist fa mniam unlucky_w azer atmospheric marathon Mappers' Guild MPG MG PLANET//SHAPER Synthesised
BeatmapID:3747300
BeatmapSetID:1825951

[Difficulty]
HPDrainRate:4
CircleSize:4.2
OverallDifficulty:9.9
ApproachRate:9.9
SliderMultiplier:2.1
SliderTickRate:2

[Events]
//Background and Video events
0,0,"scavenger-cityscape-cyberpunk-5k-en-2560x1440.jpg",0,0
//Break Periods
//Storyboard Layer 0 (Background)
//Storyboard Layer 1 (Fail)
//Storyboard Layer 2 (Pass)
//Storyboard Layer 3 (Foreground)
//Storyboard Layer 4 (Overlay)
//Storyboard Sound Samples

[TimingPoints]
980,300,4,2,2,20,1,0
8030,-100,4,2,2,19,0,0
8480,-100,4,2,2,22,0,0
8930,-100,4,2,2,17,0,0
9380,-100,4,2,2,16,0,0
9830,-100,4,2,2,15,0,0
10280,-100,4,2,2,14,0,0
10730,-100,4,2,2,13,0,0
11180,-100,4,2,2,12,0,0
11630,-100,4,2,2,11,0,0
12080,-100,4,2,2,20,0,0
12830,-100,4,2,2,19,0,0
13280,-100,4,2,2,18,0,0
13730,-100,4,2,2,17,0,0
14180,-100,4,2,2,16,0,0
14630,-100,4,2,2,15,0,0
15080,-100,4,2,2,14,0,0
15530,-100,4,2,2,13,0,0
15980,-100,4,2,2,12,0,0
16430,-100,4,2,2,11,0,0
16580,-100,4,2,2,11,0,0
17030,-100,4,2,2,30,0,0
17180,-100,4,2,2,20,0,0
17630,-100,4,2,2,18,0,0
18080,-100,4,2,2,17,0,0
18530,-100,4,2,2,16,0,0
18980,-100,4,2,2,15,0,0
19430,-100,4,2,2,14,0,0
19880,-100,4,2,2,13,0,0
20330,-100,4,2,2,12,0,0
20780,-100,4,2,2,11,0,0
21230,-100,4,2,2,10,0,0
21380,-100,4,2,2,10,0,0
21830,-100,4,2,2,30,0,0
21980,-100,4,2,2,20,0,0
22430,-100,4,2,2,18,0,0
22880,-100,4,2,2,16,0,0
23330,-100,4,2,2,14,0,0
23780,-100,4,2,2,18,0,0
24230,-100,4,2,2,22,0,0
24680,-100,4,2,2,24,0,0
25130,-100,4,2,2,26,0,0
25580,-100,4,2,2,28,0,0
26180,-111.111111111111,4,2,2,28,0,0
27380,-111.111111111111,4,2,2,24,0,0
28580,-111.111111111111,4,2,2,20,0,0
30980,-111.111111111111,4,2,2,28,0,0
32180,-111.111111111111,4,2,2,24,0,0
33380,-111.111111111111,4,2,2,20,0,0
35780,-111.111111111111,4,2,2,30,0,0
36980,-111.111111111111,4,2,2,25,0,0
38180,-111.111111111111,4,2,2,20,0,0
39380,-111.111111111111,4,2,2,15,0,0
39980,-111.111111111111,4,2,2,25,0,0
40580,-111.111111111111,4,2,2,35,0,0
41780,-111.111111111111,4,2,2,25,0,0
44180,-111.111111111111,4,2,2,35,0,0
44480,-111.111111111111,4,2,2,45,0,0
44780,-111.111111111111,4,2,2,55,0,0
45080,-111.111111111111,4,2,2,65,0,0
45380,-100,4,2,11,40,0,0
45530,-100,4,2,11,40,0,0
46580,-100,4,2,12,40,0,0
46730,-100,4,2,12,40,0,0
47780,-100,4,2,13,40,0,0
47930,-100,4,2,13,40,0,0
50180,-100,4,2,13,40,0,0
50330,-100,4,2,13,40,0,0
51380,-100,4,2,14,40,0,0
51530,-100,4,2,14,40,0,0
52580,-100,4,2,15,40,0,0
52730,-100,4,2,15,40,0,0
54380,-100,4,2,16,40,0,0
54530,-100,4,2,16,40,0,0
54980,-100,4,2,11,40,0,0
55130,-100,4,2,11,40,0,0
55730,-100,4,2,11,40,0,0
55880,-100,4,2,11,40,0,0
56180,-100,4,2,12,40,0,0
56330,-100,4,2,12,40,0,0
56780,-100,4,2,12,40,0,0
57230,-100,4,2,13,40,0,0
57380,-100,4,2,13,40,0,0
57530,-100,4,2,13,40,0,0
57830,-100,4,2,13,40,0,0
59180,-100,4,2,13,40,0,0
59780,-100,4,2,13,40,0,0
59930,-100,4,2,13,40,0,0
60530,-100,4,2,13,40,0,0
60680,-100,4,2,13,40,0,0
60980,-100,4,2,14,40,0,0
61130,-100,4,2,14,40,0,0
61580,-100,4,2,14,40,0,0
62030,-100,4,2,15,40,0,0
62180,-100,4,2,1,40,0,0
62630,-100,4,2,1,40,0,0
62780,-100,4,2,1,40,0,0
63080,-100,4,2,1,40,0,0
63230,-100,4,2,1,40,0,0
63530,-100,4,2,1,40,0,0
63980,-100,4,2,1,40,0,0
64580,-100,4,2,11,40,0,0
65255,-100,4,2,11,10,0,0
65330,-100,4,2,11,70,0,0
65480,-100,4,2,11,40,0,0
65780,-100,4,2,12,70,0,0
66305,-100,4,2,12,10,0,0
66380,-100,4,2,12,70,0,0
66830,-100,4,2,13,70,0,0
67055,-100,4,2,13,5,0,0
67130,-100,4,2,13,70,0,0
67280,-100,4,2,11,40,0,0
67430,-100,4,2,11,30,0,0
68630,-100,4,2,11,10,0,0
68780,-100,4,2,11,40,0,0
69380,-100,4,2,13,70,0,0
69980,-100,4,2,13,40,0,0
70130,-100,4,2,13,70,0,0
70580,-100,4,2,14,70,0,0
71105,-100,4,2,14,10,0,0
71180,-100,4,2,14,70,0,0
71255,-100,4,2,14,40,0,0
71630,-100,4,2,15,70,0,0
71780,-100,4,2,15,30,0,0
73430,-100,4,2,15,10,0,0
73580,-100,4,2,1,28,0,0
73880,-100,4,2,11,28,0,0
74105,-100,4,2,11,10,0,0
74180,-100,4,2,11,70,0,0
74855,-100,4,2,11,10,0,0
74930,-100,4,2,11,70,0,0
75380,-100,4,2,12,70,0,0
75905,-100,4,2,12,10,0,0
75980,-100,4,2,12,70,0,0
76430,-100,4,2,13,70,0,0
76655,-100,4,2,13,10,0,0
76730,-100,4,2,1,40,0,0
78305,-100,4,2,1,10,0,0
78380,-100,4,2,1,40,0,0
78980,-100,4,2,13,70,0,0
79655,-100,4,2,13,10,0,0
79730,-100,4,2,13,70,0,0
80180,-100,4,2,14,70,0,0
80705,-100,4,2,14,10,0,0
80780,-100,4,2,14,70,0,0
81155,-100,4,2,14,30,0,0
81230,-100,4,2,15,70,0,0
81380,-100,4,2,15,20,0,0
82580,-100,4,2,11,5,0,0
82655,-100,4,2,11,40,0,0
85505,-100,4,2,11,5,0,0
85580,-100,4,2,1,5,0,0
85655,-100,4,2,1,10,0,0
85730,-100,4,2,1,15,0,0
85805,-100,4,2,1,20,0,0
85880,-100,4,2,1,25,0,0
85955,-100,4,2,1,30,0,0
86030,-100,4,2,1,35,0,0
86105,-100,4,2,1,40,0,0
86180,-100,4,2,1,50,0,0
88130,-100,4,2,1,50,0,0
94917,-100,4,2,1,20,0,0
94955,-100,4,2,1,50,0,0
94992,-100,4,2,1,20,0,0
95030,-100,4,2,1,50,0,0
95067,-100,4,2,1,20,0,0
95105,-100,4,2,1,50,0,0
95142,-100,4,2,1,20,0,0
95180,-100,4,2,1,50,0,0
95780,-100,4,2,1,55,0,0
97880,-62.5,4,2,1,55,0,0
98030,-62.5,4,2,1,5,0,0
98180,-100,4,2,1,55,0,0
100580,-100,4,2,1,60,0,0
101705,-100,4,2,1,5,0,0
101780,-100,4,2,1,65,0,0
102680,-66.6666666666667,4,2,1,50,0,0
102980,-100,4,2,1,70,0,0
103017,-100,4,2,1,40,0,0
103280,-100,4,2,1,70,0,0
103617,-100,4,2,1,40,0,0
103880,-100,4,2,1,70,0,0
104180,-100,4,2,1,65,0,0
105155,-100,4,2,1,80,0,0
105380,-100,4,2,2,90,0,0
105530,-100,4,2,1,50,0,0
106430,-100,4,2,1,30,0,0
106580,-100,4,2,1,40,0,0
106730,-100,4,2,1,50,0,0
106880,-100,4,2,1,60,0,0
107030,-100,4,2,1,70,0,0
107780,-90.9090909090909,4,2,1,90,0,1
108080,-90.9090909090909,4,2,1,60,0,1
109730,-90.9090909090909,4,2,2,60,0,1
110180,-90.9090909090909,4,2,1,60,0,1
114530,-90.9090909090909,4,2,2,60,0,1
114980,-90.9090909090909,4,2,1,60,0,1
116405,-43.4782608695652,4,2,1,60,0,1
117005,-90.9090909090909,4,2,1,60,0,1
117980,-50,4,2,1,60,0,1
118205,-90.9090909090909,4,2,1,60,0,1
119330,-90.9090909090909,4,2,2,60,0,1
119780,-90.9090909090909,4,2,1,60,0,1
122180,-50,4,2,1,60,0,1
122480,-90.9090909090909,4,2,1,60,0,1
126980,-100,4,2,1,60,0,0
127280,-100,4,2,1,30,0,0
128180,-100,4,2,1,40,0,0
128780,-100,4,2,1,50,0,0
129380,-100,4,2,2,30,0,0
129680,-100,4,2,2,37,0,0
129980,-100,4,2,2,45,0,0
130130,-100,4,2,2,50,0,0
130280,-100,4,2,2,55,0,0
130430,-100,4,2,2,60,0,0
130730,-100,4,2,1,20,0,0
130880,-100,4,2,1,60,0,0
131480,-40,4,2,2,60,0,0
131555,-40,4,2,2,10,0,0
131630,-100,4,2,2,60,0,0
131705,-100,4,2,2,10,0,0
131780,-90.9090909090909,4,2,1,60,0,1
134705,-90.9090909090909,4,2,1,20,0,1
134780,-90.9090909090909,4,2,1,60,0,1
138380,-40,4,2,1,60,0,1
138830,-100,4,2,1,60,0,1
139280,-83.3333333333333,4,2,2,60,0,1
139580,-100,4,2,1,60,0,1
139880,-50,4,2,1,60,0,1
140180,-100,4,2,1,60,0,1
140630,-50,4,2,1,60,0,1
140855,-45.4545454545455,4,2,1,60,0,1
141080,-100,4,2,1,60,0,1
141380,-45.4545454545455,4,2,1,60,0,1
141661,-45.4545454545455,4,2,1,60,0,1
141755,-45.4545454545455,4,2,1,30,0,1
141980,-41.6666666666667,4,2,1,60,0,1
142205,-41.6666666666667,4,2,1,20,0,1
142280,-100,4,2,1,60,0,1
142580,-50,4,2,1,60,0,1
142880,-71.4285714285714,4,2,1,60,0,1
143180,-100,4,2,1,60,0,1
143780,-50,4,2,1,60,0,1
144080,-100,4,2,1,60,0,1
144305,-100,4,2,1,20,0,1
144380,-100,4,2,1,60,0,1
145580,-45.4545454545455,4,2,1,60,0,1
145880,-41.6666666666667,4,2,1,60,0,1
146630,-41.6666666666667,4,2,1,30,0,1
146780,-43.4782608695652,4,2,1,60,0,1
147005,-43.4782608695652,4,2,1,30,0,1
147080,-43.4782608695652,4,2,1,60,0,1
147380,-50,4,2,1,60,0,1
147530,-100,4,2,1,60,0,1
147980,-45.4545454545455,4,2,1,60,0,1
148130,-100,4,2,1,60,0,1
148580,-45.4545454545455,4,2,1,60,0,1
149030,-41.6666666666667,4,2,1,60,0,1
149555,-41.6666666666667,4,2,1,20,0,1
149630,-41.6666666666667,4,2,1,25,0,1
149705,-41.6666666666667,4,2,1,30,0,1
149780,-41.6666666666667,4,2,1,35,0,1
149855,-41.6666666666667,4,2,1,40,0,1
149930,-38.4615384615385,4,2,1,45,0,1
150005,-38.4615384615385,4,2,1,50,0,1
150080,-38.4615384615385,4,2,1,55,0,1
150155,-38.4615384615385,4,2,1,60,0,1
150380,-100,4,2,2,60,0,1
150980,-100,4,2,2,75,0,0
158480,-100,4,2,1,10,0,0
158555,-100,4,2,1,15,0,0
158630,-100,4,2,1,20,0,0
158705,-100,4,2,1,25,0,0
158780,-100,4,2,1,30,0,0
158855,-100,4,2,1,35,0,0
158930,-100,4,2,1,40,0,0
159005,-100,4,2,1,45,0,0
159080,-100,4,2,1,50,0,0
159380,-100,4,2,2,75,0,0
160505,-100,4,2,2,5,0,0
160580,-100,4,2,1,50,0,0
169317,-100,4,2,1,20,0,0
169355,-100,4,2,1,50,0,0
169392,-100,4,2,1,20,0,0
169430,-100,4,2,1,50,0,0
169467,-100,4,2,1,20,0,0
169505,-100,4,2,1,50,0,0
169542,-100,4,2,1,20,0,0
169580,-100,4,2,1,50,0,0
170180,-100,4,2,1,60,0,0
172580,-100,4,2,1,50,0,0
176105,-100,4,2,1,5,0,0
176180,-100,4,2,1,50,0,0
177098,-100,4,2,2,20,0,0
177380,-100,4,2,1,50,0,0
177417,-100,4,2,1,30,0,0
177680,-100,4,2,1,50,0,0
178017,-100,4,2,1,30,0,0
178280,-100,4,2,1,50,0,0
178617,-100,4,2,1,30,0,0
178880,-100,4,2,1,50,0,0
178917,-100,4,2,1,30,0,0
179180,-100,4,2,1,50,0,0
179217,-100,4,2,1,30,0,0
179480,-100,4,2,1,50,0,0
179517,-100,4,2,1,30,0,0
179780,-100,4,2,2,50,0,0
180080,-100,4,2,1,20,0,0
180117,-100,4,2,1,5,0,0
180230,-100,4,2,1,25,0,0
180267,-100,4,2,1,5,0,0
180380,-100,4,2,1,30,0,0
180417,-100,4,2,1,5,0,0
180530,-100,4,2,1,35,0,0
180567,-100,4,2,1,5,0,0
180680,-100,4,2,1,40,0,0
180717,-100,4,2,1,5,0,0
180830,-100,4,2,1,45,0,0
180867,-100,4,2,1,5,0,0
180980,-100,4,2,1,50,0,0
181017,-100,4,2,1,5,0,0
181130,-100,4,2,1,55,0,0
181167,-100,4,2,1,5,0,0
181280,-100,4,2,1,60,0,0
181317,-100,4,2,1,5,0,0
181430,-100,4,2,1,65,0,0
181467,-100,4,2,1,5,0,0
181580,-100,4,2,1,70,0,0
181617,-100,4,2,1,5,0,0
181730,-100,4,2,1,75,0,0
181767,-100,4,2,1,5,0,0
181880,-43.4782608695652,4,2,1,75,0,0
182030,-100,4,2,1,75,0,0
182180,-43.4782608695652,4,2,1,75,0,1
182405,-100,4,2,1,75,0,1
182780,-45.4545454545455,4,2,1,75,0,1
183080,-100,4,2,1,75,0,1
183380,-45.4545454545455,4,2,1,75,0,1
183530,-100,4,2,1,75,0,1
183980,-45.4545454545455,4,2,1,75,0,1
184130,-100,4,2,1,75,0,1
184580,-45.4545454545455,4,2,1,75,0,1
184730,-100,4,2,1,75,0,1
185180,-45.4545454545455,4,2,1,75,0,1
185330,-100,4,2,1,75,0,1
185742,-100,4,2,1,45,0,1
186230,-100,4,2,1,75,0,1
186380,-43.4782608695652,4,2,2,75,0,1
186680,-43.4782608695652,4,2,1,75,0,1
186980,-38.4615384615385,4,2,1,75,0,1
187130,-100,4,2,1,75,0,1
187580,-45.4545454545455,4,2,1,75,0,1
187730,-100,4,2,1,75,0,1
188180,-45.4545454545455,4,2,1,75,0,1
188330,-100,4,2,1,75,0,1
188780,-45.4545454545455,4,2,1,75,0,1
188930,-100,4,2,1,75,0,1
189980,-45.4545454545455,4,2,1,75,0,1
190280,-100,4,2,1,75,0,1
190805,-43.4782608695652,4,2,1,75,0,1
191405,-100,4,2,1,75,0,1
191780,-90.9090909090909,4,2,1,75,0,1
191930,-90.9090909090909,4,2,1,25,0,1
192080,-90.9090909090909,4,2,1,75,0,1
194180,-90.9090909090909,4,2,2,75,0,1
194480,-90.9090909090909,4,2,1,75,0,1
195980,-40,4,2,1,75,0,1
196580,-90.9090909090909,4,2,2,75,0,1
196880,-90.9090909090909,4,2,1,75,0,1
198980,-90.9090909090909,4,2,1,45,0,1
199205,-90.9090909090909,4,2,1,50,0,1
199430,-90.9090909090909,4,2,1,55,0,1
199655,-90.9090909090909,4,2,1,60,0,1
199880,-90.9090909090909,4,2,1,65,0,1
200105,-90.9090909090909,4,2,1,70,0,1
200330,-90.9090909090909,4,2,1,75,0,1
200555,-90.9090909090909,4,2,1,80,0,1
200780,-40,4,2,1,75,0,1
201380,-100,4,2,1,60,0,0
206180,-100,4,2,1,75,0,1
209780,-55.5555555555556,4,2,1,75,0,1
210980,-100,4,2,1,60,0,1
211580,-50,4,2,1,60,0,1
211805,-100,4,2,1,60,0,1
213980,-45.4545454545455,4,2,1,60,0,1
214130,-100,4,2,1,60,0,1
215180,-45.4545454545455,4,2,1,60,0,1
215480,-40,4,2,1,60,0,1
215780,-40,4,2,1,75,0,1
215930,-100,4,2,1,75,0,1
216680,-45.4545454545455,4,2,1,75,0,1
216905,-100,4,2,1,75,0,1
217280,-43.4782608695652,4,2,1,75,0,1
217505,-100,4,2,1,75,0,1
218180,-100,4,2,1,45,0,1
218630,-100,4,2,1,45,0,1
218780,-100,4,2,1,55,0,1
219305,-45.4545454545455,4,2,1,55,0,1
219380,-45.4545454545455,4,2,1,65,0,1
219605,-45.4545454545455,4,2,1,75,0,1
220017,-45.4545454545455,4,2,1,5,0,1
220055,-45.4545454545455,4,2,1,10,0,1
220130,-38.4615384615385,4,2,1,25,0,1
220205,-38.4615384615385,4,2,1,50,0,1
220280,-38.4615384615385,4,2,1,75,0,1
220355,-38.4615384615385,4,2,1,85,0,1
220430,-38.4615384615385,4,2,1,95,0,1
220505,-38.4615384615385,4,2,1,100,0,1
220580,-100,4,2,1,100,0,1
220617,-100,4,2,1,5,0,0
230180,-111.111111111111,4,2,2,28,0,0
231380,-111.111111111111,4,2,2,24,0,0
232580,-111.111111111111,4,2,2,20,0,0
234980,-111.111111111111,4,2,2,28,0,0
236180,-111.111111111111,4,2,2,24,0,0
237380,-111.111111111111,4,2,2,20,0,0
239780,-111.111111111111,4,2,2,30,0,0
240980,-111.111111111111,4,2,2,25,0,0
242180,-111.111111111111,4,2,2,20,0,0
243380,-111.111111111111,4,2,2,15,0,0
243980,-111.111111111111,4,2,2,25,0,0
244580,-111.111111111111,4,2,2,35,0,0
245780,-111.111111111111,4,2,2,25,0,0
246980,-111.111111111111,4,2,2,35,0,0
248180,-111.111111111111,4,2,2,45,0,0
248780,-111.111111111111,4,2,2,55,0,0
249080,-111.111111111111,4,2,2,65,0,0
249380,-100,4,2,40,40,0,0
249530,-100,4,2,41,30,0,0
249680,-100,4,2,42,30,0,0
249830,-100,4,2,43,50,0,0
249980,-100,4,2,43,30,0,0
250130,-100,4,2,44,30,0,0
250280,-100,4,2,45,40,0,0
250430,-100,4,2,46,40,0,0
250580,-100,4,2,47,50,0,0
250730,-100,4,2,48,30,0,0
250880,-100,4,2,49,30,0,0
251030,-100,4,2,50,50,0,0
251330,-100,4,2,51,40,0,0
251480,-100,4,2,52,35,0,0
251630,-100,4,2,53,30,0,0
251780,-100,4,2,54,40,0,0
251930,-100,4,2,55,30,0,0
252080,-100,4,2,56,20,0,0
252230,-100,4,2,57,60,0,0
252380,-100,4,2,57,20,0,0
252530,-100,4,2,58,25,0,0
252680,-100,4,2,59,30,0,0
252830,-100,4,2,60,35,0,0
252980,-100,4,2,61,40,0,0
253130,-100,4,2,62,45,0,0
253280,-100,4,2,63,50,0,0
253430,-100,4,2,64,40,0,0
253730,-100,4,2,65,40,0,0
253880,-100,4,2,66,40,0,0
254030,-100,4,2,67,40,0,0
254180,-100,4,2,68,50,0,0
254330,-100,4,2,69,30,0,0
254480,-100,4,2,70,30,0,0
254630,-100,4,2,71,40,0,0
254780,-100,4,2,71,30,0,0
254930,-100,4,2,72,30,0,0
255080,-100,4,2,73,30,0,0
255230,-100,4,2,74,30,0,0
255380,-100,4,2,75,50,0,0
255530,-100,4,2,76,30,0,0
255680,-100,4,2,77,35,0,0
255830,-100,4,2,78,40,0,0
255980,-100,4,2,79,45,0,0
256130,-100,4,2,80,40,0,0
256280,-100,4,2,81,35,0,0
256430,-100,4,2,82,30,0,0
256580,-100,4,2,83,40,0,0
256730,-100,4,2,84,20,0,0
256880,-100,4,2,85,30,0,0
257030,-100,4,2,86,60,0,0
257330,-100,4,2,87,40,0,0
257480,-100,4,2,88,40,0,0
257630,-100,4,2,89,40,0,0
257780,-100,4,2,90,35,0,0
257930,-100,4,2,91,30,0,0
258080,-100,4,2,92,25,0,0
258230,-100,4,2,93,20,0,0
258380,-100,4,2,16,60,0,0
258530,-100,4,2,95,20,0,0
258680,-100,4,2,96,30,0,0
258830,-100,4,2,97,40,0,0
258980,-100,4,2,11,50,0,0
259130,-100,4,2,41,30,0,0
259280,-100,4,2,42,30,0,0
259430,-100,4,2,43,30,0,0
259580,-100,4,2,44,30,0,0
259730,-100,4,2,11,60,0,0
259880,-100,4,2,45,30,0,0
260030,-100,4,2,46,30,0,0
260180,-100,4,2,12,60,0,0
260330,-100,4,2,48,30,0,0
260480,-100,4,2,49,30,0,0
260630,-100,4,2,50,30,0,0
260780,-100,4,2,12,60,0,0
260930,-100,4,2,51,30,0,0
261080,-100,4,2,52,30,0,0
261230,-100,4,2,13,60,0,0
261380,-100,4,2,54,30,0,0
261530,-100,4,2,55,30,0,0
261680,-100,4,2,56,30,0,0
261830,-100,4,2,57,30,0,0
262130,-100,4,2,58,30,0,0
262280,-100,4,2,59,30,0,0
262430,-100,4,2,60,30,0,0
262580,-100,4,2,61,30,0,0
262730,-100,4,2,62,30,0,0
262880,-100,4,2,63,30,0,0
263030,-100,4,2,64,30,0,0
263330,-100,4,2,65,30,0,0
263480,-100,4,2,66,30,0,0
263630,-100,4,2,67,30,0,0
263780,-100,4,2,13,60,0,0
263930,-100,4,2,69,30,0,0
264080,-100,4,2,70,30,0,0
264230,-100,4,2,71,30,0,0
264530,-100,4,2,13,60,0,0
264680,-100,4,2,73,30,0,0
264830,-100,4,2,74,30,0,0
264980,-100,4,2,14,60,0,0
265130,-100,4,2,76,30,0,0
265280,-100,4,2,77,30,0,0
265430,-100,4,2,78,30,0,0
265580,-100,4,2,14,60,0,0
265730,-100,4,2,80,30,0,0
265880,-100,4,2,81,30,0,0
266030,-100,4,2,15,60,0,0
266180,-100,4,2,1,30,0,0
266330,-100,4,2,1,20,0,0
266630,-100,4,2,1,30,0,0
267080,-100,4,2,1,40,0,0
267530,-100,4,2,1,50,0,0
267830,-100,4,2,1,30,0,0
268580,-100,4,2,11,60,0,0
268880,-100,4,2,2,50,0,0
269330,-100,4,2,11,60,0,0
269780,-100,4,2,12,60,0,0
270080,-100,4,2,1,50,0,0
270380,-100,4,2,12,60,0,0
270530,-100,4,2,1,50,0,0
270830,-100,4,2,13,60,0,0
271280,-100,4,2,2,50,0,0
272630,-100,4,2,1,50,0,0
272780,-100,4,2,2,50,0,0
273380,-100,4,2,13,50,0,0
273980,-100,4,2,1,50,0,0
274130,-100,4,2,13,50,0,0
274580,-100,4,2,14,50,0,0
274880,-100,4,2,1,50,0,0
275180,-100,4,2,14,50,0,0
275330,-100,4,2,1,50,0,0
275630,-100,4,2,15,50,0,0
277580,-100,4,2,3,50,0,0
277880,-100,4,2,1,50,0,0
278180,-100,4,2,11,50,0,0
278480,-100,4,2,2,50,0,0
278930,-100,4,2,11,50,0,0
279380,-100,4,2,12,50,0,0
279680,-100,4,2,1,50,0,0
279980,-100,4,2,12,50,0,0
280130,-100,4,2,1,50,0,0
280430,-100,4,2,13,50,0,0
280880,-100,4,2,2,50,0,0
282230,-100,4,2,1,50,0,0
282380,-100,4,2,2,50,0,0
282980,-100,4,2,13,50,0,0
283580,-100,4,2,1,50,0,0
283730,-100,4,2,13,50,0,0
284180,-100,4,2,14,50,0,0
284480,-100,4,2,1,50,0,0
284780,-100,4,2,14,50,0,0
284930,-100,4,2,1,50,0,0
285230,-100,4,2,15,50,0,0
285267,-100,4,2,15,5,0,0
289580,-100,4,2,1,50,0,0
290180,-100,4,2,1,50,0,0
292280,-50,4,2,1,50,0,0
292505,-100,4,2,1,50,0,0
294980,-80,4,2,1,50,0,0
295580,-100,4,2,1,50,0,0
296180,-80,4,2,1,50,0,0
296780,-100,4,2,1,50,0,0
297380,-80,4,2,1,50,0,0
297980,-100,4,2,1,50,0,0
299780,-100,4,2,1,50,0,0
305480,-100,4,2,2,50,0,0
305780,-100,4,2,1,50,0,0
306680,-100,4,2,2,60,0,0
306717,-100,4,2,2,5,0,0
306755,-100,4,2,2,30,0,0
306830,-100,4,2,2,60,0,0
306905,-100,4,2,2,100,0,0
306980,-100,4,2,1,60,0,0
307017,-100,4,2,1,40,0,0
307280,-100,4,2,1,60,0,0
307617,-100,4,2,1,40,0,0
307880,-100,4,2,1,60,0,0
308480,-100,4,2,1,70,0,0
308780,-100,4,2,1,80,0,0
309080,-100,4,2,1,90,0,0
309380,-100,4,2,2,100,0,0
309417,-100,4,2,1,20,0,0
310430,-100,4,2,1,30,0,0
310580,-100,4,2,1,40,0,0
310730,-100,4,2,1,50,0,0
310955,-100,4,2,1,60,0,0
311480,-100,4,2,1,30,0,0
311780,-41.6666666666667,4,2,33,80,0,1
312080,-38.4615384615385,4,2,22,80,0,1
312305,-38.4615384615385,4,2,23,80,0,1
312380,-100,4,2,23,80,0,1
312455,-100,4,2,26,80,0,1
312680,-100,4,2,28,80,0,1
312980,-41.6666666666667,4,2,33,80,0,1
313280,-38.4615384615385,4,2,22,80,0,1
313505,-38.4615384615385,4,2,23,80,0,1
313580,-100,4,2,23,80,0,1
313655,-100,4,2,26,80,0,1
313880,-19.2307692307692,4,2,38,80,0,1
314180,-20.8333333333333,4,2,36,80,0,1
314480,-38.4615384615385,4,2,32,80,0,1
314705,-38.4615384615385,4,2,27,80,0,1
314780,-100,4,2,1,80,0,1
314855,-100,4,2,26,80,0,1
315080,-43.4782608695652,4,2,33,80,0,1
315380,-20.8333333333333,4,2,34,80,0,1
315680,-40,4,2,26,80,0,1
315905,-40,4,2,27,80,0,1
316055,-40,4,2,32,80,0,1
316280,-100,4,2,22,80,0,1
316430,-100,4,2,24,80,0,1
316580,-40,4,2,21,80,0,1
316880,-40,4,2,26,80,0,1
317105,-40,4,2,31,80,0,1
317180,-100,4,2,31,80,0,1
317255,-100,4,2,34,80,0,1
317480,-37.037037037037,4,2,29,80,0,1
317780,-38.4615384615385,4,2,21,80,0,1
318080,-38.4615384615385,4,2,26,80,0,1
318305,-38.4615384615385,4,2,31,80,0,1
318380,-100,4,2,31,80,0,1
318455,-100,4,2,34,80,0,1
318680,-37.037037037037,4,2,29,80,0,1
318980,-37.037037037037,4,2,21,80,0,1
319280,-37.037037037037,4,2,26,80,0,1
319505,-37.037037037037,4,2,31,80,0,1
319580,-38.4615384615385,4,2,31,80,0,1
319655,-38.4615384615385,4,2,30,80,0,1
319880,-37.037037037037,4,2,28,80,0,1
320030,-37.037037037037,4,2,23,80,0,1
320105,-37.037037037037,4,2,25,80,0,1
320180,-37.037037037037,4,2,28,80,0,1
320330,-37.037037037037,4,2,20,80,0,1
320480,-37.037037037037,4,2,34,80,0,1
320630,-37.037037037037,4,2,1,80,0,1
320705,-37.037037037037,4,2,35,80,0,1
320855,-37.037037037037,4,2,37,80,0,1
321005,-37.037037037037,4,2,39,80,0,1
321230,-37.037037037037,4,2,27,80,0,1
321380,-23.8095238095238,4,2,32,80,0,1
321455,-23.8095238095238,4,2,33,50,0,1
321680,-33.3333333333333,4,2,22,80,0,1
321905,-33.3333333333333,4,2,23,80,0,1
322055,-33.3333333333333,4,2,26,80,0,1
322130,-25,4,2,26,80,0,1
322280,-33.3333333333333,4,2,28,80,0,1
322580,-33.3333333333333,4,2,33,80,0,1
322880,-33.3333333333333,4,2,22,80,0,1
323105,-33.3333333333333,4,2,23,80,0,1
323255,-33.3333333333333,4,2,26,80,0,1
323480,-33.3333333333333,4,2,38,80,0,1
323780,-33.3333333333333,4,2,36,80,0,1
324080,-33.3333333333333,4,2,32,80,0,1
324305,-33.3333333333333,4,2,27,80,0,1
324380,-25,4,2,27,80,0,1
324455,-25,4,2,26,80,0,1
324680,-33.3333333333333,4,2,33,80,0,1
324980,-50,4,2,34,80,0,1
325130,-50,4,2,20,80,0,1
325280,-50,4,2,26,80,0,1
325505,-50,4,2,27,80,0,1
325655,-50,4,2,32,80,0,1
325880,-50,4,2,22,80,0,1
326030,-50,4,2,24,80,0,1
326180,-33.3333333333333,4,2,21,80,0,1
326480,-33.3333333333333,4,2,26,80,0,1
326705,-33.3333333333333,4,2,31,80,0,1
326855,-33.3333333333333,4,2,34,80,0,1
327080,-33.3333333333333,4,2,2,80,0,1
327380,-33.3333333333333,4,2,21,80,0,1
327680,-33.3333333333333,4,2,26,80,0,1
327830,-33.3333333333333,4,2,31,80,0,1
328055,-33.3333333333333,4,2,34,80,0,1
328280,-33.3333333333333,4,2,2,80,0,1
328580,-125,4,2,1,70,0,0
329180,-125,4,2,1,10,0,0
329780,-125,4,2,1,30,0,0
330380,-125,4,2,1,50,0,0
330680,-125,4,2,1,10,0,0
330905,-125,4,2,1,5,0,0
330980,-38.4615384615385,4,2,33,80,0,1
331280,-38.4615384615385,4,2,22,80,0,1
331430,-100,4,2,22,80,0,1
331505,-100,4,2,23,80,0,1
331655,-100,4,2,26,80,0,1
331880,-38.4615384615385,4,2,28,80,0,1
332180,-38.4615384615385,4,2,33,80,0,1
332480,-38.4615384615385,4,2,22,80,0,1
332705,-38.4615384615385,4,2,23,80,0,1
332780,-100,4,2,23,80,0,1
332855,-100,4,2,26,80,0,1
333080,-38.4615384615385,4,2,38,80,0,1
333380,-38.4615384615385,4,2,36,80,0,1
333680,-38.4615384615385,4,2,32,80,0,1
333905,-38.4615384615385,4,2,27,80,0,1
333980,-100,4,2,27,80,0,1
334055,-100,4,2,26,80,0,1
334280,-41.6666666666667,4,2,33,80,0,1
334580,-80,4,2,34,80,0,1
334730,-80,4,2,20,80,0,1
334880,-38.4615384615385,4,2,26,80,0,1
335030,-100,4,2,26,80,0,1
335105,-100,4,2,27,80,0,1
335255,-100,4,2,32,80,0,1
335480,-100,4,2,22,80,0,1
335630,-100,4,2,24,80,0,1
335780,-100,4,2,21,80,0,1
336080,-38.4615384615385,4,2,26,80,0,1
336305,-100,4,2,31,80,0,1
336455,-100,4,2,34,80,0,1
336680,-38.4615384615385,4,2,29,80,0,1
336980,-38.4615384615385,4,2,21,80,0,1
337280,-38.4615384615385,4,2,26,80,0,1
337505,-38.4615384615385,4,2,31,80,0,1
337580,-100,4,2,31,80,0,1
337655,-100,4,2,34,80,0,1
337880,-100,4,2,29,80,0,1
338180,-100,4,2,21,80,0,1
338330,-100,4,2,26,80,0,1
338480,-38.4615384615385,4,2,26,80,0,1
338705,-100,4,2,32,80,0,1
338780,-80,4,2,1,80,0,1
339080,-100,4,2,28,80,0,1
339230,-100,4,2,23,80,0,1
339305,-100,4,2,25,80,0,1
339380,-80,4,2,28,80,0,1
339530,-80,4,2,20,80,0,1
339680,-38.4615384615385,4,2,34,80,0,1
339830,-100,4,2,34,80,0,1
339905,-100,4,2,35,80,0,1
340055,-100,4,2,37,80,0,1
340205,-100,4,2,39,50,0,1
340430,-100,4,2,27,80,0,1
340580,-38.4615384615385,4,2,33,80,0,1
340880,-38.4615384615385,4,2,22,80,0,1
341105,-38.4615384615385,4,2,23,80,0,1
341180,-100,4,2,23,80,0,1
341255,-100,4,2,26,80,0,1
341480,-38.4615384615385,4,2,28,80,0,1
341780,-38.4615384615385,4,2,33,80,0,1
342080,-38.4615384615385,4,2,22,80,0,1
342305,-38.4615384615385,4,2,23,80,0,1
342380,-100,4,2,23,80,0,1
342455,-100,4,2,26,80,0,1
342680,-38.4615384615385,4,2,38,80,0,1
342980,-38.4615384615385,4,2,36,80,0,1
343280,-38.4615384615385,4,2,32,80,0,1
343505,-38.4615384615385,4,2,27,80,0,1
343580,-100,4,2,27,80,0,1
343655,-100,4,2,26,80,0,1
343880,-38.4615384615385,4,2,33,80,0,1
344180,-80,4,2,34,80,0,1
344330,-80,4,2,20,80,0,1
344480,-38.4615384615385,4,2,26,80,0,1
344705,-38.4615384615385,4,2,27,80,0,1
344780,-100,4,2,27,80,0,1
344855,-100,4,2,32,80,0,1
345080,-100,4,2,22,80,0,1
345230,-100,4,2,24,80,0,1
345380,-38.4615384615385,4,2,1,80,0,1
345680,-38.4615384615385,4,2,26,80,0,1
345905,-38.4615384615385,4,2,31,80,0,1
345980,-100,4,2,31,80,0,1
346055,-100,4,2,34,80,0,1
346280,-100,4,2,29,80,0,1
346580,-38.4615384615385,4,2,21,80,0,1
346880,-38.4615384615385,4,2,26,80,0,1
347105,-38.4615384615385,4,2,31,80,0,1
347180,-100,4,2,31,80,0,1
347255,-100,4,2,34,80,0,1
347480,-100,4,2,29,80,0,1
347780,-80,4,2,21,80,0,1
348005,-80,4,2,26,80,0,1
348305,-80,4,2,31,80,0,1
348455,-80,4,2,30,80,0,1
348680,-80,4,2,29,80,0,1
348980,-80,4,2,21,80,0,1
349280,-80,4,2,26,80,0,1
349505,-80,4,2,31,80,0,1
349655,-80,4,2,30,80,0,1
349880,-80,4,2,29,80,0,1
349898,-80,4,2,1,20,0,1
350180,-80,4,2,21,80,0,1
350217,-80,4,2,21,60,0,1
350480,-80,4,2,26,80,0,1
350705,-80,4,2,31,80,0,1
350780,-80,4,2,1,80,0,1
350855,-80,4,2,30,80,0,1
350892,-80,4,2,30,60,0,1
351080,-80,4,2,28,80,0,1
351230,-80,4,2,23,80,0,1
351305,-80,4,2,25,80,0,1
351380,-80,4,2,28,80,0,1
351417,-80,4,2,28,50,0,1
351530,-80,4,2,20,80,0,1
351567,-80,4,2,20,50,0,1
351680,-80,4,2,34,80,0,1
351980,-80,4,2,1,80,0,1
352055,-80,4,2,1,50,0,1
352430,-80,4,2,1,80,0,1
352580,-100,4,2,4,90,0,0
352617,-100,4,2,4,20,0,0
355880,-100,4,2,5,20,0,0
355955,-100,4,2,6,25,0,0
356030,-100,4,2,7,30,0,0
356105,-100,4,2,8,30,0,0
356180,-100,4,2,9,40,0,0
356330,-100,4,2,10,40,0,0
356480,-100,4,2,11,40,0,0
356630,-100,4,2,12,50,0,0
356780,-100,4,2,13,40,0,0
356930,-100,4,2,14,40,0,0
357080,-100,4,2,15,40,0,0
357230,-100,4,2,16,40,0,0
357380,-100,4,2,17,50,0,0
357530,-100,4,2,18,30,0,0
357680,-100,4,2,19,30,0,0
357830,-100,4,2,20,50,0,0
358580,-100,4,2,21,40,0,0
358730,-100,4,2,22,30,0,0
358880,-100,4,2,23,30,0,0
359030,-100,4,2,24,50,0,0
359480,-100,4,2,25,40,0,0
359780,-100,4,2,26,40,0,0
359930,-100,4,2,27,30,0,0
360080,-100,4,2,28,30,0,0
360230,-100,4,2,29,50,0,0
360680,-100,4,2,30,20,0,0
360755,-100,4,2,31,25,0,0
360830,-100,4,2,32,30,0,0
360905,-100,4,2,33,35,0,0
360980,-100,4,2,34,40,0,0
361130,-100,4,2,34,20,0,0
361280,-100,4,2,35,20,0,0
361430,-100,4,2,36,20,0,0
361580,-100,4,2,37,50,0,0
361730,-100,4,2,39,30,0,0
361880,-100,4,2,40,60,0,0
362030,-100,4,2,41,30,0,0
362180,-100,4,2,42,60,0,0
362330,-100,4,2,43,30,0,0
362480,-100,4,2,44,30,0,0
362630,-100,4,2,45,50,0,0
363380,-100,4,2,46,50,0,0
363530,-100,4,2,47,30,0,0
363680,-100,4,2,48,30,0,0
363830,-100,4,2,49,40,0,0
363980,-100,4,2,50,60,0,0
364130,-100,4,2,51,60,0,0
364280,-100,4,2,52,60,0,0
364430,-100,4,2,53,60,0,0
364580,-100,4,2,54,40,0,0
364730,-100,4,2,55,60,0,0
364880,-100,4,2,56,60,0,0
365030,-100,4,2,57,40,0,0
365480,-100,4,2,58,20,0,0
365555,-100,4,2,59,25,0,0
365630,-100,4,2,60,30,0,0
365705,-100,4,2,61,35,0,0
365780,-100,4,2,62,40,0,0
365930,-100,4,2,63,40,0,0
366080,-100,4,2,64,40,0,0
366230,-100,4,2,65,30,0,0
366380,-100,4,2,66,60,0,0
366530,-100,4,2,67,40,0,0
366680,-100,4,2,68,20,0,0
366980,-100,4,2,69,60,0,0
367130,-100,4,2,70,40,0,0
367280,-100,4,2,71,40,0,0
367430,-100,4,2,72,50,0,0
367880,-100,4,2,73,60,0,0
368030,-100,4,2,74,70,0,0
368180,-100,4,2,75,50,0,0
368330,-100,4,2,76,40,0,0
368480,-100,4,2,77,40,0,0
368630,-100,4,2,78,60,0,0
368930,-100,4,2,79,70,0,0
369080,-100,4,2,80,70,0,0
369230,-100,4,2,81,70,0,0
369380,-100,4,2,82,50,0,0
371630,-100,4,2,82,5,0,0
371780,-100,4,2,2,28,0,0
372980,-100,4,2,2,24,0,0
374180,-100,4,2,2,20,0,0
376580,-100,4,2,2,28,0,0
377780,-100,4,2,2,24,0,0
378980,-100,4,2,2,20,0,0
381380,-100,4,2,2,26,0,0
382580,-100,4,2,2,22,0,0
383780,-100,4,2,2,18,0,0
386180,-100,4,2,2,26,0,0
387380,-100,4,2,2,22,0,0
388580,-100,4,2,2,18,0,0
390080,-100,4,2,2,15,0,0
390380,-100,4,2,2,10,0,0
390980,-133.333333333333,4,2,2,10,0,0
401780,-133.333333333333,4,2,2,10,0,0

[Colours]
Combo1 : 154,154,154
Combo2 : 147,255,255
Combo3 : 255,34,145
Combo4 : 0,91,183

[HitObjects]
300,52,7280,5,0,0:0:0:0:
206,55,7580,2,0,L|365:214,1,210,2|0,0:0|0:0,0:0:0:0:
281,352,8030,6,0,B|371:328|371:328|379:208,1,210,2|0,0:0|0:0,0:0:0:0:
453,325,8480,2,0,B|363:301|363:301|355:181,1,210,2|0,0:0|0:0,0:0:0:0:
280,24,8930,2,0,B|266:128|266:128|359:186,1,210,2|0,0:0|0:0,0:0:0:0:
282,230,9380,6,0,B|371:289|371:289|283:351,1,210,2|0,0:0|0:0,0:0:0:0:
212,353,9830,2,0,B|302:329|302:329|310:209,1,210,2|0,0:0|0:0,0:0:0:0:
384,182,10280,6,0,B|297:126|297:126|391:63,1,210,2|0,0:0|0:0,0:0:0:0:
459,184,10730,2,0,B|366:207|366:207|356:353,1,210,2|0,0:0|0:0,0:0:0:0:
285,212,11180,2,0,B|376:202|376:202|386:72,1,210,2|0,0:0|0:0,0:0:0:0:
212,52,12080,5,0,0:0:0:0:
306,55,12380,2,0,L|147:214,1,210,2|0,0:0|0:0,0:0:0:0:
231,352,12830,6,0,B|141:328|141:328|133:208,1,210,2|0,0:0|0:0,0:0:0:0:
59,325,13280,2,0,B|149:301|149:301|157:181,1,210,2|0,0:0|0:0,0:0:0:0:
232,24,13730,2,0,B|246:128|246:128|153:186,1,210,2|0,0:0|0:0,0:0:0:0:
230,230,14180,6,0,B|141:289|141:289|229:351,1,210,2|0,0:0|0:0,0:0:0:0:
300,353,14630,2,0,B|210:329|210:329|202:209,1,210,2|0,0:0|0:0,0:0:0:0:
128,182,15080,6,0,B|215:126|215:126|121:63,1,210,2|0,0:0|0:0,0:0:0:0:
53,184,15530,2,0,B|146:207|146:207|156:353,1,210,2|0,0:0|0:0,0:0:0:0:
227,212,15980,2,0,B|136:202|136:202|126:72,1,210,2|0,0:0|0:0,0:0:0:0:
376,55,16880,5,0,0:0:0:0:
261,60,17180,2,0,B|230:134|230:134|360:182,1,210,2|0,0:0|0:0,0:0:0:0:
267,347,17630,6,0,B|358:325|358:325|367:199,1,210,2|0,0:0|0:0,0:0:0:0:
451,186,18080,2,0,B|354:144|354:144|453:94,1,210,2|0,0:0|0:0,0:0:0:0:
363,74,18530,2,0,B|284:99|284:99|270:248,1,210,2|0,0:0|0:0,0:0:0:0:
188,225,18980,6,0,B|278:243|278:243|289:372,1,210,2|0,0:0|0:0,0:0:0:0:
372,359,19430,2,0,L|228:151,1,210,2|0,0:0|0:0,0:0:0:0:
337,166,19880,6,0,B|254:155|254:155|247:1,1,210,2|0,0:0|0:0,0:0:0:0:
333,13,20330,2,0,B|410:26|410:26|422:167,1,210,2|0,0:0|0:0,0:0:0:0:
337,191,20780,2,0,B|432:237|432:237|324:298,1,210,2|0,0:0|0:0,0:0:0:0:
119,48,21680,5,0,0:0:0:0:
240,47,21980,2,0,B|271:121|271:121|141:169,1,210,2|0,0:0|0:0,0:0:0:0:
245,335,22430,6,0,B|154:313|154:313|145:187,1,210,2|0,0:0|0:0,0:0:0:0:
50,186,22880,2,0,B|147:144|147:144|48:94,1,210,2|0,0:0|0:0,0:0:0:0:
149,70,23330,2,0,B|228:95|228:95|242:244,1,210,2|0,0:0|0:0,0:0:0:0:
334,221,23780,6,0,B|244:239|244:239|233:368,1,210,2|0,0:0|0:0,0:0:0:0:
138,356,24230,2,0,L|282:148,1,210,2|0,0:0|0:0,0:0:0:0:
162,181,24680,6,0,B|245:170|245:170|252:16,1,210,2|0,0:0|0:0,0:0:0:0:
155,40,25130,2,0,B|78:53|78:53|66:194,1,210,2|0,0:0|0:0,0:0:0:0:
162,210,25580,2,0,B|67:256|67:256|37:323|145:354,1,210,2|0,0:0|0:0,0:0:0:0:
201,349,26030,1,0,0:0:0:0:
296,288,26180,5,4,0:0:0:0:
210,232,26330,1,0,0:0:0:0:
171,145,26480,1,0,0:0:0:0:
210,232,26630,1,0,0:0:0:0:
296,288,26780,1,2,0:0:0:0:
391,292,26930,1,0,0:0:0:0:
232,336,27080,1,0,0:0:0:0:
223,245,27230,1,2,0:0:0:0:
64,200,27380,5,0,0:0:0:0:
161,180,27530,1,0,0:0:0:0:
207,92,27680,1,2,0:0:0:0:
161,180,27830,1,0,0:0:0:0:
320,240,27980,1,0,0:0:0:0:
226,267,28130,1,2,0:0:0:0:
72,312,28280,1,0,0:0:0:0:
59,207,28430,1,0,0:0:0:0:
216,128,28580,5,2,0:0:0:0:
122,106,28730,1,0,0:0:0:0:
216,72,28880,1,0,0:0:0:0:
311,52,29030,1,2,0:0:0:0:
416,144,29180,1,0,0:0:0:0:
430,45,29330,1,0,0:0:0:0:
272,104,29480,1,2,0:0:0:0:
272,104,29630,1,0,0:0:0:0:
120,192,29780,5,0,0:0:0:0:
167,261,29930,1,2,0:0:0:0:
120,192,30080,1,0,0:0:0:0:
24,201,30230,1,0,0:0:0:0:
184,240,30380,1,2,0:0:0:0:
165,316,30530,1,0,0:0:0:0:
336,304,30680,1,0,0:0:0:0:
355,220,30830,1,0,0:0:0:0:
200,216,30980,5,0,0:0:0:0:
285,179,31130,1,0,0:0:0:0:
328,87,31280,1,0,0:0:0:0:
285,179,31430,1,0,0:0:0:0:
200,216,31580,1,2,0:0:0:0:
105,236,31730,1,0,0:0:0:0:
256,320,31880,1,0,0:0:0:0:
271,231,32030,1,2,0:0:0:0:
112,184,32180,5,0,0:0:0:0:
65,112,32330,1,0,0:0:0:0:
112,184,32480,1,2,0:0:0:0:
207,230,32630,1,0,0:0:0:0:
48,160,32780,1,0,0:0:0:0:
142,183,32930,1,2,0:0:0:0:
296,144,33080,1,0,0:0:0:0:
391,153,33230,1,0,0:0:0:0:
240,272,33380,5,2,0:0:0:0:
146,214,33530,1,0,0:0:0:0:
241,273,33680,1,0,0:0:0:0:
392,216,33830,1,2,0:0:0:0:
390,167,33980,1,0,0:0:0:0:
410,81,34130,1,0,0:0:0:0:
256,88,34280,1,2,0:0:0:0:
161,87,34430,1,0,0:0:0:0:
312,40,34580,5,0,0:0:0:0:
359,115,34730,1,2,0:0:0:0:
310,186,34880,1,0,0:0:0:0:
216,219,35030,1,0,0:0:0:0:
368,256,35180,1,2,0:0:0:0:
274,275,35330,1,0,0:0:0:0:
120,64,35480,1,0,0:0:0:0:
127,162,35630,1,0,0:0:0:0:
280,264,35780,5,0,0:0:0:0:
375,240,35930,1,0,0:0:0:0:
423,162,36080,1,0,0:0:0:0:
375,240,36230,1,0,0:0:0:0:
216,256,36380,1,2,0:0:0:0:
230,155,36530,1,0,0:0:0:0:
368,139,36680,1,0,0:0:0:0:
381,48,36830,1,2,0:0:0:0:
224,56,36980,5,0,0:0:0:0:
319,106,37130,1,0,0:0:0:0:
368,184,37280,1,2,0:0:0:0:
319,106,37430,1,0,0:0:0:0:
168,168,37580,1,0,0:0:0:0:
262,166,37730,1,2,0:0:0:0:
126,204,37880,1,0,0:0:0:0:
111,290,38030,1,0,0:0:0:0:
262,166,38180,5,2,0:0:0:0:
168,150,38330,1,0,0:0:0:0:
262,166,38480,1,0,0:0:0:0:
356,181,38630,1,2,0:0:0:0:
456,320,38780,1,0,0:0:0:0:
472,228,38930,1,0,0:0:0:0:
335,201,39080,1,2,0:0:0:0:
316,92,39230,1,0,0:0:0:0:
160,32,39380,5,0,0:0:0:0:
254,84,39530,1,2,0:0:0:0:
306,165,39680,1,0,0:0:0:0:
254,84,39830,1,0,0:0:0:0:
96,152,39980,1,2,0:0:0:0:
188,150,40130,1,0,0:0:0:0:
321,235,40280,1,0,0:0:0:0:
224,230,40430,1,0,0:0:0:0:
379,322,40580,5,2,0:0:0:0:
426,261,40730,1,0,0:0:0:0:
379,322,40880,1,0,0:0:0:0:
284,341,41030,1,0,0:0:0:0:
136,304,41180,1,2,0:0:0:0:
117,210,41330,1,0,0:0:0:0:
256,217,41480,1,0,0:0:0:0:
235,119,41630,1,2,0:0:0:0:
386,83,41780,5,0,0:0:0:0:
291,54,41930,1,0,0:0:0:0:
243,117,42080,1,2,0:0:0:0:
291,54,42230,1,0,0:0:0:0:
440,128,42380,1,0,0:0:0:0:
345,140,42530,1,2,0:0:0:0:
209,203,42680,1,0,0:0:0:0:
305,233,42830,1,0,0:0:0:0:
156,277,42980,5,2,0:0:0:0:
62,271,43130,1,0,0:0:0:0:
156,277,43280,1,0,0:0:0:0:
251,283,43430,1,2,0:0:0:0:
408,296,43580,1,0,0:0:0:0:
420,201,43730,1,0,0:0:0:0:
287,174,43880,1,0,0:0:0:0:
263,69,44030,1,0,0:0:0:0:
424,56,44180,5,0,0:0:0:0:
330,35,44330,1,2,0:0:0:0:
424,56,44480,1,0,0:0:0:0:
330,35,44630,1,0,0:0:0:0:
168,96,44780,1,0,0:0:0:0:
263,138,44930,1,0,0:0:0:0:
112,152,45080,1,2,0:0:0:0:
94,248,45230,1,0,0:0:0:0:
330,292,45380,5,2,0:0:0:0:
354,191,45530,1,0,0:0:0:0:
330,292,45680,1,0,0:0:0:0:
354,191,45830,1,0,0:0:0:0:
259,349,45980,1,0,0:0:0:0:
345,293,46130,1,0,0:0:0:0:
384,206,46280,1,0,0:0:0:0:
345,293,46430,1,0,0:0:0:0:
187,190,46580,5,2,0:0:0:0:
282,176,46730,1,0,0:0:0:0:
187,190,46880,1,0,0:0:0:0:
101,134,47030,1,0,0:0:0:0:
62,47,47180,1,0,0:0:0:0:
101,134,47330,1,0,0:0:0:0:
200,195,47480,1,0,0:0:0:0:
101,134,47630,1,0,0:0:0:0:
259,301,47780,5,2,0:0:0:0:
339,257,47930,1,0,0:0:0:0:
232,248,48080,1,0,0:0:0:0:
309,211,48230,1,0,0:0:0:0:
204,210,48380,1,0,0:0:0:0:
127,174,48530,1,0,0:0:0:0:
78,105,48680,1,0,0:0:0:0:
66,28,48830,1,0,0:0:0:0:
161,322,48980,5,0,0:0:0:0:
236,285,49130,1,0,0:0:0:0:
278,216,49280,1,0,0:0:0:0:
287,130,49430,1,0,0:0:0:0:
179,115,49580,1,0,0:0:0:0:
87,78,49730,1,0,0:0:0:0:
172,116,49880,1,0,0:0:0:0:
87,78,50030,1,0,0:0:0:0:
244,295,50180,5,2,0:0:0:0:
339,293,50330,1,0,0:0:0:0:
244,230,50480,1,0,0:0:0:0:
333,226,50630,1,0,0:0:0:0:
422,250,50780,1,0,0:0:0:0:
333,226,50930,1,0,0:0:0:0:
252,175,51080,1,0,0:0:0:0:
236,84,51230,1,0,0:0:0:0:
394,316,51380,5,2,0:0:0:0:
406,222,51530,1,0,0:0:0:0:
394,316,51680,1,0,0:0:0:0:
406,222,51830,1,0,0:0:0:0:
300,196,51980,1,0,0:0:0:0:
292,96,52130,1,0,0:0:0:0:
300,196,52280,1,0,0:0:0:0:
292,96,52430,1,0,0:0:0:0:
448,145,52580,5,2,0:0:0:0:
375,129,52730,1,0,0:0:0:0:
302,108,52880,1,0,0:0:0:0:
228,93,53030,1,0,0:0:0:0:
333,232,53180,1,0,0:0:0:0:
405,182,53330,1,0,0:0:0:0:
446,121,53480,1,0,0:0:0:0:
447,53,53630,1,0,0:0:0:0:
295,267,53780,5,0,0:0:0:0:
206,240,53930,1,0,0:0:0:0:
295,267,54080,1,0,0:0:0:0:
380,236,54230,1,0,0:0:0:0:
222,163,54380,1,2,0:0:0:0:
222,163,54530,1,0,0:0:0:0:
312,139,54680,1,0,0:0:0:0:
222,163,54830,1,0,0:0:0:0:
59,254,54980,5,2,0:0:0:0:
59,254,55130,1,0,0:0:0:0:
59,254,55280,1,0,0:0:0:0:
59,254,55430,1,0,0:0:0:0:
59,254,55580,1,0,0:0:0:0:
239,199,55730,1,2,0:0:0:0:
239,199,55880,1,0,0:0:0:0:
239,199,56030,1,0,0:0:0:0:
402,192,56180,5,2,0:0:0:0:
402,192,56330,1,0,0:0:0:0:
402,192,56480,1,0,0:0:0:0:
402,192,56630,1,0,0:0:0:0:
239,120,56780,1,2,0:0:0:0:
318,108,56930,1,0,0:0:0:0:
395,94,57080,1,0,0:0:0:0:
232,207,57230,1,2,0:0:0:0:
232,207,57380,5,0,0:0:0:0:
324,171,57530,1,0,0:0:0:0:
166,317,57680,1,0,0:0:0:0:
247,275,57830,1,0,0:0:0:0:
303,169,57980,1,0,0:0:0:0:
323,98,58130,1,0,0:0:0:0:
222,103,58280,1,0,0:0:0:0:
323,98,58430,1,0,0:0:0:0:
238,302,58580,5,0,0:0:0:0:
136,256,58730,1,0,0:0:0:0:
80,150,58880,1,0,0:0:0:0:
60,79,59030,1,0,0:0:0:0:
240,187,59180,1,0,0:0:0:0:
332,168,59330,1,0,0:0:0:0:
240,187,59480,1,0,0:0:0:0:
154,168,59630,1,0,0:0:0:0:
317,276,59780,5,2,0:0:0:0:
317,276,59930,1,0,0:0:0:0:
317,276,60080,1,0,0:0:0:0:
317,276,60230,1,0,0:0:0:0:
317,276,60380,1,0,0:0:0:0:
154,180,60530,1,2,0:0:0:0:
154,180,60680,1,0,0:0:0:0:
154,180,60830,1,0,0:0:0:0:
317,207,60980,5,2,0:0:0:0:
317,207,61130,1,0,0:0:0:0:
317,207,61280,1,0,0:0:0:0:
317,207,61430,1,0,0:0:0:0:
154,180,61580,1,2,0:0:0:0:
227,175,61730,1,0,0:0:0:0:
301,168,61880,1,0,0:0:0:0:
138,250,62030,6,0,L|244:249,2,105,2|0|0,0:0|0:0|0:0,0:0:0:0:
301,291,62480,2,0,L|183:290,1,105,0|0,0:0|0:0,0:0:0:0:
345,247,62780,2,0,L|353:130,1,105,0|0,0:0|0:0,0:0:0:0:
211,174,63080,2,0,L|208:70,1,105,0|0,0:0|0:0,0:0:0:0:
69,156,63380,6,0,L|176:150,2,105,0|0|0,0:0|0:0|0:0,0:0:0:0:
215,275,63830,2,0,B|319:271|319:271|336:148,1,210,0|0,0:0|0:0,0:0:0:0:
169,176,64280,2,0,L|98:92,1,105,0|0,0:0|0:0,0:0:0:0:
344,329,64580,6,0,P|497:223|349:121,1,420,6|0,0:0|0:0,0:0:0:0:
140,175,65330,2,0,B|246:179|246:179|277:72,1,210,6|0,0:0|0:0,0:0:0:0:
65,316,65780,6,0,L|59:-3,1,315,6|0,0:0|0:0,0:0:0:0:
268,182,66380,2,0,L|386:182,2,105,6|0|0,0:0|0:0|0:0,0:0:0:0:
55,207,66830,6,0,L|161:206,1,105,6|0,0:0|0:0,0:0:0:0:
245,199,67130,1,0,0:0:0:0:
76,307,67280,6,0,B|80:100|80:100|291:84|291:84|192:122|192:122|296:134|296:134|401:128|401:128|188:136,1,945
350,277,68780,2,0,L|358:141,1,105,0|0,0:0|0:0,0:0:0:0:
191,166,69080,2,0,L|183:49,1,105,0|0,0:0|0:0,0:0:0:0:
391,345,69380,6,0,B|287:340|287:340|287:14,1,420,6|0,0:0|0:0,0:0:0:0:
496,192,70130,2,0,L|280:192,1,210,6|0,0:0|0:0,0:0:0:0:
69,192,70580,6,0,B|281:191|281:191|282:64,1,315,6|0,0:0|0:0,0:0:0:0:
69,192,71180,2,0,L|189:193,2,105,6|0|0,0:0|0:0|0:0,0:0:0:0:
282,298,71630,6,0,B|493:291|493:291|501:85|501:85|290:90|290:90|288:238|288:238|291:26|291:26|287:302,1,1260,6|0,0:0|0:0,0:0:0:0:
377,195,73580,2,0,L|378:169,1,26.25,2|0,0:0|0:0,0:0:0:0:
309,155,73730,2,0,L|310:128,1,26.25,2|0,0:0|0:0,0:0:0:0:
436,266,73880,2,0,L|443:141,1,105,0|0,0:0|0:0,0:0:0:0:
230,309,74180,6,0,B|18:305|18:305|230:309,1,420,6|0,0:0|0:0,0:0:0:0:
445,207,74930,2,0,B|340:202|340:202|341:92,1,210,6|0,0:0|0:0,0:0:0:0:
124,210,75380,6,0,B|337:212|337:212|343:97,1,315,6|0,0:0|0:0,0:0:0:0:
126,164,75980,2,0,L|18:160,2,105,6|0|0,0:0|0:0|0:0,0:0:0:0:
340,109,76430,6,0,L|124:101,1,210,6|0,0:0|0:0,0:0:0:0:
294,298,76880,2,0,P|495:193|161:189,1,945,0|0,0:0|0:0,0:0:0:0:
319,328,78380,2,0,L|320:210,1,105,0|0,0:0|0:0,0:0:0:0:
171,216,78680,2,0,L|167:98,1,105,0|0,0:0|0:0,0:0:0:0:
384,249,78980,6,0,B|392:41|392:41|178:38,1,420,6|0,0:0|0:0,0:0:0:0:
398,314,79730,2,0,L|403:97,1,210,6|0,0:0|0:0,0:0:0:0:
181,179,80180,6,0,B|391:180|391:180|384:302,1,315,6|0,0:0|0:0,0:0:0:0:
148,107,80780,2,0,L|256:105,2,105,6|0|0,0:0|0:0|0:0,0:0:0:0:
381,221,81230,6,0,B|172:217|172:217|166:61,1,315,6|0,0:0|0:0,0:0:0:0:
256,192,81980,12,0,85880,0:0:0:0:
436,196,86180,5,12,1:1:0:0:
191,192,86330,1,0,3:0:0:0:
224,138,86405,1,8,0:0:0:0:
400,106,86480,1,0,1:0:0:0:
332,97,86555,1,0,0:0:0:0:
153,98,86630,1,8,0:0:0:0:
273,212,86780,5,8,1:2:0:0:
31,235,86930,1,6,0:0:0:0:
93,262,87005,1,10,0:0:0:0:
19,279,87080,1,0,1:0:0:0:
160,341,87230,1,8,0:0:0:0:
168,290,87305,1,8,0:0:0:0:
373,266,87380,5,8,1:2:0:0:
380,249,87455,1,0,0:0:0:0:
314,272,87530,1,6,0:0:0:0:
388,292,87605,1,10,0:0:0:0:
211,210,87680,1,0,1:0:0:0:
79,145,87830,1,8,0:0:0:0:
218,49,87980,5,8,1:2:0:0:
444,129,88130,1,2,0:3:0:0:
331,253,88280,1,0,1:0:0:0:
280,251,88355,1,2,0:3:0:0:
438,153,88430,1,4,0:3:0:0:
493,153,88505,1,8,0:3:0:0:
254,324,88580,5,8,1:2:0:0:
369,222,88730,1,0,3:0:0:0:
353,165,88805,1,8,0:0:0:0:
192,119,88880,1,0,1:0:0:0:
123,126,88955,1,0,0:0:0:0:
177,148,89030,1,8,0:0:0:0:
110,166,89105,1,0,0:0:0:0:
287,283,89180,5,8,1:2:0:0:
177,222,89330,1,6,0:0:0:0:
193,165,89405,1,10,0:0:0:0:
354,119,89480,1,0,1:0:0:0:
483,170,89630,1,8,0:0:0:0:
171,301,89780,5,8,1:2:0:0:
293,235,89930,1,6,0:0:0:0:
277,178,90005,1,10,0:0:0:0:
116,132,90080,1,0,1:0:0:0:
249,60,90230,1,8,0:0:0:0:
484,128,90380,5,8,1:2:0:0:
414,128,90455,1,8,0:3:0:0:
203,189,90530,1,4,0:3:0:0:
256,186,90605,1,2,0:3:0:0:
471,216,90680,1,8,1:2:0:0:
401,221,90755,1,2,0:3:0:0:
463,237,90830,1,4,0:3:0:0:
389,243,90905,1,8,0:3:0:0:
189,301,90980,5,10,1:2:0:0:
291,151,91130,1,0,0:0:0:0:
238,154,91205,1,8,0:0:0:0:
46,200,91280,1,2,1:2:0:0:
162,289,91430,1,8,0:0:0:0:
447,155,91580,5,8,1:2:0:0:
394,158,91655,1,0,0:0:0:0:
229,208,91730,1,6,0:0:0:0:
176,211,91805,1,8,0:0:0:0:
348,89,91880,1,0,1:0:0:0:
63,79,92030,1,10,0:0:0:0:
116,76,92105,1,0,0:0:0:0:
297,150,92180,5,10,1:2:0:0:
180,244,92330,1,4,0:0:0:0:
236,235,92405,1,8,0:0:0:0:
414,173,92480,1,2,1:2:0:0:
133,126,92630,1,8,0:0:0:0:
257,205,92780,5,10,1:2:0:0:
204,208,92855,1,0,0:0:0:0:
31,190,92930,1,2,3:2:0:0:
84,193,93005,1,2,0:3:0:0:
285,274,93080,1,8,1:2:0:0:
210,279,93155,1,0,3:3:0:0:
277,295,93230,1,2,0:3:0:0:
198,303,93305,1,4,0:3:0:0:
398,238,93380,5,10,1:2:0:0:
501,164,93530,1,0,0:0:0:0:
432,157,93605,1,8,0:0:0:0:
243,97,93680,1,2,1:2:0:0:
328,53,93830,1,8,0:0:0:0:
45,259,93980,5,8,1:2:0:0:
108,255,94055,1,0,0:0:0:0:
287,114,94130,1,6,0:0:0:0:
361,116,94205,1,8,0:0:0:0:
180,173,94280,1,0,1:0:0:0:
96,172,94355,1,0,0:0:0:0:
247,148,94430,1,2,0:0:0:0:
473,249,94580,5,10,1:2:0:0:
482,176,94655,1,0,0:0:0:0:
263,233,94730,1,6,0:0:0:0:
272,161,94805,1,8,0:0:0:0:
55,236,94880,1,2,1:2:0:0:
118,231,94955,1,2,0:0:0:0:
44,197,95030,1,10,0:0:0:0:
128,186,95105,1,2,0:0:0:0:
367,246,95180,5,10,1:2:0:0:
376,174,95255,1,0,0:0:0:0:
192,108,95330,1,10,0:0:0:0:
129,104,95405,1,8,0:0:0:0:
423,113,95480,1,2,1:0:0:0:
397,99,95517,1,0,0:0:0:0:
354,99,95555,1,2,0:3:0:0:
93,154,95630,1,2,0:1:0:0:
62,133,95667,1,0,0:0:0:0:
93,109,95705,1,4,0:3:0:0:
355,143,95780,6,0,P|399:139|422:129,1,52.5,12|0,1:1|0:0,0:0:0:0:
255,21,95930,2,0,P|252:59|258:95,1,52.5,0|0,1:0|0:0,0:0:0:0:
106,245,96080,2,0,P|62:241|39:231,1,52.5,10|0,1:2|0:0,0:0:0:0:
206,123,96230,2,0,P|209:161|203:197,1,52.5,0|0,1:0|0:0,0:0:0:0:
357,163,96380,6,0,P|401:167|424:177,1,52.5,8|0,1:2|0:0,0:0:0:0:
265,230,96530,2,0,P|309:226|332:216,1,52.5,2|0,1:2|0:0,0:0:0:0:
143,158,96680,2,0,P|99:162|76:172,1,52.5,8|0,1:2|0:0,0:0:0:0:
232,296,96830,2,0,P|188:292|165:282,1,52.5,2|0,1:2|0:0,0:0:0:0:
351,37,96980,6,0,P|395:41|418:51,1,52.5,10|0,1:2|0:0,0:0:0:0:
245,99,97130,2,0,P|201:95|178:85,1,52.5,0|0,1:0|0:0,0:0:0:0:
408,169,97280,2,0,P|452:165|475:155,1,52.5,10|0,1:2|0:0,0:0:0:0:
302,107,97430,2,0,P|258:111|235:121,1,52.5,0|0,1:0|0:0,0:0:0:0:
437,245,97580,6,0,P|393:241|370:231,1,52.5,10|0,1:2|0:0,0:0:0:0:
200,196,97730,2,0,P|244:192|267:182,1,52.5,2|0,1:2|0:0,0:0:0:0:
62,317,97880,2,0,B|93:204|93:204|227:187,1,252,4|0,0:0|0:0,0:0:0:0:
386,138,98180,6,0,P|430:134|453:124,1,52.5,12|0,1:1|0:0,0:0:0:0:
286,16,98330,2,0,P|283:54|289:90,1,52.5,0|0,1:0|0:0,0:0:0:0:
469,179,98480,2,0,P|470:152|467:126,1,52.5,10|0,1:2|0:0,0:0:0:0:
272,85,98630,2,0,P|245:84|220:78,1,52.5,0|0,1:0|0:0,0:0:0:0:
411,190,98780,6,0,P|455:194|478:204,1,52.5,8|0,1:2|0:0,0:0:0:0:
319,257,98930,2,0,P|363:253|386:243,1,52.5,2|0,1:2|0:0,0:0:0:0:
197,185,99080,2,0,P|153:189|130:199,1,52.5,8|0,1:2|0:0,0:0:0:0:
286,323,99230,2,0,P|242:319|219:309,1,52.5,2|0,1:2|0:0,0:0:0:0:
414,33,99380,6,0,P|424:64|422:101,1,52.5,10|0,1:2|0:0,0:0:0:0:
253,122,99530,2,0,P|209:118|186:108,1,52.5,0|0,1:0|0:0,0:0:0:0:
39,128,99680,2,0,P|29:159|31:196,1,52.5,10|0,1:2|0:0,0:0:0:0:
200,217,99830,2,0,P|244:213|267:203,1,52.5,0|0,1:0|0:0,0:0:0:0:
452,150,99980,5,10,1:2:0:0:
311,142,100055,1,0,0:0:0:0:
170,142,100130,1,2,1:2:0:0:
311,142,100205,1,0,0:0:0:0:
452,150,100280,1,2,1:2:0:0:
39,128,100430,1,2,0:0:0:0:
320,224,100580,5,12,1:0:0:0:
352,160,100655,1,0,1:0:0:0:
320,96,100730,1,0,1:0:0:0:
160,96,100805,1,0,1:0:0:0:
352,224,100880,1,8,1:2:0:0:
408,160,100955,1,0,1:0:0:0:
352,96,101030,1,0,1:0:0:0:
160,96,101105,1,0,1:0:0:0:
384,224,101180,5,8,1:2:0:0:
352,160,101255,1,0,1:0:0:0:
304,112,101330,1,0,1:0:0:0:
240,96,101405,1,0,1:0:0:0:
408,264,101480,1,4,0:0:0:0:
431,255,101517,1,0,0:0:0:0:
446,234,101555,1,0,0:0:0:0:
446,208,101592,1,0,0:0:0:0:
432,187,101630,1,0,0:0:0:0:
407,178,101667,1,0,0:0:0:0:
382,186,101705,1,0,0:0:0:0:
192,224,101780,5,12,1:0:0:0:
160,160,101855,1,0,1:0:0:0:
192,96,101930,1,0,1:0:0:0:
368,96,102005,1,0,1:0:0:0:
160,224,102080,1,8,1:2:0:0:
104,160,102155,1,0,1:0:0:0:
160,96,102230,1,0,1:0:0:0:
368,96,102305,1,0,1:0:0:0:
218,243,102380,5,10,1:2:0:0:
250,179,102455,1,0,1:0:0:0:
298,131,102530,1,0,1:0:0:0:
362,113,102605,1,0,1:0:0:0:
164,292,102680,1,0,1:0:0:0:
143,293,102698,1,0,0:0:0:0:
128,293,102717,1,0,1:0:0:0:
115,282,102736,1,0,0:0:0:0:
121,259,102755,1,0,1:0:0:0:
101,260,102773,1,0,0:0:0:0:
116,231,102792,1,0,1:0:0:0:
97,231,102811,1,0,0:0:0:0:
122,199,102830,1,0,1:0:0:0:
103,200,102848,1,0,0:0:0:0:
134,173,102867,1,0,1:0:0:0:
116,173,102886,1,0,0:0:0:0:
150,154,102905,1,0,1:0:0:0:
352,310,102980,5,12,1:0:0:0:
381,291,103017,1,0,1:0:0:0:
391,231,103055,1,0,1:0:0:0:
375,180,103092,1,0,1:0:0:0:
345,164,103130,1,0,1:0:0:0:
271,158,103205,1,0,1:0:0:0:
92,216,103280,5,8,1:0:0:0:
155,212,103355,1,0,1:0:0:0:
339,89,103430,1,0,1:0:0:0:
397,85,103505,1,0,1:0:0:0:
194,291,103580,1,8,1:0:0:0:
165,272,103617,1,0,1:0:0:0:
155,212,103655,1,0,1:0:0:0:
171,161,103692,1,0,1:0:0:0:
201,145,103730,1,0,1:0:0:0:
275,139,103805,1,0,1:0:0:0:
74,96,103880,5,8,1:0:0:0:
132,100,103955,1,0,1:0:0:0:
339,102,104030,1,0,1:0:0:0:
397,107,104105,1,0,1:0:0:0:
168,304,104180,5,8,1:0:0:0:
130,291,104230,1,0,1:0:0:0:
108,258,104280,1,0,1:0:0:0:
111,218,104330,1,0,1:0:0:0:
137,188,104380,1,0,1:0:0:0:
176,180,104430,1,0,1:0:0:0:
336,328,104480,5,8,1:0:0:0:
384,311,104530,1,0,1:0:0:0:
413,268,104580,1,0,1:0:0:0:
409,217,104630,1,0,1:0:0:0:
375,177,104680,1,0,1:0:0:0:
325,167,104730,1,0,1:0:0:0:
152,112,104780,5,8,1:0:0:0:
128,112,104817,1,0,0:0:0:0:
152,112,104855,1,0,1:0:0:0:
256,144,104892,1,0,0:0:0:0:
360,112,104930,1,0,1:0:0:0:
384,112,104967,1,0,0:0:0:0:
360,112,105005,1,0,1:0:0:0:
240,152,105042,1,0,0:0:0:0:
111,112,105080,5,8,1:0:0:0:
87,112,105117,1,0,0:0:0:0:
111,112,105155,1,0,1:0:0:0:
256,144,105192,1,0,0:0:0:0:
397,112,105230,1,8,1:0:0:0:
421,112,105267,1,0,0:0:0:0:
397,112,105305,1,0,1:0:0:0:
240,152,105342,1,0,0:0:0:0:
88,192,105380,5,4,1:0:0:0:
48,256,105530,1,0,1:0:0:0:
88,320,105680,1,8,0:3:0:0:
168,344,105830,1,2,0:3:0:0:
224,344,105905,1,4,0:3:0:0:
304,288,105980,5,0,3:1:0:0:
312,224,106055,1,0,0:0:0:0:
232,192,106130,1,0,1:0:0:0:
224,128,106205,1,0,0:0:0:0:
304,80,106280,1,8,0:3:0:0:
360,80,106355,1,0,0:0:0:0:
368,16,106430,1,0,1:0:0:0:
296,16,106505,1,2,0:3:0:0:
128,80,106580,5,2,0:0:0:0:
72,80,106655,1,4,0:3:0:0:
250,152,106730,1,2,3:2:0:0:
306,152,106805,1,2,0:3:0:0:
117,193,106880,1,2,0:0:0:0:
61,193,106955,1,2,0:3:0:0:
261,274,107030,1,2,0:0:0:0:
265,218,107105,1,4,0:3:0:0:
475,179,107180,5,8,0:3:0:0:
328,172,107255,1,2,0:3:0:0:
359,127,107330,1,0,0:0:0:0:
430,108,107405,1,0,0:0:0:0:
282,62,107480,1,8,0:0:0:0:
245,33,107555,1,2,0:3:0:0:
282,62,107630,1,4,0:3:0:0:
356,53,107705,1,8,0:3:0:0:
150,82,107780,5,4,1:1:0:0:
122,85,107817,1,0,0:0:0:0:
93,89,107855,1,0,0:0:0:0:
82,115,107892,1,0,0:0:0:0:
103,125,107930,1,0,0:0:0:0:
76,139,107967,1,0,0:0:0:0:
110,158,108005,1,0,0:0:0:0:
317,212,108080,1,0,0:0:0:0:
336,242,108130,1,0,0:0:0:0:
317,212,108180,1,0,0:0:0:0:
279,199,108230,1,2,0:0:0:0:
210,183,108305,1,0,0:0:0:0:
366,147,108380,6,0,L|445:143,1,57.7500017623902,8|0,0:0|0:0,0:0:0:0:
237,60,108530,1,2,0:1:0:0:
424,145,108605,2,0,L|436:275,1,115.50000352478,2|2,0:1|0:3,0:0:0:0:
248,323,108830,2,0,L|309:361,1,57.7500017623902,4|0,0:3|0:0,0:0:0:0:
106,281,108980,6,0,L|42:275,1,57.7500017623902,2|0,0:1|0:0,0:0:0:0:
235,222,109130,1,2,0:1:0:0:
61,183,109205,2,0,L|214:151,1,115.50000352478,2|2,0:1|0:3,0:0:0:0:
360,113,109430,2,0,L|286:98,1,57.7500017623902,4|0,0:3|0:0,0:0:0:0:
72,44,109580,6,0,L|64:116,1,57.7500017623902,8|0,0:0|0:0,0:0:0:0:
260,139,109730,2,0,L|255:212,1,57.7500017623902,0|0,3:0|3:0,0:0:0:0:
447,254,109880,2,0,L|387:286,1,57.7500017623902,0|0,3:0|3:0,0:0:0:0:
467,326,110030,2,0,L|470:242,1,57.7500017623902,2|0,3:3|3:0,0:0:0:0:
251,231,110180,6,0,L|237:195,2,28.8750008811951,0|0|0,1:0|0:0|0:0,0:0:0:0:
427,198,110330,2,0,L|441:162,2,28.8750008811951,2|0|0,0:0|0:0|0:0,0:0:0:0:
223,125,110480,1,0,0:0:0:0:
203,87,110530,1,0,0:0:0:0:
223,125,110580,1,0,0:0:0:0:
265,143,110630,1,2,0:0:0:0:
342,153,110705,1,0,0:0:0:0:
149,215,110780,6,0,L|80:208,1,57.7500017623902,8|0,0:0|0:0,0:0:0:0:
267,289,110930,1,2,0:1:0:0:
93,345,111005,2,0,L|225:325,1,115.50000352478,2|2,0:1|0:3,0:0:0:0:
396,281,111230,1,4,0:3:0:0:
367,274,111267,1,0,0:0:0:0:
339,267,111305,1,0,0:0:0:0:
75,232,111380,6,0,L|136:223,1,57.7500017623902,0|2,1:2|0:0,0:0:0:0:
385,202,111530,2,0,L|325:161,1,57.7500017623902,2|2,0:0|0:0,0:0:0:0:
155,141,111680,2,0,L|201:86,1,57.7500017623902,0|2,0:0|0:0,0:0:0:0:
453,108,111830,2,0,L|416:43,1,57.7500017623902,2|0,1:2|1:0,0:0:0:0:
182,39,111980,6,0,L|168:69,2,28.8750008811951,12|0|0,0:0|0:0|0:0,0:0:0:0:
229,98,112092,1,0,0:0:0:0:
276,136,112130,2,0,L|291:168,2,28.8750008811951
139,175,112280,1,0,1:0:0:0:
128,189,112317,1,0,0:0:0:0:
145,212,112355,1,0,0:0:0:0:
133,227,112392,1,0,0:0:0:0:
168,242,112430,1,0,0:0:0:0:
156,256,112467,1,0,0:0:0:0:
200,258,112505,1,0,0:0:0:0:
398,312,112580,5,4,1:0:0:0:
369,311,112617,1,0,0:0:0:0:
340,310,112655,1,0,0:0:0:0:
311,309,112692,1,0,0:0:0:0:
282,309,112730,1,0,0:0:0:0:
253,308,112767,1,0,0:0:0:0:
224,307,112805,1,0,0:0:0:0:
426,210,112880,1,0,0:0:0:0:
445,179,112930,1,0,0:0:0:0:
426,157,112980,1,0,0:0:0:0:
384,144,113030,1,2,0:0:0:0:
306,130,113105,1,0,0:0:0:0:
118,84,113180,6,0,L|195:87,1,57.7500017623902,8|0,0:0|0:0,0:0:0:0:
327,87,113330,1,2,0:1:0:0:
138,195,113405,2,0,L|274:190,1,115.50000352478,2|2,0:1|0:3,0:0:0:0:
73,246,113630,2,0,L|58:318,1,57.7500017623902,4|0,0:3|0:0,0:0:0:0:
266,335,113780,6,0,L|336:330,1,57.7500017623902,2|0,0:1|0:0,0:0:0:0:
153,269,113930,1,2,0:1:0:0:
334,232,114005,2,0,L|184:202,1,115.50000352478,2|2,0:1|0:3,0:0:0:0:
417,179,114230,2,0,L|425:113,1,57.7500017623902,4|0,0:3|0:0,0:0:0:0:
227,83,114380,6,0,L|287:57,1,57.7500017623902,8|0,0:0|0:0,0:0:0:0:
89,38,114530,2,0,L|34:52,1,57.7500017623902,0|0,3:0|3:0,0:0:0:0:
244,142,114680,1,0,3:0:0:0:
312,175,114755,2,0,L|343:236,2,57.7500017623902,0|2|0,3:0|3:0|3:0,0:0:0:0:
105,275,114980,6,0,L|180:279,1,57.7500017623902,2|0,1:2|0:0,0:0:0:0:
356,323,115130,1,2,0:0:0:0:
91,341,115280,2,0,L|49:327,1,28.8750008811951,2|0,0:0|0:0,0:0:0:0:
257,288,115430,2,0,L|303:283,1,28.8750008811951,2|0,0:0|0:0,0:0:0:0:
477,199,115580,5,8,0:0:0:0:
377,177,115617,1,0,0:0:0:0:
137,144,115730,1,0,0:0:0:0:
236,132,115767,1,0,0:0:0:0:
457,68,115880,1,4,0:0:0:0:
357,55,115917,1,0,0:0:0:0:
254,47,115955,1,0,0:0:0:0:
225,74,115992,1,0,0:0:0:0:
211,117,116030,1,0,0:0:0:0:
225,74,116067,1,0,0:0:0:0:
254,47,116105,1,0,0:0:0:0:
461,123,116180,6,0,L|331:102,1,115.50000352478,2|0,1:2|0:0,0:0:0:0:
178,157,116405,2,0,L|453:176,1,241.500004606247,10|0,0:0|0:0,0:0:0:0:
286,225,116630,2,0,L|39:248,1,241.500004606247,2|0,1:2|0:0,0:0:0:0:
203,303,116855,6,0,L|465:325,1,241.500004606247,2|0,1:2|0:0,0:0:0:0:
247,234,117080,2,0,L|168:220,1,57.7500017623902,10|0,0:0|0:0,0:0:0:0:
405,191,117230,2,0,L|478:180,1,57.7500017623902,2|0,1:2|0:0,0:0:0:0:
194,171,117380,6,0,L|193:128,2,28.8750008811951,0|0|0,1:0|0:0|0:0,0:0:0:0:
241,131,117492,1,0,0:0:0:0:
288,125,117530,2,0,L|288:81,2,28.8750008811951,0|0|0,0:0|0:0|0:0,0:0:0:0:
106,114,117680,2,0,L|67:114,2,28.8750008811951,0|0|0,1:0|0:0|0:0,0:0:0:0:
309,293,117830,2,0,L|319:225,1,57.7500017623902,2|2,0:0|0:0,0:0:0:0:
487,192,117980,6,0,L|211:179,1,210,12|2,0:1|0:1,0:0:0:0:
440,282,118205,2,0,L|442:152,1,115.50000352478,2|0,0:1|0:0,0:0:0:0:
370,151,118430,1,4,0:3:0:0:
445,154,118505,1,0,0:0:0:0:
232,180,118580,6,0,L|296:177,1,57.7500017623902,2|0,0:1|0:0,0:0:0:0:
494,136,118730,1,2,0:1:0:0:
268,229,118805,2,0,L|257:88,1,115.50000352478,2|0,0:1|0:0,0:0:0:0:
333,103,119030,1,4,0:3:0:0:
259,113,119105,1,0,0:0:0:0:
68,175,119180,6,0,L|60:91,1,57.7500017623902,8|0,0:0|0:0,0:0:0:0:
251,324,119330,2,0,L|250:240,1,57.7500017623902,0|0,3:0|0:0,0:0:0:0:
332,241,119480,2,0,L|337:169,1,57.7500017623902,0|0,2:0|3:0,0:0:0:0:
424,167,119630,2,0,L|432:103,1,57.7500017623902,2|0,3:0|3:0,0:0:0:0:
250,163,119780,6,0,L|218:162,2,28.8750008811951,0|0|0,1:0|0:0|0:0,0:0:0:0:
427,91,119930,2,0,L|483:91,2,28.8750008811951,8|0|0,0:3|0:0|0:0,0:0:0:0:
213,296,120080,2,0,L|205:228,1,38.5000011749268,0|0,0:0|0:0,0:0:0:0:
273,223,120180,2,0,L|277:174,1,38.5000011749268,0|2,0:0|0:0,0:0:0:0:
369,151,120305,1,0,0:0:0:0:
183,173,120380,6,0,L|262:159,1,57.7500017623902,8|0,0:0|0:0,0:0:0:0:
431,152,120530,1,2,0:1:0:0:
232,252,120605,2,0,L|228:89,1,115.50000352478,2|2,0:1|0:3,0:0:0:0:
309,174,120830,2,0,L|311:121,2,28.8750008811951,4|0|0,0:3|0:0|0:0,0:0:0:0:
152,288,120980,6,0,L|158:223,1,57.7500017623902,0|2,1:2|0:0,0:0:0:0:
16,192,121130,2,0,L|16:128,1,57.7500017623902,2|2,0:0|0:0,0:0:0:0:
253,173,121280,2,0,L|255:108,1,57.7500017623902,0|2,0:0|0:0,0:0:0:0:
346,112,121430,2,0,L|348:52,1,57.7500017623902,2|0,1:2|0:0,0:0:0:0:
197,249,121580,6,0,L|191:168,1,57.7500017623902,12|0,0:0|0:0,0:0:0:0:
271,172,121730,1,0,1:0:0:0:
197,249,121805,1,0,0:0:0:0:
375,220,121880,2,0,L|294:217,1,57.7500017623902,0|0,1:0|0:0,0:0:0:0:
94,179,122030,2,0,L|175:178,1,57.7500017623902,0|0,0:0|0:0,0:0:0:0:
285,155,122180,6,0,L|23:146,1,210,4|0,1:1|0:0,0:0:0:0:
285,155,122480,2,0,L|297:96,1,38.5000011749268,2|0,0:0|0:0,0:0:0:0:
237,82,122580,1,0,0:0:0:0:
186,160,122630,1,2,0:0:0:0:
186,160,122705,1,0,0:0:0:0:
415,41,122780,6,0,L|354:36,1,57.7500017623902,8|0,0:0|0:0,0:0:0:0:
161,23,122930,1,2,0:1:0:0:
364,100,123005,2,0,L|521:99,1,115.50000352478,2|0,0:1|0:0,0:0:0:0:
415,64,123230,1,0,0:0:0:0:
185,255,123380,6,0,L|246:249,1,57.7500017623902,2|0,1:2|0:0,0:0:0:0:
431,210,123530,1,2,0:1:0:0:
243,196,123605,2,0,L|114:193,1,115.50000352478,2|0,0:1|0:0,0:0:0:0:
207,133,123830,1,0,0:0:0:0:
491,116,123905,1,0,1:0:0:0:
320,130,123980,5,12,0:0:0:0:
263,133,124130,1,0,0:0:0:0:
291,131,124167,1,0,0:0:0:0:
320,130,124205,1,0,0:0:0:0:
458,276,124280,2,0,L|460:223,2,28.8750008811951,0|0|0,0:0|0:0|0:0,0:0:0:0:
411,247,124392,1,0,0:0:0:0:
363,238,124430,1,0,0:0:0:0:
391,238,124467,1,0,0:0:0:0:
420,238,124505,1,0,0:0:0:0:
152,176,124580,5,4,1:0:0:0:
262,173,124730,2,0,L|264:101,1,57.7500017623902,2|2,0:0|0:2,0:0:0:0:
442,177,124880,1,8,0:0:0:0:
335,162,125030,2,0,L|268:154,1,57.7500017623902,2|2,0:0|0:2,0:0:0:0:
80,165,125180,5,2,1:2:0:0:
190,162,125330,2,0,L|188:102,1,57.7500017623902,2|0,0:0|0:0,0:0:0:0:
372,169,125480,1,10,0:0:0:0:
254,109,125630,2,0,L|316:106,1,57.7500017623902,0|8,0:0|0:3,0:0:0:0:
496,232,125780,5,2,1:2:0:0:
384,200,125930,2,0,L|384:136,1,57.7500017623902,0|8,0:0|0:3,0:0:0:0:
202,191,126080,1,10,0:0:0:0:
320,131,126230,2,0,L|258:128,1,57.7500017623902,0|8,0:0|0:3,0:0:0:0:
104,240,126380,6,0,L|99:166,1,57.7500017623902,2|0,1:2|0:0,0:0:0:0:
181,150,126530,2,0,L|186:89,1,57.7500017623902,0|0,0:0|0:0,0:0:0:0:
37,172,126680,1,12,0:0:0:0:
35,143,126717,1,0,0:0:0:0:
34,114,126755,1,0,0:0:0:0:
214,200,126830,1,0,0:0:0:0:
243,205,126868,1,0,0:0:0:0:
272,211,126905,1,0,0:0:0:0:
438,60,126980,5,4,1:0:0:0:
197,40,127280,1,0,0:0:0:0:
206,90,127355,1,0,0:0:0:0:
242,128,127430,1,0,0:0:0:0:
292,141,127505,1,0,0:0:0:0:
367,171,127580,5,0,0:0:0:0:
354,221,127655,1,0,0:0:0:0:
317,257,127730,1,0,0:0:0:0:
266,269,127805,1,0,0:0:0:0:
193,300,127880,1,0,0:0:0:0:
227,338,127955,1,0,0:0:0:0:
275,360,128030,1,0,0:0:0:0:
327,360,128105,1,0,0:0:0:0:
237,314,128180,6,0,L|187:302,2,26.25,2|8|8,0:3|0:3|0:3,0:0:0:0:
328,251,128330,1,0,0:0:0:0:
307,203,128405,1,0,0:0:0:0:
266,171,128480,1,2,0:3:0:0:
215,163,128555,1,0,0:0:0:0:
163,141,128630,2,0,L|223:135,1,52.5,0|0,0:0|0:0,0:0:0:0:
308,108,128780,6,0,L|349:113,2,26.25,8|8|8,0:3|0:3|0:3,0:0:0:0:
217,75,128930,1,0,0:0:0:0:
255,39,129005,1,0,0:0:0:0:
305,24,129080,1,2,0:3:0:0:
356,30,129155,1,0,0:0:0:0:
410,73,129230,2,0,L|350:72,1,52.5,0|0,0:0|0:0,0:0:0:0:
143,114,129380,5,8,3:3:0:0:
121,141,129430,1,0,0:0:0:0:
116,175,129480,1,0,0:0:0:0:
127,207,129530,1,0,3:0:0:0:
154,230,129580,1,0,0:0:0:0:
187,237,129630,1,0,0:0:0:0:
384,294,129680,5,8,3:3:0:0:
407,268,129730,1,0,0:0:0:0:
415,235,129780,1,0,0:0:0:0:
406,201,129830,1,0,3:0:0:0:
381,177,129880,1,0,0:0:0:0:
348,168,129930,1,0,0:0:0:0:
144,80,129980,6,0,L|112:80,2,26.25,8|0|0,3:3|0:0|0:0,0:0:0:0:
266,128,130092,1,0,0:0:0:0:
392,80,130130,2,0,L|432:80,2,26.25,8|0|0,3:3|0:0|0:0,0:0:0:0:
257,73,130242,1,0,0:0:0:0:
120,40,130280,6,0,L|88:40,2,26.25,8|0|0,3:3|0:0|0:0,0:0:0:0:
232,24,130392,1,0,0:0:0:0:
344,24,130430,2,0,L|376:24,2,26.25,8|0|0,3:3|0:0|0:0,0:0:0:0:
82,346,130580,6,0,L|80:319,1,26.25,0|0,3:0|0:0,0:0:0:0:
169,256,130730,2,0,L|195:261,1,26.25,2|0,0:0|0:0,0:0:0:0:
430,215,130880,2,0,L|432:175,1,26.25,2|0,0:0|0:0,0:0:0:0:
341,102,131030,2,0,L|315:105,1,26.25,2|0,0:0|0:0,0:0:0:0:
117,72,131180,6,0,L|85:64,1,26.25,2|0,0:0|0:0,0:0:0:0:
351,158,131330,2,0,L|389:148,1,26.25,2|0,0:0|0:0,0:0:0:0:
129,229,131480,2,0,L|425:238,1,262.5,0|0,3:0|3:0,0:0:0:0:
77,348,131780,5,4,1:0:0:0:
58,326,131817,1,0,0:0:0:0:
50,298,131855,1,0,0:0:0:0:
55,270,131892,1,0,0:0:0:0:
72,247,131930,1,0,0:0:0:0:
96,232,131967,1,0,0:0:0:0:
125,230,132005,1,0,0:0:0:0:
311,156,132080,2,0,L|241:118,1,57.7500017623902,2|2,0:0|0:0,0:0:0:0:
436,84,132230,1,8,0:3:0:0:
169,48,132380,6,0,L|35:30,1,115.50000352478,8|0,0:0|0:0,0:0:0:0:
237,122,132605,2,0,L|246:253,1,115.50000352478,2|0,0:0|0:0,0:0:0:0:
63,302,132830,2,0,L|133:290,1,57.7500017623902,8|0,0:3|0:0,0:0:0:0:
324,276,132980,6,0,L|191:250,1,115.50000352478,2|0,1:2|0:0,0:0:0:0:
388,200,133205,2,0,L|497:163,1,115.50000352478,8|0,0:3|0:0,0:0:0:0:
303,142,133430,2,0,L|298:73,1,57.7500017623902,4|0,0:3|1:0,0:0:0:0:
93,50,133580,5,8,3:2:0:0:
118,36,133617,1,0,3:0:0:0:
143,22,133655,1,0,3:0:0:0:
348,98,133730,1,0,3:0:0:0:
321,85,133767,1,0,3:0:0:0:
295,73,133805,1,0,3:0:0:0:
68,107,133880,1,4,0:0:0:0:
53,138,133917,1,0,0:0:0:0:
68,169,133955,1,2,0:3:0:0:
97,183,133992,1,0,0:0:0:0:
129,189,134030,1,4,0:3:0:0:
163,193,134067,1,0,0:0:0:0:
201,199,134105,1,8,0:3:0:0:
400,230,134180,6,0,L|415:260,2,28.8750008811951,0|0|0,1:0|0:0|0:0,0:0:0:0:
209,267,134330,2,0,L|191:305,2,28.8750008811951,8|0|0,0:3|0:0|0:0,0:0:0:0:
404,324,134480,1,2,0:0:0:0:
375,320,134517,1,0,0:0:0:0:
346,317,134555,1,0,0:0:0:0:
317,314,134592,1,0,0:0:0:0:
289,311,134630,1,0,0:0:0:0:
463,243,134705,5,0,0:0:0:0:
477,212,134742,1,0,0:0:0:0:
462,178,134780,1,10,0:0:0:0:
431,172,134817,1,0,0:0:0:0:
396,168,134855,1,0,0:0:0:0:
197,128,134930,2,0,L|158:129,2,28.8750008811951
390,36,135080,1,2,0:0:0:0:
404,59,135117,1,0,0:0:0:0:
390,36,135155,1,2,0:0:0:0:
356,37,135192,1,0,0:0:0:0:
321,44,135230,1,8,0:3:0:0:
356,37,135267,1,0,0:0:0:0:
390,36,135305,1,2,0:3:0:0:
204,74,135380,5,2,1:2:0:0:
173,79,135417,1,0,0:0:0:0:
141,91,135455,1,0,0:0:0:0:
126,123,135492,1,0,0:0:0:0:
141,91,135530,1,0,0:0:0:0:
319,167,135605,2,0,L|337:199,2,28.8750008811951,0|0|2,0:0|0:0|0:0,0:0:0:0:
131,206,135755,2,0,L|108:241,2,28.8750008811951,2|0|8,0:0|0:0|0:3,0:0:0:0:
201,201,135905,1,0,1:0:0:0:
404,282,135980,5,8,3:2:0:0:
420,282,136017,1,0,3:0:0:0:
404,233,136055,1,0,3:0:0:0:
420,233,136092,1,0,3:0:0:0:
380,191,136130,1,0,3:0:0:0:
396,191,136167,1,0,3:0:0:0:
338,169,136205,1,0,0:0:0:0:
179,236,136280,1,0,3:0:0:0:
163,236,136317,1,0,3:0:0:0:
178,188,136355,1,0,3:0:0:0:
162,188,136392,1,0,3:0:0:0:
203,146,136430,1,0,3:0:0:0:
187,146,136467,1,0,3:0:0:0:
245,124,136505,1,0,3:0:0:0:
446,32,136580,5,4,1:0:0:0:
464,53,136617,1,0,0:0:0:0:
471,81,136655,1,0,0:0:0:0:
464,109,136692,1,0,0:0:0:0:
447,132,136730,1,0,0:0:0:0:
421,144,136767,1,0,0:0:0:0:
392,143,136805,1,0,0:0:0:0:
227,213,136880,2,0,L|297:235,1,57.7500017623902,2|2,0:0|0:0,0:0:0:0:
97,299,137030,1,8,0:3:0:0:
370,313,137180,6,0,L|234:304,1,115.50000352478,8|0,0:0|0:0,0:0:0:0:
447,333,137405,2,0,L|457:199,1,115.50000352478,2|0,0:0|0:0,0:0:0:0:
261,189,137630,2,0,L|251:119,1,57.7500017623902,8|0,0:3|0:0,0:0:0:0:
452,71,137780,6,0,L|381:62,1,57.7500017623902,2|0,1:2|0:0,0:0:0:0:
221,52,137930,2,0,L|289:45,1,57.7500017623902,0|2,0:0|0:0,0:0:0:0:
94,33,138080,2,0,L|85:64,2,28.8750008811951,8|0|0,0:3|0:0|0:0,0:0:0:0:
286,102,138230,2,0,L|299:149,2,28.8750008811951,4|0|0,0:3|0:0|1:0,0:0:0:0:
100,241,138380,6,0,B|368:274|368:274|124:217|124:217|412:47|412:47,1,787.5,10|0,0:1|0:0,0:0:0:0:
218,223,138905,1,0,0:0:0:0:
67,193,138980,6,0,L|137:188,1,52.5,2|0,1:2|0:3,0:0:0:0:
311,142,139130,2,0,L|344:143,2,26.25,2|0|0,0:3|0:0|0:3,0:0:0:0:
131,271,139280,2,0,L|109:272,1,15.7499995193482,0|0,3:0|0:0,0:0:0:0:
281,331,139355,2,0,L|307:330,1,15.7499995193482,0|0,3:0|0:0,0:0:0:0:
177,250,139430,2,0,L|156:250,1,15.7499995193482,0|0,3:0|0:0,0:0:0:0:
330,196,139505,2,0,L|350:194,1,15.7499995193482,0|0,3:0|0:0,0:0:0:0:
198,246,139580,6,0,L|194:191,1,52.5,8|2,0:0|0:3,0:0:0:0:
53,209,139730,2,0,L|49:154,1,52.5,0|4,0:0|0:3,0:0:0:0:
328,320,139880,2,0,L|109:310,1,210,2|2,0:0|0:0,0:0:0:0:
378,227,140180,6,0,L|256:239,1,105,2|2,1:2|0:2,0:0:0:0:
84,160,140405,2,0,L|197:149,1,105,2|0,0:0|0:0,0:0:0:0:
434,94,140630,6,0,L|221:83,1,210,2|2,0:2|1:2,0:0:0:0:
456,168,140855,2,0,L|215:164,1,231.000007049561,2|4,0:2|0:3,0:0:0:0:
86,121,141080,1,2,1:2:0:0:
269,79,141155,1,0,0:0:0:0:
405,129,141230,1,2,0:2:0:0:
250,81,141305,1,0,0:0:0:0:
93,52,141380,6,0,B|336:52|336:52|197:203,1,433.125013217926,0|0,1:0|0:0,0:0:0:0:
217,191,141680,2,0,B|460:191|460:191|321:40,1,433.125013217926,0|0,1:0|0:0,0:0:0:0:
322,49,141980,6,0,B|85:47|85:47|322:47,1,472.499985580445,8|0,0:0|0:0,0:0:0:0:
336,46,142280,2,0,L|271:47,1,52.5,4|0,1:1|0:0,0:0:0:0:
102,139,142430,2,0,L|167:140,1,52.5,0|0,0:0|0:0,0:0:0:0:
352,260,142580,6,0,L|139:254,1,210,2|0,0:0|0:0,0:0:0:0:
191,255,142805,1,8,0:3:0:0:
413,338,142880,2,0,L|361:273,2,73.4999977569581,0|0|4,0:0|0:0|0:3,0:0:0:0:
235,261,143105,1,0,1:0:0:0:
72,207,143180,5,8,0:0:0:0:
105,205,143217,1,0,0:0:0:0:
139,205,143255,1,0,0:0:0:0:
347,148,143330,1,2,0:0:0:0:
321,148,143367,1,0,0:0:0:0:
295,148,143405,1,0,0:0:0:0:
62,84,143480,1,2,0:0:0:0:
88,84,143517,1,0,0:0:0:0:
114,84,143555,1,2,0:3:0:0:
257,67,143630,2,0,L|288:66,1,26.25,4|0,0:3|0:0,0:0:0:0:
450,45,143705,2,0,L|412:46,1,26.25,8|0,0:3|0:0,0:0:0:0:
200,199,143780,6,0,L|410:185,1,210,0|0,1:0|2:2,0:0:0:0:
119,313,144080,1,2,0:2:0:0:
95,290,144117,1,0,0:0:0:0:
85,259,144155,1,0,0:0:0:0:
92,228,144192,1,0,0:0:0:0:
113,203,144230,1,0,0:0:0:0:
320,172,144305,1,0,0:0:0:0:
102,174,144380,6,0,L|138:173,1,26.25,10|0,0:0|0:0,0:0:0:0:
253,133,144455,2,0,L|292:133,1,26.25,0|0,0:0|0:0,0:0:0:0:
404,181,144530,1,0,0:0:0:0:
377,180,144567,1,0,0:0:0:0:
351,179,144605,1,0,0:0:0:0:
156,62,144680,1,2,0:0:0:0:
183,61,144717,1,0,0:0:0:0:
209,60,144755,1,2,0:0:0:0:
416,41,144830,2,0,L|445:39,2,26.25,8|0|0,0:3|0:0|0:0,0:0:0:0:
152,198,144980,6,0,L|183:198,1,26.25,2|0,1:2|0:0,0:0:0:0:
297,146,145055,1,0,0:0:0:0:
417,88,145092,1,0,0:0:0:0:
441,96,145129,1,0,0:0:0:0:
455,118,145167,1,0,0:0:0:0:
455,143,145204,1,0,0:0:0:0:
439,164,145230,1,0,0:0:0:0:
427,174,145255,1,0,0:0:0:0:
415,172,145279,1,2,0:0:0:0:
272,228,145355,1,2,0:0:0:0:
117,273,145430,1,8,0:3:0:0:
267,315,145505,1,0,1:0:0:0:
436,105,145580,6,0,B|205:105|205:105|304:293,1,433.125013217926,8|0,3:2|0:0,3:3:0:0:
313,282,145880,2,0,B|61:282|61:282|190:104,1,472.499985580445,0|0,3:0|0:0,3:3:0:0:
203,102,146180,6,0,B|455:105|455:105|393:218,1,377.999988464356,4|0,1:2|0:0,0:0:0:0:
333,163,146480,2,0,B|81:166|81:166|143:279,1,377.999988464356,0|0,1:0|0:0,0:0:0:0:
361,312,146780,6,0,B|120:312|120:312|363:313,1,483.000009212494,8|4,0:0|1:0,0:0:0:0:
209,247,147155,1,0,0:0:0:0:
56,195,147230,1,0,0:0:0:0:
209,247,147305,1,0,0:0:0:0:
353,201,147380,6,0,L|136:191,1,210,2|0,0:0|0:0,0:0:0:0:
280,149,147605,1,2,0:0:0:0:
422,117,147680,1,8,0:3:0:0:
426,166,147717,1,0,0:0:0:0:
390,198,147755,1,0,0:0:0:0:
212,185,147830,1,0,0:0:0:0:
241,189,147867,1,0,0:0:0:0:
271,197,147905,1,10,1:2:0:0:
106,267,147980,6,0,L|342:260,1,231.000007049561,12|0,0:0|0:0,0:0:0:0:
307,259,148167,1,0,0:0:0:0:
276,258,148205,1,0,0:0:0:0:
136,338,148280,2,0,L|162:337,1,26.25,0|0,0:0|0:0,0:0:0:0:
284,324,148355,2,0,L|313:323,1,26.25,0|0,0:0|0:0,0:0:0:0:
446,278,148430,2,0,L|417:277,1,26.25,0|0,0:0|0:0,0:0:0:0:
274,212,148505,2,0,L|245:211,1,26.25,0|0,0:0|0:0,0:0:0:0:
82,180,148580,6,0,L|396:60,1,317.625009693146,2|0,1:2|0:0,0:0:0:0:
368,58,148805,2,0,L|34:130,1,317.625009693146,8|0,0:0|0:0,0:0:0:0:
68,129,149030,2,0,L|414:78,1,346.49998942566,0|0,0:0|0:0,0:0:0:0:
400,98,149255,2,0,L|44:93,1,346.49998942566,8|0,0:0|0:0,0:0:0:0:
64,152,149480,6,0,L|430:171,1,346.49998942566,2|0,1:2|0:0,0:0:0:0:
402,170,149705,2,0,L|36:189,1,346.49998942566,10|0,0:2|0:0,0:0:0:0:
65,189,149930,2,0,L|444:182,1,375.374982816697,2|0,1:2|0:0,0:0:0:0:
432,184,150155,2,0,L|150:183,1,272.999987503052,10|0,0:2|0:0,0:0:0:0:
294,123,150380,1,0,3:2:0:0:
433,127,150455,1,0,3:0:0:0:
294,123,150530,1,0,3:0:0:0:
159,104,150605,1,0,3:0:0:0:
333,137,150680,2,0,L|332:253,1,105,0|0,3:0|3:0,0:0:0:0:
88,80,150980,6,0,B|88:368|88:368|88:80,1,525,4|0,0:1|0:0,0:0:0:0:
232,232,151880,2,0,L|232:80,1,105,0|0,0:0|0:0,0:0:0:0:
384,320,152180,6,0,L|384:64,1,210,0|0,0:0|0:0,0:0:0:0:
232,192,152630,2,0,L|232:-32,1,210,0|0,0:0|0:0,0:0:0:0:
384,184,153080,2,0,L|384:72,1,105,0|0,0:0|0:0,0:0:0:0:
232,192,153380,6,0,B|232:352|232:352|232:256,1,210,0|0,0:0|0:0,0:0:0:0:
80,184,153830,2,0,B|80:16|80:16|80:96,1,210,0|0,0:0|0:0,0:0:0:0:
232,192,154280,2,0,L|232:80,1,105,0|0,0:0|0:0,0:0:0:0:
80,184,154580,6,0,B|80:328|80:328|80:224,1,210,0|0,0:0|0:0,0:0:0:0:
232,192,155030,2,0,B|232:80|232:80|232:216,1,210,0|0,0:0|0:0,0:0:0:0:
384,192,155480,2,0,L|384:80,1,105,0|0,0:0|0:0,0:0:0:0:
344,192,155680,1,0,0:0:0:0:
304,192,155730,1,0,0:0:0:0:
168,288,155780,6,0,B|168:144|168:144|168:240,1,210,0|0,0:0|0:0,0:0:0:0:
320,248,156230,2,0,B|320:128|320:128|320:232,1,210,0|0,0:0|0:0,0:0:0:0:
472,216,156680,2,0,L|472:112,1,105,0|0,0:0|0:0,0:0:0:0:
320,312,156980,6,0,B|320:192|320:192|320:64,1,210,0|0,0:0|0:0,0:0:0:0:
472,216,157430,2,0,B|472:328|472:328|472:224,1,210,0|0,0:0|0:0,0:0:0:0:
320,304,157880,2,0,L|320:192,1,105,0|0,0:0|0:0,0:0:0:0:
168,208,158180,6,0,B|168:138|168:138|168:192,1,105,0|0,0:0|0:0,0:0:0:0:
104,104,158405,1,0,0:0:0:0:
168,208,158480,1,0,0:0:0:0:
240,208,158555,1,0,0:0:0:0:
176,160,158630,1,0,0:0:0:0:
104,104,158705,1,0,0:0:0:0:
312,288,158780,5,0,0:0:0:0:
376,272,158855,1,0,0:0:0:0:
376,208,158930,1,0,0:0:0:0:
312,256,159005,1,0,0:0:0:0:
136,264,159080,2,0,L|64:264,1,52.5,0|0,0:0|0:0,0:0:0:0:
240,208,159230,2,0,L|240:128,1,52.5,0|0,0:0|0:0,0:0:0:0:
392,352,159380,6,0,B|392:248|392:248|392:144|392:144|176:144|176:144|376:96|376:96|376:24|376:24|376:104,1,735,4|0,0:1|0:0,0:0:0:0:
96,72,160580,5,12,1:1:0:0:
201,148,160730,2,0,L|147:148,1,52.5,0|8,3:0|0:0,0:0:0:0:
332,217,160880,1,0,1:0:0:0:
437,288,161030,2,0,L|378:289,1,52.5,8|0,0:2|0:0,0:0:0:0:
193,334,161180,5,8,1:2:0:0:
298,311,161330,2,0,L|362:315,1,52.5,6|10,0:0|0:0,0:0:0:0:
165,253,161480,1,0,1:0:0:0:
60,212,161630,2,0,L|115:212,1,52.5,8|8,0:0|0:0,0:0:0:0:
301,165,161780,5,8,1:2:0:0:
196,98,161930,2,0,L|253:98,1,52.5,6|10,0:0|0:0,0:0:0:0:
77,56,162080,1,0,1:0:0:0:
182,36,162230,2,0,L|127:28,1,52.5,8|8,0:0|0:0,0:0:0:0:
317,94,162380,5,8,1:2:0:0:
421,124,162530,2,0,L|475:127,1,52.5,2|4,0:3|0:3,0:0:0:0:
287,208,162680,2,0,L|347:208,1,52.5,0|2,1:0|0:3,0:0:0:0:
403,211,162830,2,0,L|505:211,1,52.5,4|8,0:3|0:3,0:0:0:0:
272,317,162980,5,8,1:2:0:0:
377,259,163130,2,0,L|317:250,1,52.5,0|8,3:0|0:0,0:0:0:0:
140,210,163280,1,0,1:0:0:0:
246,188,163430,2,0,L|331:185,1,52.5,8|0,0:0|0:0,0:0:0:0:
483,155,163580,5,8,1:2:0:0:
378,96,163730,2,0,L|446:95,1,52.5,6|10,0:0|0:0,0:0:0:0:
245,71,163880,1,8,1:0:0:0:
138,59,164030,2,0,L|199:58,1,52.5,8|8,0:0|0:0,0:0:0:0:
375,157,164180,5,8,1:2:0:0:
271,200,164330,2,0,L|196:197,1,52.5,6|10,0:0|0:0,0:0:0:0:
403,268,164480,1,0,1:0:0:0:
297,320,164630,2,0,L|239:316,1,52.5,8|8,0:0|0:0,0:0:0:0:
60,278,164780,5,8,1:2:0:0:
165,256,164930,2,0,L|224:252,1,52.5,8|2,0:3|0:3,0:0:0:0:
401,217,165080,2,0,L|407:157,1,52.5,0|2,1:0|0:3,0:0:0:0:
338,132,165230,2,0,L|400:130,1,52.5,8|4,0:3|0:3,0:0:0:0:
204,89,165380,5,10,1:2:0:0:
308,58,165530,2,0,L|253:53,1,52.5,0|8,0:0|0:0,0:0:0:0:
443,83,165680,1,2,1:2:0:0:
338,171,165830,2,0,L|408:168,1,52.5,8|0,0:0|0:0,0:0:0:0:
202,210,165980,6,0,L|196:271,1,52.5,8|0,1:2|0:0,0:0:0:0:
115,268,166130,2,0,L|106:326,1,52.5,6|8,0:0|0:2,0:0:0:0:
307,343,166280,2,0,L|311:283,1,52.5,0|0,1:0|0:0,0:0:0:0:
394,269,166430,2,0,L|399:196,1,52.5,10|8,0:0|0:3,0:0:0:0:
198,175,166580,5,10,1:2:0:0:
92,147,166730,2,0,L|31:137,1,52.5,4|8,0:2|0:2,0:0:0:0:
225,92,166880,1,2,1:2:0:0:
330,44,167030,2,0,L|260:33,1,52.5,8|8,0:0|0:3,0:0:0:0:
468,64,167180,6,0,L|471:136,1,52.5,10|8,1:2|0:3,0:0:0:0:
395,151,167330,2,0,L|458:159,1,52.5,2|8,0:0|0:3,0:0:0:0:
260,168,167480,2,0,L|255:228,1,52.5,0|2,1:0|0:3,0:0:0:0:
321,251,167630,2,0,L|260:254,1,52.5,4|8,0:3|0:3,0:0:0:0:
76,275,167780,5,10,1:2:0:0:
181,329,167930,2,0,L|252:329,1,52.5,8|8,0:3|0:0,0:0:0:0:
417,320,168080,1,2,1:2:0:0:
311,268,168230,2,0,L|381:265,1,52.5,8|8,0:2|0:3,0:0:0:0:
170,212,168380,6,0,L|165:145,1,52.5,8|0,1:0|0:0,0:0:0:0:
243,139,168530,2,0,L|243:80,1,52.5,6|8,0:0|0:2,0:0:0:0:
435,89,168680,2,0,L|438:27,1,52.5,0|0,1:0|0:0,0:0:0:0:
360,36,168830,2,0,L|358:97,1,52.5,10|8,0:0|0:3,0:0:0:0:
172,175,168980,6,0,L|227:185,1,52.5,10|8,1:2|0:3,0:0:0:0:
410,257,169130,2,0,L|341:260,1,52.5,2|8,0:0|0:0,0:0:0:0:
171,286,169280,1,2,1:2:0:0:
113,278,169355,1,2,0:0:0:0:
171,286,169430,1,10,0:0:0:0:
113,278,169505,1,2,0:0:0:0:
302,342,169580,6,0,L|365:340,1,52.5,10|0,1:2|0:0,0:0:0:0:
182,331,169730,2,0,L|116:328,1,52.5,2|8,0:0|0:0,0:0:0:0:
315,274,169880,2,0,L|370:265,1,52.5,2|8,1:0|0:3,0:0:0:0:
295,239,170030,2,0,L|296:167,1,52.5,2|4,0:1|0:3,0:0:0:0:
75,167,170180,6,0,L|76:88,1,52.5,12|0,1:0|0:0,0:0:0:0:
235,105,170330,2,0,L|237:34,1,52.5,0|0,1:0|0:0,0:0:0:0:
431,62,170480,2,0,L|433:123,1,52.5,10|0,1:2|0:0,0:0:0:0:
272,152,170630,2,0,L|267:215,1,52.5,0|0,1:0|0:0,0:0:0:0:
449,254,170780,6,0,L|384:259,1,52.5,10|8,1:2|0:3,0:0:0:0:
219,307,170930,2,0,L|304:325,1,52.5,0|0,1:0|0:0,0:0:0:0:
93,348,171080,2,0,L|23:345,1,52.5,10|8,1:2|0:3,0:0:0:0:
203,248,171230,2,0,L|127:238,1,52.5,0|0,1:0|0:0,0:0:0:0:
354,182,171380,6,0,L|442:165,1,52.5,10|0,1:2|0:0,0:0:0:0:
246,143,171530,2,0,L|247:83,1,52.5,0|0,1:0|0:0,0:0:0:0:
71,60,171680,2,0,L|133:56,1,52.5,10|0,1:2|0:0,0:0:0:0:
283,35,171830,2,0,L|285:90,1,52.5,0|0,1:0|0:0,0:0:0:0:
451,156,171980,6,0,L|378:157,1,52.5,10|0,1:2|0:0,0:0:0:0:
230,201,172130,2,0,L|166:200,1,52.5,2|0,1:2|0:0,0:0:0:0:
378,218,172280,1,4,1:2:0:0:
396,235,172317,1,0,0:0:0:0:
406,260,172355,1,0,0:0:0:0:
403,286,172392,1,0,0:0:0:0:
390,308,172430,1,0,0:0:0:0:
369,323,172467,1,0,0:0:0:0:
343,326,172505,1,0,0:0:0:0:
138,351,172580,6,0,L|79:347,1,52.5,12|0,1:0|0:0,0:0:0:0:
243,307,172730,2,0,L|248:229,1,52.5,0|0,1:0|0:0,0:0:0:0:
435,226,172880,2,0,L|490:229,1,52.5,10|0,1:2|0:0,0:0:0:0:
329,179,173030,2,0,L|329:107,1,52.5,0|0,1:0|0:0,0:0:0:0:
152,90,173180,6,0,L|95:78,1,52.5,10|8,1:2|0:3,0:0:0:0:
261,37,173330,2,0,L|193:31,1,52.5,2|0,1:2|0:0,0:0:0:0:
398,97,173480,2,0,L|450:92,1,52.5,10|8,1:2|0:3,0:0:0:0:
293,170,173630,2,0,L|374:174,1,52.5,2|0,1:2|0:0,0:0:0:0:
160,258,173780,6,0,L|158:200,1,52.5,10|0,1:2|0:0,0:0:0:0:
303,197,173930,2,0,L|303:142,1,52.5,0|0,1:0|0:0,0:0:0:0:
481,189,174080,2,0,L|484:128,1,52.5,10|0,1:2|0:0,0:0:0:0:
342,120,174230,2,0,L|341:48,1,52.5,0|0,1:0|0:0,0:0:0:0:
161,55,174380,6,0,L|216:50,1,52.5,10|8,1:2|0:3,0:0:0:0:
377,82,174530,2,0,L|314:70,1,52.5,2|8,1:2|0:3,0:0:0:0:
91,111,174680,2,0,L|88:235,1,105,2|2,1:2|0:0,0:0:0:0:
305,322,174980,6,0,L|362:327,1,52.5,12|0,1:0|1:0,0:0:0:0:
198,294,175130,2,0,L|144:291,1,52.5,0|0,1:0|1:0,0:0:0:0:
356,263,175280,2,0,L|420:264,1,52.5,10|0,1:2|1:0,0:0:0:0:
151,229,175430,2,0,L|90:227,1,52.5,0|0,1:0|1:0,0:0:0:0:
405,208,175580,6,0,L|466:206,1,52.5,10|0,1:2|1:0,0:0:0:0:
98,163,175730,2,0,L|38:162,1,52.5,0|0,1:0|1:0,0:0:0:0:
270,107,175880,1,4,1:2:0:0:
296,107,175917,1,0,0:0:0:0:
322,107,175955,1,0,0:0:0:0:
348,108,175992,1,0,0:0:0:0:
374,108,176030,1,0,0:0:0:0:
399,111,176067,1,0,0:0:0:0:
425,113,176105,1,0,0:0:0:0:
150,55,176180,6,0,L|227:48,1,52.5,12|0,1:0|1:0,0:0:0:0:
354,147,176330,2,0,L|294:140,1,52.5,0|0,1:0|1:0,0:0:0:0:
115,187,176480,2,0,L|173:193,1,52.5,10|0,1:2|1:0,0:0:0:0:
404,234,176630,2,0,L|338:237,1,52.5,0|0,1:0|1:0,0:0:0:0:
80,283,176780,6,0,L|142:295,1,52.5,10|0,1:2|1:0,0:0:0:0:
462,321,176930,2,0,L|395:323,1,52.5,0|0,1:0|1:0,0:0:0:0:
200,310,177080,1,0,1:0:0:0:
226,308,177117,1,0,3:0:0:0:
252,306,177155,1,0,3:0:0:0:
278,304,177192,1,0,3:0:0:0:
304,302,177230,1,0,3:0:0:0:
330,300,177267,1,0,3:0:0:0:
357,298,177305,1,0,3:0:0:0:
111,211,177380,5,12,1:0:0:0:
87,201,177417,1,0,1:0:0:0:
77,177,177455,1,0,1:0:0:0:
87,154,177492,1,0,1:0:0:0:
111,145,177530,1,0,1:0:0:0:
174,145,177605,1,0,1:0:0:0:
399,95,177680,2,0,L|333:94,1,52.5,8|0,1:0|1:0,1:1:0:0:
122,37,177830,2,0,L|197:35,1,52.5,0|0,1:0|1:0,1:1:0:0:
363,159,177980,5,10,1:2:0:0:
336,158,178017,1,0,1:0:0:0:
310,158,178055,1,0,1:0:0:0:
284,157,178092,1,0,1:0:0:0:
258,157,178130,1,0,1:0:0:0:
333,205,178205,1,0,1:0:0:0:
118,274,178280,2,0,L|59:277,1,52.5,8|0,1:0|1:0,1:1:0:0:
355,325,178430,2,0,L|418:326,1,52.5,0|0,1:0|1:0,1:1:0:0:
125,338,178580,5,10,1:2:0:0:
105,300,178630,1,0,0:0:0:0:
104,259,178680,1,0,0:0:0:0:
122,221,178730,1,0,1:0:0:0:
154,197,178780,1,0,0:0:0:0:
194,187,178830,1,0,0:0:0:0:
429,232,178880,5,10,1:2:0:0:
445,186,178930,1,0,0:0:0:0:
443,140,178980,1,0,0:0:0:0:
421,97,179030,1,0,1:0:0:0:
383,69,179080,1,0,0:0:0:0:
337,57,179130,1,0,0:0:0:0:
136,67,179180,6,0,L|89:66,2,26.25,10|0|0,1:2|1:0|1:0,1:1:0:0:
267,119,179292,1,0,1:0:0:0:
403,74,179330,2,0,L|436:73,2,26.25,0|0|0,1:0|1:0|1:0,0:0:0:0:
262,125,179442,1,0,0:0:0:0:
120,87,179480,6,0,L|82:85,2,26.25,10|0|0,1:2|1:0|1:0,1:1:0:0:
272,134,179592,1,0,1:0:0:0:
424,56,179630,2,0,L|456:56,2,26.25,0|0|0,1:0|1:0|1:0,0:0:0:0:
281,144,179742,1,0,0:0:0:0:
134,181,179780,5,4,0:1:0:0:
81,257,179930,1,0,0:0:0:0:
134,181,180080,1,2,0:0:0:0:
249,258,180230,2,0,L|322:261,1,52.5,2|0,0:0|0:0,0:0:0:0:
217,221,180380,6,0,L|213:156,1,52.5,2|0,0:0|0:0,0:0:0:0:
294,148,180530,1,2,0:0:0:0:
144,102,180680,1,2,0:0:0:0:
38,54,180830,2,0,L|93:54,1,52.5,2|0,0:0|0:0,0:0:0:0:
280,88,180980,6,0,L|286:155,1,52.5,2|0,0:0|0:0,0:0:0:0:
204,164,181130,2,0,L|198:224,1,52.5,2|0,0:0|0:0,0:0:0:0:
373,236,181280,2,0,L|372:302,1,52.5,2|0,0:0|0:0,0:0:0:0:
450,304,181430,2,0,L|459:364,1,52.5,2|0,0:0|0:0,0:0:0:0:
285,305,181580,6,0,L|211:297,1,52.5,2|0,0:0|0:0,0:0:0:0:
316,253,181730,2,0,L|313:194,1,52.5,2|0,0:0|0:0,0:0:0:0:
145,172,181880,1,10,0:0:0:0:
368,115,182030,1,0,0:0:0:0:
159,121,182180,6,0,B|376:250|376:250|350:369,1,362.250006909371,4|0,1:0|0:0,0:0:0:0:
168,299,182480,1,8,1:2:0:0:
202,298,182530,1,0,0:0:0:0:
237,298,182580,1,0,0:0:0:0:
409,247,182630,2,0,L|387:247,1,13.125,2|0,0:0|0:0,0:0:0:0:
265,179,182705,2,0,L|247:177,1,13.125,2|0,0:0|0:0,0:0:0:0:
122,93,182780,6,0,L|365:85,1,231.000007049561,0|6,1:0|0:0,0:0:0:0:
203,51,183005,1,2,0:2:0:0:
41,169,183080,2,0,L|44:233,1,52.5,8|8,1:2|0:3,0:0:0:0:
200,271,183230,2,0,L|206:213,1,52.5,2|2,0:3|0:3,0:0:0:0:
373,215,183380,6,0,L|141:210,1,231.000007049561,0|6,1:0|0:0,0:0:0:0:
286,62,183605,1,2,0:0:0:0:
448,180,183680,2,0,L|445:244,1,52.5,10|8,1:2|0:3,0:0:0:0:
279,286,183830,2,0,L|273:228,1,52.5,2|2,0:3|0:3,0:0:0:0:
107,155,183980,6,0,L|356:144,1,231.000007049561,0|8,1:0|0:3,0:0:0:0:
446,140,184167,1,0,0:0:0:0:
170,96,184280,1,10,1:2:0:0:
70,82,184317,1,0,0:0:0:0:
305,58,184430,1,0,0:0:0:0:
405,72,184467,1,0,0:0:0:0:
155,324,184580,6,0,L|388:317,1,231.000007049561,0|0,1:0|0:0,0:0:0:0:
365,318,184767,1,0,0:0:0:0:
342,318,184805,1,0,0:0:0:0:
157,233,184880,1,10,1:2:0:0:
191,230,184930,1,0,0:0:0:0:
226,228,184980,1,0,0:0:0:0:
466,159,185030,2,0,L|486:157,1,13.125,2|0,0:0|0:0,0:0:0:0:
348,199,185105,2,0,L|330:197,1,13.125,2|0,0:0|0:0,0:0:0:0:
145,46,185180,6,0,L|382:44,1,231.000007049561,0|6,1:0|0:0,0:0:0:0:
228,97,185405,1,2,0:0:0:0:
437,187,185480,2,0,L|434:251,1,52.5,8|0,1:2|0:0,0:0:0:0:
268,293,185630,1,8,0:3:0:0:
265,266,185667,1,0,0:0:0:0:
262,240,185705,1,0,0:0:0:0:
84,217,185780,6,0,L|103:215,1,13.125,2|0,1:2|0:0,0:0:0:0:
247,170,185855,2,0,L|265:167,1,13.125,2|0,0:0|0:0,0:0:0:0:
411,146,185930,2,0,L|392:144,1,13.125,2|0,0:0|0:0,0:0:0:0:
257,92,186005,2,0,L|239:89,1,13.125,2|0,0:2|0:0,0:0:0:0:
106,58,186080,2,0,L|87:56,1,13.125,8|0,1:2|0:0,0:0:0:0:
261,138,186155,2,0,L|279:135,1,13.125,2|0,0:0|0:0,0:0:0:0:
128,279,186230,5,2,0:0:0:0:
105,288,186267,1,0,0:0:0:0:
105,288,186305,1,8,0:3:0:0:
128,279,186342,1,0,0:0:0:0:
365,127,186380,2,0,B|143:222|143:222|208:329,1,362.250006909371,2|0,1:3|0:0,0:0:0:0:
144,221,186680,2,0,B|366:126|366:126|312:10,1,362.250006909371,8|0,1:2|0:0,0:0:0:0:
97,49,186980,6,0,L|388:48,1,272.999987503052,4|0,1:0|0:0,0:0:0:0:
136,276,187280,1,10,1:2:0:0:
170,275,187330,1,0,0:0:0:0:
205,275,187380,1,0,0:0:0:0:
396,219,187430,2,0,L|374:219,1,13.125,2|0,0:0|0:0,0:0:0:0:
267,167,187505,2,0,L|249:165,1,13.125,2|0,0:0|0:0,0:0:0:0:
122,93,187580,6,0,L|360:62,1,231.000007049561,0|6,1:0|0:0,0:0:0:0:
203,51,187805,1,2,0:0:0:0:
41,169,187880,2,0,L|46:229,1,52.5,8|8,1:2|0:3,0:0:0:0:
232,272,188030,2,0,L|175:267,1,52.5,2|2,0:3|0:3,0:0:0:0:
388,207,188180,6,0,L|158:186,1,231.000007049561,0|6,1:0|0:0,0:0:0:0:
313,120,188405,1,2,0:0:0:0:
114,282,188480,2,0,L|119:228,1,52.5,8|8,1:2|0:3,0:0:0:0:
267,319,188630,2,0,L|273:264,1,52.5,2|2,0:3|0:3,0:0:0:0:
444,346,188780,6,0,L|210:345,1,231.000007049561,0|2,1:0|0:3,0:0:0:0:
170,342,188967,1,0,0:0:0:0:
351,260,189080,1,8,1:0:0:0:
445,209,189117,1,0,0:0:0:0:
212,180,189230,1,0,0:0:0:0:
118,231,189267,1,0,0:0:0:0:
328,300,189380,6,0,L|355:194,1,105,2|0,1:2|0:0,0:0:0:0:
161,210,189605,2,0,L|149:94,1,105,2|0,0:0|0:0,0:0:0:0:
333,80,189830,2,0,L|309:78,1,13.125,2|0,0:0|0:0,0:0:0:0:
181,151,189905,2,0,L|157:149,1,13.125,2|0,0:0|0:0,0:0:0:0:
357,264,189980,6,0,B|454:166|454:166|126:103,1,462.000014099122,0|10,1:0|1:2,0:0:0:0:
157,106,190317,1,0,0:0:0:0:
179,106,190355,1,0,0:0:0:0:
291,172,190392,1,0,0:0:0:0:
406,285,190430,2,0,L|438:284,2,26.25,0|0|0,0:0|0:0|0:0,0:0:0:0:
269,273,190542,1,0,0:0:0:0:
83,250,190580,6,0,L|195:250,1,105,2|8,1:2|0:3,0:0:0:0:
332,174,190805,2,0,L|94:128,1,241.500004606247,2|2,0:0|0:3,0:0:0:0:
227,252,191030,2,0,L|467:211,1,241.500004606247,2|4,0:0|1:3,0:0:0:0:
309,342,191255,2,0,L|69:312,1,241.500004606247,2|8,0:0|0:3,0:0:0:0:
262,223,191480,2,0,L|314:219,1,52.5,10|0,1:2|0:0,0:0:0:0:
128,135,191630,2,0,L|76:130,1,52.5,2|0,0:0|0:0,0:0:0:0:
316,156,191780,5,0,1:0:0:0:
344,159,191817,1,0,0:0:0:0:
370,148,191855,1,0,0:0:0:0:
389,126,191892,1,0,0:0:0:0:
394,98,191930,1,0,0:0:0:0:
386,71,191967,1,0,0:0:0:0:
366,51,192005,1,0,0:0:0:0:
150,60,192080,1,12,1:0:0:0:
213,24,192155,2,0,L|226:59,2,28.8750008811951,0|0|0,0:0|0:0|0:0,0:0:0:0:
150,60,192305,1,2,0:0:0:0:
328,128,192380,6,0,L|390:148,1,57.7500017623902,0|0,1:0|0:0,0:0:0:0:
200,217,192530,1,6,0:0:0:0:
374,236,192605,2,0,L|440:238,2,57.7500017623902,2|8|8,0:0|1:0|0:3,0:0:0:0:
200,331,192830,2,0,L|280:342,1,57.7500017623902,2|2,0:3|0:3,0:0:0:0:
82,278,192980,6,0,L|25:267,1,57.7500017623902,0|0,1:0|0:0,0:0:0:0:
200,217,193130,1,6,0:0:0:0:
33,184,193205,1,2,0:0:0:0:
88,169,193280,1,8,1:2:0:0:
144,154,193355,1,8,0:3:0:0:
321,110,193430,2,0,L|241:87,1,57.7500017623902,2|2,0:3|0:3,0:0:0:0:
87,41,193580,6,0,L|81:77,2,28.8750008811951,0|0|0,1:0|0:0|0:0,0:0:0:0:
266,29,193730,2,0,L|275:65,2,28.8750008811951,2|0|0,0:0|0:0|0:0,0:0:0:0:
441,90,193880,2,0,L|455:132,2,28.8750008811951,10|0|0,1:2|0:0|0:0,0:0:0:0:
264,113,194030,2,0,L|255:152,2,28.8750008811951,0|0|0,0:0|0:0|0:0,0:0:0:0:
89,213,194180,6,0,L|60:207,2,28.8750008811951,4|0|0,1:3|0:0|0:0,0:0:0:0:
151,165,194330,1,0,0:0:0:0:
122,163,194367,1,0,0:0:0:0:
93,161,194405,1,0,0:0:0:0:
266,33,194480,1,8,1:2:0:0:
203,82,194555,2,0,L|190:41,2,28.8750008811951,0|0|2,0:0|0:0|0:0,0:0:0:0:
266,33,194705,1,2,0:0:0:0:
444,197,194780,6,0,L|363:190,1,57.7500017623902,0|0,1:0|0:0,0:0:0:0:
205,273,194930,2,0,L|269:273,1,57.7500017623902,0|8,1:0|0:3,0:0:0:0:
457,313,195080,1,10,1:2:0:0:
380,304,195192,1,0,1:0:0:0:
457,313,195305,1,0,1:0:0:0:
262,343,195380,6,0,L|251:268,1,57.7500017623902,0|2,1:0|0:3,0:0:0:0:
420,251,195530,2,0,L|429:187,1,57.7500017623902,0|8,1:0|0:3,0:0:0:0:
172,233,195680,2,0,L|155:162,1,57.7500017623902,8|0,0:0|0:0,0:0:0:0:
334,149,195830,2,0,L|347:80,1,57.7500017623902,0|0,0:0|1:0,0:0:0:0:
131,48,195980,6,8,B|387:96|387:96|131:49|131:49|122:321|122:321|126:45,1,1050,8|0,0:0|0:0,0:0:0:0:
92,45,196617,5,0,0:0:0:0:
70,64,196655,1,0,0:0:0:0:
63,92,196692,1,0,0:0:0:0:
71,119,196730,1,0,0:0:0:0:
92,138,196767,1,0,0:0:0:0:
120,143,196805,1,0,0:0:0:0:
152,154,196842,1,0,0:0:0:0:
184,182,196880,1,0,0:0:0:0:
211,191,196917,1,0,0:0:0:0:
230,211,196955,1,0,0:0:0:0:
237,239,196992,1,0,0:0:0:0:
229,267,197030,1,0,0:0:0:0:
209,287,197067,1,0,0:0:0:0:
182,295,197105,1,0,0:0:0:0:
377,333,197180,6,0,L|500:351,1,115.50000352478,12|0,0:1|0:0,0:0:0:0:
304,322,197405,2,0,P|214:294|241:217,1,173.250005287171,0|0,0:0|0:0,0:0:0:0:
281,212,197705,1,0,0:0:0:0:
442,146,197780,6,0,L|394:84,1,57.7500017623902,2|0,1:2|0:0,0:0:0:0:
335,85,197930,1,2,0:0:0:0:
491,48,198005,1,2,0:0:0:0:
315,31,198080,2,0,P|280:70|353:143,1,173.250005287171,0|0,1:0|1:0,0:0:0:0:
164,305,198380,5,12,0:1:0:0:
140,297,198417,1,0,0:0:0:0:
142,272,198455,1,0,0:0:0:0:
117,266,198492,1,0,0:0:0:0:
128,237,198530,1,2,0:0:0:0:
105,230,198567,1,0,0:0:0:0:
126,198,198605,1,0,0:0:0:0:
103,191,198642,1,0,0:0:0:0:
131,160,198680,1,2,0:0:0:0:
111,155,198717,1,0,0:0:0:0:
146,125,198755,1,0,0:0:0:0:
132,122,198792,1,0,0:0:0:0:
167,95,198830,1,0,0:0:0:0:
160,96,198867,1,0,0:0:0:0:
197,69,198905,1,0,0:0:0:0:
414,98,198980,6,0,L|487:76,2,57.7500017623902,2|0|8,1:2|0:0|0:3,0:0:0:0:
240,133,199205,2,0,L|283:186,1,57.7500017623902,2|0,1:2|0:0,0:0:0:0:
341,185,199355,1,0,0:0:0:0:
159,230,199430,2,0,L|114:268,1,57.7500017623902,2|0,1:2|0:0,0:0:0:0:
53,272,199580,5,0,0:0:0:0:
223,334,199655,2,0,L|289:348,2,57.7500017623902,2|0|0,1:2|0:0|0:0,0:0:0:0:
415,298,199880,2,0,L|490:316,2,57.7500017623902,2|0|0,1:2|0:0|0:0,0:0:0:0:
238,238,200105,6,0,L|281:188,1,57.7500017623902,2|0,1:2|0:0,0:0:0:0:
341,179,200255,1,0,0:0:0:0:
149,157,200330,2,0,L|89:118,1,57.7500017623902,2|0,1:2|0:0,0:0:0:0:
271,93,200480,1,0,0:0:0:0:
442,81,200555,2,0,L|486:40,1,57.7500017623902,0|0,1:2|0:0,0:0:0:0:
303,37,200705,1,0,0:0:0:0:
120,40,200780,6,8,B|101:299|101:299|363:309|363:309|402:51|402:51|204:42,1,918.75,8|12,0:0|1:3,0:0:0:0:
441,310,201380,6,0,L|448:168,1,105,4|0,1:0|0:0,0:0:0:0:
200,214,201680,1,2,0:0:0:0:
200,170,201755,1,0,0:0:0:0:
263,158,201830,1,2,0:0:0:0:
263,114,201905,1,2,0:0:0:0:
433,130,201980,5,8,0:3:0:0:
163,121,202130,1,2,0:0:0:0:
317,97,202205,1,2,0:0:0:0:
285,56,202280,1,0,3:0:0:0:
227,48,202355,1,2,3:0:0:0:
292,46,202430,1,8,3:0:0:0:
217,58,202505,1,4,3:0:0:0:
380,214,202580,5,0,0:0:0:0:
159,224,202730,1,2,0:0:0:0:
303,183,202805,1,2,0:0:0:0:
272,144,202880,1,0,3:0:0:0:
214,134,202955,1,2,3:0:0:0:
161,140,203030,1,8,3:0:0:0:
213,144,203105,1,4,3:0:0:0:
349,280,203180,6,0,L|360:241,1,26.25,8|0,3:0|0:0,0:0:0:0:
319,220,203255,1,8,3:0:0:0:
121,186,203330,2,0,L|158:160,1,26.25,2|0,3:0|0:0,3:3:0:0:
193,158,203405,1,8,3:0:0:0:
355,173,203480,2,0,L|426:171,1,52.5,0|4,3:0|3:0,3:3:0:0:
245,98,203630,2,0,L|316:96,1,52.5,8|2,3:0|3:0,3:3:0:0:
491,95,203780,5,2,0:0:0:0:
131,104,203930,1,0,0:0:0:0:
399,250,204080,1,2,0:0:0:0:
399,250,204130,1,0,0:0:0:0:
399,250,204180,1,0,0:0:0:0:
251,192,204230,1,2,0:0:0:0:
251,148,204305,1,2,0:0:0:0:
82,165,204380,5,8,0:3:0:0:
144,164,204455,1,0,0:0:0:0:
389,160,204530,1,2,0:0:0:0:
231,164,204605,1,2,0:0:0:0:
284,158,204680,1,0,3:0:0:0:
276,120,204717,1,0,0:0:0:0:
251,103,204755,1,0,0:0:0:0:
60,165,204830,1,8,3:0:0:0:
54,123,204867,1,0,0:0:0:0:
48,81,204905,1,4,3:0:0:0:
246,259,204980,5,2,0:0:0:0:
314,223,205055,1,2,0:0:0:0:
238,191,205130,1,8,0:3:0:0:
413,186,205205,1,2,0:0:0:0:
221,118,205280,1,0,0:0:0:0:
213,44,205355,1,2,0:0:0:0:
418,65,205430,1,2,0:0:0:0:
360,59,205505,1,0,3:0:0:0:
146,206,205580,5,8,0:3:0:0:
151,130,205655,1,8,0:3:0:0:
334,207,205730,1,0,0:0:0:0:
339,131,205805,1,0,0:0:0:0:
142,55,205880,1,4,3:0:0:0:
487,173,206030,1,0,0:0:0:0:
425,175,206105,1,0,0:0:0:0:
74,166,206180,5,4,1:0:0:0:
211,163,206330,1,0,0:0:0:0:
487,221,206480,2,0,L|424:228,1,52.5,8|0,1:2|0:0,0:0:0:0:
295,232,206630,1,2,0:0:0:0:
131,238,206705,1,2,0:0:0:0:
341,142,206780,6,0,L|348:78,1,52.5,0|0,1:0|0:0,0:0:0:0:
172,55,206930,1,6,0:0:0:0:
341,142,207005,1,2,0:0:0:0:
274,137,207080,1,8,1:2:0:0:
341,142,207155,1,8,0:3:0:0:
372,130,207230,1,2,0:3:0:0:
340,122,207305,1,2,0:3:0:0:
137,181,207380,6,0,L|129:108,1,52.5,0|0,1:0|0:0,0:0:0:0:
306,94,207530,1,6,0:0:0:0:
137,181,207605,1,2,0:0:0:0:
204,176,207680,1,8,1:2:0:0:
137,181,207755,1,8,0:3:0:0:
106,169,207830,1,2,0:0:0:0:
138,161,207905,1,2,0:0:0:0:
348,197,207980,5,0,1:0:0:0:
337,140,208055,1,0,0:0:0:0:
143,75,208130,1,2,0:0:0:0:
208,65,208205,1,0,0:0:0:0:
367,72,208280,1,8,1:0:0:0:
149,113,208430,1,0,0:0:0:0:
398,237,208580,5,2,1:2:0:0:
331,228,208655,1,0,0:0:0:0:
341,168,208730,1,2,0:0:0:0:
274,159,208805,1,0,0:0:0:0:
84,219,208880,1,10,1:2:0:0:
138,191,208955,1,0,0:0:0:0:
70,164,209030,1,2,0:0:0:0:
59,103,209105,1,0,0:0:0:0:
262,182,209180,6,0,L|339:180,1,52.5,2|0,1:2|0:0,0:0:0:0:
145,147,209330,2,0,L|68:145,1,52.5,2|0,0:0|0:0,0:0:0:0:
291,137,209480,2,0,L|296:70,1,52.5,10|0,1:2|0:0,0:0:0:0:
386,85,209630,2,0,L|391:18,1,52.5,0|0,0:0|0:0,0:0:0:0:
145,194,209780,6,0,B|37:189|37:189|30:102,1,188.999994232178,2|0,1:2|0:0,0:0:0:0:
211,260,210005,2,0,B|103:265|103:265|96:352,1,188.999994232178,0|0,1:0|0:0,0:0:0:0:
301,260,210230,6,0,P|381:248|460:174,1,188.999994232178,2|0,1:2|0:0,0:0:0:0:
211,124,210455,2,0,P|131:136|52:210,1,188.999994232178,0|0,1:0|0:0,0:0:0:0:
365,317,210680,2,0,P|474:237|358:124,1,330.749989906311,8|0,1:3|0:0,0:0:0:0:
140,68,210980,6,0,L|111:234,1,157.5,0|0,1:0|0:0,0:0:0:0:
334,96,211280,2,0,L|374:135,1,52.5,0|0,0:0|0:0,0:0:0:0:
236,142,211430,1,0,0:0:0:0:
99,130,211505,1,0,0:0:0:0:
265,203,211580,6,0,B|475:206|475:206|432:303,1,315,12|2,0:1|0:0,0:0:0:0:
287,329,211880,2,0,L|282:269,1,52.5,0|2,3:0|3:0,3:3:0:0:
140,277,212030,2,0,L|135:217,1,52.5,8|4,3:0|3:0,0:0:0:0:
336,206,212180,6,0,L|277:201,1,52.5,2|0,0:0|3:0,0:0:0:0:
143,155,212330,1,2,0:0:0:0:
283,201,212405,1,2,0:0:0:0:
428,255,212480,2,0,L|402:253,1,26.25,0|0,3:0|0:0,3:3:0:0:
287,298,212555,2,0,L|249:294,1,26.25,8|0,3:0|0:0,0:0:0:0:
133,249,212630,2,0,L|193:249,1,52.5,2|4,3:0|3:0,0:0:0:0:
417,344,212780,5,8,3:0:0:0:
316,329,212817,1,0,0:0:0:0:
101,172,212930,1,8,3:0:0:0:
201,158,212967,1,0,0:0:0:0:
430,106,213080,1,8,3:0:0:0:
330,120,213117,1,0,0:0:0:0:
83,277,213230,1,8,3:0:0:0:
183,263,213267,1,0,0:0:0:0:
411,173,213380,6,0,L|378:172,1,26.25,2|0,3:2|3:0,3:3:0:0:
283,248,213455,2,0,L|250:247,1,26.25,0|0,3:0|3:0,0:0:0:0:
148,185,213530,1,0,3:0:0:0:
174,184,213567,1,0,3:0:0:0:
200,183,213605,1,0,3:0:0:0:
226,185,213642,1,0,0:0:0:0:
373,250,213680,6,0,L|340:249,1,26.25,2|0,3:2|3:0,3:3:0:0:
243,327,213755,2,0,L|210:326,1,26.25,0|0,3:0|3:0,0:0:0:0:
103,268,213830,1,0,3:0:0:0:
242,282,213905,1,0,3:0:0:0:
393,346,213980,6,0,L|162:345,1,231.000007049561,12|2,1:0|3:2,0:0:0:0:
309,282,214205,1,2,0:0:0:0:
454,258,214280,2,0,L|448:187,1,52.5,0|2,3:0|3:0,3:3:0:0:
282,183,214430,1,8,3:0:0:0:
308,185,214467,1,0,0:0:0:0:
335,184,214505,1,4,3:0:0:0:
363,184,214542,1,0,0:0:0:0:
179,121,214580,6,0,L|175:184,1,52.5,2|2,3:2|3:2,3:3:0:0:
318,92,214730,1,8,3:3:0:0:
175,173,214805,1,2,3:2:0:0:
369,236,214880,2,0,L|312:236,1,52.5,2|2,3:0|3:2,0:0:0:0:
177,280,215030,1,2,3:2:0:0:
316,236,215105,1,0,3:2:0:0:
467,204,215180,6,0,B|236:201|236:201|295:307,1,346.500010574341,8|8,0:3|0:3,0:0:0:0:
345,162,215480,2,0,B|83:161|83:161|133:38,1,393.75,8|0,0:3|0:0,0:0:0:0:
376,160,215780,6,0,L|111:160,1,262.5,0|0,1:0|0:0,0:0:0:0:
373,312,216080,2,0,L|311:308,1,52.5,12|0,1:0|0:0,0:0:0:0:
163,263,216230,2,0,L|178:263,1,13.125,0|0,0:0|0:0,0:0:0:0:
320,308,216305,2,0,L|302:306,1,13.125,0|0,0:0|0:0,0:0:0:0:
119,143,216380,6,0,L|122:204,1,52.5,0|0,1:0|0:0,0:0:0:0:
271,57,216530,1,0,0:0:0:0:
421,95,216605,1,0,0:0:0:0:
271,327,216680,2,0,B|40:329|40:329|90:223,1,346.500010574341,12|0,1:0|0:0,0:0:0:0:
295,192,216980,6,0,L|351:193,1,52.5,0|0,1:0|0:0,0:0:0:0:
156,126,217130,2,0,L|137:126,1,13.125,0|0,0:0|0:0,0:0:0:0:
295,192,217205,2,0,L|314:192,1,13.125,0|0,0:0|0:0,0:0:0:0:
127,269,217280,2,0,B|364:226|364:226|326:107,1,362.250006909371,12|0,1:0|0:0,0:0:0:0:
109,59,217580,6,0,L|88:140,1,52.5,4|0,1:2|0:0,0:0:0:0:
238,181,217730,2,0,L|248:269,1,52.5,0|0,0:0|0:0,0:0:0:0:
390,261,217880,1,0,0:0:0:0:
406,248,217917,1,0,0:0:0:0:
390,229,217955,1,0,0:0:0:0:
411,220,217992,1,0,0:0:0:0:
390,198,218030,1,0,0:0:0:0:
419,195,218067,1,0,0:0:0:0:
397,169,218105,1,0,0:0:0:0:
235,127,218180,6,0,L|123:178,1,105,0|2,1:2|0:0,0:0:0:0:
291,204,218405,2,0,L|437:192,1,105,0|0,1:2|0:0,0:0:0:0:
175,121,218630,2,0,L|90:115,1,52.5,2|0,1:2|0:0,0:0:0:0:
268,267,218780,6,0,L|159:265,1,105,0|0,1:0|0:0,0:0:0:0:
368,134,219005,2,0,L|475:122,1,105,0|0,1:0|0:0,0:0:0:0:
198,232,219230,2,0,L|193:138,1,52.5,2|0,1:2|0:0,0:0:0:0:
481,116,219380,6,0,L|258:173,1,231.000007049561,0|2,1:0|0:0,0:0:0:0:
85,235,219605,2,0,L|312:298,1,231.000007049561,0|0,1:0|0:0,0:0:0:0:
483,282,219830,2,0,L|251:283,1,231.000007049561,2|0,1:2|0:0,0:0:0:0:
480,215,220130,6,0,B|413:199|413:199|480:207|480:207|410:189|410:189|484:168|484:168|413:196|413:196|482:196|482:196|412:196|412:196|480:196|480:196|211:187,1,818.999962509157,0|4,0:0|1:0,0:0:0:0:
256,192,220730,12,0,229880,0:0:0:0:
364,263,230180,5,4,0:0:0:0:
450,222,230330,1,0,0:0:0:0:
298,113,230480,1,0,0:0:0:0:
201,95,230630,1,0,0:0:0:0:
352,68,230780,1,2,0:0:0:0:
452,57,230930,1,0,0:0:0:0:
297,30,231080,1,0,0:0:0:0:
397,18,231230,1,2,0:0:0:0:
238,270,231380,5,0,0:0:0:0:
238,270,231530,1,0,0:0:0:0:
77,225,231680,1,2,0:0:0:0:
77,225,231830,1,0,0:0:0:0:
227,209,231980,1,0,0:0:0:0:
147,178,232130,1,2,0:0:0:0:
227,209,232280,1,0,0:0:0:0:
147,178,232430,1,0,0:0:0:0:
299,138,232580,5,2,0:0:0:0:
402,120,232730,1,0,0:0:0:0:
248,239,232880,1,0,0:0:0:0:
247,151,233030,1,2,0:0:0:0:
98,117,233180,1,0,0:0:0:0:
95,35,233330,1,0,0:0:0:0:
249,108,233480,1,2,0:0:0:0:
154,79,233630,1,0,0:0:0:0:
304,312,233780,5,0,0:0:0:0:
304,312,233930,1,2,0:0:0:0:
455,262,234080,1,0,0:0:0:0:
455,262,234230,1,0,0:0:0:0:
302,251,234380,1,2,0:0:0:0:
382,224,234530,1,0,0:0:0:0:
302,251,234680,1,0,0:0:0:0:
382,224,234830,1,0,0:0:0:0:
231,180,234980,5,0,0:0:0:0:
232,88,235130,1,0,0:0:0:0:
81,117,235280,1,0,0:0:0:0:
174,98,235430,1,0,0:0:0:0:
325,78,235580,1,2,0:0:0:0:
328,4,235730,1,0,0:0:0:0:
173,109,235880,1,0,0:0:0:0:
272,96,236030,1,2,0:0:0:0:
422,283,236180,5,0,0:0:0:0:
422,283,236330,1,0,0:0:0:0:
270,232,236480,1,2,0:0:0:0:
270,232,236630,1,0,0:0:0:0:
117,157,236780,1,0,0:0:0:0:
194,133,236930,1,2,0:0:0:0:
117,157,237080,1,0,0:0:0:0:
194,133,237230,1,0,0:0:0:0:
45,246,237380,5,2,0:0:0:0:
142,226,237530,1,0,0:0:0:0:
289,199,237680,1,0,0:0:0:0:
289,199,237830,1,2,0:0:0:0:
438,193,237980,1,0,0:0:0:0:
438,193,238130,1,0,0:0:0:0:
286,146,238280,1,2,0:0:0:0:
386,128,238430,1,0,0:0:0:0:
232,268,238580,5,0,0:0:0:0:
232,268,238730,1,2,0:0:0:0:
78,209,238880,1,0,0:0:0:0:
175,192,239030,1,0,0:0:0:0:
327,166,239180,1,2,0:0:0:0:
249,139,239330,1,0,0:0:0:0:
327,166,239480,1,0,0:0:0:0:
249,139,239630,1,0,0:0:0:0:
398,167,239780,5,0,0:0:0:0:
491,154,239930,1,0,0:0:0:0:
336,119,240080,1,0,0:0:0:0:
431,100,240230,1,0,0:0:0:0:
279,254,240380,1,2,0:0:0:0:
279,254,240530,1,0,0:0:0:0:
432,214,240680,1,0,0:0:0:0:
338,193,240830,1,2,0:0:0:0:
184,165,240980,5,0,0:0:0:0:
184,165,241130,1,0,0:0:0:0:
345,142,241280,1,2,0:0:0:0:
345,142,241430,1,0,0:0:0:0:
184,165,241580,1,0,0:0:0:0:
264,149,241730,1,2,0:0:0:0:
184,165,241880,1,0,0:0:0:0:
264,149,242030,1,0,0:0:0:0:
112,125,242180,5,2,0:0:0:0:
206,111,242330,1,0,0:0:0:0:
351,292,242480,1,0,0:0:0:0:
351,292,242630,1,2,0:0:0:0:
496,296,242780,1,0,0:0:0:0:
496,296,242930,1,0,0:0:0:0:
344,249,243080,1,2,0:0:0:0:
439,233,243230,1,0,0:0:0:0:
290,174,243380,5,0,0:0:0:0:
290,174,243530,1,2,0:0:0:0:
139,149,243680,1,0,0:0:0:0:
139,149,243830,1,0,0:0:0:0:
290,174,243980,1,2,0:0:0:0:
210,116,244130,1,0,0:0:0:0:
290,174,244280,1,0,0:0:0:0:
210,116,244430,1,0,0:0:0:0:
57,237,244580,5,2,0:0:0:0:
152,212,244730,1,0,0:0:0:0:
304,197,244880,1,0,0:0:0:0:
304,197,245030,1,0,0:0:0:0:
455,177,245180,1,2,0:0:0:0:
455,177,245330,1,0,0:0:0:0:
304,152,245480,1,0,0:0:0:0:
398,135,245630,1,2,0:0:0:0:
247,293,245780,5,0,0:0:0:0:
247,293,245930,1,0,0:0:0:0:
399,239,246080,1,2,0:0:0:0:
399,239,246230,1,0,0:0:0:0:
247,206,246380,1,0,0:0:0:0:
328,183,246530,1,2,0:0:0:0:
247,206,246680,1,0,0:0:0:0:
328,183,246830,1,0,0:0:0:0:
175,156,246980,5,2,0:0:0:0:
175,156,247130,1,0,0:0:0:0:
28,145,247280,1,0,0:0:0:0:
28,145,247430,1,2,0:0:0:0:
181,131,247580,1,0,0:0:0:0:
88,98,247730,1,0,0:0:0:0:
238,243,247880,1,0,0:0:0:0:
333,234,248030,1,0,0:0:0:0:
181,306,248180,5,0,0:0:0:0:
181,306,248330,1,2,0:0:0:0:
330,278,248480,1,0,0:0:0:0:
330,278,248630,1,0,0:0:0:0:
181,249,248780,1,0,0:0:0:0:
260,225,248930,1,0,0:0:0:0:
181,249,249080,1,2,0:0:0:0:
260,225,249230,1,0,0:0:0:0:
33,158,249380,5,2,0:0:0:0:
138,153,249530,1,2,0:0:0:0:
188,77,249680,1,2,0:0:0:0:
138,153,249830,1,2,0:0:0:0:
33,158,249980,1,0,0:0:0:0:
22,233,250130,1,2,0:0:0:0:
168,231,250280,1,2,0:0:0:0:
179,325,250430,1,2,0:0:0:0:
326,250,250580,5,2,0:0:0:0:
232,215,250730,1,2,0:0:0:0:
326,182,250880,1,2,0:0:0:0:
420,160,251030,1,2,0:0:0:0:
273,121,251180,1,0,0:0:0:0:
178,114,251330,1,2,0:0:0:0:
327,25,251480,1,2,0:0:0:0:
337,124,251630,1,2,0:0:0:0:
190,181,251780,5,2,0:0:0:0:
137,246,251930,1,2,0:0:0:0:
190,309,252080,1,2,0:0:0:0:
295,333,252230,1,2,0:0:0:0:
435,306,252380,1,0,0:0:0:0:
342,274,252530,1,2,0:0:0:0:
483,236,252680,1,2,0:0:0:0:
494,153,252830,1,2,0:0:0:0:
342,113,252980,5,2,0:0:0:0:
437,73,253130,1,2,0:0:0:0:
342,53,253280,1,2,0:0:0:0:
247,45,253430,1,2,0:0:0:0:
388,106,253580,1,0,0:0:0:0:
397,200,253730,1,2,0:0:0:0:
256,217,253880,1,2,0:0:0:0:
245,314,254030,1,2,0:0:0:0:
391,341,254180,5,2,0:0:0:0:
284,329,254330,1,2,0:0:0:0:
229,252,254480,1,2,0:0:0:0:
284,329,254630,1,2,0:0:0:0:
422,244,254780,1,0,0:0:0:0:
327,221,254930,1,2,0:0:0:0:
192,174,255080,1,2,0:0:0:0:
287,149,255230,1,2,0:0:0:0:
135,142,255380,5,2,0:0:0:0:
123,56,255530,1,2,0:0:0:0:
267,126,255680,1,2,0:0:0:0:
278,41,255830,1,2,0:0:0:0:
129,35,255980,1,2,0:0:0:0:
76,100,256130,1,2,0:0:0:0:
128,37,256280,1,2,0:0:0:0:
233,82,256430,1,2,0:0:0:0:
382,167,256580,5,2,0:0:0:0:
287,192,256730,1,2,0:0:0:0:
435,212,256880,1,2,0:0:0:0:
446,298,257030,1,2,0:0:0:0:
307,338,257180,1,0,0:0:0:0:
296,256,257330,1,2,0:0:0:0:
152,247,257480,1,2,0:0:0:0:
162,167,257630,1,2,0:0:0:0:
305,108,257780,5,2,0:0:0:0:
210,58,257930,1,2,0:0:0:0:
305,46,258080,1,2,0:0:0:0:
399,32,258230,1,2,0:0:0:0:
183,30,258380,1,2,0:0:0:0:
131,113,258530,1,2,0:0:0:0:
183,178,258680,1,2,0:0:0:0:
278,202,258830,1,2,0:0:0:0:
492,254,258980,5,2,0:0:0:0:
395,273,259130,1,2,0:0:0:0:
255,320,259280,1,2,0:0:0:0:
350,348,259430,1,2,0:0:0:0:
444,337,259580,1,2,0:0:0:0:
218,245,259730,1,2,0:0:0:0:
341,234,259880,1,0,0:0:0:0:
351,146,260030,1,2,0:0:0:0:
220,197,260180,5,2,0:0:0:0:
212,98,260330,1,0,0:0:0:0:
298,29,260480,1,2,0:0:0:0:
246,106,260630,1,2,0:0:0:0:
108,173,260780,1,2,0:0:0:0:
202,189,260930,1,2,0:0:0:0:
80,241,261080,1,2,0:0:0:0:
290,343,261230,1,2,0:0:0:0:
312,255,261380,5,2,0:0:0:0:
165,223,261530,1,2,0:0:0:0:
315,180,261680,1,2,0:0:0:0:
370,104,261830,1,2,0:0:0:0:
315,180,261980,1,0,0:0:0:0:
210,191,262130,1,2,0:0:0:0:
107,204,262280,1,2,0:0:0:0:
210,191,262430,1,2,0:0:0:0:
341,310,262580,5,2,0:0:0:0:
460,326,262730,1,2,0:0:0:0:
369,255,262880,1,2,0:0:0:0:
460,326,263030,1,2,0:0:0:0:
286,190,263180,1,0,0:0:0:0:
275,76,263330,1,2,0:0:0:0:
132,120,263480,1,2,0:0:0:0:
143,23,263630,1,2,0:0:0:0:
353,125,263780,5,2,0:0:0:0:
246,173,263930,1,2,0:0:0:0:
194,108,264080,1,2,0:0:0:0:
246,173,264230,1,2,0:0:0:0:
176,117,264380,1,0,0:0:0:0:
399,281,264530,1,2,0:0:0:0:
311,286,264680,1,2,0:0:0:0:
399,281,264830,1,2,0:0:0:0:
136,321,264980,5,2,0:0:0:0:
125,227,265130,1,2,0:0:0:0:
263,215,265280,1,2,0:0:0:0:
371,181,265430,1,2,0:0:0:0:
154,87,265580,1,2,0:0:0:0:
293,36,265730,1,0,0:0:0:0:
82,119,265880,1,0,0:0:0:0:
85,38,266030,1,2,0:0:0:0:
226,51,266180,5,0,0:0:0:0:
220,143,266330,1,0,0:0:0:0:
349,141,266480,1,0,0:0:0:0:
226,51,266630,1,2,0:0:0:0:
349,141,266780,1,0,0:0:0:0:
473,118,266930,1,0,0:0:0:0:
236,215,267080,1,2,0:0:0:0:
122,145,267230,1,0,0:0:0:0:
286,202,267380,5,0,0:0:0:0:
295,76,267530,1,2,0:0:0:0:
156,85,267680,1,2,0:0:0:0:
153,177,267830,1,2,0:0:0:0:
451,325,267980,1,0,0:0:0:0:
220,352,268280,2,0,P|163:321|226:277,1,157.5,0|0,0:0|0:0,0:0:0:0:
384,248,268580,6,0,P|387:78|387:78,1,157.5,6|0,1:2|0:0,0:0:0:0:
304,136,268880,2,0,L|301:91,1,26.25,2|0,0:3|0:0,0:0:0:0:
426,93,269030,2,0,L|427:55,1,26.25,2|0,0:3|0:0,0:0:0:0:
181,136,269180,1,10,0:3:0:0:
426,282,269330,2,0,L|429:94,1,157.5,6|0,1:2|0:0,0:0:0:0:
428,124,269630,1,0,1:0:0:0:
161,274,269780,6,0,B|156:68,1,157.5,6|0,1:2|0:0,0:0:0:0:
213,116,270080,1,8,0:0:0:0:
321,96,270230,1,0,0:0:0:0:
48,251,270380,1,6,1:2:0:0:
183,236,270530,2,0,L|190:115,1,105,8|0,0:0|0:0,0:0:0:0:
428,122,270830,6,0,L|197:118,1,210,6|0,0:0|0:0,0:0:0:0:
353,134,271280,2,0,L|355:18,1,105,4|0,0:3|0:0,0:0:0:0:
209,242,271580,2,0,L|183:234,1,26.25,8|0,0:0|0:0,0:0:0:0:
82,171,271730,2,0,L|132:167,1,26.25,8|0,0:0|0:0,0:0:0:0:
223,138,271880,1,8,0:0:0:0:
78,113,272030,2,0,L|131:110,1,52.5,8|8,0:0|0:0,0:0:0:0:
302,298,272180,6,0,L|336:294,1,26.25,8|0,0:0|0:0,0:0:0:0:
433,247,272330,2,0,L|435:211,1,26.25,8|0,0:0|0:0,0:0:0:0:
332,187,272480,2,0,L|296:186,1,26.25,0|0,0:0|0:0,0:0:0:0:
397,156,272630,2,0,L|395:90,1,52.5,0|0,0:0|0:0,0:0:0:0:
214,143,272780,6,0,L|47:136,1,157.5,4|0,0:3|0:0,0:0:0:0:
162,138,273080,2,0,L|342:134,1,157.5,0|0,1:0|1:0,0:0:0:0:
115,250,273380,6,0,P|106:77|106:77,1,157.5,6|0,0:0|0:0,0:0:0:0:
216,134,273680,2,0,L|218:88,1,26.25,0|0,0:0|0:0,0:0:0:0:
86,93,273830,2,0,L|87:54,1,26.25,0|0,0:0|0:0,0:0:0:0:
331,136,273980,1,8,0:0:0:0:
85,166,274130,2,0,L|282:157,1,157.5,6|0,0:0|0:0,0:0:0:0:
296,156,274430,1,0,0:0:0:0:
79,297,274580,6,0,L|75:104,1,157.5,6|0,0:0|0:0,0:0:0:0:
156,130,274880,1,8,0:0:0:0:
40,110,275030,1,0,0:0:0:0:
269,289,275180,1,6,0:0:0:0:
162,248,275330,2,0,L|155:132,1,105,8|0,0:0|0:0,0:0:0:0:
373,129,275630,6,0,L|148:109,1,210,6|0,0:0|0:0,0:0:0:0:
309,259,276080,2,0,L|314:86,1,157.5,0|0,0:0|0:0,0:0:0:0:
231,79,276380,1,0,0:0:0:0:
361,177,276530,2,0,L|404:177,2,26.25,0|0|0,0:0|0:0|0:0,0:0:0:0:
279,145,276680,2,0,L|243:143,2,26.25,0|0|0,0:0|0:0|0:0,0:0:0:0:
367,136,276830,2,0,L|369:78,1,52.5,0|0,0:0|0:0,0:0:0:0:
279,145,276980,5,0,0:0:0:0:
175,143,277130,1,0,0:0:0:0:
279,145,277280,1,0,0:0:0:0:
141,222,277430,2,0,L|205:224,1,52.5,0|0,0:0|0:0,0:0:0:0:
386,223,277580,2,0,L|479:222,2,70,8|8|8,0:3|0:3|0:3,0:0:0:0:
203,140,277880,2,0,L|105:141,2,70,0|0|0,1:0|1:0|1:0,0:0:0:0:
393,287,278180,6,0,B|293:285|293:285|289:179,1,157.5,6|0,0:0|0:0,0:0:0:0:
371,203,278480,2,0,L|372:156,1,26.25,2|0,0:3|0:0,0:0:0:0:
256,136,278630,2,0,L|254:91,1,26.25,2|0,0:3|0:0,0:0:0:0:
491,130,278780,1,10,0:3:0:0:
263,263,278930,2,0,L|260:103,1,157.5,6|0,0:0|0:0,0:0:0:0:
340,91,279230,1,0,1:0:0:0:
121,207,279380,6,0,L|290:201,1,157.5,6|0,0:0|0:0,0:0:0:0:
340,194,279680,1,8,0:0:0:0:
228,152,279830,1,0,0:0:0:0:
444,317,279980,1,6,0:0:0:0:
329,295,280130,2,0,L|323:173,1,105,8|0,0:0|0:0,0:0:0:0:
108,86,280430,6,0,L|321:83,1,210,6|0,0:0|0:0,0:0:0:0:
452,71,280880,2,0,L|328:70,1,105,4|0,0:3|0:0,0:0:0:0:
219,225,281180,2,0,L|245:217,1,26.25,8|0,0:2|0:0,0:0:0:0:
346,154,281330,2,0,L|296:150,1,26.25,8|0,0:2|0:0,0:0:0:0:
205,121,281480,1,8,0:2:0:0:
350,96,281630,2,0,L|297:93,1,52.5,8|8,0:2|0:2,0:0:0:0:
116,241,281780,6,0,L|114:202,1,26.25,8|0,0:2|0:0,0:0:0:0:
219,155,281930,2,0,L|220:120,1,26.25,8|0,0:2|0:0,0:0:0:0:
327,114,282080,2,0,L|329:74,1,26.25,0|0,0:0|0:0,0:0:0:0:
223,215,282230,2,0,L|221:157,1,52.5,0|0,0:0|0:0,0:0:0:0:
402,283,282380,6,0,B|413:181|413:181|349:157,1,157.5,4|0,0:3|0:0,0:0:0:0:
292,49,282680,1,0,1:0:0:0:
213,94,282755,1,0,0:0:0:0:
221,162,282830,1,0,0:0:0:0:
296,115,282905,1,0,0:0:0:0:
449,321,282980,6,0,L|450:139,1,157.5,6|0,0:0|0:0,0:0:0:0:
370,149,283280,2,0,L|371:101,1,26.25,0|0,0:0|0:0,0:0:0:0:
257,97,283430,2,0,L|257:66,1,26.25,0|0,0:0|0:0,0:0:0:0:
485,257,283580,1,8,0:0:0:0:
234,187,283730,2,0,L|417:184,1,157.5,6|0,0:0|0:0,0:0:0:0:
453,183,284030,1,0,0:0:0:0:
245,287,284180,6,0,B|141:287|141:287|140:190,1,157.5,6|0,0:0|0:0,0:0:0:0:
334,92,284480,2,0,L|227:92,1,105,8|0,0:0|0:0,0:0:0:0:
16,160,284780,1,6,0:0:0:0:
256,160,284930,1,8,0:0:0:0:
140,171,285080,1,0,0:0:0:0:
493,80,285230,5,6,0:0:0:0:
256,192,285380,12,0,289880,0:0:0:0:
188,213,290180,6,0,L|69:205,1,105,12|0,1:0|1:0,0:0:0:0:
161,164,290405,1,8,0:3:0:0:
329,201,290480,2,0,L|454:196,1,105,10|0,1:2|1:0,0:0:0:0:
355,150,290705,1,2,0:0:0:0:
201,162,290780,6,0,L|200:87,1,52.5,8|2,1:2|0:0,0:0:0:0:
41,101,290930,2,0,L|33:35,1,52.5,0|8,1:0|0:3,0:0:0:0:
215,273,291080,1,10,1:2:0:0:
274,235,291155,1,0,0:0:0:0:
215,273,291230,1,0,1:0:0:0:
132,289,291305,1,8,0:3:0:0:
308,327,291380,6,0,L|310:211,1,105,10|0,1:2|1:0,0:0:0:0:
230,202,291605,1,0,0:0:0:0:
401,200,291680,2,0,L|403:92,1,105,10|0,1:2|1:0,0:0:0:0:
324,81,291905,1,2,0:0:0:0:
146,98,291980,6,0,L|66:93,1,52.5,8|2,1:2|0:0,0:0:0:0:
278,302,292130,2,0,L|280:220,1,52.5,0|8,1:0|0:3,0:0:0:0:
436,254,292280,2,0,L|186:246,1,210,10|0,1:2|1:0,0:0:0:0:
306,211,292505,1,8,0:0:0:0:
469,323,292580,6,0,L|468:180,1,105,10|0,1:2|1:0,0:0:0:0:
389,188,292805,1,8,0:3:0:0:
226,136,292880,2,0,L|345:132,1,105,10|0,1:2|1:0,0:0:0:0:
398,126,293105,1,2,0:0:0:0:
232,296,293180,6,0,L|229:218,1,52.5,8|2,1:2|0:0,0:0:0:0:
66,187,293330,2,0,L|140:177,1,52.5,0|8,1:0|0:3,0:0:0:0:
330,178,293480,2,0,L|331:116,1,52.5,10|0,1:2|0:0,0:0:0:0:
246,117,293630,2,0,L|243:45,1,52.5,2|0,1:3|0:0,0:0:0:0:
54,103,293780,6,0,L|172:97,1,105,10|2,1:2|1:2,0:0:0:0:
234,95,294005,1,0,0:0:0:0:
49,267,294080,2,0,L|44:156,1,105,10|0,1:2|1:0,0:0:0:0:
115,128,294305,1,2,0:0:0:0:
275,235,294380,5,8,1:2:0:0:
343,225,294455,1,2,0:0:0:0:
275,235,294530,1,0,0:0:0:0:
263,167,294605,1,8,0:3:0:0:
449,163,294680,1,10,1:2:0:0:
381,158,294755,1,0,0:0:0:0:
449,163,294830,1,2,1:2:0:0:
381,158,294905,1,8,0:0:0:0:
112,240,294980,6,0,B|240:240|240:240|240:120,1,196.875,10|8,1:2|0:3,0:0:0:0:
400,240,295280,2,0,B|272:240|272:240|272:120,1,196.875,10|2,1:2|0:0,0:0:0:0:
490,328,295580,6,0,L|489:268,1,52.5,8|2,1:2|0:2,0:0:0:0:
339,242,295730,2,0,L|339:177,1,52.5,0|0,1:0|0:0,0:0:0:0:
180,142,295880,2,0,L|178:83,1,52.5,10|0,1:2|0:0,0:0:0:0:
341,117,296030,2,0,L|340:62,1,52.5,0|8,1:0|0:0,0:0:0:0:
112,240,296180,6,0,B|240:240|240:240|240:120,1,196.875,10|8,1:2|0:3,0:0:0:0:
400,240,296480,2,0,B|272:240|272:240|272:120,1,196.875,10|2,1:2|0:0,0:0:0:0:
446,321,296780,6,0,L|445:261,1,52.5,8|2,1:0|0:0,0:0:0:0:
295,235,296930,2,0,L|295:170,1,52.5,0|8,1:0|0:3,0:0:0:0:
135,181,297080,2,0,L|130:112,1,52.5,10|0,1:2|0:0,0:0:0:0:
210,97,297230,2,0,L|212:39,1,52.5,0|8,1:0|0:0,0:0:0:0:
360,328,297380,6,0,B|493:320|493:320|417:290,1,196.875,10|8,1:2|0:3,0:0:0:0:
268,234,297680,2,0,B|135:226|135:226|211:196,1,196.875,10|2,1:2|0:0,0:0:0:0:
358,191,297980,6,0,L|361:108,1,52.5,8|2,1:0|0:0,0:0:0:0:
216,112,298130,2,0,L|213:57,1,52.5,0|8,1:0|0:3,0:0:0:0:
359,196,298280,2,0,L|360:99,1,52.5,10|0,1:2|0:0,0:0:0:0:
496,176,298430,2,0,L|496:104,1,52.5,2|10,1:2|0:0,0:0:0:0:
317,291,298580,6,0,L|238:283,1,52.5,10|0,1:2|0:0,0:0:0:0:
340,250,298730,2,0,L|344:183,1,52.5,0|0,1:0|0:0,0:0:0:0:
149,173,298880,1,10,1:2:0:0:
208,162,298955,1,8,0:3:0:0:
149,173,299030,1,8,1:3:0:0:
208,162,299105,1,2,0:2:0:0:
40,278,299180,6,0,L|33:212,1,52.5,8|2,1:0|0:0,0:0:0:0:
201,226,299330,2,0,L|194:162,1,52.5,0|2,1:0|0:2,0:0:0:0:
371,158,299480,2,0,L|419:156,1,26.25,8|0,1:0|0:0,0:0:0:0:
208,50,299630,2,0,L|169:47,1,26.25,2|0,1:2|0:0,0:0:0:0:
430,313,299780,6,0,L|442:226,1,52.5,12|0,1:0|1:0,0:0:0:0:
343,222,299930,2,0,L|338:157,1,52.5,0|0,1:0|1:0,0:0:0:0:
187,264,300080,2,0,L|175:177,1,52.5,10|0,1:2|1:0,0:0:0:0:
265,172,300230,2,0,L|270:107,1,52.5,0|0,1:0|1:2,0:0:0:0:
104,151,300380,6,0,L|98:86,1,52.5,10|0,1:2|1:0,1:1:0:0:
254,114,300530,2,0,L|255:44,1,52.5,2|0,1:2|1:0,1:1:0:0:
412,127,300680,2,0,L|415:50,1,52.5,10|0,1:2|1:0,1:1:0:0:
250,176,300830,2,0,L|250:110,1,52.5,2|0,1:2|1:0,1:1:0:0:
411,251,300980,6,0,L|342:244,1,52.5,10|0,1:2|1:0,0:0:0:0:
291,231,301130,2,0,L|222:227,1,52.5,0|0,1:0|1:0,0:0:0:0:
81,191,301280,2,0,L|171:186,1,52.5,10|0,1:2|1:0,0:0:0:0:
204,178,301430,2,0,L|264:169,1,52.5,0|0,1:0|1:0,0:0:0:0:
421,157,301580,6,0,L|429:99,1,52.5,10|0,1:2|1:0,1:1:0:0:
257,111,301730,2,0,L|254:180,1,52.5,2|0,1:0|1:0,1:1:0:0:
99,319,301880,1,4,0:0:0:0:
68,317,301917,1,0,0:0:0:0:
43,299,301955,1,0,0:0:0:0:
33,271,301992,1,0,0:0:0:0:
37,241,302030,1,0,0:0:0:0:
58,218,302067,1,0,0:0:0:0:
87,210,302105,1,0,0:0:0:0:
249,246,302180,6,0,L|307:239,1,52.5,12|0,1:0|1:0,0:0:0:0:
210,230,302330,2,0,L|203:174,1,52.5,0|0,1:0|1:0,0:0:0:0:
381,217,302480,2,0,L|439:215,1,52.5,10|0,1:2|1:0,0:0:0:0:
350,199,302630,2,0,L|346:138,1,52.5,0|0,1:0|1:0,0:0:0:0:
496,304,302780,6,0,L|496:240,1,52.5,10|0,1:2|1:0,1:1:0:0:
331,238,302930,2,0,L|331:164,1,52.5,2|0,1:2|1:0,1:1:0:0:
180,154,303080,2,0,L|176:95,1,52.5,10|0,1:2|1:0,1:1:0:0:
331,137,303230,2,0,L|335:75,1,52.5,2|0,1:2|1:0,1:1:0:0:
169,259,303380,6,0,L|237:256,1,52.5,10|0,1:2|1:0,0:0:0:0:
299,256,303530,2,0,L|302:194,1,52.5,0|0,1:0|1:0,0:0:0:0:
470,227,303680,2,0,L|400:217,1,52.5,10|0,1:2|1:0,0:0:0:0:
335,198,303830,2,0,L|328:116,1,52.5,0|0,1:0|1:0,0:0:0:0:
166,253,303980,6,0,L|160:194,1,52.5,10|0,1:2|1:0,1:1:0:0:
320,298,304130,2,0,L|313:227,1,52.5,2|0,1:2|1:0,1:1:0:0:
469,258,304280,2,0,L|469:222,1,26.25,6|0,0:2|0:0,0:0:0:0:
373,175,304430,2,0,L|375:127,1,26.25,0|0,0:1|0:0,0:0:0:0:
147,130,304580,6,0,L|82:123,1,52.5,12|0,1:0|1:0,0:0:0:0:
328,274,304730,2,0,L|394:272,1,52.5,0|0,1:0|1:0,0:0:0:0:
119,197,304880,2,0,L|58:196,1,52.5,10|0,1:2|1:0,0:0:0:0:
360,217,305030,2,0,L|423:218,1,52.5,0|0,1:0|1:0,0:0:0:0:
95,133,305180,6,0,L|23:129,1,52.5,10|0,1:2|1:0,0:0:0:0:
391,152,305330,2,0,L|465:158,1,52.5,0|0,1:0|1:0,0:0:0:0:
84,272,305480,1,2,1:3:0:0:
54,269,305517,1,0,0:0:0:0:
30,252,305555,1,0,0:0:0:0:
19,225,305592,1,0,0:0:0:0:
22,196,305630,1,0,0:0:0:0:
39,173,305667,1,0,0:0:0:0:
66,162,305705,1,0,0:0:0:0:
370,96,305780,6,0,L|305:95,1,52.5,12|0,1:0|1:0,0:0:0:0:
72,65,305930,2,0,L|159:60,1,52.5,0|0,1:0|1:0,0:0:0:0:
438,139,306080,2,0,L|366:136,1,52.5,10|0,1:2|1:0,0:0:0:0:
49,126,306230,2,0,L|127:118,1,52.5,0|0,1:0|1:0,0:0:0:0:
418,197,306380,6,0,L|355:195,1,52.5,10|0,1:2|1:0,0:0:0:0:
28,192,306530,2,0,L|87:192,1,52.5,0|0,1:0|1:0,0:0:0:0:
421,320,306680,1,0,1:0:0:0:
448,308,306717,1,0,3:0:0:0:
468,286,306755,1,0,3:0:0:0:
477,257,306792,1,0,3:0:0:0:
473,227,306830,1,0,3:0:0:0:
457,202,306867,1,0,3:0:0:0:
431,186,306905,1,0,3:0:0:0:
218,193,306980,5,12,1:0:0:0:
250,191,307017,1,0,1:0:0:0:
283,188,307055,1,0,1:0:0:0:
315,186,307092,1,0,1:0:0:0:
348,183,307130,1,0,1:0:0:0:
380,182,307167,1,0,1:0:0:0:
414,179,307205,1,0,1:0:0:0:
196,230,307280,2,0,L|194:196,2,26.25,2|0|0,1:2|0:0|1:0,1:1:0:0:
271,169,307430,1,0,1:0:0:0:
244,167,307467,1,0,0:0:0:0:
218,165,307505,1,0,1:0:0:0:
63,181,307580,6,0,L|30:178,2,26.25,10|0|0,1:2|1:0|1:0,1:1:0:0:
179,117,307692,1,0,1:0:0:0:
298,106,307730,2,0,L|341:104,2,26.25,0|0|0,1:0|1:0|1:0,0:0:0:0:
79,277,307880,1,2,1:2:0:0:
53,278,307917,1,0,0:0:0:0:
31,264,307955,1,0,1:0:0:0:
20,241,307992,1,0,0:0:0:0:
24,215,308030,1,0,1:3:0:0:
42,196,308067,1,0,0:0:0:0:
67,191,308105,1,0,1:3:0:0:
212,265,308142,1,0,0:0:0:0:
360,235,308180,6,0,L|399:231,2,26.25,10|0|0,1:2|1:0|1:0,1:1:0:0:
215,221,308292,1,0,1:0:0:0:
67,191,308330,2,0,L|35:188,2,26.25,0|0|0,1:0|1:0|1:0,0:0:0:0:
223,152,308442,1,0,0:0:0:0:
383,167,308480,6,0,L|425:168,2,26.25,2|0|0,1:2|1:0|1:0,1:1:0:0:
223,69,308592,1,0,1:0:0:0:
64,82,308630,2,0,L|34:82,2,26.25,0|0|0,1:0|1:0|1:0,0:0:0:0:
234,16,308742,1,0,0:0:0:0:
407,89,308780,6,0,L|446:89,2,26.25,2|0|0,1:2|1:0|1:0,1:1:0:0:
252,109,308892,1,0,1:0:0:0:
93,50,308930,2,0,L|60:51,2,26.25,0|0|0,1:0|1:0|1:0,0:0:0:0:
276,160,309042,1,0,0:0:0:0:
465,25,309080,6,0,L|498:25,2,26.25,2|0|0,1:2|1:0|1:0,1:1:0:0:
308,211,309192,1,0,1:0:0:0:
149,74,309230,2,0,L|97:77,2,26.25,0|0|0,1:0|1:0|1:0,0:0:0:0:
289,262,309342,1,0,0:0:0:0:
428,98,309380,6,0,L|426:216,1,105,4|0,0:1|0:0,0:0:0:0:
315,75,309680,1,8,0:3:0:0:
463,315,309830,2,0,L|465:277,1,26.25,2|0,0:0|0:0,0:0:0:0:
349,248,309980,2,0,L|349:215,1,26.25,2|0,0:0|0:0,0:0:0:0:
223,183,310130,2,0,L|218:76,1,105,2|8,0:3|0:3,0:0:0:0:
348,249,310430,1,2,0:0:0:0:
121,283,310580,6,0,L|115:226,1,52.5,2|0,0:0|0:0,0:0:0:0:
193,217,310730,2,0,L|194:162,1,52.5,2|0,0:0|0:0,0:0:0:0:
122,153,310880,2,0,L|17:146,1,105,10|0,0:3|0:0,0:0:0:0:
257,163,311180,6,0,L|330:158,1,52.5,0|2,0:0|0:0,0:0:0:0:
237,134,311330,2,0,L|231:66,1,52.5,0|2,0:0|0:0,0:0:0:0:
412,105,311480,2,0,L|467:100,3,52.5,0|0|0|0,0:0|0:0|0:0|0:0,0:0:0:0:
285,238,311780,6,0,B|40:178|40:178|45:307,1,377.999988464356,6|0,1:2|0:0,0:0:0:0:
223,162,312080,2,0,L|483:70,1,272.999987503052,10|0,1:2|0:0,0:0:0:0:
301,50,312305,1,2,0:0:0:0:
92,54,312380,6,0,L|87:119,1,52.5,0|2,1:0|0:0,0:0:0:0:
243,147,312530,2,0,L|169:139,1,52.5,0|0,0:0|0:0,0:0:0:0:
393,154,312680,2,0,L|413:212,1,52.5,10|0,1:2|0:0,0:0:0:0:
327,176,312830,2,0,L|318:116,1,52.5,0|0,0:0|0:0,0:0:0:0:
64,189,312980,6,0,B|305:248|305:248|319:117,1,377.999988464356,2|0,1:2|0:0,2:2:0:0:
140,142,313280,2,0,L|388:254,1,272.999987503052,10|0,1:2|0:0,0:0:0:0:
246,254,313505,1,2,0:0:0:0:
104,258,313580,6,0,L|109:326,1,52.5,0|2,1:0|0:0,0:0:0:0:
271,320,313730,2,0,L|214:321,1,52.5,0|0,0:0|0:0,0:0:0:0:
390,58,313880,2,0,B|435:182|435:182|390:57|390:57|336:186|336:186|390:56|390:56|202:264,1,818.999962509157,10|0,1:2|0:0,0:0:0:0:
492,241,314180,6,0,B|421:135|421:135|493:242|493:242|366:240|366:240|493:243|493:243|270:363,1,755.999976928712,2|0,1:2|0:0,0:0:0:0:
73,293,314480,2,0,B|346:276|346:276|374:142,1,409.499981254579,10|2,1:2|0:0,0:0:0:0:
212,127,314780,6,0,L|205:181,1,52.5,0|2,1:0|0:0,0:0:0:0:
47,195,314930,2,0,L|108:196,1,52.5,0|0,0:0|0:0,0:0:0:0:
303,280,315080,2,0,L|54:274,1,241.500004606247,10|0,1:2|0:0,0:0:0:0:
321,198,315380,6,0,B|290:334|290:334|341:240|341:240|246:317|246:317|341:239|341:239|70:204,1,755.999976928712,2|0,1:2|0:0,0:0:0:0:
241,147,315680,2,0,L|477:262,1,262.5,10|0,1:2|0:0,0:0:0:0:
315,278,315905,1,2,0:0:0:0:
104,72,315980,6,0,B|371:65|371:65|305:179,1,393.75,0|0,1:0|0:0,0:0:0:0:
103,173,316280,2,0,L|98:236,1,52.5,10|0,1:2|0:0,0:0:0:0:
301,276,316430,2,0,L|362:272,1,52.5,2|0,0:0|0:0,0:0:0:0:
116,146,316580,6,0,B|376:175|376:175|318:297,1,393.75,2|0,1:2|0:0,0:0:0:0:
374,175,316880,2,0,B|114:146|114:146|172:24,1,393.75,10|2,1:2|0:0,0:0:0:0:
389,32,317180,6,0,L|381:89,1,52.5,0|2,1:0|0:0,0:0:0:0:
213,188,317330,2,0,L|275:189,1,52.5,0|0,0:0|0:0,0:0:0:0:
117,84,317480,2,0,B|69:362|69:362|145:226,1,425.2500016222,10|0,1:2|2:0,2:2:0:0:
379,183,317780,6,0,B|107:205|107:205|177:334,1,409.499981254579,2|0,1:2|0:0,0:0:0:0:
107,205,318080,2,0,B|379:183|379:183|309:54,1,409.499981254579,10|2,1:2|0:2,0:0:0:0:
99,55,318380,6,0,L|108:112,1,52.5,0|2,1:0|0:0,0:0:0:0:
290,165,318530,2,0,L|216:165,1,52.5,0|0,0:0|0:0,0:0:0:0:
423,303,318680,2,0,B|471:25|471:25|394:158,1,425.2500016222,10|0,1:2|0:0,0:0:0:0:
118,239,318980,6,0,B|401:236|401:236|320:88,1,425.2500016222,2|0,1:2|0:0,0:0:0:0:
399,236,319280,2,0,B|116:239|116:239|197:387,1,425.2500016222,10|2,1:2|1:2,0:0:0:0:
355,318,319580,6,0,L|83:302,1,272.999987503052,0|0,0:0|1:0,0:0:0:0:
248,201,319805,1,0,1:0:0:0:
413,123,319880,2,0,L|126:101,1,283.500001081467,10|2,1:2|1:2,0:0:0:0:
295,55,320105,1,2,1:2:0:0:
120,53,320180,6,0,L|106:206,1,141.750000540733,6|0,1:2|0:0,0:0:0:0:
273,62,320330,2,0,L|259:215,1,141.750000540733,2|0,1:2|0:0,0:0:0:0:
432,43,320480,2,0,L|149:19,1,283.500001081467,10|0,0:0|0:0,0:0:0:0:
329,127,320705,1,6,1:2:0:0:
254,135,320780,5,0,0:0:0:0:
387,102,320855,1,6,1:2:0:0:
398,32,320930,1,0,0:0:0:0:
228,229,321005,1,2,1:2:0:0:
77,226,321080,1,8,0:0:0:0:
228,229,321155,1,0,1:0:0:0:
365,234,321230,1,2,1:2:0:0:
367,299,321305,1,2,1:2:0:0:
96,96,321380,6,0,L|64:32,1,55.1249983177186,2|0,1:2|0:0,0:0:0:0:
71,46,321530,2,0,L|96:96,1,55.1249983177186,0|0,1:0|0:0,0:0:0:0:
317,250,321680,2,0,B|287:308|141:314|87:266|78:185|78:185|72:183|72:183|78:184|78:184|166:138|237:218,1,472.500018024445,14|2,1:2|0:0,0:0:0:0:
210,226,321980,6,0,P|274:194|386:210,1,157.500006008148,0|2,1:0|0:0,0:0:0:0:
398,289,322130,2,0,P|334:337|190:305,1,210,0|0,0:0|0:0,0:0:0:0:
269,97,322280,2,0,B|265:71|265:71|269:69|269:69|263:69|263:69|249:40|168:-9|77:36|38:77|38:77|30:76|30:76|37:78|37:78|31:140|31:140|26:140|26:140|39:140|39:140|34:140|34:140|23:247,1,472.500018024445,10|0,1:2|0:0,0:0:0:0:
264,294,322580,6,0,B|288:280|296:253|296:253|301:252|301:252|296:251|296:251|304:212|282:185|282:185|290:180|290:180|282:184|282:184|263:165|237:164|237:164|210:167|210:167|199:154|199:154|153:175|164:219|164:219|93:225|93:225|90:217|90:217|26:221,1,472.500018024445,2|0,1:2|0:0,0:0:0:0:
264,294,322880,2,0,B|289:279|297:252|297:252|501:266|501:266|511:267|511:267|502:266|502:266|503:278|503:278|502:266|502:266|501:253,1,315.000012016297,10|0,1:2|0:0,0:0:0:0:
230,232,323105,1,2,0:0:0:0:
291,181,323180,5,0,1:0:0:0:
97,159,323255,1,2,0:0:0:0:
90,87,323330,1,0,0:0:0:0:
300,63,323405,1,0,0:0:0:0:
238,52,323480,2,0,B|329:63|329:63|332:57|332:57|394:63|394:63|395:56|395:56|397:63|397:63|471:71|471:71|464:122|486:161|486:161|468:188|468:188|496:219|489:288,1,472.500018024445,10|0,1:2|0:0,0:0:0:0:
98,114,323780,6,0,B|118:60|193:26|245:68|260:119|260:119|277:69|311:40|380:48|380:48|496:59,1,472.500018024445,2|0,1:2|0:0,0:0:0:0:
325,229,324080,2,0,B|264:218|264:218|267:211|267:211|264:217|264:217|230:222|189:202|189:202|196:198|196:198|202:202|202:202|156:220|124:212|124:212|122:208|122:208|122:212|122:212|64:226|64:226|157:227|234:310,1,472.500018024445,10|2,1:2|0:0,0:0:0:0:
198,372,324380,6,0,B|246:338|246:338|410:363,1,210,0|2,1:0|0:0,0:0:0:0:
335,233,324530,2,0,B|287:267|287:267|123:242,1,210,0|0,0:0|0:0,0:0:0:0:
201,123,324680,2,0,B|247:124|247:124|256:132|256:132|327:138|466:9|466:9|478:8|478:8|467:9|467:9|421:55|487:41|376:128,1,472.500018024445,10|0,1:2|0:0,0:0:0:0:
148,209,324980,6,0,B|159:138|187:187|205:107,1,105,2|0,1:2|0:0,0:0:0:0:
364,209,325130,2,0,B|353:138|325:187|307:107,1,105,2|0,0:0|0:0,0:0:0:0:
178,271,325280,2,0,P|256:328|341:269,1,210,10|0,1:2|0:0,0:0:0:0:
133,102,325505,6,0,B|106:58|106:58|107:72|107:72|83:32,1,105,2|0,1:2|0:0,0:0:0:0:
255,66,325655,1,2,1:2:0:0:
86,38,325730,2,0,B|82:90|82:90|76:77|76:77|74:115,1,105,0|0,0:0|1:0,0:0:0:0:
379,102,325880,2,0,B|406:58|406:58|405:72|405:72|429:32,1,105,10|0,1:2|0:0,0:0:0:0:
284,67,326030,2,0,P|255:103|224:70,1,105,2|0,1:2|0:0,0:0:0:0:
400,192,326180,6,0,B|256:204|256:204|256:178|256:178|96:192,1,315.000012016297,6|0,1:2|0:0,0:0:0:0:
256,256,326405,1,0,0:0:0:0:
400,320,326480,2,0,B|256:308|256:308|256:334|256:334|96:320,1,315.000012016297,2|0,1:2|1:0,0:0:0:0:
296,320,326705,6,0,P|335:253|296:192,1,157.500006008148,2|0,1:2|0:0,0:0:0:0:
112,256,326855,2,0,L|432:256,1,315.000012016297,2|0,1:2|1:0,0:0:0:0:
229,223,327080,1,2,1:3:0:0:
213,219,327098,1,0,0:0:0:0:
218,213,327117,1,0,0:0:0:0:
203,213,327136,1,0,0:0:0:0:
210,201,327155,1,0,0:0:0:0:
196,202,327173,1,0,0:0:0:0:
205,185,327192,1,0,0:0:0:0:
194,185,327211,1,0,0:0:0:0:
210,165,327230,1,0,0:0:0:0:
198,165,327248,1,0,0:0:0:0:
219,150,327267,1,0,0:0:0:0:
208,149,327286,1,0,0:0:0:0:
230,140,327305,1,0,0:0:0:0:
448,192,327380,6,0,L|288:192,1,157.500006008148,6|0,1:2|0:0,0:0:0:0:
64,192,327530,2,0,L|224:192,1,157.500006008148,0|0,1:0|0:0,0:0:0:0:
416,288,327680,2,0,L|101:287,1,315.000012016297,2|0,1:2|1:0,0:0:0:0:
271,254,327905,6,0,P|310:187|271:126,1,157.500006008148,2|0,1:2|0:0,0:0:0:0:
96,96,328055,2,0,L|411:97,1,315.000012016297,2|0,1:2|0:0,0:0:0:0:
232,192,328280,1,0,1:2:0:0:
284,192,328355,1,0,3:0:0:0:
232,192,328430,1,0,3:0:0:0:
284,192,328505,1,0,3:0:0:0:
122,369,328580,6,0,P|50:186|388:-69,1,672,4|0,1:0|0:0,0:0:0:0:
378,53,329817,1,0,0:0:0:0:
387,87,329855,1,0,0:0:0:0:
389,121,329892,1,0,0:0:0:0:
380,150,329930,1,0,0:0:0:0:
362,171,329967,1,0,0:0:0:0:
338,189,330005,1,0,0:0:0:0:
308,195,330042,1,0,0:0:0:0:
272,193,330080,1,0,0:0:0:0:
232,193,330117,1,0,0:0:0:0:
190,195,330155,1,0,0:0:0:0:
150,195,330192,1,0,0:0:0:0:
108,192,330230,1,0,0:0:0:0:
301,43,330305,5,0,0:0:0:0:
345,43,330342,1,0,0:0:0:0:
391,40,330380,1,0,0:0:0:0:
212,101,330455,1,0,0:0:0:0:
168,101,330492,1,0,0:0:0:0:
148,101,330530,1,0,0:0:0:0:
168,101,330567,1,0,0:0:0:0:
212,101,330605,1,0,0:0:0:0:
16,192,330680,2,0,L|16:64,1,126
218,250,330980,6,0,B|490:247|490:247|491:98,1,409.499981254579,6|0,1:2|0:0,0:0:0:0:
297,165,331280,2,0,L|20:155,1,272.999987503052,10|0,1:2|0:0,0:0:0:0:
160,248,331505,1,2,0:0:0:0:
324,190,331580,6,0,L|264:189,1,52.5,0|2,1:0|0:0,0:0:0:0:
448,128,331730,2,0,L|448:40,1,52.5,0|0,0:0|0:0,0:0:0:0:
290,227,331880,2,0,B|18:211|18:211|17:48,1,409.499981254579,10|0,1:2|0:0,0:0:0:0:
218,213,332180,6,0,B|489:192|489:192|346:168,1,409.499981254579,2|0,1:2|0:0,0:0:0:0:
132,139,332480,2,0,B|406:119|406:119,1,272.999987503052,10|0,1:2|0:0,0:0:0:0:
261,229,332705,1,2,0:0:0:0:
99,279,332780,6,0,L|96:224,1,52.5,0|2,1:0|0:0,0:0:0:0:
288,165,332930,2,0,L|288:86,1,52.5,0|0,0:0|0:0,0:0:0:0:
476,178,333080,2,0,B|205:157|205:157|348:133,1,409.499981254579,10|0,1:2|0:0,0:0:0:0:
490,266,333380,6,0,B|217:262|217:262|210:111,1,409.499981254579,2|0,1:2|0:0,0:0:0:0:
425,84,333680,2,0,L|74:71,1,272.999987503052,10|0,1:2|0:0,0:0:0:0:
16,64,333905,1,2,0:0:0:0:
165,255,333980,6,0,L|161:171,1,52.5,0|2,1:0|0:0,0:0:0:0:
329,133,334130,2,0,L|243:128,1,52.5,0|0,0:0|0:0,0:0:0:0:
53,186,334280,2,0,B|309:185|309:185|315:41,1,377.999988464356,10|0,1:2|0:0,0:0:0:0:
161,253,334580,6,0,L|263:251,1,98.4375,2|0,1:2|0:0,0:0:0:0:
386,236,334730,2,0,L|280:232,1,98.4375,2|0,2:0|0:0,0:0:0:0:
161,253,334880,2,0,L|462:254,1,272.999987503052,10|0,1:2|0:0,0:0:0:0:
291,194,335105,1,2,0:0:0:0:
135,145,335180,6,0,L|131:78,1,52.5,0|2,1:0|0:0,0:0:0:0:
296,149,335330,2,0,L|228:144,1,52.5,0|0,0:0|0:0,0:0:0:0:
418,144,335480,2,0,L|483:138,1,52.5,10|0,1:2|0:0,0:0:0:0:
297,103,335630,2,0,L|225:101,1,52.5,2|0,0:0|0:0,0:0:0:0:
419,227,335780,6,0,L|482:218,1,52.5,2|0,1:2|0:0,0:0:0:0:
296,200,335930,2,0,L|288:113,1,52.5,0|0,1:0|0:0,0:0:0:0:
116,287,336080,2,0,B|388:270|388:270|210:282,1,409.499981254579,10|2,1:2|0:0,0:0:0:0:
417,185,336380,6,0,L|418:125,1,52.5,0|2,1:0|0:0,0:0:0:0:
267,86,336530,2,0,L|331:84,1,52.5,0|0,0:0|0:0,0:0:0:0:
481,249,336680,2,0,L|58:231,1,409.499981254579,10|0,1:2|0:0,0:0:0:0:
212,244,336980,6,0,B|484:227|484:227|306:239,1,409.499981254579,2|0,1:2|0:0,0:0:0:0:
207,188,337280,2,0,B|479:171|479:171|301:183,1,409.499981254579,10|2,1:2|0:0,0:0:0:0:
184,190,337580,6,0,L|186:119,1,52.5,0|2,1:0|0:0,0:0:0:0:
32,162,337730,2,0,L|26:86,1,52.5,0|0,0:0|0:0,0:0:0:0:
208,240,337880,2,0,L|143:238,1,52.5,10|0,1:2|0:0,0:0:0:0:
16,224,338030,2,0,L|80:224,1,52.5,0|0,0:0|0:0,0:0:0:0:
227,156,338180,6,0,L|315:152,1,52.5,2|0,1:2|0:0,0:0:0:0:
114,88,338330,1,0,1:0:0:0:
279,153,338405,1,0,1:0:0:0:
114,88,338480,2,0,B|387:84|387:84|394:228,1,409.499981254579,10|2,1:2|1:2,0:0:0:0:
161,253,338780,6,0,L|252:250,1,65.625,0|0,1:0|0:0,0:0:0:0:
386,236,338930,2,0,L|289:235,1,65.625
161,198,339080,2,0,L|95:197,1,52.5,10|0,1:2|0:0,0:0:0:0:
287,165,339230,2,0,L|285:91,1,52.5,2|2,1:2|1:2,0:0:0:0:
479,177,339380,6,0,L|377:175,1,98.4375,6|0,1:2|0:0,0:0:0:0:
254,160,339530,2,0,L|360:156,1,98.4375,2|0,1:2|0:0,0:0:0:0:
477,263,339680,2,0,L|108:256,1,272.999987503052,14|0,0:0|0:0,0:0:0:0:
47,249,339905,1,6,1:2:0:0:
204,257,339980,6,0,L|197:177,1,52.5,0|2,0:0|1:2,0:0:0:0:
355,167,340130,1,0,0:0:0:0:
204,257,340205,1,2,0:0:0:0:
355,167,340280,2,0,L|392:160,1,26.25
200,112,340430,2,0,L|203:81,1,26.25,2|0,0:2|0:0,0:0:0:0:
441,294,340580,6,0,L|112:282,1,272.999987503052,6|0,1:2|0:0,0:0:0:0:
305,193,340805,1,0,0:0:0:0:
441,294,340880,2,0,B|169:288|169:288|168:125,1,409.499981254579,10|2,1:2|0:2,0:0:0:0:
316,218,341180,6,0,L|235:210,1,52.5,0|2,1:2|0:0,0:0:0:0:
400,192,341330,2,0,L|405:128,1,52.5,0|0,0:0|1:0,0:0:0:0:
211,232,341480,2,0,B|487:212|487:212,1,272.999987503052,10|0,1:2|0:0,0:0:0:0:
280,152,341705,1,0,0:0:0:0:
80,112,341780,6,0,L|392:112,1,272.999987503052,2|0,1:2|0:0,0:0:0:0:
216,64,342005,1,0,0:0:0:0:
80,112,342080,2,0,B|351:91|351:91|208:67,1,409.499981254579,10|2,1:2|0:0,0:0:0:0:
360,144,342380,6,0,L|360:64,1,52.5,0|2,1:0|0:0,0:0:0:0:
219,85,342530,2,0,L|309:79,1,52.5,0|0,0:0|1:0,0:0:0:0:
440,112,342680,2,0,B|169:91|169:91|312:67,1,409.499981254579,10|0,1:2|0:0,0:0:0:0:
464,224,342980,6,0,L|40:224,1,409.499981254579,2|0,1:2|0:0,0:0:0:0:
192,200,343280,2,0,B|463:221|463:221|320:245,1,409.499981254579,10|2,1:2|0:0,0:0:0:0:
192,200,343580,6,0,L|191:117,1,52.5,0|2,1:0|0:0,0:0:0:0:
25,117,343730,2,0,L|95:112,1,52.5,0|0,0:0|1:0,0:0:0:0:
226,269,343880,2,0,B|496:258|496:258|494:96,1,409.499981254579,10|0,1:2|0:0,0:0:0:0:
269,135,344180,6,0,L|371:133,1,98.4375,2|0,1:2|0:0,0:0:0:0:
494,118,344330,2,0,L|388:114,1,98.4375,2|0,1:2|0:0,0:0:0:0:
220,270,344480,2,0,L|492:268,1,272.999987503052,10|0,1:2|0:0,0:0:0:0:
357,221,344705,1,2,1:2:0:0:
200,269,344780,6,0,L|274:270,1,52.5,0|2,1:0|0:0,0:0:0:0:
90,207,344930,2,0,L|89:134,1,52.5,0|0,1:0|0:0,0:0:0:0:
224,156,345080,1,10,1:2:0:0:
358,129,345155,1,0,1:0:0:0:
224,156,345230,1,2,1:2:0:0:
90,206,345305,1,0,1:0:0:0:
224,156,345380,6,0,B|495:177|495:177|352:201,1,409.499981254579,0|0,1:0|0:0,0:0:0:0:
224,156,345680,2,0,L|496:152,1,272.999987503052,14|0,1:2|0:0,0:0:0:0:
352,106,345905,1,2,0:0:0:0:
193,242,345980,6,0,L|125:241,1,52.5,0|2,0:0|0:0,0:0:0:0:
302,185,346130,2,0,L|361:183,1,52.5,0|0,0:0|0:0,0:0:0:0:
194,266,346280,2,0,L|196:196,1,52.5,2|0,0:0|0:0,0:0:0:0:
35,166,346430,2,0,L|108:161,1,52.5,0|0,0:0|0:0,0:0:0:0:
306,178,346580,5,2,1:2:0:0:
346,179,346617,1,0,0:0:0:0:
380,160,346655,1,0,0:0:0:0:
399,125,346692,1,0,0:0:0:0:
396,86,346730,1,0,0:0:0:0:
374,54,346767,1,0,0:0:0:0:
338,38,346805,1,0,0:0:0:0:
180,103,346880,2,0,L|481:99,1,272.999987503052,14|0,1:2|0:0,0:0:0:0:
308,140,347105,1,2,0:0:0:0:
171,168,347180,6,0,L|245:165,1,52.5,0|2,0:0|0:0,0:0:0:0:
65,139,347330,2,0,L|61:79,1,52.5,0|0,0:0|0:0,0:0:0:0:
233,252,347480,2,0,L|236:175,1,52.5,2|0,0:0|0:0,0:0:0:0:
392,181,347630,2,0,L|393:108,1,52.5,0|0,0:0|0:0,0:0:0:0:
234,296,347780,6,0,L|154:293,1,65.625,14|0,1:2|1:0,0:0:0:0:
234,296,347930,2,0,L|308:296,1,65.625,0|0,1:0|1:0,0:0:0:0:
154,246,348080,2,0,L|66:244,1,65.625,2|0,1:2|1:0,0:0:0:0:
285,196,348230,2,0,L|357:192,1,65.625,0|2,1:0|1:2,0:0:0:0:
98,180,348380,6,0,L|30:182,1,65.625,0|2,1:0|1:2,0:0:0:0:
333,136,348530,2,0,L|403:134,1,65.625,0|0,1:0|1:2,0:0:0:0:
98,180,348680,1,2,0:2:0:0:
70,181,348717,1,0,0:0:0:0:
45,168,348755,1,0,0:0:0:0:
32,144,348792,1,0,0:0:0:0:
34,116,348830,1,0,0:0:0:0:
50,93,348867,1,0,0:0:0:0:
76,84,348905,1,0,0:0:0:0:
296,168,348980,6,0,L|383:168,1,65.625,14|0,1:2|1:2,0:0:0:0:
189,69,349130,2,0,L|109:67,1,65.625,0|0,1:2|1:2,0:0:0:0:
369,243,349280,2,0,L|444:239,1,65.625,2|0,1:2|1:2,0:0:0:0:
144,174,349430,2,0,L|70:172,1,65.625,0|2,1:2|1:2,0:0:0:0:
419,168,349580,6,0,L|490:169,1,65.625,0|2,1:2|1:2,0:0:0:0:
124,113,349730,2,0,L|52:111,1,65.625,0|0,1:2|1:2,0:0:0:0:
375,166,349880,1,2,1:2:0:0:
406,172,349917,1,0,3:3:0:0:
435,157,349955,1,0,3:3:0:0:
448,128,349992,1,0,3:3:0:0:
441,96,350030,1,0,3:3:0:0:
415,76,350067,1,0,3:3:0:0:
383,76,350105,1,0,3:3:0:0:
182,281,350180,5,10,1:2:0:0:
149,281,350217,1,0,1:0:0:0:
116,281,350255,1,0,1:0:0:0:
321,237,350330,2,0,L|405:234,1,65.625,0|0,1:0|1:0,0:0:0:0:
125,211,350480,2,0,L|55:212,1,65.625,2|0,1:2|1:0,1:1:0:0:
320,152,350630,2,0,L|395:150,1,65.625,0|2,1:2|1:2,1:1:0:0:
88,160,350780,5,8,1:2:0:0:
55,160,350817,1,0,1:0:0:0:
22,161,350855,1,2,1:2:0:0:
240,160,350930,2,0,L|160:160,1,65.625,0|0,1:2|1:0,0:0:0:0:
424,160,351080,2,0,L|498:158,1,65.625,2|0,1:2|1:0,1:1:0:0:
256,208,351230,2,0,L|350:203,1,65.625,2|2,1:2|1:2,1:1:0:0:
80,80,351380,5,14,1:2:0:0:
48,80,351417,1,0,1:0:0:0:
15,80,351455,1,0,1:0:0:0:
424,200,351530,1,2,1:2:0:0:
457,200,351567,1,0,1:0:0:0:
490,200,351605,1,0,1:0:0:0:
88,200,351680,1,2,1:2:0:0:
56,200,351717,1,0,1:0:0:0:
23,200,351755,1,0,1:0:0:0:
424,200,351830,1,0,1:0:0:0:
457,200,351867,1,0,1:0:0:0:
490,200,351905,1,0,1:0:0:0:
207,212,351980,5,0,1:0:0:0:
138,209,352055,2,0,L|299:197,1,131.25,2|2,0:2|0:0,0:0:0:0:
435,139,352430,1,2,0:0:0:0:
88,265,352580,5,12,1:2:0:0:
31,197,352730,1,0,0:0:0:0:
81,116,352880,1,0,0:0:0:0:
176,76,353030,1,0,0:0:0:0:
278,92,353180,1,0,0:0:0:0:
165,107,353330,1,0,0:0:0:0:
106,176,353480,1,0,0:0:0:0:
166,261,353630,1,0,0:0:0:0:
401,325,353780,5,0,0:0:0:0:
463,288,353930,1,0,0:0:0:0:
400,248,354080,1,0,0:0:0:0:
244,224,354230,1,0,0:0:0:0:
324,190,354380,1,0,0:0:0:0:
331,134,354530,1,0,0:0:0:0:
173,103,354680,1,0,0:0:0:0:
102,90,354830,1,0,0:0:0:0:
341,339,354980,5,0,0:0:0:0:
407,284,355130,1,0,0:0:0:0:
337,239,355280,1,0,0:0:0:0:
171,178,355430,1,0,0:0:0:0:
211,117,355580,1,0,0:0:0:0:
287,90,355730,1,0,0:0:0:0:
409,87,355880,1,2,0:1:0:0:
442,146,355955,1,2,0:1:0:0:
414,197,356030,1,2,0:1:0:0:
343,218,356105,1,2,0:1:0:0:
148,315,356180,5,2,0:1:0:0:
82,263,356330,1,2,0:1:0:0:
145,211,356480,1,2,0:1:0:0:
309,137,356630,1,2,0:1:0:0:
232,80,356780,1,2,0:1:0:0:
308,22,356930,1,2,0:1:0:0:
453,158,357080,1,2,0:1:0:0:
374,188,357230,1,2,0:1:0:0:
146,345,357380,5,2,0:1:0:0:
71,312,357530,1,2,0:1:0:0:
146,269,357680,1,2,0:1:0:0:
288,246,357830,1,2,0:1:0:0:
354,164,357980,1,0,0:0:0:0:
292,85,358130,1,0,0:0:0:0:
199,53,358280,1,0,0:0:0:0:
99,82,358430,1,0,0:0:0:0:
324,345,358580,5,2,0:1:0:0:
379,307,358730,1,2,0:1:0:0:
324,269,358880,1,2,0:1:0:0:
167,250,359030,1,2,0:1:0:0:
103,167,359180,1,0,0:0:0:0:
169,86,359330,1,0,0:0:0:0:
312,52,359480,1,2,0:1:0:0:
391,66,359630,1,0,0:0:0:0:
153,350,359780,5,2,0:1:0:0:
99,301,359930,1,2,0:1:0:0:
150,246,360080,1,2,0:1:0:0:
307,210,360230,1,2,0:1:0:0:
228,191,360380,1,0,0:0:0:0:
162,138,360530,1,0,0:0:0:0:
113,20,360680,1,2,0:1:0:0:
123,66,360755,1,2,0:1:0:0:
159,99,360830,1,2,0:1:0:0:
221,106,360905,1,2,0:1:0:0:
399,120,360980,5,2,0:1:0:0:
322,190,361130,1,0,0:1:0:0:
399,120,361280,1,2,0:1:0:0:
499,76,361430,1,2,0:1:0:0:
268,333,361580,1,2,0:1:0:0:
349,300,361730,1,2,0:1:0:0:
208,285,361880,1,2,0:1:0:0:
127,263,362030,1,2,0:1:0:0:
408,329,362180,5,2,0:1:0:0:
468,258,362330,1,2,0:1:0:0:
408,180,362480,1,2,0:1:0:0:
236,240,362630,1,2,0:1:0:0:
327,206,362780,1,0,0:0:0:0:
334,121,362930,1,0,0:0:0:0:
250,69,363080,1,0,0:0:0:0:
153,88,363230,1,0,0:0:0:0:
392,337,363380,5,2,0:1:0:0:
452,269,363530,1,2,0:1:0:0:
384,193,363680,1,0,0:1:0:0:
250,142,363830,1,2,0:1:0:0:
116,76,363980,1,2,0:1:0:0:
201,87,364130,1,2,0:1:0:0:
116,76,364280,1,2,0:1:0:0:
32,101,364430,1,2,0:1:0:0:
263,344,364580,5,2,0:1:0:0:
181,333,364730,1,2,0:1:0:0:
323,305,364880,1,2,0:1:0:0:
421,268,365030,1,2,0:1:0:0:
467,180,365180,1,0,0:0:0:0:
408,91,365330,1,0,0:0:0:0:
302,69,365480,1,2,0:1:0:0:
274,109,365555,1,2,0:1:0:0:
305,145,365630,1,2,0:1:0:0:
371,155,365705,1,2,0:1:0:0:
208,342,365780,5,2,0:1:0:0:
120,319,365930,1,2,0:1:0:0:
202,282,366080,1,2,0:1:0:0:
295,257,366230,1,2,0:1:0:0:
157,191,366380,1,2,0:1:0:0:
150,138,366530,1,2,0:1:0:0:
297,92,366680,1,2,0:1:0:0:
378,73,366830,1,0,0:1:0:0:
153,339,366980,5,2,0:1:0:0:
73,307,367130,1,2,0:1:0:0:
48,237,367280,1,2,0:1:0:0:
189,214,367430,1,2,0:1:0:0:
268,190,367580,1,0,0:0:0:0:
351,162,367730,1,0,0:0:0:0:
209,145,367880,1,2,0:1:0:0:
129,128,368030,1,2,0:1:0:0:
380,340,368180,5,2,0:1:0:0:
449,300,368330,1,2,0:1:0:0:
473,236,368480,1,2,0:1:0:0:
330,31,368630,1,2,0:1:0:0:
254,72,368780,1,0,0:0:0:0:
334,112,368930,1,2,0:1:0:0:
119,185,369080,1,2,0:1:0:0:
196,215,369230,1,2,0:1:0:0:
424,345,369380,5,2,0:1:0:0:
480,276,369530,1,0,0:0:0:0:
424,203,369680,1,0,0:0:0:0:
260,174,369830,1,0,0:0:0:0:
182,136,369980,1,0,0:0:0:0:
255,92,370130,1,0,0:0:0:0:
370,136,370280,1,0,0:0:0:0:
392,178,370355,1,0,0:0:0:0:
370,222,370430,1,0,0:0:0:0:
312,243,370505,1,0,0:0:0:0:
165,346,370580,5,0,0:0:0:0:
71,302,370730,1,0,0:0:0:0:
30,212,370880,1,0,0:0:0:0:
74,118,371030,1,0,0:0:0:0:
208,55,371180,1,0,0:0:0:0:
305,66,371330,1,0,0:0:0:0:
202,93,371480,1,0,0:0:0:0:
88,112,371630,1,0,0:0:0:0:
313,103,371780,6,0,L|337:223,3,105,4|0|0|0,0:0|0:0|0:0|0:0,0:0:0:0:
228,174,372380,2,0,L|220:288,1,105,2|0,0:0|0:0,0:0:0:0:
324,303,372680,2,0,L|335:407,1,105,0|2,0:0|0:0,0:0:0:0:
185,348,372980,5,0,0:0:0:0:
290,311,373130,1,0,0:0:0:0:
343,229,373280,1,2,0:0:0:0:
290,311,373430,1,0,0:0:0:0:
138,241,373580,2,0,L|261:231,1,105,0|2,0:0|0:0,0:0:0:0:
137,206,373880,2,0,L|128:73,1,105,0|0,0:0|0:0,0:0:0:0:
279,30,374180,6,0,L|293:144,3,105,2|0|0|2,0:0|0:0|0:0|0:0,0:0:0:0:
395,168,374780,2,0,L|402:292,1,105,0|0,0:0|0:0,0:0:0:0:
296,315,375080,2,0,L|412:324,1,105,2|0,0:0|0:0,0:0:0:0:
249,356,375380,6,0,L|241:237,1,105,0|2,0:0|0:0,0:0:0:0:
339,232,375680,2,0,L|341:124,1,105,0|0,0:0|0:0,0:0:0:0:
237,97,375980,1,2,0:0:0:0:
138,34,376130,1,0,0:0:0:0:
85,98,376280,1,0,0:0:0:0:
138,34,376430,1,0,0:0:0:0:
283,42,376580,6,0,L|296:155,3,105,0|0|0|0,0:0|0:0|0:0|0:0,0:0:0:0:
191,187,377180,2,0,L|81:208,1,105,2|0,0:0|0:0,0:0:0:0:
193,227,377480,2,0,L|204:358,1,105,0|2,0:0|0:0,0:0:0:0:
54,344,377780,5,0,0:0:0:0:
160,296,377930,1,0,0:0:0:0:
213,209,378080,1,2,0:0:0:0:
160,296,378230,1,0,0:0:0:0:
16,272,378380,2,0,L|16:144,1,105,0|2,0:0|0:0,0:0:0:0:
121,147,378680,2,0,L|16:128,1,105,0|0,0:0|0:0,0:0:0:0:
166,37,378980,6,0,L|183:157,3,105,2|0|0|2,0:0|0:0|0:0|0:0,0:0:0:0:
286,178,379580,2,0,L|296:308,1,105,0|0,0:0|0:0,0:0:0:0:
188,247,379880,2,0,L|177:384,1,105,2|0,0:0|0:0,0:0:0:0:
331,318,380180,5,0,0:0:0:0:
226,261,380330,1,2,0:0:0:0:
174,163,380480,1,0,0:0:0:0:
226,261,380630,1,0,0:0:0:0:
374,243,380780,2,0,L|238:263,1,105,2|0,0:0|0:0,0:0:0:0:
368,283,381080,2,0,L|498:303,1,105,0|0,0:0|0:0,0:0:0:0:
322,343,381380,6,0,L|313:238,3,105,0|0|0|0,0:0|0:0|0:0|0:0,0:0:0:0:
207,224,381980,2,0,L|198:105,1,105,2|0,0:0|0:0,0:0:0:0:
94,117,382280,2,0,L|86:8,1,105,0|2,0:0|0:0,0:0:0:0:
234,52,382580,5,0,0:0:0:0:
286,131,382730,1,0,0:0:0:0:
234,52,382880,1,2,0:0:0:0:
128,68,383030,1,0,0:0:0:0:
231,192,383180,2,0,L|114:203,1,105,0|2,0:0|0:0,0:0:0:0:
223,273,383480,2,0,L|365:289,1,105,0|0,0:0|0:0,0:0:0:0:
174,353,383780,6,0,L|166:237,3,105,2|0|0|2,0:0|0:0|0:0|0:0,0:0:0:0:
276,198,384380,2,0,L|161:181,1,105,0|0,0:0|0:0,0:0:0:0:
279,118,384680,2,0,L|406:111,1,105,2|0,0:0|0:0,0:0:0:0:
235,37,384980,5,0,0:0:0:0:
131,87,385130,1,2,0:0:0:0:
79,157,385280,1,0,0:0:0:0:
131,87,385430,1,0,0:0:0:0:
236,132,385580,2,0,L|114:123,1,105,2|0,0:0|0:0,0:0:0:0:
25,199,385880,2,0,L|161:211,1,105,0|0,0:0|0:0,0:0:0:0:
276,194,386180,6,0,L|291:311,3,105,0|0|0|0,0:0|0:0|0:0|0:0,0:0:0:0:
394,357,386780,2,0,L|400:244,1,105,2|0,0:0|0:0,0:0:0:0:
294,258,387080,2,0,L|294:141,1,105,0|2,0:0|0:0,0:0:0:0:
440,38,387380,5,0,0:0:0:0:
494,103,387530,1,0,0:0:0:0:
440,38,387680,1,2,0:0:0:0:
335,60,387830,1,0,0:0:0:0:
231,136,387980,2,0,L|336:181,1,105,0|2,0:0|0:0,0:0:0:0:
222,227,388280,2,0,L|111:261,1,105,0|0,0:0|0:0,0:0:0:0:
273,330,388580,6,0,L|262:221,3,105,2|0|0|2,0:0|0:0|0:0|0:0,0:0:0:0:
157,204,389180,2,0,L|147:82,1,105,0|0,0:0|0:0,0:0:0:0:
251,103,389480,2,0,L|258:-12,1,105,2|0,0:0|0:0,0:0:0:0:
105,60,389780,5,0,0:0:0:0:
52,143,389930,1,2,0:0:0:0:
105,60,390080,1,0,0:0:0:0:
210,95,390230,1,0,0:0:0:0:
321,157,390380,1,2,0:0:0:0:
216,195,390530,1,0,0:0:0:0:
161,268,390680,1,0,0:0:0:0:
216,195,390830,1,0,0:0:0:0:
372,231,390980,6,0,B|473:175|371:120|371:120|219:122|219:122|300:94|300:94|311:19|311:19|391:-6|391:-6|236:-21|236:-21|225:58|225:58|147:73|147:73|224:76|224:76|229:150|229:150|305:166|305:166|226:184|226:184|214:264|214:264|134:273|134:273|213:289|213:289|217:359|217:359|380:353|380:353|390:275|390:275|309:260|309:260|385:245|385:245|394:167|394:167|237:160|237:160|227:235|227:235|307:240|307:240|227:256|227:256|222:332|222:332|64:346|64:346|59:264|59:264|133:244|133:244|64:215|64:215|56:133|56:133|210:129|210:129|215:49|215:49|292:49|292:49|216:31|216:31|214:112|214:112|370:108|370:108|377:189|377:189|453:213|453:213|379:230|379:230|372:307|372:307|215:328|215:328|202:246|202:246|133:222|133:222|202:190|202:190|204:107|204:107|130:81|130:81|366:47|366:47|376:125|376:125|451:124|451:124|377:148|377:148|373:229|373:229|215:242|215:242|295:241|295:241|302:321|302:321|456:315|456:315|375:335|375:335|449:337|449:337|366:333,1,5670.00021629334,0|0,0:0|0:0,0:0:0:0:
