osu file format v14

[General]
AudioFilename: audio.mp3
AudioLeadIn: 0
PreviewTime: 64296
Countdown: 0
SampleSet: Normal
StackLeniency: 0.2
Mode: 1
LetterboxInBreaks: 0
WidescreenStoryboard: 0

[Editor]
Bookmarks: 86196,107796,131796,150996,160596,182196,201396,220596,268596,290196,352596
DistanceSpacing: 1
BeatDivisor: 4
GridSize: 32
TimelineZoom: 1

[Metadata]
Title:Exit This Earth's Atomosphere (Camellia's "PLANETARY//200STEP" Remix)
TitleUnicode:Exit This Earth's Atomosphere (かめりあ's "PLANETARY//200STEP" Remix)
Artist:Camellia
ArtistUnicode:かめりあ
Creator:Alchyr
Version:Pressure
Source:
Tags:atmosphere Camellia Remixes Summary & VIPs 02 かめるかめりあ KamelCamellia cametek electronic dnb drum and bass FA featured artist
BeatmapID:1744951
BeatmapSetID:832997

[Difficulty]
HPDrainRate:4
CircleSize:2
OverallDifficulty:7.7
ApproachRate:10
SliderMultiplier:1.4
SliderTickRate:1

[Events]
//Background and Video events
0,0,"bg.jpg",0,0
//Break Periods
2,220796,229746
//Storyboard Layer 0 (Background)
//Storyboard Layer 1 (Fail)
//Storyboard Layer 2 (Pass)
//Storyboard Layer 3 (Foreground)
//Storyboard Sound Samples

[TimingPoints]
996,300,4,1,0,30,1,0
996,-200,4,1,0,30,0,0
26196,-149.99999999925,4,1,0,30,0,0
26346,-149.765625036756,4,1,0,30,0,0
26496,-149.531250074262,4,1,0,30,0,0
26646,-149.296875111768,4,1,0,30,0,0
26796,-149.062500149273,4,1,0,30,0,0
26946,-148.828125186779,4,1,0,30,0,0
27096,-148.593750224285,4,1,0,30,0,0
27246,-148.359375261791,4,1,0,30,0,0
27396,-148.125000299297,4,1,0,30,0,0
27546,-147.890625336803,4,1,0,30,0,0
27696,-147.656250374309,4,1,0,30,0,0
27846,-147.421875411814,4,1,0,30,0,0
27996,-147.18750044932,4,1,0,30,0,0
28146,-146.953125486826,4,1,0,30,0,0
28296,-146.718750524332,4,1,0,30,0,0
28446,-146.484375561838,4,1,0,30,0,0
28596,-146.250000599344,4,1,0,30,0,0
28746,-146.01562563685,4,1,0,30,0,0
28896,-145.781250674356,4,1,0,30,0,0
29046,-145.546875711861,4,1,0,30,0,0
29196,-145.312500749367,4,1,0,30,0,0
29346,-145.078125786873,4,1,0,30,0,0
29496,-144.843750824379,4,1,0,30,0,0
29646,-144.609375861885,4,1,0,30,0,0
29796,-144.375000899391,4,1,0,30,0,0
29946,-144.140625936897,4,1,0,30,0,0
30096,-143.906250974402,4,1,0,30,0,0
30246,-143.671876011908,4,1,0,30,0,0
30396,-143.437501049414,4,1,0,30,0,0
30546,-143.20312608692,4,1,0,30,0,0
30621,-143.085938605673,4,1,0,30,0,0
30696,-142.968751124426,4,1,0,30,0,0
30846,-142.734376161932,4,1,0,30,0,0
30996,-142.500001199438,4,1,0,30,0,0
31146,-142.265626236943,4,1,0,30,0,0
31296,-142.031251274449,4,1,0,30,0,0
31446,-141.796876311955,4,1,0,30,0,0
31596,-141.562501349461,4,1,0,30,0,0
31746,-141.328126386967,4,1,0,30,0,0
31896,-141.093751424473,4,1,0,30,0,0
32046,-140.859376461979,4,1,0,30,0,0
32196,-140.625001499484,4,1,0,30,0,0
32346,-140.39062653699,4,1,0,30,0,0
32496,-140.156251574496,4,1,0,30,0,0
32646,-139.921876612002,4,1,0,30,0,0
32796,-139.687501649508,4,1,0,30,0,0
32946,-139.453126687014,4,1,0,30,0,0
33096,-139.21875172452,4,1,0,30,0,0
33246,-138.984376762025,4,1,0,30,0,0
33396,-138.750001799531,4,1,0,30,0,0
33546,-138.515626837037,4,1,0,30,0,0
33696,-138.281251874543,4,1,0,30,0,0
33846,-138.046876912049,4,1,0,30,0,0
33996,-137.812501949555,4,1,0,30,0,0
34146,-137.578126987061,4,1,0,30,0,0
34296,-137.343752024566,4,1,0,30,0,0
34446,-137.109377062072,4,1,0,30,0,0
34596,-136.875002099578,4,1,0,30,0,0
34746,-136.640627137084,4,1,0,30,0,0
34896,-136.40625217459,4,1,0,30,0,0
35046,-136.171877212096,4,1,0,30,0,0
35196,-135.937502249602,4,1,0,30,0,0
35346,-135.703127287108,4,1,0,30,0,0
35421,-135.58593980586,4,1,0,30,0,0
35496,-135.468752324613,4,1,0,30,0,0
35646,-135.234377362119,4,1,0,30,0,0
35796,-135.000002399625,4,1,0,30,0,0
35946,-134.765627437131,4,1,0,30,0,0
36096,-134.531252474637,4,1,0,30,0,0
36246,-134.296877512143,4,1,0,30,0,0
36396,-134.062502549649,4,1,0,30,0,0
36546,-133.828127587154,4,1,0,30,0,0
36696,-133.59375262466,4,1,0,30,0,0
36846,-133.359377662166,4,1,0,30,0,0
36996,-133.125002699672,4,1,0,30,0,0
37146,-132.890627737178,4,1,0,30,0,0
37296,-132.656252774684,4,1,0,30,0,0
37446,-132.42187781219,4,1,0,30,0,0
37596,-132.187502849695,4,1,0,30,0,0
37746,-131.953127887201,4,1,0,30,0,0
37896,-131.718752924707,4,1,0,30,0,0
38046,-131.484377962213,4,1,0,30,0,0
38196,-131.250002999719,4,1,0,30,0,0
38346,-131.015628037225,4,1,0,30,0,0
38496,-130.781253074731,4,1,0,30,0,0
38646,-130.546878112236,4,1,0,30,0,0
38796,-130.312503149742,4,1,0,30,0,0
38946,-130.078128187248,4,1,0,30,0,0
39096,-129.843753224754,4,1,0,30,0,0
39246,-129.60937826226,4,1,0,30,0,0
39396,-129.375003299766,4,1,0,30,0,0
39546,-129.140628337272,4,1,0,30,0,0
39696,-128.906253374777,4,1,0,30,0,0
39846,-128.671878412283,4,1,0,30,0,0
39996,-128.437503449789,4,1,0,30,0,0
40146,-128.203128487295,4,1,0,30,0,0
40221,-128.085941006048,4,1,0,30,0,0
40296,-127.968753524801,4,1,0,30,0,0
40446,-127.734378562307,4,1,0,30,0,0
40596,-127.500003599813,4,1,0,30,0,0
40746,-127.265628637319,4,1,0,30,0,0
40896,-127.031253674824,4,1,0,30,0,0
41046,-126.79687871233,4,1,0,30,0,0
41196,-126.562503749836,4,1,0,30,0,0
41346,-126.328128787342,4,1,0,30,0,0
41496,-126.093753824848,4,1,0,30,0,0
41646,-125.859378862354,4,1,0,30,0,0
41796,-125.62500389986,4,1,0,30,0,0
41946,-125.390628937365,4,1,0,30,0,0
42096,-125.156253974871,4,1,0,30,0,0
42246,-124.921879012377,4,1,0,30,0,0
42396,-124.687504049883,4,1,0,30,0,0
42546,-124.453129087389,4,1,0,30,0,0
42696,-124.218754124895,4,1,0,30,0,0
42846,-123.984379162401,4,1,0,30,0,0
42996,-123.750004199906,4,1,0,30,0,0
43146,-123.515629237412,4,1,0,30,0,0
43296,-123.281254274918,4,1,0,30,0,0
43446,-123.046879312424,4,1,0,30,0,0
43596,-122.81250434993,4,1,0,30,0,0
43746,-122.578129387436,4,1,0,30,0,0
43896,-122.343754424942,4,1,0,30,0,0
44046,-122.109379462447,4,1,0,30,0,0
44196,-121.875004499953,4,1,0,30,0,0
44346,-121.640629537459,4,1,0,30,0,0
44496,-121.406254574965,4,1,0,30,0,0
44646,-121.171879612471,4,1,0,30,0,0
44796,-120.937504649977,4,1,0,30,0,0
44946,-120.703129687483,4,1,0,30,0,0
45021,-120.585942206236,4,1,0,30,0,0
45096,-120.468754724988,4,1,0,30,0,0
45246,-120.234379762494,4,1,0,30,0,0
45396,-120.0000048,4,1,0,30,0,0
46596,-133.333333333333,4,1,0,30,0,0
47796,-150.01500150015,4,1,0,30,0,0
50196,-120.00048000192,4,1,0,30,0,0
51396,-133.333333333333,4,1,0,30,0,0
52596,-150.001500015,4,1,0,30,0,0
54396,-120.000048000019,4,1,0,45,0,0
54696,-111.111111111111,4,1,0,45,0,0
54846,-105.263157894737,4,1,0,45,0,0
54996,-100,4,1,0,45,0,0
62046,-97.0873786407767,4,1,0,47,0,0
62196,-94.3396226415094,4,1,0,50,0,0
62346,-91.743119266055,4,1,0,52,0,0
62496,-89.2857142857143,4,1,0,54,0,0
62646,-86.9565217391304,4,1,0,56,0,0
62796,-84.7457627118644,4,1,0,58,0,0
62946,-82.6446280991736,4,1,0,60,0,0
63021,-81.6326530612245,4,1,0,60,0,0
63096,-80.6451612903226,4,1,0,63,0,0
63246,-78.7401574803149,4,1,0,66,0,0
63396,-76.9230769230769,4,1,0,69,0,0
63546,-75.187969924812,4,1,0,72,0,0
63621,-74.0740740740741,4,1,0,72,0,0
63696,-73.2600732600733,4,1,0,75,0,0
63846,-71.4285714285714,4,1,0,75,0,0
64596,-66.6666666666667,4,1,0,80,0,0
66996,-66.6666666666667,4,1,0,30,0,0
67596,-100,4,1,0,30,0,0
68196,-113.636363636364,4,1,0,30,0,0
69358,-66.6666666666667,4,1,0,80,0,0
71796,-66.6666666666667,4,1,0,30,0,0
72396,-100,4,1,0,30,0,0
72996,-114.285714285714,4,1,0,30,0,0
73596,-133.333333333333,4,1,0,50,0,0
73746,-111.111111111111,4,1,0,55,0,0
73821,-100,4,1,0,60,0,0
73896,-90.9090909090909,4,1,0,65,0,0
74046,-76.9230769230769,4,1,0,70,0,0
74196,-66.6666666666667,4,1,0,80,0,0
76596,-66.6666666666667,4,1,0,30,0,0
77196,-100,4,1,0,30,0,0
77796,-113.636363636364,4,1,0,30,0,0
78958,-66.6666666666667,4,1,0,80,0,0
81246,-58.8235294117647,4,1,0,80,0,0
81808,-100,4,1,0,45,0,0
81996,-95.2380952380952,4,1,0,45,0,0
82146,-90.9090909090909,4,1,0,45,0,0
82296,-86.9565217391304,4,1,0,45,0,0
82446,-83.3333333333333,4,1,0,45,0,0
82596,-80,4,1,0,45,0,0
82821,-78.4313725490196,4,1,0,45,0,0
83046,-76.9230769230769,4,1,0,45,0,0
83346,-74.0740740740741,4,1,0,47,0,0
83646,-71.4285714285714,4,1,0,50,0,0
83946,-66.6666666666667,4,1,0,80,0,0
84996,-40,4,1,0,80,0,0
86196,-87.719298245614,4,1,0,85,0,0
86271,-87.719298245614,4,1,0,75,0,0
107796,-87.719298245614,4,1,0,100,0,1
116421,-84.7457627118644,4,1,0,100,0,1
116646,-81.9672131147541,4,1,0,100,0,1
116871,-79.3650793650794,4,1,0,100,0,1
117096,-76.9230769230769,4,1,0,100,0,1
117246,-73.5294117647059,4,1,0,100,0,1
117396,-70.4225352112676,4,1,0,100,0,1
117696,-87.719298245614,4,1,0,100,0,1
126996,-76.9230769230769,4,1,0,100,0,0
127146,-100,4,1,0,40,0,0
128796,-95.2380952380952,4,1,0,40,0,0
129396,-90.9090909090909,4,1,0,40,0,0
129621,-90.0900900900901,4,1,0,40,0,0
129696,-89.2857142857143,4,1,0,45,0,0
129771,-88.4955752212389,4,1,0,45,0,0
129846,-87.719298245614,4,1,0,50,0,0
129921,-86.9565217391304,4,1,0,50,0,0
129996,-86.2068965517241,4,1,0,55,0,0
130071,-85.4700854700855,4,1,0,55,0,0
130146,-84.7457627118644,4,1,0,60,0,0
130221,-84.0336134453781,4,1,0,60,0,0
130296,-83.3333333333333,4,1,0,65,0,0
130371,-82.6446280991736,4,1,0,65,0,0
130446,-81.9672131147541,4,1,0,70,0,0
130558,-86.2068965517241,4,1,0,40,0,0
130746,-84.7457627118644,4,1,0,45,0,0
130896,-83.3333333333333,4,1,0,50,0,0
131046,-81.9672131147541,4,1,0,45,0,0
131196,-80.6451612903226,4,1,0,60,0,0
131346,-79.3650793650794,4,1,0,65,0,0
131496,-78.125,4,1,0,100,0,0
131796,-76.9230769230769,4,1,0,100,0,1
140346,-78.7401574803149,4,1,0,100,0,1
140421,-80.6451612903226,4,1,0,100,0,1
140571,-82.6446280991736,4,1,0,100,0,1
140646,-84.7457627118644,4,1,0,100,0,1
140796,-86.9565217391304,4,1,0,100,0,1
140871,-89.2857142857143,4,1,0,100,0,1
141021,-91.743119266055,4,1,0,100,0,1
141096,-94.3396226415094,4,1,0,100,0,1
141171,-97.0873786407767,4,1,0,100,0,1
141246,-100,4,1,0,100,0,1
141396,-87.719298245614,4,1,0,100,0,1
141996,-62.5,4,1,0,100,0,1
142296,-76.9230769230769,4,1,0,100,0,1
146796,-66.6666666666667,4,1,0,100,0,1
147096,-76.9230769230769,4,1,0,100,0,1
148821,-74.6268656716418,4,1,0,100,0,1
149046,-72.463768115942,4,1,0,100,0,1
149271,-70.4225352112676,4,1,0,100,0,1
149496,-68.4931506849315,4,1,0,100,0,1
149721,-66.6666666666667,4,1,0,100,0,1
149946,-64.9350649350649,4,1,0,100,0,1
150171,-63.2911392405063,4,1,0,100,0,1
150396,-61.7283950617284,4,1,0,100,0,1
150546,-50,4,1,0,100,0,1
150996,-66.6666666666667,4,1,0,100,0,0
151146,-120.000048000019,4,1,0,40,0,0
158346,-120.000048000019,4,1,0,30,0,0
158421,-117.647058823529,4,1,0,32,0,0
158496,-114.942528735632,4,1,0,34,0,0
158571,-112.359550561798,4,1,0,37,0,0
158646,-109.89010989011,4,1,0,40,0,0
158721,-107.52688172043,4,1,0,43,0,0
158796,-105.263157894737,4,1,0,46,0,0
158871,-103.092783505155,4,1,0,50,0,0
158946,-101.010101010101,4,1,0,54,0,0
159021,-99.009900990099,4,1,0,58,0,0
159096,-97.0873786407767,4,1,0,62,0,0
159171,-95.2380952380952,4,1,0,66,0,0
159246,-93.4579439252336,4,1,0,70,0,0
159321,-91.743119266055,4,1,0,75,0,0
159396,-90.0900900900901,4,1,0,80,0,0
160596,-87.719298245614,4,1,0,80,0,0
160671,-87.719298245614,4,1,0,75,0,0
182196,-87.719298245614,4,1,0,100,0,1
201021,-89.2857142857143,4,1,0,100,0,1
201096,-90.9090909090909,4,1,0,100,0,1
201246,-95.2380952380952,4,1,0,100,0,1
201396,-100,4,1,0,100,0,1
206496,-87.719298245614,4,1,0,100,0,1
210021,-90.9090909090909,4,1,0,100,0,1
210246,-94.3396226415094,4,1,0,100,0,1
210471,-97.0873786407767,4,1,0,100,0,1
210696,-100,4,1,0,100,0,1
210846,-93.4579439252336,4,1,0,100,0,1
210996,-87.719298245614,4,1,0,100,0,1
211046,-88.4955752212389,4,1,0,100,0,1
211096,-89.2857142857143,4,1,0,100,0,1
211146,-90.0900900900901,4,1,0,100,0,1
211296,-95.2380952380952,4,1,0,100,0,1
211346,-96.1538461538461,4,1,0,100,0,1
211396,-97.0873786407767,4,1,0,100,0,1
211446,-98.0392156862745,4,1,0,100,0,1
211521,-99.009900990099,4,1,0,100,0,1
211596,-100,4,1,0,100,0,1
216096,-87.719298245614,4,1,0,100,0,1
220146,-83.3333333333333,4,1,0,100,0,1
220596,-100,4,1,0,100,0,0
220746,-150.01500150015,4,1,0,35,0,0
230196,-149.9999999925,4,1,0,35,0,0
230346,-149.609374992559,4,1,0,35,0,0
230496,-149.218749992617,4,1,0,35,0,0
230646,-148.828124992676,4,1,0,35,0,0
230796,-148.437499992734,4,1,0,35,0,0
230946,-148.046874992793,4,1,0,35,0,0
231096,-147.656249992852,4,1,0,35,0,0
231246,-147.26562499291,4,1,0,35,0,0
231396,-146.874999992969,4,1,0,35,0,0
231546,-146.484374993027,4,1,0,35,0,0
231696,-146.093749993086,4,1,0,35,0,0
231846,-145.703124993145,4,1,0,35,0,0
231996,-145.312499993203,4,1,0,35,0,0
232146,-144.921874993262,4,1,0,35,0,0
232296,-144.53124999332,4,1,0,35,0,0
232446,-144.140624993379,4,1,0,35,0,0
232596,-143.749999993437,4,1,0,35,0,0
232746,-143.359374993496,4,1,0,35,0,0
232896,-142.968749993555,4,1,0,35,0,0
233046,-142.578124993613,4,1,0,35,0,0
233196,-142.187499993672,4,1,0,35,0,0
233346,-141.79687499373,4,1,0,35,0,0
233496,-141.406249993789,4,1,0,35,0,0
233646,-141.015624993848,4,1,0,35,0,0
233796,-140.624999993906,4,1,0,35,0,0
233946,-140.234374993965,4,1,0,35,0,0
234096,-139.843749994023,4,1,0,35,0,0
234246,-139.453124994082,4,1,0,35,0,0
234396,-139.062499994141,4,1,0,35,0,0
234546,-138.671874994199,4,1,0,35,0,0
234696,-138.281249994258,4,1,0,35,0,0
234846,-137.890624994316,4,1,0,35,0,0
234996,-137.499999994375,4,1,0,35,0,0
235146,-137.109374994434,4,1,0,35,0,0
235296,-136.718749994492,4,1,0,35,0,0
235446,-136.328124994551,4,1,0,35,0,0
235596,-135.937499994609,4,1,0,35,0,0
235746,-135.546874994668,4,1,0,35,0,0
235896,-135.156249994727,4,1,0,35,0,0
236046,-134.765624994785,4,1,0,35,0,0
236196,-134.374999994844,4,1,0,35,0,0
236346,-133.984374994902,4,1,0,35,0,0
236496,-133.593749994961,4,1,0,35,0,0
236646,-133.20312499502,4,1,0,35,0,0
236796,-132.812499995078,4,1,0,35,0,0
236946,-132.421874995137,4,1,0,35,0,0
237096,-132.031249995195,4,1,0,35,0,0
237246,-131.640624995254,4,1,0,35,0,0
237396,-131.249999995312,4,1,0,35,0,0
237546,-130.859374995371,4,1,0,35,0,0
237696,-130.46874999543,4,1,0,35,0,0
237846,-130.078124995488,4,1,0,35,0,0
237996,-129.687499995547,4,1,0,35,0,0
238146,-129.296874995605,4,1,0,35,0,0
238296,-128.906249995664,4,1,0,35,0,0
238446,-128.515624995723,4,1,0,35,0,0
238596,-128.124999995781,4,1,0,35,0,0
238746,-127.73437499584,4,1,0,35,0,0
238896,-127.343749995898,4,1,0,35,0,0
239046,-126.953124995957,4,1,0,35,0,0
239196,-126.562499996016,4,1,0,35,0,0
239346,-126.171874996074,4,1,0,35,0,0
239496,-125.781249996133,4,1,0,35,0,0
239646,-125.390624996191,4,1,0,35,0,0
239796,-124.99999999625,4,1,0,35,0,0
239946,-124.609374996309,4,1,0,35,0,0
240096,-124.218749996367,4,1,0,35,0,0
240246,-123.828124996426,4,1,0,35,0,0
240396,-123.437499996484,4,1,0,35,0,0
240546,-123.046874996543,4,1,0,35,0,0
240696,-122.656249996602,4,1,0,35,0,0
240846,-122.26562499666,4,1,0,35,0,0
240996,-121.874999996719,4,1,0,35,0,0
241146,-121.484374996777,4,1,0,35,0,0
241296,-121.093749996836,4,1,0,35,0,0
241446,-120.703124996895,4,1,0,35,0,0
241596,-120.312499996953,4,1,0,35,0,0
241746,-119.921874997012,4,1,0,35,0,0
241896,-119.53124999707,4,1,0,35,0,0
242046,-119.140624997129,4,1,0,35,0,0
242196,-118.749999997188,4,1,0,35,0,0
242346,-118.359374997246,4,1,0,35,0,0
242496,-117.968749997305,4,1,0,35,0,0
242646,-117.578124997363,4,1,0,35,0,0
242796,-117.187499997422,4,1,0,35,0,0
242946,-116.79687499748,4,1,0,35,0,0
243096,-116.406249997539,4,1,0,35,0,0
243246,-116.015624997598,4,1,0,35,0,0
243396,-115.624999997656,4,1,0,35,0,0
243546,-115.234374997715,4,1,0,35,0,0
243696,-114.843749997773,4,1,0,35,0,0
243846,-114.453124997832,4,1,0,35,0,0
243996,-114.062499997891,4,1,0,35,0,0
244146,-113.671874997949,4,1,0,35,0,0
244296,-113.281249998008,4,1,0,35,0,0
244446,-112.890624998066,4,1,0,35,0,0
244596,-112.499999998125,4,1,0,35,0,0
244746,-112.109374998184,4,1,0,35,0,0
244896,-111.718749998242,4,1,0,35,0,0
245046,-111.328124998301,4,1,0,35,0,0
245196,-110.937499998359,4,1,0,35,0,0
245346,-110.546874998418,4,1,0,35,0,0
245496,-110.156249998477,4,1,0,35,0,0
245646,-109.765624998535,4,1,0,35,0,0
245796,-109.374999998594,4,1,0,35,0,0
245946,-108.984374998652,4,1,0,35,0,0
246096,-108.593749998711,4,1,0,35,0,0
246246,-108.20312499877,4,1,0,35,0,0
246396,-107.812499998828,4,1,0,35,0,0
246546,-107.421874998887,4,1,0,35,0,0
246696,-107.031249998945,4,1,0,35,0,0
246846,-106.640624999004,4,1,0,35,0,0
246996,-106.249999999062,4,1,0,35,0,0
247146,-105.859374999121,4,1,0,35,0,0
247296,-105.46874999918,4,1,0,35,0,0
247446,-105.078124999238,4,1,0,35,0,0
247596,-104.687499999297,4,1,0,35,0,0
247746,-104.296874999355,4,1,0,35,0,0
247896,-103.906249999414,4,1,0,35,0,0
248046,-103.515624999473,4,1,0,35,0,0
248196,-103.124999999531,4,1,0,35,0,0
248346,-102.73437499959,4,1,0,35,0,0
248496,-102.343749999648,4,1,0,35,0,0
248646,-101.953124999707,4,1,0,35,0,0
248796,-101.562499999766,4,1,0,37,0,0
248946,-101.171874999824,4,1,0,39,0,0
249096,-100.781249999883,4,1,0,41,0,0
249246,-100.390624999941,4,1,0,43,0,0
249396,-100,4,1,0,45,0,0
266346,-96.1538461538461,4,1,0,46,0,0
266421,-94.3396226415094,4,1,0,47,0,0
266496,-92.5925925925926,4,1,0,48,0,0
266646,-89.2857142857143,4,1,0,49,0,0
266796,-86.2068965517241,4,1,0,50,0,0
266946,-83.3333333333333,4,1,0,51,0,0
267096,-80.6451612903226,4,1,0,52,0,0
267246,-78.125,4,1,0,53,0,0
267321,-76.9230769230769,4,1,0,54,0,0
267396,-75.7575757575758,4,1,0,55,0,0
267546,-73.5294117647059,4,1,0,56,0,0
267696,-71.4285714285714,4,1,0,58,0,0
267846,-68.9655172413793,4,1,0,60,0,0
268596,-66.6666666666667,4,1,0,100,0,0
270996,-71.4285714285714,4,1,0,80,0,0
271296,-100,4,1,0,80,0,0
271596,-95.2380952380952,4,1,0,80,0,0
271746,-90.9090909090909,4,1,0,80,0,0
271896,-86.9565217391304,4,1,0,80,0,0
272046,-83.3333333333333,4,1,0,80,0,0
272121,-81.6326530612245,4,1,0,80,0,0
272196,-80,4,1,0,80,0,0
272346,-76.9230769230769,4,1,0,80,0,0
272496,-74.0740740740741,4,1,0,80,0,0
272646,-71.4285714285714,4,1,0,80,0,0
273396,-66.6666666666667,4,1,0,100,0,0
275796,-71.4285714285714,4,1,0,70,0,0
276058,-100,4,1,0,40,0,0
276358,-95.2380952380952,4,1,0,60,0,0
276471,-97.5609756097561,4,1,0,63,0,0
276546,-100,4,1,0,66,0,0
276696,-95.2380952380952,4,1,0,70,0,0
276771,-93.4579439252336,4,1,0,70,0,0
276846,-91.743119266055,4,1,0,70,0,0
276921,-90.0900900900901,4,1,0,70,0,0
276996,-88.4955752212389,4,1,0,70,0,0
277071,-86.9565217391304,4,1,0,70,0,0
277146,-85.4700854700855,4,1,0,70,0,0
277221,-84.0336134453781,4,1,0,70,0,0
277296,-82.6446280991736,4,1,0,70,0,0
277371,-81.3008130081301,4,1,0,70,0,0
277446,-80,4,1,0,70,0,0
277596,-75.7575757575758,4,1,0,80,0,0
277696,-74.0740740740741,4,1,0,80,0,0
277796,-72.463768115942,4,1,0,80,0,0
277896,-70.9219858156028,4,1,0,90,0,0
277996,-69.4444444444444,4,1,0,90,0,0
278096,-68.0272108843537,4,1,0,90,0,0
278196,-66.6666666666667,4,1,0,100,0,0
280596,-71.4285714285714,4,1,0,80,0,0
280896,-100,4,1,0,80,0,0
281196,-95.2380952380952,4,1,0,80,0,0
281346,-90.9090909090909,4,1,0,80,0,0
281496,-86.9565217391304,4,1,0,80,0,0
281646,-83.3333333333333,4,1,0,80,0,0
281721,-81.6326530612245,4,1,0,80,0,0
281796,-80,4,1,0,80,0,0
281946,-76.9230769230769,4,1,0,80,0,0
282096,-74.0740740740741,4,1,0,80,0,0
282246,-71.4285714285714,4,1,0,80,0,0
282996,-66.6666666666667,4,1,0,100,0,0
285396,-71.4285714285714,4,1,0,80,0,0
285808,-100,4,1,0,45,0,0
285996,-95.2380952380952,4,1,0,45,0,0
286146,-90.9090909090909,4,1,0,45,0,0
286296,-86.9565217391304,4,1,0,45,0,0
286446,-83.3333333333333,4,1,0,45,0,0
286596,-80,4,1,0,45,0,0
286821,-78.4313725490196,4,1,0,45,0,0
287046,-76.9230769230769,4,1,0,45,0,0
287346,-74.0740740740741,4,1,0,47,0,0
287646,-71.4285714285714,4,1,0,50,0,0
287946,-66.6666666666667,4,1,0,80,0,0
288996,-40,4,1,0,80,0,0
290196,-87.719298245614,4,1,0,80,0,0
309471,-87.719298245614,4,1,0,50,0,0
309696,-87.719298245614,4,1,0,55,0,0
309846,-87.719298245614,4,1,0,60,0,0
310821,-86.9565217391304,4,1,0,60,0,0
310896,-86.2068965517241,4,1,0,60,0,0
310971,-85.4700854700855,4,1,0,60,0,0
311046,-84.7457627118644,4,1,0,60,0,0
311121,-84.0336134453781,4,1,0,60,0,0
311196,-83.3333333333333,4,1,0,60,0,0
311271,-82.6446280991736,4,1,0,60,0,0
311421,-81.3008130081301,4,1,0,60,0,0
311496,-80.6451612903226,4,1,0,60,0,0
311571,-80,4,1,0,60,0,0
311646,-79.3650793650794,4,1,0,60,0,0
311721,-78.125,4,1,0,60,0,0
311796,-76.9230769230769,4,1,0,100,0,1
321358,-83.3333333333333,4,1,0,70,0,1
321396,-83.3333333333333,4,1,0,70,0,0
321658,-76.9230769230769,4,1,0,100,0,0
321696,-76.9230769230769,4,1,0,100,0,1
328596,-76.9230769230769,4,1,0,100,0,0
328746,-87.719298245614,4,1,0,65,0,0
329346,-87.719298245614,4,1,0,60,0,0
329796,-100,4,1,0,55,0,0
330696,-120.481927710843,4,1,0,55,0,0
330921,-76.9230769230769,4,1,0,100,0,0
330996,-76.9230769230769,4,1,0,100,0,1
340183,-76.9230769230769,4,1,0,70,0,1
340221,-83.3333333333333,4,1,0,70,0,0
340558,-83.3333333333333,4,1,0,100,0,0
340596,-76.9230769230769,4,1,0,100,0,1
351996,-76.9230769230769,4,1,0,100,0,0
352146,-80,4,1,0,50,0,0
352371,-83.3333333333333,4,1,0,50,0,0
352521,-87.719298245614,4,1,0,80,0,0
352671,-90.9090909090909,4,1,0,40,0,0
352896,-95.2380952380952,4,1,0,40,0,0
353046,-100,4,1,0,40,0,0
353796,-105.263157894737,4,1,0,40,0,0
353946,-109.89010989011,4,1,0,40,0,0
354096,-114.942528735632,4,1,0,40,0,0
354246,-120.004800192008,4,1,0,40,0,0

[HitObjects]
64,64,26196,5,0,0:0:0:0:
64,64,26346,1,0,0:0:0:0:
320,64,26496,1,8,0:0:0:0:
320,64,26646,1,8,0:0:0:0:
64,64,26796,1,0,0:0:0:0:
320,64,26946,1,8,0:0:0:0:
64,64,27096,1,0,0:0:0:0:
64,64,27246,1,0,0:0:0:0:
320,64,27396,1,8,0:0:0:0:
64,64,27546,1,0,0:0:0:0:
320,64,27696,1,8,0:0:0:0:
320,64,27846,1,8,0:0:0:0:
320,64,27996,1,8,0:0:0:0:
64,64,28146,1,0,0:0:0:0:
320,64,28296,1,8,0:0:0:0:
320,64,28446,1,8,0:0:0:0:
64,64,28596,1,0,0:0:0:0:
64,64,28746,1,0,0:0:0:0:
320,64,28896,1,8,0:0:0:0:
64,64,29046,1,0,0:0:0:0:
320,64,29196,1,8,0:0:0:0:
320,64,29346,1,8,0:0:0:0:
64,64,29496,1,0,0:0:0:0:
64,64,29646,1,0,0:0:0:0:
320,64,29796,1,8,0:0:0:0:
64,64,29946,1,0,0:0:0:0:
320,64,30096,1,8,0:0:0:0:
64,64,30246,1,0,0:0:0:0:
320,64,30396,1,8,0:0:0:0:
320,64,30546,1,8,0:0:0:0:
64,64,30621,1,0,0:0:0:0:
320,64,30696,1,8,0:0:0:0:
320,64,30846,1,8,0:0:0:0:
64,64,30996,1,0,0:0:0:0:
64,64,31146,1,0,0:0:0:0:
320,64,31296,1,8,0:0:0:0:
320,64,31446,1,8,0:0:0:0:
64,64,31596,1,0,0:0:0:0:
320,64,31746,1,8,0:0:0:0:
64,64,31896,1,0,0:0:0:0:
64,64,32046,1,0,0:0:0:0:
320,64,32196,1,8,0:0:0:0:
64,64,32346,1,0,0:0:0:0:
320,64,32496,1,8,0:0:0:0:
320,64,32646,1,8,0:0:0:0:
320,64,32796,1,8,0:0:0:0:
64,64,32946,1,0,0:0:0:0:
320,64,33096,1,8,0:0:0:0:
320,64,33246,1,8,0:0:0:0:
64,64,33396,1,0,0:0:0:0:
64,64,33546,1,0,0:0:0:0:
320,64,33696,1,8,0:0:0:0:
64,64,33846,1,0,0:0:0:0:
320,64,33996,1,8,0:0:0:0:
320,64,34146,1,8,0:0:0:0:
64,64,34296,1,0,0:0:0:0:
64,64,34446,1,0,0:0:0:0:
320,64,34596,1,8,0:0:0:0:
64,64,34746,1,0,0:0:0:0:
320,64,34896,1,8,0:0:0:0:
320,64,35046,1,8,0:0:0:0:
64,64,35196,1,0,0:0:0:0:
64,64,35346,1,0,0:0:0:0:
64,64,35421,1,0,0:0:0:0:
320,64,35496,1,8,0:0:0:0:
320,64,35646,1,8,0:0:0:0:
64,64,35796,1,0,0:0:0:0:
64,64,35946,1,0,0:0:0:0:
320,64,36096,1,8,0:0:0:0:
320,64,36246,1,8,0:0:0:0:
64,64,36396,1,0,0:0:0:0:
320,64,36546,1,8,0:0:0:0:
64,64,36696,1,0,0:0:0:0:
64,64,36846,1,0,0:0:0:0:
320,64,36996,1,8,0:0:0:0:
64,64,37146,1,0,0:0:0:0:
320,64,37296,1,8,0:0:0:0:
320,64,37446,1,8,0:0:0:0:
320,64,37596,1,8,0:0:0:0:
64,64,37746,1,0,0:0:0:0:
320,64,37896,1,8,0:0:0:0:
320,64,38046,1,8,0:0:0:0:
64,64,38196,1,0,0:0:0:0:
64,64,38346,1,0,0:0:0:0:
320,64,38496,1,8,0:0:0:0:
64,64,38646,1,0,0:0:0:0:
320,64,38796,1,8,0:0:0:0:
320,64,38946,1,8,0:0:0:0:
64,64,39096,1,0,0:0:0:0:
64,64,39246,1,0,0:0:0:0:
320,64,39396,1,8,0:0:0:0:
64,64,39546,1,0,0:0:0:0:
320,64,39696,1,8,0:0:0:0:
64,64,39846,1,0,0:0:0:0:
320,64,39996,1,8,0:0:0:0:
320,64,40146,1,8,0:0:0:0:
64,64,40221,1,0,0:0:0:0:
320,64,40296,1,8,0:0:0:0:
320,64,40446,1,8,0:0:0:0:
64,64,40596,1,0,0:0:0:0:
64,64,40746,1,0,0:0:0:0:
320,64,40896,1,8,0:0:0:0:
320,64,41046,1,8,0:0:0:0:
64,64,41196,1,0,0:0:0:0:
320,64,41346,1,8,0:0:0:0:
64,64,41496,1,0,0:0:0:0:
64,64,41646,1,0,0:0:0:0:
320,64,41796,1,8,0:0:0:0:
64,64,41946,1,0,0:0:0:0:
320,64,42096,1,8,0:0:0:0:
320,64,42246,1,8,0:0:0:0:
320,64,42396,1,8,0:0:0:0:
64,64,42546,1,0,0:0:0:0:
320,64,42696,1,8,0:0:0:0:
320,64,42846,1,8,0:0:0:0:
64,64,42996,1,0,0:0:0:0:
64,64,43146,1,0,0:0:0:0:
320,64,43296,1,8,0:0:0:0:
64,64,43446,1,0,0:0:0:0:
320,64,43596,1,8,0:0:0:0:
320,64,43746,1,8,0:0:0:0:
64,64,43896,1,0,0:0:0:0:
64,64,44046,1,0,0:0:0:0:
320,64,44196,1,8,0:0:0:0:
64,64,44346,1,0,0:0:0:0:
320,64,44496,1,8,0:0:0:0:
320,64,44646,1,8,0:0:0:0:
64,64,44796,1,0,0:0:0:0:
64,64,44946,1,0,0:0:0:0:
64,64,45021,1,0,0:0:0:0:
320,64,45096,1,8,0:0:0:0:
320,64,45246,1,8,0:0:0:0:
64,64,45396,1,0,0:0:0:0:
64,64,46596,1,0,0:0:0:0:
320,64,47796,1,8,0:0:0:0:
320,64,50196,1,8,0:0:0:0:
320,64,51396,1,8,0:0:0:0:
64,64,52596,1,0,0:0:0:0:
64,64,54396,1,0,0:0:0:0:
320,64,54696,1,8,0:0:0:0:
64,64,54846,1,0,0:0:0:0:
320,64,54996,1,8,0:0:0:0:
320,64,55746,1,8,0:0:0:0:
64,64,56196,1,0,0:0:0:0:
320,64,56796,1,8,0:0:0:0:
320,64,56946,1,8,0:0:0:0:
64,64,57096,1,0,0:0:0:0:
320,64,57246,1,8,0:0:0:0:
320,64,57546,1,8,0:0:0:0:
64,64,57696,1,0,0:0:0:0:
64,64,59196,1,0,0:0:0:0:
64,64,59496,1,0,0:0:0:0:
320,64,59796,1,8,0:0:0:0:
64,64,60096,1,0,0:0:0:0:
64,64,60321,1,0,0:0:0:0:
64,64,60471,1,0,0:0:0:0:
64,64,60546,1,0,0:0:0:0:
320,64,60696,1,8,0:0:0:0:
320,64,60846,1,8,0:0:0:0:
64,64,60996,1,0,0:0:0:0:
64,64,61296,1,0,0:0:0:0:
64,64,61521,1,0,0:0:0:0:
320,64,61596,1,8,0:0:0:0:
64,64,61746,1,0,0:0:0:0:
64,64,61821,1,0,0:0:0:0:
320,64,61896,1,8,0:0:0:0:
320,64,62046,1,8,0:0:0:0:
64,64,62196,1,0,0:0:0:0:
64,64,62346,1,0,0:0:0:0:
320,64,62496,1,8,0:0:0:0:
320,64,62646,1,8,0:0:0:0:
64,64,62796,1,0,0:0:0:0:
320,64,62946,1,8,0:0:0:0:
320,64,63021,1,8,0:0:0:0:
64,64,63096,1,0,0:0:0:0:
64,64,63246,1,0,0:0:0:0:
320,64,63396,1,8,0:0:0:0:
64,64,63546,1,0,0:0:0:0:
64,64,63621,1,0,0:0:0:0:
320,64,63696,1,8,0:0:0:0:
64,64,63846,1,0,0:0:0:0:
320,64,64596,1,12,0:0:0:0:
320,64,65346,1,12,0:0:0:0:
64,64,65796,1,4,0:0:0:0:
64,64,66396,1,4,0:0:0:0:
320,64,66846,1,12,0:0:0:0:
256,192,67596,12,4,69246,0:0:0:0:
64,64,69396,5,4,0:0:0:0:
320,64,70146,1,12,0:0:0:0:
64,64,70596,1,4,0:0:0:0:
64,64,71196,1,4,0:0:0:0:
320,64,71646,1,12,0:0:0:0:
256,192,72396,12,0,73446,0:0:0:0:
64,64,73596,5,0,0:0:0:0:
64,64,73746,1,0,0:0:0:0:
64,64,73821,1,0,0:0:0:0:
320,64,73896,1,8,0:0:0:0:
320,64,74046,1,8,0:0:0:0:
64,64,74196,1,4,0:0:0:0:
64,64,74946,1,4,0:0:0:0:
320,64,75396,1,12,0:0:0:0:
320,64,75996,1,12,0:0:0:0:
64,64,76446,1,4,0:0:0:0:
256,192,77196,12,0,78846,0:0:0:0:
64,64,78996,5,4,0:0:0:0:
320,64,79746,1,12,0:0:0:0:
64,64,80196,1,4,0:0:0:0:
64,64,80796,1,4,0:0:0:0:
320,64,81246,1,12,0:0:0:0:
64,64,81846,1,0,0:0:0:0:
320,64,81996,1,8,0:0:0:0:
320,64,82146,1,8,0:0:0:0:
64,64,82296,1,0,0:0:0:0:
64,64,82446,1,0,0:0:0:0:
320,64,82596,1,8,0:0:0:0:
64,64,82821,1,0,0:0:0:0:
64,64,83046,1,0,0:0:0:0:
320,64,83383,1,8,0:0:0:0:
320,64,83758,1,8,0:0:0:0:
320,64,83796,1,8,0:0:0:0:
256,192,83946,12,0,85596,0:0:0:0:
64,64,86196,5,4,0:0:0:0:
320,64,86346,1,8,0:0:0:0:
320,64,86421,1,8,0:0:0:0:
64,64,86496,1,0,0:0:0:0:
320,64,86646,1,8,0:0:0:0:
64,64,86796,1,0,0:0:0:0:
64,64,86871,1,0,0:0:0:0:
320,64,86946,1,8,0:0:0:0:
320,64,87021,1,8,0:0:0:0:
64,64,87096,1,0,0:0:0:0:
320,64,87246,1,8,0:0:0:0:
64,64,87396,1,0,0:0:0:0:
64,64,87471,1,0,0:0:0:0:
320,64,87546,1,8,0:0:0:0:
320,64,87621,1,8,0:0:0:0:
64,64,87696,1,0,0:0:0:0:
320,64,87846,1,8,0:0:0:0:
64,64,87996,1,0,0:0:0:0:
320,64,88146,1,8,0:0:0:0:
320,64,88221,1,8,0:0:0:0:
64,64,88296,1,0,0:0:0:0:
64,64,88371,1,0,0:0:0:0:
64,64,88446,1,0,0:0:0:0:
64,64,88521,1,0,0:0:0:0:
320,64,88596,1,8,0:0:0:0:
64,64,88746,1,0,0:0:0:0:
320,64,88896,1,8,0:0:0:0:
64,64,88971,1,0,0:0:0:0:
320,64,89046,1,8,0:0:0:0:
320,64,89121,1,8,0:0:0:0:
64,64,89196,1,0,0:0:0:0:
320,64,89346,1,8,0:0:0:0:
320,64,89421,1,8,0:0:0:0:
64,64,89496,1,0,0:0:0:0:
320,64,89646,1,8,0:0:0:0:
320,64,89796,1,8,0:0:0:0:
64,64,89871,1,0,0:0:0:0:
320,64,89946,1,8,0:0:0:0:
320,64,90021,1,8,0:0:0:0:
64,64,90096,1,0,0:0:0:0:
320,64,90246,1,8,0:0:0:0:
320,64,90321,1,8,0:0:0:0:
64,64,90396,1,0,0:0:0:0:
320,64,90546,1,8,0:0:0:0:
64,64,90621,1,0,0:0:0:0:
320,64,90696,1,8,0:0:0:0:
320,64,90771,1,8,0:0:0:0:
64,64,90846,1,0,0:0:0:0:
64,64,90921,1,0,0:0:0:0:
64,64,90996,1,0,0:0:0:0:
64,64,91146,1,0,0:0:0:0:
320,64,91221,1,8,0:0:0:0:
64,64,91296,1,0,0:0:0:0:
64,64,91371,1,0,0:0:0:0:
320,64,91446,1,8,0:0:0:0:
320,64,91521,1,8,0:0:0:0:
64,64,91596,1,0,0:0:0:0:
320,64,91746,1,8,0:0:0:0:
320,64,91821,1,8,0:0:0:0:
64,64,91896,1,0,0:0:0:0:
64,64,92046,1,0,0:0:0:0:
320,64,92121,1,8,0:0:0:0:
64,64,92196,1,0,0:0:0:0:
64,64,92271,1,0,0:0:0:0:
320,64,92346,1,8,0:0:0:0:
320,64,92421,1,8,0:0:0:0:
64,64,92496,1,0,0:0:0:0:
64,64,92646,1,0,0:0:0:0:
64,64,92721,1,0,0:0:0:0:
320,64,92796,1,8,0:0:0:0:
64,64,92871,1,0,0:0:0:0:
320,64,92946,1,8,0:0:0:0:
64,64,93021,1,0,0:0:0:0:
320,64,93096,1,8,0:0:0:0:
320,64,93171,1,8,0:0:0:0:
64,64,93246,1,0,0:0:0:0:
320,64,93396,1,8,0:0:0:0:
64,64,93471,1,0,0:0:0:0:
320,64,93546,1,8,0:0:0:0:
320,64,93696,1,8,0:0:0:0:
64,64,93771,1,0,0:0:0:0:
320,64,93846,1,8,0:0:0:0:
320,64,93996,1,8,0:0:0:0:
64,64,94071,1,0,0:0:0:0:
320,64,94146,1,8,0:0:0:0:
64,64,94221,1,0,0:0:0:0:
320,64,94296,1,8,0:0:0:0:
320,64,94371,1,8,0:0:0:0:
64,64,94446,1,0,0:0:0:0:
320,64,94596,1,8,0:0:0:0:
64,64,94671,1,0,0:0:0:0:
320,64,94746,1,8,0:0:0:0:
64,64,94821,1,0,0:0:0:0:
320,64,94896,1,8,0:0:0:0:
320,64,94971,1,8,0:0:0:0:
320,64,95046,1,8,0:0:0:0:
320,64,95121,1,8,0:0:0:0:
64,64,95196,1,0,0:0:0:0:
64,64,95346,1,0,0:0:0:0:
64,64,95421,1,0,0:0:0:0:
320,64,95496,1,8,0:0:0:0:
320,64,95646,1,8,0:0:0:0:
64,64,95796,1,0,0:0:0:0:
320,64,95946,1,8,0:0:0:0:
320,64,96021,1,8,0:0:0:0:
64,64,96096,1,0,0:0:0:0:
320,64,96246,1,8,0:0:0:0:
64,64,96396,1,0,0:0:0:0:
64,64,96471,1,0,0:0:0:0:
320,64,96546,1,8,0:0:0:0:
64,64,96621,1,0,0:0:0:0:
320,64,96696,1,8,0:0:0:0:
320,64,96771,1,8,0:0:0:0:
64,64,96846,1,0,0:0:0:0:
64,64,96996,1,0,0:0:0:0:
320,64,97146,1,8,0:0:0:0:
320,64,97221,1,8,0:0:0:0:
64,64,97296,1,0,0:0:0:0:
64,64,97446,1,0,0:0:0:0:
320,64,97596,1,8,0:0:0:0:
64,64,97671,1,0,0:0:0:0:
320,64,97746,1,8,0:0:0:0:
320,64,97821,1,8,0:0:0:0:
64,64,97896,1,0,0:0:0:0:
64,64,97946,1,0,0:0:0:0:
64,64,97996,1,0,0:0:0:0:
320,64,98196,1,8,0:0:0:0:
64,64,98346,1,0,0:0:0:0:
64,64,98421,1,0,0:0:0:0:
320,64,98496,1,8,0:0:0:0:
64,64,98646,1,0,0:0:0:0:
64,64,98721,1,0,0:0:0:0:
320,64,98796,1,8,0:0:0:0:
320,64,98871,1,8,0:0:0:0:
64,64,98946,1,0,0:0:0:0:
64,64,99021,1,0,0:0:0:0:
320,64,99096,1,8,0:0:0:0:
64,64,99171,1,0,0:0:0:0:
320,64,99246,1,8,0:0:0:0:
320,64,99396,1,8,0:0:0:0:
64,64,99546,1,0,0:0:0:0:
64,64,99621,1,0,0:0:0:0:
320,64,99696,1,8,0:0:0:0:
64,64,99846,1,0,0:0:0:0:
64,64,99921,1,0,0:0:0:0:
320,64,99996,1,8,0:0:0:0:
320,64,100071,1,8,0:0:0:0:
64,64,100146,1,0,0:0:0:0:
64,64,100221,1,0,0:0:0:0:
320,64,100296,1,8,0:0:0:0:
320,64,100446,1,8,0:0:0:0:
320,64,100596,1,8,0:0:0:0:
320,64,100671,1,8,0:0:0:0:
64,64,100746,1,0,0:0:0:0:
64,64,100821,1,0,0:0:0:0:
320,64,100896,1,8,0:0:0:0:
320,64,100971,1,8,0:0:0:0:
64,64,101046,1,0,0:0:0:0:
64,64,101121,1,0,0:0:0:0:
320,64,101196,1,8,0:0:0:0:
320,64,101271,1,8,0:0:0:0:
64,64,101346,1,0,0:0:0:0:
64,64,101421,1,0,0:0:0:0:
320,64,101496,1,8,0:0:0:0:
64,64,101546,1,0,0:0:0:0:
64,64,101596,1,0,0:0:0:0:
320,64,101646,1,8,0:0:0:0:
320,64,101796,1,8,0:0:0:0:
64,64,101871,1,0,0:0:0:0:
64,64,101946,1,0,0:0:0:0:
64,64,102021,1,0,0:0:0:0:
320,64,102096,1,8,0:0:0:0:
64,64,102171,1,0,0:0:0:0:
64,64,102246,1,0,0:0:0:0:
64,64,102321,1,0,0:0:0:0:
320,64,102396,1,8,0:0:0:0:
64,64,102471,1,0,0:0:0:0:
64,64,102546,1,0,0:0:0:0:
64,64,102621,1,0,0:0:0:0:
320,64,102696,1,8,0:0:0:0:
320,64,102746,1,8,0:0:0:0:
64,64,102796,1,0,0:0:0:0:
320,64,102846,1,8,0:0:0:0:
64,64,102996,1,0,0:0:0:0:
64,64,103046,1,0,0:0:0:0:
64,64,103096,1,0,0:0:0:0:
320,64,103146,1,8,0:0:0:0:
64,64,103221,1,0,0:0:0:0:
320,64,103296,1,8,0:0:0:0:
64,64,103371,1,0,0:0:0:0:
64,64,103446,1,0,0:0:0:0:
64,64,103521,1,0,0:0:0:0:
320,64,103596,1,8,0:0:0:0:
320,64,103646,1,8,0:0:0:0:
320,64,103696,1,8,0:0:0:0:
64,64,103746,1,0,0:0:0:0:
64,64,103821,1,0,0:0:0:0:
320,64,103896,1,8,0:0:0:0:
64,64,103971,1,0,0:0:0:0:
64,64,104046,1,0,0:0:0:0:
64,64,104121,1,0,0:0:0:0:
320,64,104196,1,8,0:0:0:0:
64,64,104246,1,0,0:0:0:0:
64,64,104296,1,0,0:0:0:0:
320,64,104346,1,8,0:0:0:0:
64,64,104421,1,0,0:0:0:0:
320,64,104496,1,8,0:0:0:0:
64,64,104546,1,0,0:0:0:0:
64,64,104596,1,0,0:0:0:0:
320,64,104646,1,8,0:0:0:0:
64,64,104721,1,0,0:0:0:0:
320,64,104796,1,8,0:0:0:0:
320,64,104846,1,8,0:0:0:0:
320,64,104896,1,8,0:0:0:0:
64,64,104946,1,0,0:0:0:0:
64,64,105021,1,0,0:0:0:0:
320,64,105096,1,8,0:0:0:0:
320,64,105146,1,8,0:0:0:0:
320,64,105196,1,8,0:0:0:0:
320,64,105246,1,8,0:0:0:0:
320,64,105296,1,8,0:0:0:0:
320,64,105346,1,8,0:0:0:0:
64,64,105396,1,0,0:0:0:0:
64,64,105546,1,0,0:0:0:0:
64,64,105696,1,0,0:0:0:0:
64,64,105846,1,0,0:0:0:0:
320,64,105996,1,8,0:0:0:0:
320,64,106071,1,8,0:0:0:0:
64,64,106146,1,0,0:0:0:0:
320,64,106296,1,8,0:0:0:0:
320,64,106371,1,8,0:0:0:0:
64,64,106446,1,0,0:0:0:0:
320,64,106596,1,8,0:0:0:0:
320,64,106746,1,8,0:0:0:0:
320,64,106821,1,8,0:0:0:0:
320,64,106896,1,8,0:0:0:0:
320,64,107046,1,8,0:0:0:0:
320,64,107196,1,8,0:0:0:0:
320,64,107271,1,8,0:0:0:0:
64,64,107346,1,0,0:0:0:0:
64,64,107421,1,0,0:0:0:0:
320,64,107496,1,8,0:0:0:0:
64,64,107571,1,0,0:0:0:0:
320,64,107646,1,8,0:0:0:0:
320,64,107721,1,8,0:0:0:0:
64,64,107796,1,4,0:0:0:0:
320,64,108096,1,8,0:0:0:0:
64,64,108146,1,0,0:0:0:0:
64,64,108196,1,0,0:0:0:0:
320,64,108246,1,8,0:0:0:0:
64,64,108321,1,0,0:0:0:0:
320,64,108396,1,8,0:0:0:0:
320,64,108546,1,8,0:0:0:0:
320,64,108621,1,8,0:0:0:0:
64,64,108696,1,0,0:0:0:0:
64,64,108771,1,0,0:0:0:0:
64,64,108846,1,0,0:0:0:0:
64,64,108921,1,0,0:0:0:0:
320,64,108996,1,8,0:0:0:0:
320,64,109146,1,8,0:0:0:0:
320,64,109221,1,8,0:0:0:0:
64,64,109371,1,0,0:0:0:0:
320,64,109446,1,8,0:0:0:0:
64,64,109521,1,0,0:0:0:0:
320,64,109596,1,8,0:0:0:0:
320,64,109746,1,8,0:0:0:0:
64,64,109821,1,0,0:0:0:0:
320,64,109896,1,8,0:0:0:0:
320,64,109971,1,8,0:0:0:0:
320,64,110046,1,8,0:0:0:0:
320,64,110121,1,8,0:0:0:0:
64,64,110196,1,0,0:0:0:0:
64,64,110246,1,0,0:0:0:0:
64,64,110296,1,0,0:0:0:0:
320,64,110346,1,8,0:0:0:0:
320,64,110496,1,8,0:0:0:0:
320,64,110546,1,8,0:0:0:0:
64,64,110596,1,0,0:0:0:0:
320,64,110646,1,8,0:0:0:0:
320,64,110721,1,8,0:0:0:0:
64,64,110796,1,0,0:0:0:0:
320,64,110946,1,8,0:0:0:0:
64,64,111021,1,0,0:0:0:0:
64,64,111171,1,0,0:0:0:0:
320,64,111246,1,8,0:0:0:0:
320,64,111296,1,8,0:0:0:0:
320,64,111346,1,8,0:0:0:0:
64,64,111396,1,0,0:0:0:0:
320,64,111471,1,8,0:0:0:0:
64,64,111546,1,0,0:0:0:0:
320,64,111621,1,8,0:0:0:0:
320,64,111696,1,8,0:0:0:0:
64,64,111771,1,0,0:0:0:0:
320,64,111846,1,8,0:0:0:0:
64,64,111921,1,0,0:0:0:0:
320,64,111996,1,8,0:0:0:0:
64,64,112071,1,0,0:0:0:0:
64,64,112146,1,0,0:0:0:0:
64,64,112221,1,0,0:0:0:0:
320,64,112296,1,8,0:0:0:0:
64,64,112371,1,0,0:0:0:0:
320,64,112446,1,8,0:0:0:0:
64,64,112596,1,4,0:0:0:0:
320,64,112896,1,8,0:0:0:0:
64,64,112946,1,0,0:0:0:0:
64,64,112996,1,0,0:0:0:0:
320,64,113046,1,8,0:0:0:0:
64,64,113121,1,0,0:0:0:0:
320,64,113196,1,8,0:0:0:0:
320,64,113346,1,8,0:0:0:0:
320,64,113421,1,8,0:0:0:0:
64,64,113496,1,0,0:0:0:0:
64,64,113571,1,0,0:0:0:0:
64,64,113646,1,0,0:0:0:0:
64,64,113721,1,0,0:0:0:0:
320,64,113796,1,8,0:0:0:0:
64,64,113946,1,0,0:0:0:0:
320,64,114021,1,8,0:0:0:0:
64,64,114096,1,0,0:0:0:0:
64,64,114171,1,0,0:0:0:0:
320,64,114246,1,8,0:0:0:0:
64,64,114321,1,0,0:0:0:0:
320,64,114396,1,8,0:0:0:0:
320,64,114446,1,8,0:0:0:0:
64,64,114496,1,0,0:0:0:0:
320,64,114546,1,8,0:0:0:0:
320,64,114696,1,8,0:0:0:0:
320,64,114771,1,8,0:0:0:0:
320,64,114846,1,8,0:0:0:0:
320,64,114921,1,8,0:0:0:0:
64,64,114996,1,0,0:0:0:0:
64,64,115071,1,0,0:0:0:0:
320,64,115146,1,8,0:0:0:0:
64,64,115221,1,0,0:0:0:0:
320,64,115296,1,8,0:0:0:0:
320,64,115371,1,8,0:0:0:0:
64,64,115446,1,0,0:0:0:0:
320,64,115596,1,8,0:0:0:0:
64,64,115671,1,0,0:0:0:0:
320,64,115746,1,8,0:0:0:0:
320,64,115821,1,8,0:0:0:0:
64,64,115896,1,0,0:0:0:0:
64,64,115946,1,0,0:0:0:0:
64,64,115996,1,0,0:0:0:0:
320,64,116046,1,8,0:0:0:0:
64,64,116196,1,4,0:0:0:0:
320,64,116421,1,12,0:0:0:0:
64,64,116646,1,4,0:0:0:0:
64,64,116871,1,4,0:0:0:0:
320,64,117096,1,12,0:0:0:0:
320,64,117246,1,12,0:0:0:0:
64,64,117396,1,4,0:0:0:0:
64,64,117696,1,4,0:0:0:0:
320,64,117846,1,8,0:0:0:0:
320,64,117921,1,8,0:0:0:0:
64,64,117996,1,0,0:0:0:0:
320,64,118146,1,8,0:0:0:0:
64,64,118221,1,0,0:0:0:0:
64,64,118371,1,0,0:0:0:0:
320,64,118446,1,8,0:0:0:0:
320,64,118521,1,8,0:0:0:0:
64,64,118596,1,0,0:0:0:0:
320,64,118746,1,8,0:0:0:0:
320,64,118821,1,8,0:0:0:0:
64,64,118971,1,0,0:0:0:0:
320,64,119046,1,8,0:0:0:0:
64,64,119121,1,0,0:0:0:0:
320,64,119196,1,8,0:0:0:0:
320,64,119346,1,8,0:0:0:0:
64,64,119421,1,0,0:0:0:0:
320,64,119496,1,8,0:0:0:0:
320,64,119571,1,8,0:0:0:0:
320,64,119646,1,8,0:0:0:0:
320,64,119721,1,8,0:0:0:0:
64,64,119796,1,0,0:0:0:0:
64,64,119846,1,0,0:0:0:0:
64,64,119896,1,0,0:0:0:0:
320,64,119946,1,8,0:0:0:0:
320,64,120096,1,8,0:0:0:0:
320,64,120146,1,8,0:0:0:0:
64,64,120196,1,0,0:0:0:0:
320,64,120246,1,8,0:0:0:0:
320,64,120321,1,8,0:0:0:0:
64,64,120396,1,0,0:0:0:0:
320,64,120546,1,8,0:0:0:0:
64,64,120621,1,0,0:0:0:0:
64,64,120771,1,0,0:0:0:0:
320,64,120846,1,8,0:0:0:0:
320,64,120896,1,8,0:0:0:0:
320,64,120946,1,8,0:0:0:0:
64,64,120996,1,0,0:0:0:0:
320,64,121071,1,8,0:0:0:0:
64,64,121146,1,0,0:0:0:0:
320,64,121221,1,8,0:0:0:0:
320,64,121296,1,8,0:0:0:0:
64,64,121371,1,0,0:0:0:0:
320,64,121446,1,8,0:0:0:0:
64,64,121521,1,0,0:0:0:0:
320,64,121596,1,8,0:0:0:0:
64,64,121671,1,0,0:0:0:0:
64,64,121746,1,0,0:0:0:0:
64,64,121821,1,0,0:0:0:0:
320,64,121896,1,8,0:0:0:0:
64,64,121971,1,0,0:0:0:0:
320,64,122046,1,8,0:0:0:0:
64,64,122196,1,4,0:0:0:0:
320,64,122496,1,8,0:0:0:0:
64,64,122546,1,0,0:0:0:0:
64,64,122596,1,0,0:0:0:0:
320,64,122646,1,8,0:0:0:0:
64,64,122721,1,0,0:0:0:0:
320,64,122796,1,8,0:0:0:0:
320,64,122946,1,8,0:0:0:0:
320,64,123021,1,8,0:0:0:0:
64,64,123096,1,0,0:0:0:0:
320,64,123246,1,8,0:0:0:0:
64,64,123396,1,0,0:0:0:0:
320,64,123546,1,8,0:0:0:0:
64,64,123621,1,0,0:0:0:0:
320,64,123846,1,8,0:0:0:0:
64,64,123921,1,0,0:0:0:0:
320,64,123996,1,8,0:0:0:0:
320,64,124046,1,8,0:0:0:0:
320,64,124096,1,8,0:0:0:0:
64,64,124146,1,0,0:0:0:0:
64,64,124196,1,0,0:0:0:0:
64,64,124246,1,0,0:0:0:0:
320,64,124296,1,8,0:0:0:0:
64,64,124371,1,0,0:0:0:0:
320,64,124446,1,8,0:0:0:0:
64,64,124596,1,4,0:0:0:0:
320,64,124746,1,8,0:0:0:0:
64,64,124821,1,0,0:0:0:0:
320,64,124896,1,8,0:0:0:0:
64,64,125046,1,0,0:0:0:0:
320,64,125121,1,8,0:0:0:0:
64,64,125196,1,0,0:0:0:0:
320,64,125271,1,8,0:0:0:0:
64,64,125346,1,0,0:0:0:0:
320,64,125496,1,8,0:0:0:0:
64,64,125646,1,0,0:0:0:0:
320,64,125721,1,8,0:0:0:0:
64,64,125796,1,0,0:0:0:0:
320,64,125946,1,8,0:0:0:0:
64,64,126021,1,0,0:0:0:0:
320,64,126096,1,8,0:0:0:0:
64,64,126246,1,0,0:0:0:0:
320,64,126321,1,8,0:0:0:0:
64,64,126396,1,0,0:0:0:0:
320,64,126471,1,8,0:0:0:0:
64,64,126546,1,0,0:0:0:0:
320,64,126696,1,8,0:0:0:0:
64,64,126746,1,0,0:0:0:0:
64,64,126796,1,0,0:0:0:0:
320,64,126846,1,8,0:0:0:0:
64,64,126996,1,4,0:0:0:0:
320,64,127296,1,8,0:0:0:0:
320,64,127596,1,8,0:0:0:0:
320,64,127896,1,8,0:0:0:0:
64,64,128196,1,0,0:0:0:0:
64,64,128246,1,0,0:0:0:0:
64,64,128296,1,0,0:0:0:0:
320,64,128346,1,8,0:0:0:0:
64,64,128421,1,0,0:0:0:0:
320,64,128496,1,8,0:0:0:0:
320,64,128571,1,8,0:0:0:0:
64,64,128646,1,0,0:0:0:0:
64,64,128796,1,0,0:0:0:0:
64,64,128846,1,0,0:0:0:0:
64,64,128896,1,0,0:0:0:0:
320,64,128946,1,8,0:0:0:0:
320,64,129021,1,8,0:0:0:0:
64,64,129096,1,0,0:0:0:0:
64,64,129171,1,0,0:0:0:0:
320,64,129246,1,8,0:0:0:0:
64,64,129396,1,0,0:0:0:0:
64,64,129446,1,0,0:0:0:0:
64,64,129496,1,0,0:0:0:0:
320,64,129546,1,8,0:0:0:0:
64,64,129621,1,0,0:0:0:0:
320,64,129696,1,8,0:0:0:0:
64,64,129771,1,0,0:0:0:0:
320,64,129846,1,8,0:0:0:0:
64,64,129921,1,0,0:0:0:0:
320,64,129996,1,8,0:0:0:0:
64,64,130071,1,0,0:0:0:0:
320,64,130146,1,8,0:0:0:0:
64,64,130221,1,0,0:0:0:0:
320,64,130296,1,8,0:0:0:0:
64,64,130371,1,0,0:0:0:0:
320,64,130446,1,8,0:0:0:0:
320,64,130596,1,8,0:0:0:0:
64,64,130633,1,0,0:0:0:0:
320,64,130746,1,8,0:0:0:0:
64,64,130783,1,0,0:0:0:0:
320,64,130896,1,8,0:0:0:0:
64,64,130933,1,0,0:0:0:0:
320,64,131046,1,8,0:0:0:0:
64,64,131083,1,0,0:0:0:0:
320,64,131196,1,8,0:0:0:0:
64,64,131233,1,0,0:0:0:0:
320,64,131346,1,8,0:0:0:0:
64,64,131383,1,0,0:0:0:0:
64,64,131496,1,0,0:0:0:0:
64,64,131533,1,0,0:0:0:0:
320,64,131646,1,8,0:0:0:0:
64,64,131796,1,4,0:0:0:0:
320,64,132096,1,8,0:0:0:0:
320,64,132171,1,8,0:0:0:0:
64,64,132246,1,0,0:0:0:0:
320,64,132396,1,8,0:0:0:0:
320,64,132433,1,8,0:0:0:0:
64,64,132546,1,0,0:0:0:0:
64,64,132583,1,0,0:0:0:0:
320,64,132621,1,8,0:0:0:0:
64,64,132771,1,0,0:0:0:0:
320,64,132846,1,8,0:0:0:0:
320,64,132996,1,8,0:0:0:0:
320,64,133033,1,8,0:0:0:0:
64,64,133146,1,0,0:0:0:0:
64,64,133183,1,0,0:0:0:0:
320,64,133221,1,8,0:0:0:0:
320,64,133371,1,8,0:0:0:0:
320,64,133408,1,8,0:0:0:0:
64,64,133446,1,0,0:0:0:0:
64,64,133521,1,0,0:0:0:0:
320,64,133596,1,8,0:0:0:0:
64,64,133746,1,0,0:0:0:0:
64,64,133796,1,0,0:0:0:0:
64,64,133846,1,0,0:0:0:0:
320,64,133896,1,8,0:0:0:0:
64,64,133971,1,0,0:0:0:0:
320,64,134046,1,8,0:0:0:0:
320,64,134121,1,8,0:0:0:0:
64,64,134196,1,0,0:0:0:0:
64,64,134346,1,0,0:0:0:0:
320,64,134421,1,8,0:0:0:0:
320,64,134496,1,8,0:0:0:0:
64,64,134571,1,0,0:0:0:0:
320,64,134721,1,8,0:0:0:0:
320,64,134796,1,8,0:0:0:0:
64,64,134871,1,0,0:0:0:0:
320,64,134946,1,8,0:0:0:0:
320,64,134996,1,8,0:0:0:0:
64,64,135046,1,0,0:0:0:0:
320,64,135096,1,8,0:0:0:0:
320,64,135171,1,8,0:0:0:0:
64,64,135246,1,0,0:0:0:0:
320,64,135396,1,8,0:0:0:0:
320,64,135471,1,8,0:0:0:0:
320,64,135621,1,8,0:0:0:0:
320,64,135696,1,8,0:0:0:0:
64,64,135771,1,0,0:0:0:0:
320,64,135846,1,8,0:0:0:0:
64,64,135921,1,0,0:0:0:0:
320,64,135996,1,8,0:0:0:0:
320,64,136071,1,8,0:0:0:0:
64,64,136146,1,0,0:0:0:0:
64,64,136221,1,0,0:0:0:0:
320,64,136296,1,8,0:0:0:0:
64,64,136371,1,0,0:0:0:0:
320,64,136446,1,8,0:0:0:0:
64,64,136596,1,4,0:0:0:0:
320,64,136896,1,8,0:0:0:0:
320,64,136971,1,8,0:0:0:0:
64,64,137046,1,0,0:0:0:0:
320,64,137196,1,8,0:0:0:0:
320,64,137233,1,8,0:0:0:0:
64,64,137346,1,0,0:0:0:0:
64,64,137383,1,0,0:0:0:0:
320,64,137421,1,8,0:0:0:0:
64,64,137571,1,0,0:0:0:0:
320,64,137646,1,8,0:0:0:0:
320,64,137796,1,8,0:0:0:0:
320,64,137833,1,8,0:0:0:0:
64,64,137946,1,0,0:0:0:0:
64,64,137983,1,0,0:0:0:0:
320,64,138021,1,8,0:0:0:0:
64,64,138096,1,0,0:0:0:0:
64,64,138171,1,0,0:0:0:0:
320,64,138246,1,8,0:0:0:0:
64,64,138321,1,0,0:0:0:0:
320,64,138396,1,8,0:0:0:0:
64,64,138546,1,0,0:0:0:0:
320,64,138621,1,8,0:0:0:0:
64,64,138696,1,0,0:0:0:0:
64,64,138771,1,0,0:0:0:0:
320,64,138846,1,8,0:0:0:0:
64,64,138921,1,0,0:0:0:0:
320,64,138996,1,8,0:0:0:0:
320,64,139146,1,8,0:0:0:0:
64,64,139221,1,0,0:0:0:0:
320,64,139296,1,8,0:0:0:0:
320,64,139371,1,8,0:0:0:0:
64,64,139446,1,0,0:0:0:0:
64,64,139521,1,0,0:0:0:0:
320,64,139596,1,8,0:0:0:0:
64,64,139671,1,0,0:0:0:0:
320,64,139746,1,8,0:0:0:0:
64,64,139821,1,0,0:0:0:0:
320,64,139896,1,8,0:0:0:0:
64,64,140046,1,0,0:0:0:0:
320,64,140196,1,8,0:0:0:0:
64,64,140346,1,0,0:0:0:0:
320,64,140421,1,8,0:0:0:0:
64,64,140571,1,0,0:0:0:0:
320,64,140646,1,8,0:0:0:0:
64,64,140796,1,0,0:0:0:0:
320,64,140871,1,8,0:0:0:0:
64,64,141021,1,0,0:0:0:0:
320,64,141096,1,8,0:0:0:0:
64,64,141171,1,0,0:0:0:0:
320,64,141246,1,8,0:0:0:0:
64,64,141396,1,4,0:0:0:0:
320,64,141546,1,8,0:0:0:0:
64,64,141696,1,4,0:0:0:0:
320,64,141996,1,12,0:0:0:0:
64,64,142296,1,4,0:0:0:0:
64,64,142446,1,0,0:0:0:0:
320,64,142596,1,8,0:0:0:0:
320,64,142633,1,8,0:0:0:0:
64,64,142746,1,0,0:0:0:0:
64,64,142783,1,0,0:0:0:0:
320,64,142821,1,8,0:0:0:0:
64,64,142971,1,0,0:0:0:0:
320,64,143046,1,8,0:0:0:0:
64,64,143121,1,0,0:0:0:0:
320,64,143196,1,8,0:0:0:0:
320,64,143233,1,8,0:0:0:0:
64,64,143346,1,0,0:0:0:0:
64,64,143396,1,0,0:0:0:0:
64,64,143446,1,0,0:0:0:0:
320,64,143496,1,8,0:0:0:0:
64,64,143571,1,0,0:0:0:0:
320,64,143646,1,8,0:0:0:0:
320,64,143721,1,8,0:0:0:0:
64,64,143796,1,0,0:0:0:0:
64,64,143946,1,0,0:0:0:0:
320,64,144021,1,8,0:0:0:0:
320,64,144096,1,8,0:0:0:0:
64,64,144171,1,0,0:0:0:0:
320,64,144321,1,8,0:0:0:0:
320,64,144396,1,8,0:0:0:0:
64,64,144471,1,0,0:0:0:0:
320,64,144546,1,8,0:0:0:0:
320,64,144596,1,8,0:0:0:0:
64,64,144646,1,0,0:0:0:0:
320,64,144696,1,8,0:0:0:0:
320,64,144771,1,8,0:0:0:0:
64,64,144846,1,0,0:0:0:0:
320,64,144996,1,8,0:0:0:0:
320,64,145071,1,8,0:0:0:0:
320,64,145221,1,8,0:0:0:0:
320,64,145296,1,8,0:0:0:0:
64,64,145371,1,0,0:0:0:0:
320,64,145446,1,8,0:0:0:0:
64,64,145521,1,0,0:0:0:0:
320,64,145596,1,8,0:0:0:0:
320,64,145671,1,8,0:0:0:0:
64,64,145746,1,0,0:0:0:0:
64,64,145821,1,0,0:0:0:0:
320,64,145896,1,8,0:0:0:0:
64,64,145971,1,0,0:0:0:0:
320,64,146046,1,8,0:0:0:0:
64,64,146196,1,4,0:0:0:0:
320,64,146346,1,8,0:0:0:0:
64,64,146496,1,4,0:0:0:0:
320,64,146796,1,12,0:0:0:0:
64,64,147096,1,4,0:0:0:0:
64,64,147246,1,0,0:0:0:0:
64,64,147321,1,0,0:0:0:0:
320,64,147396,1,8,0:0:0:0:
320,64,147433,1,8,0:0:0:0:
64,64,147546,1,0,0:0:0:0:
64,64,147583,1,0,0:0:0:0:
320,64,147621,1,8,0:0:0:0:
64,64,147696,1,0,0:0:0:0:
64,64,147846,1,0,0:0:0:0:
64,64,147921,1,0,0:0:0:0:
320,64,147996,1,8,0:0:0:0:
64,64,148146,1,0,0:0:0:0:
320,64,148221,1,8,0:0:0:0:
320,64,148296,1,8,0:0:0:0:
64,64,148371,1,0,0:0:0:0:
320,64,148446,1,8,0:0:0:0:
64,64,148596,1,4,0:0:0:0:
320,64,148821,1,12,0:0:0:0:
64,64,149046,1,4,0:0:0:0:
320,64,149271,1,12,0:0:0:0:
64,64,149496,1,4,0:0:0:0:
320,64,149721,1,12,0:0:0:0:
64,64,149946,1,4,0:0:0:0:
320,64,150171,1,12,0:0:0:0:
64,64,150396,1,4,0:0:0:0:
256,192,150546,12,0,150846,0:0:0:0:
64,64,150996,5,4,0:0:0:0:
320,64,152196,1,8,0:0:0:0:
320,64,152646,1,8,0:0:0:0:
320,64,153096,1,8,0:0:0:0:
64,64,153396,1,0,0:0:0:0:
64,64,153846,1,0,0:0:0:0:
64,64,154296,1,0,0:0:0:0:
320,64,154596,1,8,0:0:0:0:
320,64,155046,1,8,0:0:0:0:
320,64,155496,1,8,0:0:0:0:
64,64,155646,1,0,0:0:0:0:
64,64,155721,1,0,0:0:0:0:
320,64,155796,1,8,0:0:0:0:
320,64,156246,1,8,0:0:0:0:
320,64,156696,1,8,0:0:0:0:
64,64,156996,1,0,0:0:0:0:
64,64,157446,1,0,0:0:0:0:
64,64,157896,1,0,0:0:0:0:
320,64,158196,1,8,0:0:0:0:
64,64,158346,1,0,0:0:0:0:
64,64,158421,1,0,0:0:0:0:
64,64,158496,1,0,0:0:0:0:
64,64,158571,1,0,0:0:0:0:
64,64,158646,1,0,0:0:0:0:
64,64,158721,1,0,0:0:0:0:
64,64,158796,1,0,0:0:0:0:
64,64,158871,1,0,0:0:0:0:
64,64,158946,1,0,0:0:0:0:
64,64,159021,1,0,0:0:0:0:
64,64,159096,1,0,0:0:0:0:
64,64,159171,1,0,0:0:0:0:
64,64,159246,1,0,0:0:0:0:
64,64,159321,1,0,0:0:0:0:
64,64,159396,1,0,0:0:0:0:
64,64,160596,1,4,0:0:0:0:
320,64,160746,1,8,0:0:0:0:
320,64,160821,1,8,0:0:0:0:
64,64,160896,1,0,0:0:0:0:
64,64,161046,1,0,0:0:0:0:
320,64,161121,1,8,0:0:0:0:
64,64,161196,1,0,0:0:0:0:
64,64,161271,1,0,0:0:0:0:
320,64,161346,1,8,0:0:0:0:
320,64,161421,1,8,0:0:0:0:
64,64,161496,1,0,0:0:0:0:
64,64,161646,1,0,0:0:0:0:
320,64,161721,1,8,0:0:0:0:
64,64,161796,1,0,0:0:0:0:
64,64,161871,1,0,0:0:0:0:
320,64,161946,1,8,0:0:0:0:
320,64,162021,1,8,0:0:0:0:
64,64,162096,1,0,0:0:0:0:
320,64,162246,1,8,0:0:0:0:
64,64,162396,1,0,0:0:0:0:
64,64,162546,1,0,0:0:0:0:
320,64,162621,1,8,0:0:0:0:
64,64,162696,1,0,0:0:0:0:
64,64,162771,1,0,0:0:0:0:
64,64,162846,1,0,0:0:0:0:
64,64,162921,1,0,0:0:0:0:
320,64,162996,1,8,0:0:0:0:
64,64,163146,1,0,0:0:0:0:
64,64,163221,1,0,0:0:0:0:
320,64,163296,1,8,0:0:0:0:
64,64,163371,1,0,0:0:0:0:
320,64,163446,1,8,0:0:0:0:
320,64,163521,1,8,0:0:0:0:
64,64,163596,1,0,0:0:0:0:
320,64,163746,1,8,0:0:0:0:
320,64,163821,1,8,0:0:0:0:
64,64,163896,1,0,0:0:0:0:
64,64,164046,1,0,0:0:0:0:
64,64,164121,1,0,0:0:0:0:
320,64,164196,1,8,0:0:0:0:
64,64,164271,1,0,0:0:0:0:
320,64,164346,1,8,0:0:0:0:
320,64,164421,1,8,0:0:0:0:
64,64,164496,1,0,0:0:0:0:
64,64,164646,1,0,0:0:0:0:
320,64,164721,1,8,0:0:0:0:
64,64,164796,1,0,0:0:0:0:
320,64,164946,1,8,0:0:0:0:
320,64,165021,1,8,0:0:0:0:
64,64,165096,1,0,0:0:0:0:
64,64,165171,1,0,0:0:0:0:
64,64,165246,1,0,0:0:0:0:
64,64,165321,1,0,0:0:0:0:
320,64,165396,1,8,0:0:0:0:
64,64,165546,1,0,0:0:0:0:
320,64,165621,1,8,0:0:0:0:
64,64,165696,1,0,0:0:0:0:
64,64,165771,1,0,0:0:0:0:
320,64,165846,1,8,0:0:0:0:
320,64,165921,1,8,0:0:0:0:
64,64,165996,1,0,0:0:0:0:
320,64,166146,1,8,0:0:0:0:
320,64,166221,1,8,0:0:0:0:
64,64,166296,1,0,0:0:0:0:
64,64,166446,1,0,0:0:0:0:
320,64,166521,1,8,0:0:0:0:
64,64,166596,1,0,0:0:0:0:
64,64,166671,1,0,0:0:0:0:
320,64,166746,1,8,0:0:0:0:
320,64,166821,1,8,0:0:0:0:
64,64,166896,1,0,0:0:0:0:
64,64,167046,1,0,0:0:0:0:
64,64,167121,1,0,0:0:0:0:
320,64,167196,1,8,0:0:0:0:
64,64,167271,1,0,0:0:0:0:
320,64,167346,1,8,0:0:0:0:
64,64,167421,1,0,0:0:0:0:
320,64,167496,1,8,0:0:0:0:
320,64,167571,1,8,0:0:0:0:
64,64,167646,1,0,0:0:0:0:
320,64,167796,1,8,0:0:0:0:
64,64,167871,1,0,0:0:0:0:
320,64,167946,1,8,0:0:0:0:
320,64,168096,1,8,0:0:0:0:
64,64,168171,1,0,0:0:0:0:
320,64,168246,1,8,0:0:0:0:
64,64,168396,1,0,0:0:0:0:
64,64,168471,1,0,0:0:0:0:
320,64,168546,1,8,0:0:0:0:
64,64,168621,1,0,0:0:0:0:
320,64,168696,1,8,0:0:0:0:
320,64,168771,1,8,0:0:0:0:
64,64,168846,1,0,0:0:0:0:
320,64,168996,1,8,0:0:0:0:
64,64,169071,1,0,0:0:0:0:
320,64,169146,1,8,0:0:0:0:
64,64,169221,1,0,0:0:0:0:
320,64,169296,1,8,0:0:0:0:
320,64,169371,1,8,0:0:0:0:
320,64,169446,1,8,0:0:0:0:
320,64,169521,1,8,0:0:0:0:
64,64,169596,1,0,0:0:0:0:
64,64,169746,1,0,0:0:0:0:
64,64,169821,1,0,0:0:0:0:
320,64,169896,1,8,0:0:0:0:
320,64,170046,1,8,0:0:0:0:
64,64,170196,1,0,0:0:0:0:
320,64,170346,1,8,0:0:0:0:
320,64,170421,1,8,0:0:0:0:
64,64,170496,1,0,0:0:0:0:
320,64,170646,1,8,0:0:0:0:
64,64,170796,1,0,0:0:0:0:
64,64,170871,1,0,0:0:0:0:
320,64,170946,1,8,0:0:0:0:
64,64,171021,1,0,0:0:0:0:
320,64,171096,1,8,0:0:0:0:
320,64,171171,1,8,0:0:0:0:
64,64,171246,1,0,0:0:0:0:
64,64,171396,1,0,0:0:0:0:
320,64,171546,1,8,0:0:0:0:
320,64,171621,1,8,0:0:0:0:
64,64,171696,1,0,0:0:0:0:
64,64,171846,1,0,0:0:0:0:
320,64,171996,1,8,0:0:0:0:
64,64,172071,1,0,0:0:0:0:
320,64,172146,1,8,0:0:0:0:
320,64,172221,1,8,0:0:0:0:
64,64,172296,1,0,0:0:0:0:
64,64,172346,1,0,0:0:0:0:
64,64,172396,1,0,0:0:0:0:
320,64,172596,1,8,0:0:0:0:
64,64,172746,1,0,0:0:0:0:
64,64,172821,1,0,0:0:0:0:
320,64,172896,1,8,0:0:0:0:
64,64,173046,1,0,0:0:0:0:
64,64,173121,1,0,0:0:0:0:
320,64,173196,1,8,0:0:0:0:
320,64,173271,1,8,0:0:0:0:
64,64,173346,1,0,0:0:0:0:
64,64,173421,1,0,0:0:0:0:
320,64,173496,1,8,0:0:0:0:
64,64,173571,1,0,0:0:0:0:
320,64,173646,1,8,0:0:0:0:
320,64,173796,1,8,0:0:0:0:
64,64,173946,1,0,0:0:0:0:
64,64,174021,1,0,0:0:0:0:
320,64,174096,1,8,0:0:0:0:
64,64,174246,1,0,0:0:0:0:
64,64,174321,1,0,0:0:0:0:
320,64,174396,1,8,0:0:0:0:
320,64,174471,1,8,0:0:0:0:
64,64,174546,1,0,0:0:0:0:
64,64,174621,1,0,0:0:0:0:
320,64,174696,1,8,0:0:0:0:
320,64,174846,1,8,0:0:0:0:
320,64,174996,1,8,0:0:0:0:
320,64,175071,1,8,0:0:0:0:
64,64,175146,1,0,0:0:0:0:
64,64,175221,1,0,0:0:0:0:
320,64,175296,1,8,0:0:0:0:
320,64,175371,1,8,0:0:0:0:
64,64,175446,1,0,0:0:0:0:
64,64,175521,1,0,0:0:0:0:
320,64,175596,1,8,0:0:0:0:
320,64,175671,1,8,0:0:0:0:
64,64,175746,1,0,0:0:0:0:
64,64,175821,1,0,0:0:0:0:
320,64,175896,1,8,0:0:0:0:
64,64,175946,1,0,0:0:0:0:
64,64,175996,1,0,0:0:0:0:
320,64,176046,1,8,0:0:0:0:
320,64,176196,1,8,0:0:0:0:
64,64,176271,1,0,0:0:0:0:
64,64,176346,1,0,0:0:0:0:
64,64,176421,1,0,0:0:0:0:
320,64,176496,1,8,0:0:0:0:
64,64,176571,1,0,0:0:0:0:
64,64,176646,1,0,0:0:0:0:
64,64,176721,1,0,0:0:0:0:
320,64,176796,1,8,0:0:0:0:
64,64,176871,1,0,0:0:0:0:
64,64,176946,1,0,0:0:0:0:
64,64,177021,1,0,0:0:0:0:
320,64,177096,1,8,0:0:0:0:
320,64,177146,1,8,0:0:0:0:
64,64,177196,1,0,0:0:0:0:
320,64,177246,1,8,0:0:0:0:
64,64,177396,1,0,0:0:0:0:
64,64,177446,1,0,0:0:0:0:
64,64,177496,1,0,0:0:0:0:
320,64,177546,1,8,0:0:0:0:
64,64,177621,1,0,0:0:0:0:
320,64,177696,1,8,0:0:0:0:
64,64,177771,1,0,0:0:0:0:
64,64,177846,1,0,0:0:0:0:
64,64,177921,1,0,0:0:0:0:
320,64,177996,1,8,0:0:0:0:
320,64,178046,1,8,0:0:0:0:
320,64,178096,1,8,0:0:0:0:
64,64,178146,1,0,0:0:0:0:
64,64,178221,1,0,0:0:0:0:
320,64,178296,1,8,0:0:0:0:
64,64,178371,1,0,0:0:0:0:
64,64,178446,1,0,0:0:0:0:
64,64,178521,1,0,0:0:0:0:
320,64,178596,1,8,0:0:0:0:
64,64,178646,1,0,0:0:0:0:
64,64,178696,1,0,0:0:0:0:
320,64,178746,1,8,0:0:0:0:
64,64,178821,1,0,0:0:0:0:
320,64,178896,1,8,0:0:0:0:
64,64,178946,1,0,0:0:0:0:
64,64,178996,1,0,0:0:0:0:
320,64,179046,1,8,0:0:0:0:
64,64,179121,1,0,0:0:0:0:
320,64,179196,1,8,0:0:0:0:
320,64,179246,1,8,0:0:0:0:
320,64,179296,1,8,0:0:0:0:
64,64,179346,1,0,0:0:0:0:
64,64,179421,1,0,0:0:0:0:
320,64,179496,1,8,0:0:0:0:
320,64,179546,1,8,0:0:0:0:
320,64,179596,1,8,0:0:0:0:
320,64,179646,1,8,0:0:0:0:
320,64,179696,1,8,0:0:0:0:
320,64,179746,1,8,0:0:0:0:
64,64,179796,1,0,0:0:0:0:
64,64,179946,1,0,0:0:0:0:
320,64,180096,1,8,0:0:0:0:
320,64,180246,1,8,0:0:0:0:
320,64,180396,1,8,0:0:0:0:
320,64,180546,1,8,0:0:0:0:
320,64,180696,1,8,0:0:0:0:
320,64,180846,1,8,0:0:0:0:
320,64,180996,1,8,0:0:0:0:
320,64,181146,1,8,0:0:0:0:
320,64,181296,1,8,0:0:0:0:
320,64,181446,1,8,0:0:0:0:
64,64,181521,1,0,0:0:0:0:
320,64,181596,1,8,0:0:0:0:
320,64,181671,1,8,0:0:0:0:
64,64,181746,1,0,0:0:0:0:
320,64,181821,1,8,0:0:0:0:
64,64,181896,1,0,0:0:0:0:
64,64,181971,1,0,0:0:0:0:
64,64,182046,1,0,0:0:0:0:
320,64,182121,1,8,0:0:0:0:
64,64,182196,1,4,0:0:0:0:
64,64,182496,1,0,0:0:0:0:
64,64,182546,1,0,0:0:0:0:
64,64,182596,1,0,0:0:0:0:
320,64,182646,1,8,0:0:0:0:
64,64,182721,1,0,0:0:0:0:
320,64,182796,1,8,0:0:0:0:
320,64,182946,1,8,0:0:0:0:
320,64,183021,1,8,0:0:0:0:
64,64,183096,1,0,0:0:0:0:
320,64,183171,1,8,0:0:0:0:
320,64,183246,1,8,0:0:0:0:
320,64,183321,1,8,0:0:0:0:
64,64,183396,1,0,0:0:0:0:
320,64,183546,1,8,0:0:0:0:
320,64,183621,1,8,0:0:0:0:
64,64,183696,1,0,0:0:0:0:
320,64,183771,1,8,0:0:0:0:
320,64,183846,1,8,0:0:0:0:
320,64,183921,1,8,0:0:0:0:
64,64,183996,1,0,0:0:0:0:
64,64,184046,1,0,0:0:0:0:
64,64,184096,1,0,0:0:0:0:
320,64,184146,1,8,0:0:0:0:
64,64,184296,1,0,0:0:0:0:
320,64,184446,1,8,0:0:0:0:
64,64,184596,1,0,0:0:0:0:
64,64,184646,1,0,0:0:0:0:
320,64,184696,1,8,0:0:0:0:
64,64,184746,1,0,0:0:0:0:
320,64,184896,1,8,0:0:0:0:
64,64,184946,1,0,0:0:0:0:
64,64,184996,1,0,0:0:0:0:
320,64,185046,1,8,0:0:0:0:
320,64,185121,1,8,0:0:0:0:
64,64,185196,1,0,0:0:0:0:
320,64,185346,1,8,0:0:0:0:
320,64,185421,1,8,0:0:0:0:
64,64,185496,1,0,0:0:0:0:
64,64,185571,1,0,0:0:0:0:
320,64,185646,1,8,0:0:0:0:
320,64,185696,1,8,0:0:0:0:
320,64,185746,1,8,0:0:0:0:
64,64,185796,1,0,0:0:0:0:
320,64,185871,1,8,0:0:0:0:
64,64,185946,1,0,0:0:0:0:
320,64,186021,1,8,0:0:0:0:
64,64,186096,1,0,0:0:0:0:
320,64,186171,1,8,0:0:0:0:
320,64,186246,1,8,0:0:0:0:
320,64,186321,1,8,0:0:0:0:
64,64,186396,1,0,0:0:0:0:
64,64,186446,1,0,0:0:0:0:
64,64,186496,1,0,0:0:0:0:
320,64,186546,1,8,0:0:0:0:
64,64,186696,1,0,0:0:0:0:
320,64,186746,1,8,0:0:0:0:
320,64,186796,1,8,0:0:0:0:
64,64,186846,1,0,0:0:0:0:
64,64,186996,1,4,0:0:0:0:
64,64,187296,1,0,0:0:0:0:
64,64,187346,1,0,0:0:0:0:
64,64,187396,1,0,0:0:0:0:
320,64,187446,1,8,0:0:0:0:
64,64,187521,1,0,0:0:0:0:
320,64,187596,1,8,0:0:0:0:
320,64,187746,1,8,0:0:0:0:
320,64,187821,1,8,0:0:0:0:
64,64,187896,1,0,0:0:0:0:
320,64,187971,1,8,0:0:0:0:
320,64,188046,1,8,0:0:0:0:
320,64,188121,1,8,0:0:0:0:
64,64,188196,1,0,0:0:0:0:
320,64,188346,1,8,0:0:0:0:
320,64,188421,1,8,0:0:0:0:
64,64,188496,1,0,0:0:0:0:
320,64,188571,1,8,0:0:0:0:
320,64,188646,1,8,0:0:0:0:
320,64,188721,1,8,0:0:0:0:
64,64,188796,1,0,0:0:0:0:
64,64,188846,1,0,0:0:0:0:
64,64,188896,1,0,0:0:0:0:
320,64,188946,1,8,0:0:0:0:
64,64,189096,1,0,0:0:0:0:
320,64,189246,1,8,0:0:0:0:
64,64,189396,1,0,0:0:0:0:
320,64,189471,1,8,0:0:0:0:
64,64,189621,1,0,0:0:0:0:
64,64,189696,1,0,0:0:0:0:
320,64,189846,1,8,0:0:0:0:
320,64,189921,1,8,0:0:0:0:
64,64,189996,1,0,0:0:0:0:
320,64,190071,1,8,0:0:0:0:
64,64,190146,1,0,0:0:0:0:
320,64,190296,1,8,0:0:0:0:
320,64,190346,1,8,0:0:0:0:
320,64,190396,1,8,0:0:0:0:
64,64,190446,1,0,0:0:0:0:
64,64,190496,1,0,0:0:0:0:
64,64,190546,1,0,0:0:0:0:
320,64,190596,1,8,0:0:0:0:
64,64,190821,1,0,0:0:0:0:
320,64,190896,1,8,0:0:0:0:
64,64,190971,1,0,0:0:0:0:
320,64,191046,1,8,0:0:0:0:
320,64,191121,1,8,0:0:0:0:
64,64,191271,1,0,0:0:0:0:
320,64,191346,1,8,0:0:0:0:
64,64,191421,1,0,0:0:0:0:
320,64,191496,1,8,0:0:0:0:
64,64,191571,1,0,0:0:0:0:
320,64,191646,1,8,0:0:0:0:
320,64,191721,1,8,0:0:0:0:
64,64,191796,1,0,0:0:0:0:
64,64,191846,1,0,0:0:0:0:
64,64,191896,1,0,0:0:0:0:
320,64,191946,1,8,0:0:0:0:
64,64,192096,1,4,0:0:0:0:
320,64,192246,1,8,0:0:0:0:
320,64,192321,1,8,0:0:0:0:
64,64,192396,1,0,0:0:0:0:
320,64,192546,1,8,0:0:0:0:
320,64,192621,1,8,0:0:0:0:
64,64,192696,1,0,0:0:0:0:
320,64,192771,1,8,0:0:0:0:
320,64,192846,1,8,0:0:0:0:
320,64,192921,1,8,0:0:0:0:
64,64,192996,1,0,0:0:0:0:
320,64,193146,1,8,0:0:0:0:
320,64,193221,1,8,0:0:0:0:
64,64,193296,1,0,0:0:0:0:
320,64,193371,1,8,0:0:0:0:
320,64,193446,1,8,0:0:0:0:
320,64,193521,1,8,0:0:0:0:
64,64,193596,1,0,0:0:0:0:
64,64,193646,1,0,0:0:0:0:
64,64,193696,1,0,0:0:0:0:
320,64,193746,1,8,0:0:0:0:
64,64,193896,1,0,0:0:0:0:
320,64,194046,1,8,0:0:0:0:
64,64,194196,1,0,0:0:0:0:
64,64,194246,1,0,0:0:0:0:
320,64,194296,1,8,0:0:0:0:
64,64,194346,1,0,0:0:0:0:
320,64,194496,1,8,0:0:0:0:
64,64,194546,1,0,0:0:0:0:
64,64,194596,1,0,0:0:0:0:
320,64,194646,1,8,0:0:0:0:
320,64,194721,1,8,0:0:0:0:
64,64,194796,1,0,0:0:0:0:
64,64,194946,1,0,0:0:0:0:
320,64,195021,1,8,0:0:0:0:
64,64,195096,1,0,0:0:0:0:
64,64,195208,1,0,0:0:0:0:
64,64,195321,1,0,0:0:0:0:
64,64,195396,1,0,0:0:0:0:
64,64,195546,1,0,0:0:0:0:
320,64,195621,1,8,0:0:0:0:
320,64,195696,1,8,0:0:0:0:
64,64,195771,1,0,0:0:0:0:
320,64,195846,1,8,0:0:0:0:
64,64,195921,1,0,0:0:0:0:
64,64,196071,1,0,0:0:0:0:
64,64,196146,1,0,0:0:0:0:
320,64,196296,1,8,0:0:0:0:
320,64,196346,1,8,0:0:0:0:
320,64,196396,1,8,0:0:0:0:
64,64,196446,1,0,0:0:0:0:
64,64,196596,1,4,0:0:0:0:
64,64,196896,1,0,0:0:0:0:
64,64,196946,1,0,0:0:0:0:
64,64,196996,1,0,0:0:0:0:
320,64,197046,1,8,0:0:0:0:
64,64,197121,1,0,0:0:0:0:
320,64,197196,1,12,0:0:0:0:
320,64,197346,1,8,0:0:0:0:
320,64,197421,1,8,0:0:0:0:
64,64,197496,1,0,0:0:0:0:
320,64,197646,1,8,0:0:0:0:
64,64,197796,1,4,0:0:0:0:
320,64,197946,1,8,0:0:0:0:
320,64,198021,1,8,0:0:0:0:
64,64,198096,1,0,0:0:0:0:
320,64,198171,1,8,0:0:0:0:
64,64,198321,1,0,0:0:0:0:
320,64,198396,1,12,0:0:0:0:
64,64,198546,1,0,0:0:0:0:
64,64,198596,1,0,0:0:0:0:
64,64,198646,1,0,0:0:0:0:
320,64,198696,1,8,0:0:0:0:
320,64,198771,1,8,0:0:0:0:
64,64,198846,1,0,0:0:0:0:
64,64,198996,1,0,0:0:0:0:
320,64,199146,1,8,0:0:0:0:
64,64,199221,1,0,0:0:0:0:
320,64,199296,1,8,0:0:0:0:
64,64,199446,1,0,0:0:0:0:
320,64,199521,1,8,0:0:0:0:
64,64,199596,1,0,0:0:0:0:
320,64,199671,1,8,0:0:0:0:
64,64,199746,1,0,0:0:0:0:
320,64,199896,1,8,0:0:0:0:
64,64,200046,1,0,0:0:0:0:
320,64,200121,1,8,0:0:0:0:
64,64,200196,1,0,0:0:0:0:
320,64,200346,1,8,0:0:0:0:
64,64,200421,1,0,0:0:0:0:
320,64,200496,1,8,0:0:0:0:
64,64,200571,1,0,0:0:0:0:
320,64,200646,1,8,0:0:0:0:
320,64,200796,1,8,0:0:0:0:
64,64,200946,1,0,0:0:0:0:
64,64,201021,1,0,0:0:0:0:
320,64,201096,1,8,0:0:0:0:
320,64,201246,1,8,0:0:0:0:
64,64,201396,1,4,0:0:0:0:
320,64,201696,1,8,0:0:0:0:
320,64,201746,1,8,0:0:0:0:
320,64,201796,1,8,0:0:0:0:
64,64,201846,1,0,0:0:0:0:
320,64,201921,1,8,0:0:0:0:
64,64,201996,1,0,0:0:0:0:
320,64,202146,1,8,0:0:0:0:
320,64,202221,1,8,0:0:0:0:
64,64,202296,1,0,0:0:0:0:
64,64,202371,1,0,0:0:0:0:
320,64,202446,1,8,0:0:0:0:
64,64,202521,1,0,0:0:0:0:
320,64,202596,1,8,0:0:0:0:
320,64,202746,1,8,0:0:0:0:
320,64,202821,1,8,0:0:0:0:
64,64,202896,1,0,0:0:0:0:
320,64,202971,1,8,0:0:0:0:
64,64,203046,1,0,0:0:0:0:
64,64,203121,1,0,0:0:0:0:
320,64,203196,1,8,0:0:0:0:
64,64,203246,1,0,0:0:0:0:
64,64,203296,1,0,0:0:0:0:
320,64,203346,1,8,0:0:0:0:
320,64,203421,1,8,0:0:0:0:
64,64,203496,1,0,0:0:0:0:
64,64,203571,1,0,0:0:0:0:
320,64,203646,1,8,0:0:0:0:
64,64,203796,1,0,0:0:0:0:
320,64,203846,1,8,0:0:0:0:
320,64,203896,1,8,0:0:0:0:
64,64,203946,1,0,0:0:0:0:
320,64,204096,1,8,0:0:0:0:
320,64,204146,1,8,0:0:0:0:
320,64,204196,1,8,0:0:0:0:
64,64,204246,1,0,0:0:0:0:
320,64,204321,1,8,0:0:0:0:
64,64,204396,1,0,0:0:0:0:
64,64,204471,1,0,0:0:0:0:
320,64,204546,1,8,0:0:0:0:
64,64,204621,1,0,0:0:0:0:
320,64,204696,1,8,0:0:0:0:
320,64,204771,1,8,0:0:0:0:
64,64,204846,1,0,0:0:0:0:
64,64,204896,1,0,0:0:0:0:
64,64,204946,1,0,0:0:0:0:
320,64,204996,1,8,0:0:0:0:
320,64,205071,1,8,0:0:0:0:
64,64,205146,1,0,0:0:0:0:
320,64,205221,1,8,0:0:0:0:
320,64,205296,1,8,0:0:0:0:
64,64,205371,1,0,0:0:0:0:
320,64,205446,1,8,0:0:0:0:
64,64,205521,1,0,0:0:0:0:
320,64,205596,1,8,0:0:0:0:
320,64,205646,1,8,0:0:0:0:
64,64,205696,1,0,0:0:0:0:
64,64,205746,1,0,0:0:0:0:
64,64,205821,1,0,0:0:0:0:
320,64,205896,1,8,0:0:0:0:
320,64,205946,1,8,0:0:0:0:
64,64,205996,1,0,0:0:0:0:
320,64,206046,1,8,0:0:0:0:
320,64,206121,1,8,0:0:0:0:
64,64,206196,1,4,0:0:0:0:
320,64,206496,1,8,0:0:0:0:
64,64,206546,1,0,0:0:0:0:
64,64,206596,1,0,0:0:0:0:
320,64,206646,1,8,0:0:0:0:
64,64,206721,1,0,0:0:0:0:
320,64,206796,1,8,0:0:0:0:
64,64,206871,1,0,0:0:0:0:
320,64,206946,1,8,0:0:0:0:
320,64,207021,1,8,0:0:0:0:
64,64,207096,1,0,0:0:0:0:
64,64,207171,1,0,0:0:0:0:
64,64,207246,1,0,0:0:0:0:
64,64,207321,1,0,0:0:0:0:
320,64,207396,1,8,0:0:0:0:
64,64,207546,1,0,0:0:0:0:
320,64,207621,1,8,0:0:0:0:
64,64,207696,1,0,0:0:0:0:
64,64,207771,1,0,0:0:0:0:
64,64,207846,1,0,0:0:0:0:
64,64,207921,1,0,0:0:0:0:
320,64,207996,1,8,0:0:0:0:
64,64,208046,1,0,0:0:0:0:
64,64,208096,1,0,0:0:0:0:
320,64,208146,1,8,0:0:0:0:
64,64,208296,1,0,0:0:0:0:
320,64,208446,1,8,0:0:0:0:
64,64,208596,1,0,0:0:0:0:
320,64,208671,1,8,0:0:0:0:
64,64,208746,1,0,0:0:0:0:
320,64,208896,1,8,0:0:0:0:
64,64,209046,1,0,0:0:0:0:
320,64,209121,1,8,0:0:0:0:
64,64,209196,1,0,0:0:0:0:
64,64,209271,1,0,0:0:0:0:
320,64,209346,1,8,0:0:0:0:
320,64,209421,1,8,0:0:0:0:
64,64,209496,1,0,0:0:0:0:
64,64,209546,1,0,0:0:0:0:
64,64,209596,1,0,0:0:0:0:
320,64,209646,1,8,0:0:0:0:
64,64,209796,1,4,0:0:0:0:
64,64,210021,1,4,0:0:0:0:
320,64,210246,1,12,0:0:0:0:
320,64,210471,1,12,0:0:0:0:
64,64,210696,1,4,0:0:0:0:
320,64,210846,1,12,0:0:0:0:
64,64,210996,1,0,0:0:0:0:
64,64,211046,1,0,0:0:0:0:
64,64,211096,1,0,0:0:0:0:
64,64,211146,1,0,0:0:0:0:
64,64,211296,1,0,0:0:0:0:
64,64,211346,1,0,0:0:0:0:
64,64,211396,1,0,0:0:0:0:
320,64,211446,1,8,0:0:0:0:
64,64,211521,1,0,0:0:0:0:
320,64,211596,1,12,0:0:0:0:
320,64,211746,1,8,0:0:0:0:
320,64,211821,1,8,0:0:0:0:
64,64,211896,1,0,0:0:0:0:
320,64,211971,1,8,0:0:0:0:
64,64,212046,1,0,0:0:0:0:
64,64,212121,1,0,0:0:0:0:
320,64,212196,1,8,0:0:0:0:
64,64,212271,1,0,0:0:0:0:
320,64,212346,1,8,0:0:0:0:
320,64,212421,1,8,0:0:0:0:
64,64,212496,1,0,0:0:0:0:
320,64,212571,1,8,0:0:0:0:
64,64,212646,1,0,0:0:0:0:
64,64,212721,1,0,0:0:0:0:
320,64,212796,1,8,0:0:0:0:
64,64,212846,1,0,0:0:0:0:
64,64,212896,1,0,0:0:0:0:
320,64,212946,1,8,0:0:0:0:
320,64,213021,1,8,0:0:0:0:
64,64,213096,1,0,0:0:0:0:
64,64,213171,1,0,0:0:0:0:
320,64,213246,1,8,0:0:0:0:
64,64,213396,1,0,0:0:0:0:
64,64,213446,1,0,0:0:0:0:
64,64,213496,1,0,0:0:0:0:
320,64,213546,1,8,0:0:0:0:
320,64,213621,1,8,0:0:0:0:
64,64,213696,1,0,0:0:0:0:
64,64,213746,1,0,0:0:0:0:
64,64,213796,1,0,0:0:0:0:
320,64,213846,1,8,0:0:0:0:
320,64,213921,1,8,0:0:0:0:
64,64,213996,1,0,0:0:0:0:
64,64,214071,1,0,0:0:0:0:
64,64,214146,1,0,0:0:0:0:
320,64,214221,1,8,0:0:0:0:
64,64,214296,1,0,0:0:0:0:
320,64,214371,1,8,0:0:0:0:
320,64,214446,1,8,0:0:0:0:
64,64,214596,1,0,0:0:0:0:
320,64,214671,1,8,0:0:0:0:
320,64,214746,1,8,0:0:0:0:
320,64,214821,1,8,0:0:0:0:
64,64,214896,1,0,0:0:0:0:
320,64,214971,1,8,0:0:0:0:
320,64,215046,1,8,0:0:0:0:
320,64,215121,1,8,0:0:0:0:
64,64,215196,1,0,0:0:0:0:
64,64,215271,1,0,0:0:0:0:
64,64,215346,1,0,0:0:0:0:
64,64,215421,1,0,0:0:0:0:
320,64,215496,1,8,0:0:0:0:
320,64,215646,1,8,0:0:0:0:
64,64,215796,1,0,0:0:0:0:
64,64,215846,1,0,0:0:0:0:
64,64,215896,1,0,0:0:0:0:
64,64,215946,1,0,0:0:0:0:
320,64,216096,1,8,0:0:0:0:
320,64,216146,1,8,0:0:0:0:
320,64,216196,1,8,0:0:0:0:
64,64,216246,1,0,0:0:0:0:
64,64,216321,1,0,0:0:0:0:
320,64,216396,1,8,0:0:0:0:
64,64,216471,1,0,0:0:0:0:
320,64,216546,1,8,0:0:0:0:
320,64,216621,1,8,0:0:0:0:
64,64,216696,1,0,0:0:0:0:
64,64,216746,1,0,0:0:0:0:
64,64,216796,1,0,0:0:0:0:
320,64,216846,1,8,0:0:0:0:
64,64,216921,1,0,0:0:0:0:
320,64,216996,1,8,0:0:0:0:
320,64,217071,1,8,0:0:0:0:
320,64,217146,1,8,0:0:0:0:
320,64,217221,1,8,0:0:0:0:
64,64,217296,1,0,0:0:0:0:
64,64,217346,1,0,0:0:0:0:
64,64,217396,1,0,0:0:0:0:
320,64,217446,1,8,0:0:0:0:
320,64,217521,1,8,0:0:0:0:
64,64,217596,1,0,0:0:0:0:
64,64,217646,1,0,0:0:0:0:
320,64,217696,1,8,0:0:0:0:
320,64,217746,1,8,0:0:0:0:
64,64,217896,1,0,0:0:0:0:
320,64,218046,1,8,0:0:0:0:
320,64,218121,1,8,0:0:0:0:
64,64,218196,1,0,0:0:0:0:
320,64,218346,1,8,0:0:0:0:
64,64,218421,1,0,0:0:0:0:
320,64,218571,1,8,0:0:0:0:
64,64,218646,1,0,0:0:0:0:
320,64,218721,1,8,0:0:0:0:
64,64,218796,1,0,0:0:0:0:
320,64,218946,1,8,0:0:0:0:
64,64,219021,1,0,0:0:0:0:
320,64,219171,1,8,0:0:0:0:
64,64,219246,1,0,0:0:0:0:
320,64,219321,1,8,0:0:0:0:
64,64,219396,1,0,0:0:0:0:
320,64,219546,1,8,0:0:0:0:
64,64,219621,1,0,0:0:0:0:
320,64,219771,1,8,0:0:0:0:
64,64,219846,1,0,0:0:0:0:
64,64,219996,1,0,0:0:0:0:
256,192,220146,12,0,220446,0:0:0:0:
320,64,220596,5,12,0:0:0:0:
64,64,230196,5,0,0:0:0:0:
64,64,230346,1,0,0:0:0:0:
320,64,230496,1,8,0:0:0:0:
320,64,230646,1,8,0:0:0:0:
64,64,230796,1,0,0:0:0:0:
320,64,230946,1,8,0:0:0:0:
64,64,231096,1,0,0:0:0:0:
64,64,231246,1,0,0:0:0:0:
320,64,231396,1,8,0:0:0:0:
64,64,231546,1,0,0:0:0:0:
320,64,231696,1,8,0:0:0:0:
320,64,231846,1,8,0:0:0:0:
320,64,231996,1,8,0:0:0:0:
64,64,232146,1,0,0:0:0:0:
320,64,232296,1,8,0:0:0:0:
320,64,232446,1,8,0:0:0:0:
64,64,232596,1,0,0:0:0:0:
64,64,232746,1,0,0:0:0:0:
320,64,232896,1,8,0:0:0:0:
64,64,233046,1,0,0:0:0:0:
320,64,233196,1,8,0:0:0:0:
320,64,233346,1,8,0:0:0:0:
64,64,233496,1,0,0:0:0:0:
64,64,233646,1,0,0:0:0:0:
320,64,233796,1,8,0:0:0:0:
64,64,233946,1,0,0:0:0:0:
320,64,234096,1,8,0:0:0:0:
320,64,234246,1,8,0:0:0:0:
64,64,234396,1,0,0:0:0:0:
64,64,234546,1,0,0:0:0:0:
320,64,234696,1,8,0:0:0:0:
320,64,234846,1,8,0:0:0:0:
64,64,234996,1,0,0:0:0:0:
64,64,235146,1,0,0:0:0:0:
320,64,235296,1,8,0:0:0:0:
320,64,235446,1,8,0:0:0:0:
64,64,235596,1,0,0:0:0:0:
320,64,235746,1,8,0:0:0:0:
64,64,235896,1,0,0:0:0:0:
64,64,236046,1,0,0:0:0:0:
320,64,236196,1,8,0:0:0:0:
64,64,236346,1,0,0:0:0:0:
320,64,236496,1,8,0:0:0:0:
320,64,236646,1,8,0:0:0:0:
320,64,236796,1,8,0:0:0:0:
64,64,236946,1,0,0:0:0:0:
320,64,237096,1,8,0:0:0:0:
320,64,237246,1,8,0:0:0:0:
64,64,237396,1,0,0:0:0:0:
64,64,237546,1,0,0:0:0:0:
320,64,237696,1,8,0:0:0:0:
64,64,237846,1,0,0:0:0:0:
320,64,237996,1,8,0:0:0:0:
320,64,238146,1,8,0:0:0:0:
64,64,238296,1,0,0:0:0:0:
64,64,238446,1,0,0:0:0:0:
320,64,238596,1,8,0:0:0:0:
64,64,238746,1,0,0:0:0:0:
320,64,238896,1,8,0:0:0:0:
320,64,239046,1,8,0:0:0:0:
64,64,239196,1,0,0:0:0:0:
64,64,239346,1,0,0:0:0:0:
320,64,239496,1,8,0:0:0:0:
320,64,239646,1,8,0:0:0:0:
64,64,239796,1,0,0:0:0:0:
64,64,239946,1,0,0:0:0:0:
320,64,240096,1,8,0:0:0:0:
320,64,240246,1,8,0:0:0:0:
64,64,240396,1,0,0:0:0:0:
320,64,240546,1,8,0:0:0:0:
64,64,240696,1,0,0:0:0:0:
64,64,240846,1,0,0:0:0:0:
320,64,240996,1,8,0:0:0:0:
64,64,241146,1,0,0:0:0:0:
320,64,241296,1,8,0:0:0:0:
320,64,241446,1,8,0:0:0:0:
320,64,241596,1,8,0:0:0:0:
64,64,241746,1,0,0:0:0:0:
320,64,241896,1,8,0:0:0:0:
320,64,242046,1,8,0:0:0:0:
64,64,242196,1,0,0:0:0:0:
64,64,242346,1,0,0:0:0:0:
320,64,242496,1,8,0:0:0:0:
64,64,242646,1,0,0:0:0:0:
320,64,242796,1,8,0:0:0:0:
320,64,242946,1,8,0:0:0:0:
64,64,243096,1,0,0:0:0:0:
64,64,243246,1,0,0:0:0:0:
320,64,243396,1,8,0:0:0:0:
64,64,243546,1,0,0:0:0:0:
320,64,243696,1,8,0:0:0:0:
320,64,243846,1,8,0:0:0:0:
64,64,243996,1,0,0:0:0:0:
64,64,244146,1,0,0:0:0:0:
320,64,244296,1,8,0:0:0:0:
320,64,244446,1,8,0:0:0:0:
64,64,244596,1,0,0:0:0:0:
64,64,244746,1,0,0:0:0:0:
320,64,244896,1,8,0:0:0:0:
320,64,245046,1,8,0:0:0:0:
64,64,245196,1,0,0:0:0:0:
320,64,245346,1,8,0:0:0:0:
64,64,245496,1,0,0:0:0:0:
64,64,245646,1,0,0:0:0:0:
320,64,245796,1,8,0:0:0:0:
64,64,245946,1,0,0:0:0:0:
320,64,246096,1,8,0:0:0:0:
320,64,246246,1,8,0:0:0:0:
320,64,246396,1,8,0:0:0:0:
64,64,246546,1,0,0:0:0:0:
320,64,246696,1,8,0:0:0:0:
320,64,246846,1,8,0:0:0:0:
64,64,246996,1,0,0:0:0:0:
64,64,247146,1,0,0:0:0:0:
320,64,247296,1,8,0:0:0:0:
64,64,247446,1,0,0:0:0:0:
320,64,247596,1,8,0:0:0:0:
320,64,247746,1,8,0:0:0:0:
64,64,247896,1,0,0:0:0:0:
64,64,248046,1,0,0:0:0:0:
320,64,248196,1,8,0:0:0:0:
64,64,248346,1,0,0:0:0:0:
320,64,248496,1,8,0:0:0:0:
320,64,248646,1,8,0:0:0:0:
64,64,248796,1,0,0:0:0:0:
64,64,248946,1,0,0:0:0:0:
320,64,249096,1,8,0:0:0:0:
320,64,249246,1,8,0:0:0:0:
64,64,249396,1,0,0:0:0:0:
64,64,249546,1,0,0:0:0:0:
64,64,249621,1,0,0:0:0:0:
320,64,249696,1,8,0:0:0:0:
320,64,249846,1,8,0:0:0:0:
64,64,249996,1,0,0:0:0:0:
320,64,250146,1,8,0:0:0:0:
64,64,250296,1,0,0:0:0:0:
320,64,250446,1,8,0:0:0:0:
320,64,250521,1,8,0:0:0:0:
64,64,250596,1,0,0:0:0:0:
320,64,250746,1,8,0:0:0:0:
64,64,250896,1,0,0:0:0:0:
320,64,251046,1,8,0:0:0:0:
64,64,251121,1,0,0:0:0:0:
320,64,251196,1,8,0:0:0:0:
64,64,251346,1,0,0:0:0:0:
320,64,251496,1,8,0:0:0:0:
320,64,251646,1,8,0:0:0:0:
64,64,251796,1,0,0:0:0:0:
64,64,251946,1,0,0:0:0:0:
64,64,252021,1,0,0:0:0:0:
320,64,252096,1,8,0:0:0:0:
320,64,252246,1,8,0:0:0:0:
64,64,252396,1,0,0:0:0:0:
320,64,252546,1,8,0:0:0:0:
64,64,252696,1,0,0:0:0:0:
64,64,252846,1,0,0:0:0:0:
320,64,252921,1,8,0:0:0:0:
64,64,252996,1,0,0:0:0:0:
320,64,253146,1,8,0:0:0:0:
64,64,253296,1,0,0:0:0:0:
64,64,253446,1,0,0:0:0:0:
320,64,253596,1,8,0:0:0:0:
64,64,253746,1,0,0:0:0:0:
64,64,253821,1,0,0:0:0:0:
320,64,253896,1,8,0:0:0:0:
320,64,254046,1,8,0:0:0:0:
64,64,254196,1,0,0:0:0:0:
64,64,254346,1,0,0:0:0:0:
64,64,254421,1,0,0:0:0:0:
320,64,254496,1,8,0:0:0:0:
320,64,254646,1,8,0:0:0:0:
64,64,254796,1,0,0:0:0:0:
320,64,254946,1,8,0:0:0:0:
64,64,255096,1,0,0:0:0:0:
320,64,255246,1,8,0:0:0:0:
64,64,255321,1,0,0:0:0:0:
320,64,255396,1,8,0:0:0:0:
320,64,255546,1,8,0:0:0:0:
64,64,255696,1,0,0:0:0:0:
320,64,255846,1,8,0:0:0:0:
320,64,255921,1,8,0:0:0:0:
64,64,255996,1,0,0:0:0:0:
320,64,256146,1,8,0:0:0:0:
64,64,256296,1,0,0:0:0:0:
64,64,256446,1,0,0:0:0:0:
320,64,256596,1,8,0:0:0:0:
64,64,256746,1,0,0:0:0:0:
64,64,256821,1,0,0:0:0:0:
320,64,256896,1,8,0:0:0:0:
320,64,257046,1,8,0:0:0:0:
64,64,257196,1,0,0:0:0:0:
320,64,257346,1,8,0:0:0:0:
64,64,257496,1,0,0:0:0:0:
64,64,257646,1,0,0:0:0:0:
320,64,257721,1,8,0:0:0:0:
64,64,257796,1,0,0:0:0:0:
320,64,257946,1,8,0:0:0:0:
320,64,258096,1,8,0:0:0:0:
64,64,258246,1,0,0:0:0:0:
320,64,258396,1,8,0:0:0:0:
64,64,258546,1,0,0:0:0:0:
64,64,258621,1,0,0:0:0:0:
320,64,258696,1,8,0:0:0:0:
320,64,258846,1,8,0:0:0:0:
64,64,258996,1,0,0:0:0:0:
64,64,259146,1,0,0:0:0:0:
64,64,259221,1,0,0:0:0:0:
320,64,259296,1,8,0:0:0:0:
320,64,259446,1,8,0:0:0:0:
320,64,259596,1,8,0:0:0:0:
64,64,259746,1,0,0:0:0:0:
320,64,259896,1,8,0:0:0:0:
320,64,260046,1,8,0:0:0:0:
320,64,260121,1,8,0:0:0:0:
64,64,260196,1,0,0:0:0:0:
320,64,260346,1,8,0:0:0:0:
64,64,260496,1,0,0:0:0:0:
320,64,260646,1,8,0:0:0:0:
64,64,260721,1,0,0:0:0:0:
320,64,260796,1,8,0:0:0:0:
64,64,260946,1,0,0:0:0:0:
320,64,261096,1,8,0:0:0:0:
320,64,261246,1,8,0:0:0:0:
64,64,261396,1,0,0:0:0:0:
64,64,261546,1,0,0:0:0:0:
320,64,261621,1,8,0:0:0:0:
64,64,261696,1,0,0:0:0:0:
320,64,261846,1,8,0:0:0:0:
64,64,261996,1,0,0:0:0:0:
320,64,262146,1,8,0:0:0:0:
64,64,262296,1,0,0:0:0:0:
64,64,262446,1,0,0:0:0:0:
64,64,262521,1,0,0:0:0:0:
320,64,262596,1,8,0:0:0:0:
320,64,262746,1,8,0:0:0:0:
64,64,262896,1,0,0:0:0:0:
64,64,263046,1,0,0:0:0:0:
320,64,263196,1,8,0:0:0:0:
64,64,263346,1,0,0:0:0:0:
64,64,263421,1,0,0:0:0:0:
320,64,263496,1,8,0:0:0:0:
320,64,263646,1,8,0:0:0:0:
64,64,263796,1,0,0:0:0:0:
320,64,263946,1,8,0:0:0:0:
64,64,264021,1,0,0:0:0:0:
320,64,264096,1,8,0:0:0:0:
320,64,264246,1,8,0:0:0:0:
64,64,264396,1,0,0:0:0:0:
64,64,264546,1,0,0:0:0:0:
320,64,264696,1,8,0:0:0:0:
320,64,264846,1,8,0:0:0:0:
320,64,264921,1,8,0:0:0:0:
64,64,264996,1,0,0:0:0:0:
320,64,265146,1,8,0:0:0:0:
64,64,265296,1,0,0:0:0:0:
64,64,265446,1,0,0:0:0:0:
320,64,265521,1,8,0:0:0:0:
64,64,265596,1,0,0:0:0:0:
320,64,265746,1,8,0:0:0:0:
64,64,265896,1,0,0:0:0:0:
64,64,266046,1,0,0:0:0:0:
320,64,266196,1,8,0:0:0:0:
64,64,266346,1,0,0:0:0:0:
64,64,266421,1,0,0:0:0:0:
320,64,266496,1,8,0:0:0:0:
320,64,266646,1,8,0:0:0:0:
64,64,266796,1,0,0:0:0:0:
320,64,266946,1,8,0:0:0:0:
64,64,267096,1,0,0:0:0:0:
64,64,267246,1,0,0:0:0:0:
320,64,267321,1,8,0:0:0:0:
64,64,267396,1,0,0:0:0:0:
320,64,267546,1,8,0:0:0:0:
320,64,267696,1,8,0:0:0:0:
64,64,267846,1,0,0:0:0:0:
64,64,268596,1,4,0:0:0:0:
320,64,268896,1,8,0:0:0:0:
64,64,268946,1,0,0:0:0:0:
320,64,269046,1,8,0:0:0:0:
64,64,269096,1,0,0:0:0:0:
320,64,269196,1,8,0:0:0:0:
64,64,269346,1,4,0:0:0:0:
320,64,269646,1,8,0:0:0:0:
64,64,269796,1,4,0:0:0:0:
320,64,270096,1,8,0:0:0:0:
64,64,270396,1,4,0:0:0:0:
320,64,270546,1,8,0:0:0:0:
64,64,270846,1,4,0:0:0:0:
64,64,271296,1,0,0:0:0:0:
64,64,271346,1,0,0:0:0:0:
64,64,271396,1,0,0:0:0:0:
64,64,271446,1,0,0:0:0:0:
320,64,271596,1,8,0:0:0:0:
320,64,271746,1,8,0:0:0:0:
320,64,271896,1,8,0:0:0:0:
320,64,272046,1,8,0:0:0:0:
64,64,272121,1,0,0:0:0:0:
320,64,272196,1,8,0:0:0:0:
320,64,272346,1,8,0:0:0:0:
320,64,272496,1,8,0:0:0:0:
64,64,272646,1,0,0:0:0:0:
64,64,272696,1,0,0:0:0:0:
64,64,272746,1,0,0:0:0:0:
320,64,272796,1,8,0:0:0:0:
320,64,272871,1,8,0:0:0:0:
64,64,272946,1,0,0:0:0:0:
64,64,273021,1,0,0:0:0:0:
320,64,273096,1,8,0:0:0:0:
64,64,273171,1,0,0:0:0:0:
320,64,273246,1,8,0:0:0:0:
64,64,273396,1,4,0:0:0:0:
64,64,273696,1,0,0:0:0:0:
320,64,273771,1,8,0:0:0:0:
64,64,273846,1,0,0:0:0:0:
320,64,273996,1,8,0:0:0:0:
64,64,274146,1,4,0:0:0:0:
320,64,274446,1,8,0:0:0:0:
64,64,274596,1,4,0:0:0:0:
320,64,274896,1,8,0:0:0:0:
64,64,275196,1,4,0:0:0:0:
320,64,275346,1,8,0:0:0:0:
64,64,275646,1,4,0:0:0:0:
64,64,276096,1,0,0:0:0:0:
320,64,276396,1,8,0:0:0:0:
320,64,276471,1,8,0:0:0:0:
64,64,276546,1,0,0:0:0:0:
64,64,276696,1,0,0:0:0:0:
320,64,276846,1,8,0:0:0:0:
256,192,276996,12,0,277446,0:0:0:0:
64,64,277596,5,0,0:0:0:0:
64,64,277696,1,0,0:0:0:0:
320,64,277796,1,8,0:0:0:0:
64,64,277896,1,0,0:0:0:0:
320,64,277996,1,8,0:0:0:0:
320,64,278096,1,8,0:0:0:0:
64,64,278196,1,4,0:0:0:0:
320,64,278496,1,8,0:0:0:0:
64,64,278546,1,0,0:0:0:0:
320,64,278646,1,8,0:0:0:0:
64,64,278696,1,0,0:0:0:0:
320,64,278796,1,8,0:0:0:0:
64,64,278946,1,4,0:0:0:0:
320,64,279246,1,8,0:0:0:0:
64,64,279396,1,4,0:0:0:0:
320,64,279696,1,8,0:0:0:0:
64,64,279996,1,4,0:0:0:0:
320,64,280146,1,8,0:0:0:0:
64,64,280446,1,4,0:0:0:0:
64,64,280896,1,0,0:0:0:0:
64,64,280946,1,0,0:0:0:0:
64,64,280996,1,0,0:0:0:0:
64,64,281046,1,0,0:0:0:0:
320,64,281196,1,8,0:0:0:0:
320,64,281346,1,8,0:0:0:0:
320,64,281496,1,8,0:0:0:0:
320,64,281646,1,8,0:0:0:0:
64,64,281721,1,0,0:0:0:0:
320,64,281796,1,8,0:0:0:0:
320,64,281946,1,8,0:0:0:0:
320,64,282096,1,8,0:0:0:0:
64,64,282246,1,0,0:0:0:0:
64,64,282296,1,0,0:0:0:0:
64,64,282346,1,0,0:0:0:0:
320,64,282396,1,8,0:0:0:0:
320,64,282471,1,8,0:0:0:0:
64,64,282546,1,0,0:0:0:0:
64,64,282621,1,0,0:0:0:0:
320,64,282696,1,8,0:0:0:0:
64,64,282771,1,0,0:0:0:0:
320,64,282846,1,8,0:0:0:0:
64,64,282996,1,4,0:0:0:0:
64,64,283296,1,0,0:0:0:0:
320,64,283371,1,8,0:0:0:0:
64,64,283446,1,0,0:0:0:0:
320,64,283596,1,8,0:0:0:0:
64,64,283746,1,4,0:0:0:0:
320,64,284046,1,8,0:0:0:0:
64,64,284196,1,4,0:0:0:0:
320,64,284496,1,8,0:0:0:0:
64,64,284796,1,4,0:0:0:0:
320,64,284946,1,8,0:0:0:0:
64,64,285021,1,0,0:0:0:0:
320,64,285096,1,8,0:0:0:0:
64,64,285246,1,4,0:0:0:0:
64,64,285846,1,0,0:0:0:0:
320,64,285996,1,8,0:0:0:0:
320,64,286146,1,8,0:0:0:0:
64,64,286296,1,0,0:0:0:0:
64,64,286446,1,0,0:0:0:0:
320,64,286596,1,8,0:0:0:0:
64,64,286821,1,0,0:0:0:0:
64,64,287046,1,0,0:0:0:0:
320,64,287383,1,8,0:0:0:0:
320,64,287758,1,8,0:0:0:0:
320,64,287796,1,8,0:0:0:0:
256,192,287946,12,0,289596,0:0:0:0:
320,64,290196,5,8,0:0:0:0:
64,64,290346,1,0,0:0:0:0:
64,64,290421,1,0,0:0:0:0:
320,64,290496,1,8,0:0:0:0:
64,64,290571,1,0,0:0:0:0:
64,64,290646,1,0,0:0:0:0:
320,64,290721,1,8,0:0:0:0:
320,64,290871,1,8,0:0:0:0:
64,64,291021,1,0,0:0:0:0:
320,64,291096,1,8,0:0:0:0:
64,64,291246,1,0,0:0:0:0:
64,64,291321,1,0,0:0:0:0:
320,64,291396,1,8,0:0:0:0:
64,64,291546,1,0,0:0:0:0:
64,64,291621,1,0,0:0:0:0:
320,64,291696,1,8,0:0:0:0:
64,64,291771,1,0,0:0:0:0:
64,64,291846,1,0,0:0:0:0:
320,64,291921,1,8,0:0:0:0:
320,64,292071,1,8,0:0:0:0:
64,64,292221,1,0,0:0:0:0:
320,64,292296,1,8,0:0:0:0:
64,64,292446,1,0,0:0:0:0:
64,64,292521,1,0,0:0:0:0:
320,64,292596,1,8,0:0:0:0:
64,64,292746,1,0,0:0:0:0:
64,64,292821,1,0,0:0:0:0:
320,64,292896,1,8,0:0:0:0:
320,64,292971,1,8,0:0:0:0:
64,64,293046,1,0,0:0:0:0:
320,64,293121,1,8,0:0:0:0:
320,64,293271,1,8,0:0:0:0:
64,64,293421,1,0,0:0:0:0:
320,64,293496,1,8,0:0:0:0:
64,64,293646,1,0,0:0:0:0:
64,64,293721,1,0,0:0:0:0:
320,64,293796,1,8,0:0:0:0:
320,64,293946,1,8,0:0:0:0:
320,64,294021,1,8,0:0:0:0:
64,64,294096,1,0,0:0:0:0:
64,64,294246,1,0,0:0:0:0:
320,64,294321,1,8,0:0:0:0:
64,64,294396,1,0,0:0:0:0:
320,64,294471,1,8,0:0:0:0:
320,64,294621,1,8,0:0:0:0:
64,64,294696,1,0,0:0:0:0:
64,64,294771,1,0,0:0:0:0:
320,64,294846,1,8,0:0:0:0:
320,64,294921,1,8,0:0:0:0:
64,64,294996,1,0,0:0:0:0:
64,64,295146,1,0,0:0:0:0:
64,64,295221,1,0,0:0:0:0:
320,64,295296,1,8,0:0:0:0:
64,64,295371,1,0,0:0:0:0:
64,64,295446,1,0,0:0:0:0:
320,64,295521,1,8,0:0:0:0:
320,64,295671,1,8,0:0:0:0:
64,64,295821,1,0,0:0:0:0:
320,64,295896,1,8,0:0:0:0:
64,64,296046,1,0,0:0:0:0:
64,64,296121,1,0,0:0:0:0:
320,64,296196,1,8,0:0:0:0:
64,64,296346,1,0,0:0:0:0:
64,64,296421,1,0,0:0:0:0:
320,64,296496,1,8,0:0:0:0:
320,64,296571,1,8,0:0:0:0:
64,64,296646,1,0,0:0:0:0:
320,64,296721,1,8,0:0:0:0:
320,64,296871,1,8,0:0:0:0:
64,64,297021,1,0,0:0:0:0:
320,64,297096,1,8,0:0:0:0:
64,64,297246,1,0,0:0:0:0:
64,64,297321,1,0,0:0:0:0:
320,64,297396,1,8,0:0:0:0:
64,64,297546,1,0,0:0:0:0:
64,64,297621,1,0,0:0:0:0:
320,64,297696,1,8,0:0:0:0:
64,64,297771,1,0,0:0:0:0:
320,64,297846,1,8,0:0:0:0:
320,64,297921,1,8,0:0:0:0:
320,64,297996,1,0,0:0:0:0:
320,64,298071,1,8,0:0:0:0:
64,64,298146,1,0,0:0:0:0:
64,64,298221,1,0,0:0:0:0:
320,64,298296,1,8,0:0:0:0:
320,64,298371,1,8,0:0:0:0:
64,64,298446,1,0,0:0:0:0:
64,64,298521,1,0,0:0:0:0:
320,64,298596,1,8,0:0:0:0:
64,64,298671,1,0,0:0:0:0:
320,64,298746,1,8,0:0:0:0:
64,64,298821,1,0,0:0:0:0:
320,64,298896,1,8,0:0:0:0:
320,64,298971,1,8,0:0:0:0:
64,64,299046,1,0,0:0:0:0:
320,64,299121,1,8,0:0:0:0:
64,64,299196,1,0,0:0:0:0:
320,64,299271,1,8,0:0:0:0:
320,64,299346,1,8,0:0:0:0:
64,64,299421,1,0,0:0:0:0:
320,64,299496,1,8,0:0:0:0:
64,64,299571,1,0,0:0:0:0:
320,64,299646,1,8,0:0:0:0:
320,64,299796,1,8,0:0:0:0:
64,64,299871,1,0,0:0:0:0:
64,64,299946,1,0,0:0:0:0:
64,64,300021,1,0,0:0:0:0:
320,64,300096,1,8,0:0:0:0:
64,64,300171,1,0,0:0:0:0:
64,64,300246,1,0,0:0:0:0:
64,64,300321,1,0,0:0:0:0:
320,64,300396,1,8,0:0:0:0:
64,64,300471,1,0,0:0:0:0:
320,64,300546,1,8,0:0:0:0:
64,64,300621,1,0,0:0:0:0:
320,64,300696,1,8,0:0:0:0:
320,64,300771,1,8,0:0:0:0:
64,64,300846,1,0,0:0:0:0:
64,64,300921,1,0,0:0:0:0:
320,64,300996,1,8,0:0:0:0:
320,64,301071,1,8,0:0:0:0:
64,64,301146,1,0,0:0:0:0:
64,64,301221,1,0,0:0:0:0:
320,64,301296,1,8,0:0:0:0:
320,64,301371,1,8,0:0:0:0:
64,64,301446,1,0,0:0:0:0:
64,64,301521,1,0,0:0:0:0:
320,64,301596,1,8,0:0:0:0:
64,64,301671,1,0,0:0:0:0:
320,64,301746,1,8,0:0:0:0:
320,64,301821,1,8,0:0:0:0:
64,64,301896,1,0,0:0:0:0:
64,64,301946,1,0,0:0:0:0:
64,64,301996,1,0,0:0:0:0:
320,64,302196,1,8,0:0:0:0:
64,64,302271,1,0,0:0:0:0:
64,64,302346,1,0,0:0:0:0:
64,64,302421,1,0,0:0:0:0:
320,64,302496,1,8,0:0:0:0:
64,64,302571,1,0,0:0:0:0:
64,64,302646,1,0,0:0:0:0:
64,64,302721,1,0,0:0:0:0:
320,64,302796,1,8,0:0:0:0:
320,64,302871,1,8,0:0:0:0:
64,64,302946,1,0,0:0:0:0:
64,64,303021,1,0,0:0:0:0:
320,64,303096,1,8,0:0:0:0:
64,64,303171,1,0,0:0:0:0:
320,64,303246,1,8,0:0:0:0:
64,64,303321,1,0,0:0:0:0:
320,64,303396,1,8,0:0:0:0:
64,64,303471,1,0,0:0:0:0:
64,64,303546,1,0,0:0:0:0:
64,64,303621,1,0,0:0:0:0:
320,64,303696,1,8,0:0:0:0:
64,64,303771,1,0,0:0:0:0:
64,64,303846,1,0,0:0:0:0:
64,64,303921,1,0,0:0:0:0:
320,64,303996,1,8,0:0:0:0:
320,64,304071,1,8,0:0:0:0:
64,64,304146,1,0,0:0:0:0:
64,64,304221,1,0,0:0:0:0:
320,64,304296,1,8,0:0:0:0:
320,64,304446,1,8,0:0:0:0:
320,64,304596,1,8,0:0:0:0:
320,64,304671,1,8,0:0:0:0:
64,64,304746,1,0,0:0:0:0:
64,64,304821,1,0,0:0:0:0:
320,64,304896,1,8,0:0:0:0:
320,64,304971,1,8,0:0:0:0:
64,64,305046,1,0,0:0:0:0:
64,64,305121,1,0,0:0:0:0:
320,64,305196,1,8,0:0:0:0:
320,64,305271,1,8,0:0:0:0:
64,64,305346,1,0,0:0:0:0:
64,64,305421,1,0,0:0:0:0:
320,64,305496,1,8,0:0:0:0:
64,64,305546,1,0,0:0:0:0:
64,64,305596,1,0,0:0:0:0:
320,64,305646,1,8,0:0:0:0:
320,64,305796,1,8,0:0:0:0:
64,64,305871,1,0,0:0:0:0:
64,64,305946,1,0,0:0:0:0:
64,64,306021,1,0,0:0:0:0:
320,64,306096,1,8,0:0:0:0:
64,64,306171,1,0,0:0:0:0:
64,64,306246,1,0,0:0:0:0:
64,64,306321,1,0,0:0:0:0:
320,64,306396,1,8,0:0:0:0:
64,64,306471,1,0,0:0:0:0:
64,64,306546,1,0,0:0:0:0:
64,64,306621,1,0,0:0:0:0:
320,64,306696,1,8,0:0:0:0:
320,64,306746,1,8,0:0:0:0:
64,64,306796,1,0,0:0:0:0:
320,64,306846,1,8,0:0:0:0:
64,64,306996,1,0,0:0:0:0:
64,64,307046,1,0,0:0:0:0:
64,64,307096,1,0,0:0:0:0:
320,64,307146,1,8,0:0:0:0:
64,64,307221,1,0,0:0:0:0:
320,64,307296,1,8,0:0:0:0:
64,64,307371,1,0,0:0:0:0:
64,64,307446,1,0,0:0:0:0:
64,64,307521,1,0,0:0:0:0:
320,64,307596,1,8,0:0:0:0:
320,64,307646,1,8,0:0:0:0:
320,64,307696,1,8,0:0:0:0:
64,64,307746,1,0,0:0:0:0:
64,64,307821,1,0,0:0:0:0:
320,64,307896,1,8,0:0:0:0:
64,64,307971,1,0,0:0:0:0:
64,64,308046,1,0,0:0:0:0:
64,64,308121,1,0,0:0:0:0:
320,64,308196,1,8,0:0:0:0:
64,64,308246,1,0,0:0:0:0:
64,64,308296,1,0,0:0:0:0:
320,64,308346,1,8,0:0:0:0:
64,64,308421,1,0,0:0:0:0:
320,64,308496,1,8,0:0:0:0:
64,64,308546,1,0,0:0:0:0:
64,64,308596,1,0,0:0:0:0:
320,64,308646,1,8,0:0:0:0:
64,64,308721,1,0,0:0:0:0:
320,64,308796,1,8,0:0:0:0:
320,64,308846,1,8,0:0:0:0:
320,64,308896,1,8,0:0:0:0:
64,64,308946,1,0,0:0:0:0:
64,64,309021,1,0,0:0:0:0:
320,64,309096,1,8,0:0:0:0:
320,64,309146,1,8,0:0:0:0:
320,64,309196,1,8,0:0:0:0:
320,64,309246,1,8,0:0:0:0:
320,64,309296,1,8,0:0:0:0:
320,64,309346,1,8,0:0:0:0:
64,64,309396,1,0,0:0:0:0:
64,64,309546,1,0,0:0:0:0:
320,64,309696,1,8,0:0:0:0:
320,64,309846,1,8,0:0:0:0:
64,64,309921,1,0,0:0:0:0:
320,64,309996,1,8,0:0:0:0:
320,64,310071,1,8,0:0:0:0:
64,64,310146,1,0,0:0:0:0:
320,64,310296,1,8,0:0:0:0:
64,64,310446,1,0,0:0:0:0:
64,64,310521,1,0,0:0:0:0:
320,64,310596,1,8,0:0:0:0:
64,64,310746,1,0,0:0:0:0:
64,64,310821,1,0,0:0:0:0:
320,64,310896,1,8,0:0:0:0:
64,64,310971,1,0,0:0:0:0:
320,64,311046,1,8,0:0:0:0:
320,64,311121,1,8,0:0:0:0:
64,64,311196,1,0,0:0:0:0:
320,64,311271,1,8,0:0:0:0:
320,64,311421,1,8,0:0:0:0:
64,64,311496,1,0,0:0:0:0:
64,64,311571,1,0,0:0:0:0:
64,64,311646,1,0,0:0:0:0:
64,64,311721,1,0,0:0:0:0:
320,64,311796,1,12,0:0:0:0:
64,64,312096,1,0,0:0:0:0:
64,64,312246,1,0,0:0:0:0:
320,64,312321,1,8,0:0:0:0:
64,64,312396,1,0,0:0:0:0:
320,64,312471,1,8,0:0:0:0:
64,64,312546,1,0,0:0:0:0:
64,64,312621,1,0,0:0:0:0:
320,64,312696,1,8,0:0:0:0:
64,64,312846,1,0,0:0:0:0:
64,64,312921,1,0,0:0:0:0:
320,64,312996,1,8,0:0:0:0:
64,64,313146,1,0,0:0:0:0:
320,64,313296,1,8,0:0:0:0:
64,64,313446,1,0,0:0:0:0:
320,64,313521,1,8,0:0:0:0:
320,64,313671,1,8,0:0:0:0:
320,64,313746,1,8,0:0:0:0:
64,64,313821,1,0,0:0:0:0:
320,64,313896,1,8,0:0:0:0:
64,64,314046,1,0,0:0:0:0:
64,64,314121,1,0,0:0:0:0:
320,64,314196,1,8,0:0:0:0:
64,64,314346,1,0,0:0:0:0:
320,64,314496,1,8,0:0:0:0:
320,64,314646,1,8,0:0:0:0:
320,64,314721,1,8,0:0:0:0:
64,64,314796,1,0,0:0:0:0:
320,64,314871,1,8,0:0:0:0:
64,64,314946,1,0,0:0:0:0:
64,64,315021,1,0,0:0:0:0:
320,64,315096,1,8,0:0:0:0:
64,64,315246,1,0,0:0:0:0:
64,64,315321,1,0,0:0:0:0:
320,64,315396,1,8,0:0:0:0:
64,64,315471,1,0,0:0:0:0:
320,64,315546,1,8,0:0:0:0:
64,64,315696,1,0,0:0:0:0:
320,64,315846,1,8,0:0:0:0:
64,64,315921,1,0,0:0:0:0:
320,64,316071,1,8,0:0:0:0:
64,64,316146,1,0,0:0:0:0:
64,64,316221,1,0,0:0:0:0:
320,64,316296,1,8,0:0:0:0:
320,64,316371,1,8,0:0:0:0:
64,64,316446,1,0,0:0:0:0:
320,64,316596,1,8,0:0:0:0:
64,64,316746,1,0,0:0:0:0:
320,64,316896,1,8,0:0:0:0:
64,64,317046,1,0,0:0:0:0:
320,64,317121,1,8,0:0:0:0:
64,64,317196,1,0,0:0:0:0:
320,64,317271,1,8,0:0:0:0:
320,64,317346,1,8,0:0:0:0:
64,64,317421,1,0,0:0:0:0:
320,64,317496,1,8,0:0:0:0:
64,64,317646,1,0,0:0:0:0:
64,64,317721,1,0,0:0:0:0:
320,64,317796,1,8,0:0:0:0:
64,64,317946,1,0,0:0:0:0:
320,64,318096,1,8,0:0:0:0:
64,64,318246,1,0,0:0:0:0:
320,64,318321,1,8,0:0:0:0:
320,64,318471,1,8,0:0:0:0:
320,64,318546,1,8,0:0:0:0:
64,64,318621,1,0,0:0:0:0:
320,64,318696,1,8,0:0:0:0:
64,64,318846,1,0,0:0:0:0:
64,64,318921,1,0,0:0:0:0:
320,64,318996,1,8,0:0:0:0:
64,64,319146,1,0,0:0:0:0:
320,64,319296,1,8,0:0:0:0:
64,64,319446,1,0,0:0:0:0:
320,64,319521,1,8,0:0:0:0:
320,64,319671,1,8,0:0:0:0:
64,64,319746,1,0,0:0:0:0:
320,64,319821,1,8,0:0:0:0:
64,64,319896,1,0,0:0:0:0:
64,64,319971,1,0,0:0:0:0:
320,64,320046,1,8,0:0:0:0:
64,64,320121,1,0,0:0:0:0:
320,64,320196,1,8,0:0:0:0:
64,64,320346,1,0,0:0:0:0:
64,64,320421,1,0,0:0:0:0:
320,64,320496,1,8,0:0:0:0:
64,64,320646,1,0,0:0:0:0:
320,64,320721,1,8,0:0:0:0:
64,64,320796,1,0,0:0:0:0:
320,64,320871,1,8,0:0:0:0:
320,64,321021,1,8,0:0:0:0:
320,64,321096,1,8,0:0:0:0:
64,64,321171,1,0,0:0:0:0:
320,64,321246,1,8,0:0:0:0:
64,64,321396,1,0,0:0:0:0:
64,64,321546,1,0,0:0:0:0:
320,64,321696,1,8,0:0:0:0:
64,64,321846,1,0,0:0:0:0:
320,64,321921,1,8,0:0:0:0:
64,64,321996,1,0,0:0:0:0:
320,64,322071,1,8,0:0:0:0:
64,64,322146,1,0,0:0:0:0:
64,64,322221,1,0,0:0:0:0:
320,64,322296,1,8,0:0:0:0:
64,64,322446,1,0,0:0:0:0:
64,64,322521,1,0,0:0:0:0:
320,64,322596,1,8,0:0:0:0:
64,64,322746,1,0,0:0:0:0:
320,64,322896,1,8,0:0:0:0:
64,64,323046,1,0,0:0:0:0:
320,64,323121,1,8,0:0:0:0:
320,64,323271,1,8,0:0:0:0:
320,64,323346,1,8,0:0:0:0:
64,64,323421,1,0,0:0:0:0:
320,64,323496,1,8,0:0:0:0:
64,64,323646,1,0,0:0:0:0:
64,64,323721,1,0,0:0:0:0:
320,64,323796,1,8,0:0:0:0:
64,64,323946,1,0,0:0:0:0:
320,64,324096,1,8,0:0:0:0:
320,64,324246,1,8,0:0:0:0:
320,64,324321,1,8,0:0:0:0:
64,64,324396,1,0,0:0:0:0:
320,64,324471,1,8,0:0:0:0:
64,64,324546,1,0,0:0:0:0:
320,64,324696,1,8,0:0:0:0:
64,64,324846,1,0,0:0:0:0:
64,64,324921,1,0,0:0:0:0:
320,64,324996,1,8,0:0:0:0:
64,64,325071,1,0,0:0:0:0:
320,64,325146,1,8,0:0:0:0:
64,64,325296,1,0,0:0:0:0:
320,64,325446,1,8,0:0:0:0:
64,64,325521,1,0,0:0:0:0:
320,64,325671,1,8,0:0:0:0:
64,64,325746,1,0,0:0:0:0:
64,64,325821,1,0,0:0:0:0:
320,64,325896,1,8,0:0:0:0:
64,64,325971,1,0,0:0:0:0:
320,64,326046,1,8,0:0:0:0:
320,64,326196,1,8,0:0:0:0:
64,64,326346,1,0,0:0:0:0:
64,64,326421,1,0,0:0:0:0:
320,64,326496,1,8,0:0:0:0:
64,64,326646,1,0,0:0:0:0:
320,64,326721,1,8,0:0:0:0:
64,64,326871,1,0,0:0:0:0:
320,64,326946,1,8,0:0:0:0:
64,64,327021,1,0,0:0:0:0:
64,64,327096,1,0,0:0:0:0:
320,64,327396,1,8,0:0:0:0:
64,64,327546,1,0,0:0:0:0:
64,64,327621,1,0,0:0:0:0:
320,64,327696,1,8,0:0:0:0:
64,64,327846,1,0,0:0:0:0:
320,64,327921,1,8,0:0:0:0:
320,64,328071,1,8,0:0:0:0:
64,64,328146,1,0,0:0:0:0:
64,64,328221,1,0,0:0:0:0:
320,64,328296,1,8,0:0:0:0:
320,64,328371,1,8,0:0:0:0:
320,64,328446,1,8,0:0:0:0:
320,64,328521,1,8,0:0:0:0:
64,64,328596,1,4,0:0:0:0:
256,192,328896,12,0,330396,0:0:0:0:
64,64,330696,5,0,0:0:0:0:
320,64,330996,1,12,0:0:0:0:
64,64,331296,1,0,0:0:0:0:
64,64,331446,1,0,0:0:0:0:
320,64,331521,1,8,0:0:0:0:
64,64,331596,1,0,0:0:0:0:
320,64,331671,1,8,0:0:0:0:
64,64,331746,1,0,0:0:0:0:
64,64,331821,1,0,0:0:0:0:
320,64,331896,1,8,0:0:0:0:
64,64,332046,1,0,0:0:0:0:
64,64,332121,1,0,0:0:0:0:
320,64,332196,1,8,0:0:0:0:
64,64,332346,1,0,0:0:0:0:
320,64,332496,1,8,0:0:0:0:
64,64,332646,1,0,0:0:0:0:
320,64,332721,1,8,0:0:0:0:
64,64,332796,1,0,0:0:0:0:
320,64,332871,1,8,0:0:0:0:
320,64,332946,1,8,0:0:0:0:
64,64,333021,1,0,0:0:0:0:
320,64,333096,1,8,0:0:0:0:
320,64,333246,1,8,0:0:0:0:
64,64,333321,1,0,0:0:0:0:
320,64,333396,1,8,0:0:0:0:
64,64,333546,1,0,0:0:0:0:
320,64,333696,1,8,0:0:0:0:
320,64,333846,1,8,0:0:0:0:
320,64,333921,1,8,0:0:0:0:
64,64,333996,1,0,0:0:0:0:
320,64,334071,1,8,0:0:0:0:
64,64,334146,1,0,0:0:0:0:
64,64,334221,1,0,0:0:0:0:
320,64,334296,1,8,0:0:0:0:
64,64,334446,1,0,0:0:0:0:
64,64,334521,1,0,0:0:0:0:
320,64,334596,1,8,0:0:0:0:
64,64,334671,1,0,0:0:0:0:
320,64,334746,1,8,0:0:0:0:
64,64,334896,1,0,0:0:0:0:
320,64,335046,1,8,0:0:0:0:
64,64,335121,1,0,0:0:0:0:
320,64,335271,1,8,0:0:0:0:
64,64,335346,1,0,0:0:0:0:
64,64,335421,1,0,0:0:0:0:
320,64,335496,1,8,0:0:0:0:
320,64,335571,1,8,0:0:0:0:
64,64,335646,1,0,0:0:0:0:
64,64,335796,1,0,0:0:0:0:
64,64,335946,1,0,0:0:0:0:
320,64,336096,1,8,0:0:0:0:
64,64,336246,1,0,0:0:0:0:
320,64,336321,1,8,0:0:0:0:
64,64,336396,1,0,0:0:0:0:
320,64,336471,1,8,0:0:0:0:
320,64,336546,1,8,0:0:0:0:
64,64,336696,1,0,0:0:0:0:
320,64,336846,1,8,0:0:0:0:
320,64,336921,1,8,0:0:0:0:
64,64,336996,1,0,0:0:0:0:
64,64,337146,1,0,0:0:0:0:
320,64,337296,1,8,0:0:0:0:
64,64,337446,1,0,0:0:0:0:
320,64,337521,1,8,0:0:0:0:
320,64,337671,1,8,0:0:0:0:
320,64,337746,1,8,0:0:0:0:
64,64,337821,1,0,0:0:0:0:
320,64,337896,1,8,0:0:0:0:
64,64,338046,1,0,0:0:0:0:
320,64,338121,1,8,0:0:0:0:
64,64,338196,1,0,0:0:0:0:
64,64,338346,1,0,0:0:0:0:
64,64,338421,1,0,0:0:0:0:
320,64,338496,1,8,0:0:0:0:
64,64,338571,1,0,0:0:0:0:
64,64,338646,1,0,0:0:0:0:
320,64,338721,1,8,0:0:0:0:
320,64,338871,1,8,0:0:0:0:
64,64,338946,1,0,0:0:0:0:
320,64,339021,1,8,0:0:0:0:
64,64,339096,1,0,0:0:0:0:
64,64,339171,1,0,0:0:0:0:
320,64,339246,1,8,0:0:0:0:
64,64,339321,1,0,0:0:0:0:
320,64,339396,1,8,0:0:0:0:
64,64,339546,1,0,0:0:0:0:
64,64,339621,1,0,0:0:0:0:
320,64,339696,1,8,0:0:0:0:
64,64,339846,1,0,0:0:0:0:
320,64,339921,1,8,0:0:0:0:
64,64,339996,1,0,0:0:0:0:
320,64,340071,1,8,0:0:0:0:
64,64,340221,1,0,0:0:0:0:
64,64,340296,1,0,0:0:0:0:
64,64,340446,1,0,0:0:0:0:
320,64,340596,1,12,0:0:0:0:
64,64,340746,1,0,0:0:0:0:
320,64,340896,1,8,0:0:0:0:
64,64,341046,1,0,0:0:0:0:
320,64,341121,1,8,0:0:0:0:
64,64,341196,1,0,0:0:0:0:
320,64,341271,1,8,0:0:0:0:
64,64,341346,1,0,0:0:0:0:
64,64,341421,1,0,0:0:0:0:
320,64,341496,1,8,0:0:0:0:
64,64,341646,1,0,0:0:0:0:
64,64,341721,1,0,0:0:0:0:
320,64,341796,1,8,0:0:0:0:
64,64,341946,1,0,0:0:0:0:
320,64,342096,1,8,0:0:0:0:
64,64,342246,1,0,0:0:0:0:
320,64,342321,1,8,0:0:0:0:
320,64,342396,1,8,0:0:0:0:
64,64,342471,1,0,0:0:0:0:
320,64,342546,1,8,0:0:0:0:
64,64,342621,1,0,0:0:0:0:
320,64,342696,1,8,0:0:0:0:
320,64,342846,1,8,0:0:0:0:
64,64,342921,1,0,0:0:0:0:
320,64,342996,1,8,0:0:0:0:
64,64,343146,1,0,0:0:0:0:
320,64,343296,1,8,0:0:0:0:
64,64,343446,1,0,0:0:0:0:
320,64,343521,1,8,0:0:0:0:
320,64,343671,1,8,0:0:0:0:
64,64,343746,1,0,0:0:0:0:
64,64,343821,1,0,0:0:0:0:
320,64,343896,1,8,0:0:0:0:
64,64,344046,1,0,0:0:0:0:
64,64,344121,1,0,0:0:0:0:
320,64,344196,1,8,0:0:0:0:
64,64,344271,1,0,0:0:0:0:
320,64,344346,1,8,0:0:0:0:
64,64,344496,1,0,0:0:0:0:
320,64,344646,1,8,0:0:0:0:
64,64,344721,1,0,0:0:0:0:
320,64,344871,1,8,0:0:0:0:
64,64,344946,1,0,0:0:0:0:
64,64,345021,1,0,0:0:0:0:
320,64,345096,1,8,0:0:0:0:
64,64,345171,1,0,0:0:0:0:
320,64,345246,1,8,0:0:0:0:
64,64,345396,1,0,0:0:0:0:
320,64,345446,1,8,0:0:0:0:
320,64,345496,1,8,0:0:0:0:
64,64,345696,1,0,0:0:0:0:
64,64,345771,1,0,0:0:0:0:
64,64,345846,1,0,0:0:0:0:
320,64,345921,1,8,0:0:0:0:
64,64,345996,1,0,0:0:0:0:
320,64,346071,1,8,0:0:0:0:
64,64,346146,1,0,0:0:0:0:
64,64,346221,1,0,0:0:0:0:
320,64,346296,1,8,0:0:0:0:
320,64,346446,1,8,0:0:0:0:
64,64,346596,1,0,0:0:0:0:
320,64,346646,1,8,0:0:0:0:
320,64,346696,1,8,0:0:0:0:
320,64,346746,1,8,0:0:0:0:
64,64,346896,1,0,0:0:0:0:
320,64,346971,1,8,0:0:0:0:
64,64,347046,1,0,0:0:0:0:
320,64,347121,1,8,0:0:0:0:
320,64,347196,1,8,0:0:0:0:
64,64,347271,1,0,0:0:0:0:
64,64,347421,1,0,0:0:0:0:
320,64,347496,1,8,0:0:0:0:
320,64,347646,1,8,0:0:0:0:
64,64,347796,1,0,0:0:0:0:
64,64,347871,1,0,0:0:0:0:
320,64,347946,1,8,0:0:0:0:
64,64,348021,1,0,0:0:0:0:
320,64,348096,1,8,0:0:0:0:
320,64,348171,1,8,0:0:0:0:
64,64,348246,1,0,0:0:0:0:
320,64,348321,1,8,0:0:0:0:
64,64,348396,1,0,0:0:0:0:
320,64,348471,1,8,0:0:0:0:
64,64,348546,1,0,0:0:0:0:
64,64,348621,1,0,0:0:0:0:
320,64,348696,1,8,0:0:0:0:
320,64,348996,1,8,0:0:0:0:
320,64,349071,1,8,0:0:0:0:
64,64,349146,1,0,0:0:0:0:
64,64,349221,1,0,0:0:0:0:
320,64,349296,1,8,0:0:0:0:
64,64,349371,1,0,0:0:0:0:
64,64,349446,1,0,0:0:0:0:
320,64,349521,1,8,0:0:0:0:
64,64,349596,1,0,0:0:0:0:
320,64,349671,1,8,0:0:0:0:
320,64,349746,1,8,0:0:0:0:
64,64,349821,1,0,0:0:0:0:
320,64,349896,1,8,0:0:0:0:
320,64,350196,1,8,0:0:0:0:
320,64,350246,1,8,0:0:0:0:
320,64,350296,1,8,0:0:0:0:
64,64,350346,1,0,0:0:0:0:
64,64,350421,1,0,0:0:0:0:
320,64,350496,1,8,0:0:0:0:
320,64,350571,1,8,0:0:0:0:
64,64,350646,1,0,0:0:0:0:
64,64,350721,1,0,0:0:0:0:
320,64,350796,1,8,0:0:0:0:
320,64,350846,1,8,0:0:0:0:
320,64,350896,1,8,0:0:0:0:
64,64,350946,1,0,0:0:0:0:
64,64,351021,1,0,0:0:0:0:
320,64,351096,1,8,0:0:0:0:
320,64,351171,1,8,0:0:0:0:
64,64,351246,1,0,0:0:0:0:
320,64,351321,1,8,0:0:0:0:
64,64,351396,1,0,0:0:0:0:
64,64,351446,1,0,0:0:0:0:
64,64,351496,1,0,0:0:0:0:
320,64,351546,1,8,0:0:0:0:
64,64,351621,1,0,0:0:0:0:
320,64,351696,1,8,0:0:0:0:
320,64,351746,1,8,0:0:0:0:
320,64,351796,1,8,0:0:0:0:
64,64,351846,1,0,0:0:0:0:
320,64,351921,1,8,0:0:0:0:
64,64,351996,1,0,0:0:0:0:
320,64,352071,1,8,0:0:0:0:
320,64,352221,1,8,0:0:0:0:
320,64,352446,1,8,0:0:0:0:
64,64,352596,1,4,0:0:0:0:
64,64,352746,1,0,0:0:0:0:
320,64,352896,1,8,0:0:0:0:
320,64,353046,1,8,0:0:0:0:
64,64,353796,1,0,0:0:0:0:
64,64,353946,1,0,0:0:0:0:
320,64,354096,1,8,0:0:0:0:
320,64,354246,1,8,0:0:0:0:
64,64,354546,1,0,0:0:0:0:
320,64,354696,1,8,0:0:0:0:
320,64,354846,1,8,0:0:0:0:
64,64,354996,1,0,0:0:0:0:
64,64,355146,1,0,0:0:0:0:
320,64,355296,1,8,0:0:0:0:
64,64,355446,1,0,0:0:0:0:
320,64,355596,1,8,0:0:0:0:
320,64,355746,1,8,0:0:0:0:
64,64,355896,1,0,0:0:0:0:
64,64,355971,1,0,0:0:0:0:
320,64,356046,1,8,0:0:0:0:
64,64,356121,1,0,0:0:0:0:
320,64,356196,1,8,0:0:0:0:
320,64,356346,1,8,0:0:0:0:
64,64,356496,1,0,0:0:0:0:
320,64,356646,1,8,0:0:0:0:
64,64,356796,1,0,0:0:0:0:
320,64,356946,1,8,0:0:0:0:
320,64,357096,1,8,0:0:0:0:
64,64,357246,1,0,0:0:0:0:
320,64,357396,1,8,0:0:0:0:
320,64,357546,1,8,0:0:0:0:
64,64,357696,1,0,0:0:0:0:
320,64,357846,1,8,0:0:0:0:
64,64,357996,1,0,0:0:0:0:
320,64,358146,1,8,0:0:0:0:
64,64,358296,1,0,0:0:0:0:
64,64,358446,1,0,0:0:0:0:
320,64,358596,1,8,0:0:0:0:
320,64,358746,1,8,0:0:0:0:
64,64,358896,1,0,0:0:0:0:
320,64,359046,1,8,0:0:0:0:
64,64,359196,1,0,0:0:0:0:
64,64,359346,1,0,0:0:0:0:
320,64,359496,1,8,0:0:0:0:
64,64,359646,1,0,0:0:0:0:
320,64,359796,1,8,0:0:0:0:
64,64,359946,1,0,0:0:0:0:
320,64,360096,1,8,0:0:0:0:
320,64,360246,1,8,0:0:0:0:
64,64,360396,1,0,0:0:0:0:
320,64,360546,1,8,0:0:0:0:
64,64,360696,1,0,0:0:0:0:
64,64,360771,1,0,0:0:0:0:
320,64,360846,1,8,0:0:0:0:
64,64,360921,1,0,0:0:0:0:
320,64,360996,1,8,0:0:0:0:
320,64,361146,1,8,0:0:0:0:
64,64,361296,1,0,0:0:0:0:
320,64,361446,1,8,0:0:0:0:
64,64,361596,1,0,0:0:0:0:
64,64,361746,1,0,0:0:0:0:
320,64,361896,1,8,0:0:0:0:
320,64,362046,1,8,0:0:0:0:
64,64,362196,1,0,0:0:0:0:
64,64,362346,1,0,0:0:0:0:
320,64,362496,1,8,0:0:0:0:
64,64,362646,1,0,0:0:0:0:
320,64,362796,1,8,0:0:0:0:
320,64,362946,1,8,0:0:0:0:
64,64,363096,1,0,0:0:0:0:
320,64,363246,1,8,0:0:0:0:
64,64,363396,1,0,0:0:0:0:
320,64,363546,1,8,0:0:0:0:
320,64,363696,1,8,0:0:0:0:
64,64,363846,1,0,0:0:0:0:
320,64,363996,1,8,0:0:0:0:
320,64,364146,1,8,0:0:0:0:
64,64,364296,1,0,0:0:0:0:
320,64,364446,1,8,0:0:0:0:
64,64,364596,1,0,0:0:0:0:
320,64,364746,1,8,0:0:0:0:
320,64,364896,1,8,0:0:0:0:
64,64,365046,1,0,0:0:0:0:
320,64,365196,1,8,0:0:0:0:
64,64,365346,1,0,0:0:0:0:
320,64,365496,1,8,0:0:0:0:
320,64,365571,1,8,0:0:0:0:
64,64,365646,1,0,0:0:0:0:
64,64,365721,1,0,0:0:0:0:
320,64,365796,1,8,0:0:0:0:
64,64,365946,1,0,0:0:0:0:
64,64,366096,1,0,0:0:0:0:
64,64,366246,1,0,0:0:0:0:
320,64,366396,1,8,0:0:0:0:
320,64,366546,1,8,0:0:0:0:
320,64,366696,1,8,0:0:0:0:
64,64,366846,1,0,0:0:0:0:
320,64,366996,1,8,0:0:0:0:
64,64,367146,1,0,0:0:0:0:
320,64,367296,1,8,0:0:0:0:
320,64,367446,1,8,0:0:0:0:
64,64,367596,1,0,0:0:0:0:
64,64,367746,1,0,0:0:0:0:
320,64,367896,1,8,0:0:0:0:
320,64,368046,1,8,0:0:0:0:
64,64,368196,1,0,0:0:0:0:
320,64,368346,1,8,0:0:0:0:
64,64,368496,1,0,0:0:0:0:
64,64,368646,1,0,0:0:0:0:
320,64,368796,1,8,0:0:0:0:
64,64,368946,1,0,0:0:0:0:
320,64,369096,1,8,0:0:0:0:
320,64,369246,1,8,0:0:0:0:
64,64,369396,1,0,0:0:0:0:
64,64,369546,1,0,0:0:0:0:
320,64,369696,1,8,0:0:0:0:
320,64,369846,1,8,0:0:0:0:
64,64,369996,1,0,0:0:0:0:
320,64,370146,1,8,0:0:0:0:
64,64,370296,1,0,0:0:0:0:
64,64,370371,1,0,0:0:0:0:
320,64,370446,1,8,0:0:0:0:
64,64,370521,1,0,0:0:0:0:
320,64,370596,1,8,0:0:0:0:
320,64,370746,1,8,0:0:0:0:
64,64,370896,1,0,0:0:0:0:
320,64,371046,1,8,0:0:0:0:
64,64,371196,1,0,0:0:0:0:
64,64,371346,1,0,0:0:0:0:
320,64,371496,1,8,0:0:0:0:
320,64,371646,1,8,0:0:0:0:
