osu file format v14

[General]
AudioFilename: audio.mp3
AudioLeadIn: 0
PreviewTime: 311725
Countdown: 0
SampleSet: None
StackLeniency: 0.2
Mode: 0
LetterboxInBreaks: 0
WidescreenStoryboard: 1

[Editor]
Bookmarks: 7000,26200,45400,64600,86200,107800,131800,151000,151075,151150,151225,151300,151375,151450,151525,151600,151675,151750,151825,151900,151975,152050,152125,152200,152275,152350,152425,152500,152575,152650,152725,152800,152875,152950,153025,153100,153175,153250,153325,153400,153475,153550,153625,153700,153775,153850,153925,154000,154075,154150,154225,154300,154375,154450,154525,154600,154675,154750,154825,154900,154975,155050,155125,155200,155275,155350,155425,155500,155575,155650,155725,155800,155875,155950,156025,156100,156175,156250,156325,156400,156475,156550,156625,156700,156775,156850,156925,157000,157075,157150,182200,201400,220600,249400,268600,290200,331000,352600,371800,401800
DistanceSpacing: 1.1
BeatDivisor: 4
GridSize: 32
TimelineZoom: 2.500002

[Metadata]
Title:Exit This Earth's Atomosphere (Camellia's ''PLANETARY//200STEP'' Remix)
TitleUnicode:Exit This Earth's Atomosphere (かめりあ's ''PLANETARY//200STEP'' Remix)
Artist:Camellia
ArtistUnicode:かめりあ
Creator:NO PLEASEGOD NO
Version:PLANETARY
Source:
Tags:Cametek KamelCamellia “Remixes” Summary & VIPs 02 Collab Psycore Breakcore Trap Dubstep
BeatmapID:1795308
BeatmapSetID:859137

[Difficulty]
HPDrainRate:4
CircleSize:4
OverallDifficulty:8.7
ApproachRate:9.7
SliderMultiplier:2.1
SliderTickRate:1

[Events]
//Background and Video events
0,0,"exit.jpg",0,0
//Break Periods
2,123825,148105
2,149550,185905
2,187200,201205
2,214125,289705
2,293925,311305
2,316425,320905
2,331537,344605
//Storyboard Layer 0 (Background)
//Storyboard Layer 1 (Fail)
//Storyboard Layer 2 (Pass)
//Storyboard Layer 3 (Foreground)
//Storyboard Sound Samples

[TimingPoints]
1000,300,4,2,2,20,1,0
7000,-500,4,2,2,20,0,0
8050,-500,4,2,2,19,0,0
8500,-500,4,2,2,22,0,0
8950,-500,4,2,2,17,0,0
9400,-500,4,2,2,16,0,0
9850,-500,4,2,2,15,0,0
10300,-500,4,2,2,14,0,0
10750,-500,4,2,2,13,0,0
11200,-500,4,2,2,12,0,0
11650,-500,4,2,2,11,0,0
12100,-500,4,2,2,20,0,0
12850,-500,4,2,2,19,0,0
13300,-500,4,2,2,18,0,0
13750,-500,4,2,2,17,0,0
14200,-500,4,2,2,16,0,0
14650,-500,4,2,2,15,0,0
15100,-500,4,2,2,14,0,0
15550,-500,4,2,2,13,0,0
16000,-500,4,2,2,12,0,0
16450,-500,4,2,2,11,0,0
17050,-500,4,2,2,30,0,0
17200,-500,4,2,2,20,0,0
17650,-500,4,2,2,18,0,0
18100,-500,4,2,2,17,0,0
18550,-500,4,2,2,16,0,0
19000,-500,4,2,2,15,0,0
19450,-500,4,2,2,14,0,0
19900,-500,4,2,2,13,0,0
20350,-500,4,2,2,12,0,0
20800,-500,4,2,2,11,0,0
21250,-500,4,2,2,10,0,0
21850,-500,4,2,2,30,0,0
22000,-500,4,2,2,20,0,0
22450,-500,4,2,2,18,0,0
22900,-500,4,2,2,16,0,0
23350,-500,4,2,2,14,0,0
23800,-500,4,2,2,18,0,0
24250,-500,4,2,2,22,0,0
24700,-500,4,2,2,24,0,0
25150,-500,4,2,2,26,0,0
25600,-500,4,2,2,28,0,0
27400,-500,4,2,2,24,0,0
28600,-500,4,2,2,20,0,0
31000,-500,4,2,2,28,0,0
32200,-500,4,2,2,24,0,0
33400,-500,4,2,2,20,0,0
35800,-333.333333333333,4,2,2,30,0,0
37000,-333.333333333333,4,2,2,25,0,0
38200,-333.333333333333,4,2,2,20,0,0
39400,-333.333333333333,4,2,2,15,0,0
40000,-333.333333333333,4,2,2,25,0,0
40600,-333.333333333333,4,2,2,35,0,0
41800,-333.333333333333,4,2,2,25,0,0
44200,-333.333333333333,4,2,2,35,0,0
44500,-333.333333333333,4,2,2,45,0,0
44800,-333.333333333333,4,2,2,55,0,0
45100,-333.333333333333,4,2,2,65,0,0
45400,-333.333333333333,4,2,11,40,0,0
45550,-333.333333333333,4,2,11,17,0,0
46600,-333.333333333333,4,2,12,40,0,0
46750,-333.333333333333,4,2,12,17,0,0
47800,-333.333333333333,4,2,13,40,0,0
47950,-333.333333333333,4,2,13,17,0,0
50200,-333.333333333333,4,2,13,40,0,0
50350,-333.333333333333,4,2,13,17,0,0
51400,-333.333333333333,4,2,14,40,0,0
51550,-333.333333333333,4,2,14,17,0,0
52600,-333.333333333333,4,2,15,40,0,0
52750,-333.333333333333,4,2,15,17,0,0
54400,-333.333333333333,4,2,16,40,0,0
54550,-333.333333333333,4,2,16,17,0,0
55000,-333.333333333333,4,2,11,50,0,0
55150,-333.333333333333,4,2,11,20,0,0
55750,-333.333333333333,4,2,11,50,0,0
55900,-333.333333333333,4,2,11,20,0,0
56200,-333.333333333333,4,2,12,50,0,0
56350,-333.333333333333,4,2,12,20,0,0
56800,-333.333333333333,4,2,12,50,0,0
57250,-333.333333333333,4,2,13,50,0,0
57400,-333.333333333333,4,2,13,20,0,0
57550,-333.333333333333,4,2,13,50,0,0
57850,-333.333333333333,4,2,13,10,0,0
59200,-333.333333333333,4,2,13,20,0,0
59800,-333.333333333333,4,2,13,50,0,0
59950,-333.333333333333,4,2,13,20,0,0
60550,-333.333333333333,4,2,13,50,0,0
60700,-333.333333333333,4,2,13,30,0,0
61000,-333.333333333333,4,2,14,50,0,0
61150,-333.333333333333,4,2,14,20,0,0
61600,-333.333333333333,4,2,14,50,0,0
62050,-333.333333333333,4,2,15,50,0,0
62200,-333.333333333333,4,2,1,25,0,0
62650,-333.333333333333,4,2,1,45,0,0
62800,-333.333333333333,4,2,1,40,0,0
63100,-333.333333333333,4,2,1,60,0,0
63250,-333.333333333333,4,2,1,50,0,0
63400,-333.333333333333,4,2,1,50,0,0
63550,-333.333333333333,4,2,1,80,0,0
64000,-333.333333333333,4,2,1,20,0,0
64600,-76.9230769230769,4,2,11,70,0,0
65275,-76.9230769230769,4,2,11,10,0,0
65350,-66.6666666666667,4,2,11,70,0,0
65500,-66.6666666666667,4,2,11,40,0,0
65800,-76.9230769230769,4,2,12,70,0,0
66325,-76.9230769230769,4,2,12,10,0,0
66400,-66.6666666666667,4,2,12,70,0,0
66775,-76.9230769230769,4,2,12,70,0,0
66850,-76.9230769230769,4,2,13,70,0,0
67075,-76.9230769230769,4,2,13,5,0,0
67300,-76.9230769230769,4,2,11,40,0,0
67450,-76.9230769230769,4,2,11,30,0,0
68650,-76.9230769230769,4,2,11,10,0,0
68800,-1000,4,2,11,40,0,0
69400,-76.9230769230769,4,2,13,70,0,0
70000,-76.9230769230769,4,2,13,40,0,0
70150,-66.6666666666667,4,2,13,70,0,0
70600,-76.9230769230769,4,2,14,70,0,0
71125,-76.9230769230769,4,2,14,10,0,0
71200,-66.6666666666667,4,2,14,70,0,0
71275,-66.6666666666667,4,2,14,40,0,0
71650,-73.5294117647059,4,2,15,70,0,0
71800,-73.5294117647059,4,2,15,30,0,0
73450,-73.5294117647059,4,2,15,10,0,0
73600,-1000,4,2,1,28,0,0
73750,-66.6666666666667,4,2,1,28,0,0
73900,-50,4,2,11,28,0,0
74125,-50,4,2,11,10,0,0
74200,-76.9230769230769,4,2,11,70,0,0
74875,-76.9230769230769,4,2,11,10,0,0
74950,-66.6666666666667,4,2,11,70,0,0
75400,-76.9230769230769,4,2,12,70,0,0
75925,-76.9230769230769,4,2,12,10,0,0
76000,-66.6666666666667,4,2,12,70,0,0
76450,-76.9230769230769,4,2,13,70,0,0
76675,-76.9230769230769,4,2,13,10,0,0
76750,-76.9230769230769,4,2,1,40,0,0
78325,-76.9230769230769,4,2,1,10,0,0
78400,-1000,4,2,1,40,0,0
79000,-76.9230769230769,4,2,13,70,0,0
79675,-76.9230769230769,4,2,13,10,0,0
79750,-66.6666666666667,4,2,13,70,0,0
80200,-76.9230769230769,4,2,14,70,0,0
80725,-76.9230769230769,4,2,14,10,0,0
80800,-66.6666666666667,4,2,14,70,0,0
81175,-66.6666666666667,4,2,14,30,0,0
81250,-76.9230769230769,4,2,15,70,0,0
81400,-76.9230769230769,4,2,15,20,0,0
82600,-76.9230769230769,4,2,11,5,0,0
82675,-76.9230769230769,4,2,11,40,0,0
85525,-76.9230769230769,4,2,11,5,0,0
85600,-1000,4,2,1,5,0,0
85675,-1000,4,2,1,10,0,0
85750,-1000,4,2,1,15,0,0
85825,-1000,4,2,1,20,0,0
85900,-1000,4,2,1,25,0,0
85975,-1000,4,2,1,30,0,0
86050,-1000,4,2,1,35,0,0
86125,-1000,4,2,1,40,0,0
86200,-66.6666666666667,4,2,1,50,0,0
86500,-100,4,2,1,50,0,0
88600,-66.6666666666667,4,2,1,50,0,0
89200,-80,4,2,1,50,0,0
90700,-100,4,2,1,50,0,0
91000,-57.1428571428571,4,2,1,50,0,0
91600,-66.6666666666667,4,2,1,50,0,0
93100,-100,4,2,1,50,0,0
93400,-50,4,2,1,50,0,0
94000,-57.1428571428571,4,2,1,50,0,0
94900,-57.1428571428571,4,2,1,50,0,0
94937,-57.1428571428571,4,2,1,20,0,0
94975,-50,4,2,1,50,0,0
95012,-50,4,2,1,20,0,0
95050,-44.4444444444445,4,2,1,50,0,0
95087,-44.4444444444445,4,2,1,20,0,0
95125,-40,4,2,1,50,0,0
95162,-40,4,2,1,20,0,0
95200,-57.1428571428571,4,2,1,50,0,0
95500,-50,4,2,1,50,0,0
95800,-57.1428571428571,4,2,1,55,0,0
96550,-133.333333333333,4,2,1,55,0,0
96700,-57.1428571428571,4,2,1,55,0,0
96850,-133.333333333333,4,2,1,55,0,0
97000,-57.1428571428571,4,2,1,55,0,0
97900,-133.333333333333,4,2,1,55,0,0
98050,-133.333333333333,4,2,1,5,0,0
98200,-50,4,2,1,55,0,0
98950,-100,4,2,1,55,0,0
99100,-50,4,2,1,55,0,0
99250,-100,4,2,1,55,0,0
99400,-50,4,2,1,55,0,0
100300,-133.333333333333,4,2,1,55,0,0
100600,-40,4,2,1,60,0,0
101500,-500,4,2,1,60,0,0
101725,-500,4,2,1,5,0,0
101800,-36.3636363636364,4,2,1,65,0,0
102700,-100,4,2,1,30,0,0
103000,-40,4,2,1,70,0,0
103037,-40,4,2,1,40,0,0
103300,-50,4,2,1,70,0,0
103600,-36.3636363636364,4,2,1,70,0,0
103637,-36.3636363636364,4,2,1,40,0,0
103900,-45.4545454545455,4,2,1,70,0,0
104200,-33.3333333333333,4,2,1,65,0,0
104275,-32.7868852459016,4,2,1,65,0,0
104350,-32.258064516129,4,2,1,65,0,0
104425,-31.7460317460317,4,2,1,65,0,0
104500,-31.25,4,2,1,65,0,0
104575,-30.7692307692308,4,2,1,65,0,0
104650,-30.3030303030303,4,2,1,65,0,0
104725,-29.8507462686567,4,2,1,65,0,0
104800,-29.4117647058824,4,2,1,65,0,0
104875,-28.9855072463768,4,2,1,65,0,0
104950,-28.5714285714286,4,2,1,65,0,0
105025,-28.169014084507,4,2,1,65,0,0
105100,-27.7777777777778,4,2,1,65,0,0
105175,-27.3972602739726,4,2,1,80,0,0
105250,-27.027027027027,4,2,1,80,0,0
105325,-26.6666666666667,4,2,1,80,0,0
105400,-200,4,2,2,90,0,0
105550,-200,4,2,1,50,0,0
106450,-133.333333333333,4,2,1,30,0,0
106600,-100,4,2,1,40,0,0
106750,-80,4,2,1,50,0,0
106900,-66.6666666666667,4,2,1,60,0,0
107050,-57.1428571428571,4,2,1,70,0,0
107200,-50,4,2,1,70,0,0
107500,-80,4,2,1,70,0,0
107800,-35.7142857142857,4,2,1,90,0,1
108100,-40,4,2,1,60,0,1
108550,-133.333333333333,4,2,1,60,0,1
108700,-256.410256410256,4,2,1,60,0,1
109150,-133.333333333333,4,2,1,60,0,1
109300,-256.410256410256,4,2,1,60,0,1
109600,-43.4782608695652,4,2,1,60,0,1
109750,-43.4782608695652,4,2,2,60,0,1
110200,-35.7142857142857,4,2,1,60,0,1
110500,-40,4,2,1,60,0,1
110950,-133.333333333333,4,2,1,60,0,1
111100,-256.410256410256,4,2,1,60,0,1
111850,-200,4,2,1,60,0,1
112000,-43.4782608695652,4,2,1,60,0,1
112600,-35.7142857142857,4,2,1,60,0,1
112900,-40,4,2,1,60,0,1
113350,-133.333333333333,4,2,1,60,0,1
113500,-256.410256410256,4,2,1,60,0,1
113950,-133.333333333333,4,2,1,60,0,1
114100,-256.410256410256,4,2,1,60,0,1
114400,-43.4782608695652,4,2,1,60,0,1
114550,-43.4782608695652,4,2,2,60,0,1
115000,-40,4,2,1,60,0,1
115750,-50,4,2,1,60,0,1
115900,-35.7142857142857,4,2,1,60,0,1
116200,-100,4,2,1,60,0,1
116425,-66.6666666666667,4,2,1,60,0,1
116650,-50,4,2,1,60,0,1
116875,-40,4,2,1,60,0,1
117100,-33.3333333333333,4,2,1,60,0,1
117400,-133.333333333333,4,2,1,60,0,1
117700,-25,4,2,1,60,0,1
117850,-40,4,2,1,60,0,1
118150,-133.333333333333,4,2,1,60,0,1
118300,-256.410256410256,4,2,1,60,0,1
118750,-133.333333333333,4,2,1,60,0,1
118900,-256.410256410256,4,2,1,60,0,1
119200,-43.4782608695652,4,2,1,60,0,1
119350,-43.4782608695652,4,2,2,60,0,1
119500,-25,4,2,2,60,0,1
119800,-35.7142857142857,4,2,1,60,0,1
120100,-40,4,2,1,60,0,1
120550,-133.333333333333,4,2,1,60,0,1
120700,-256.410256410256,4,2,1,60,0,1
121450,-200,4,2,1,60,0,1
121600,-40,4,2,1,60,0,1
121750,-50,4,2,1,60,0,1
121900,-66.6666666666667,4,2,1,60,0,1
122200,-35.7142857142857,4,2,1,60,0,1
122500,-40,4,2,1,60,0,1
123025,-50,4,2,1,60,0,1
123400,-333.333333333333,4,2,1,60,0,1
123625,-50,4,2,1,60,0,1
124000,-43.4782608695652,4,2,1,60,0,1
124600,-66.6666666666667,4,2,1,60,0,1
125200,-80,4,2,1,60,0,1
125500,-100,4,2,1,60,0,1
125800,-66.6666666666667,4,2,1,60,0,1
126100,-50,4,2,1,60,0,1
126400,-40,4,2,1,60,0,1
126700,-33.3333333333333,4,2,1,60,0,1
127300,-133.333333333333,4,2,1,30,0,0
128200,-100,4,2,1,40,0,0
128800,-80,4,2,1,50,0,0
129400,-66.6666666666667,4,2,2,30,0,0
129700,-66.6666666666667,4,2,2,37,0,0
130000,-66.6666666666667,4,2,2,45,0,0
130150,-66.6666666666667,4,2,2,50,0,0
130300,-66.6666666666667,4,2,2,55,0,0
130450,-66.6666666666667,4,2,2,60,0,0
130750,-100,4,2,1,20,0,0
130900,-71.4285714285714,4,2,1,60,0,0
131050,-55.5555555555556,4,2,1,60,0,0
131200,-45.4545454545455,4,2,1,60,0,0
131350,-38.4615384615385,4,2,1,60,0,0
131500,-333.333333333333,4,2,2,60,0,0
131575,-333.333333333333,4,2,2,10,0,0
131650,-333.333333333333,4,2,2,60,0,0
131725,-333.333333333333,4,2,2,10,0,0
131800,-35.7142857142857,4,2,1,60,0,1
132100,-71.4285714285714,4,2,1,60,0,1
132400,-40,4,2,1,60,0,1
132625,-43.4782608695652,4,2,1,60,0,1
132850,-35.7142857142857,4,2,1,60,0,1
133000,-40,4,2,1,60,0,1
133225,-43.4782608695652,4,2,1,60,0,1
133450,-66.6666666666667,4,2,1,60,0,1
133750,-35.7142857142857,4,2,1,60,0,0
133900,-35.7142857142857,4,2,1,60,0,0
134200,-43.4782608695652,4,2,1,60,0,1
134500,-1000,4,2,1,60,0,1
134725,-1000,4,2,1,20,0,1
134800,-43.4782608695652,4,2,1,60,0,1
135100,-86.9565217391304,4,2,1,60,0,1
135400,-43.4782608695652,4,2,1,60,0,1
136000,-35.7142857142857,4,2,1,60,0,0
136000,-100,4,2,1,60,0,1
136018,-35.7142857142857,4,2,1,60,0,0
136037,-35.7142857142857,4,2,1,60,0,0
136075,-35.7142857142857,4,2,1,60,0,0
136150,-35.7142857142857,4,2,1,60,0,0
136225,-35.7142857142857,4,2,1,60,0,0
136300,-57.1428571428571,4,2,1,60,0,1
136450,-35.7142857142857,4,2,1,60,0,0
136600,-35.7142857142857,4,2,1,60,0,1
136900,-71.4285714285714,4,2,1,60,0,1
137200,-40,4,2,1,60,0,1
137425,-43.4782608695652,4,2,1,60,0,1
137650,-66.6666666666667,4,2,1,60,0,1
137800,-40,4,2,1,60,0,1
138100,-35.7142857142857,4,2,1,60,0,1
138400,-43.4782608695652,4,2,1,60,0,1
138550,-35.7142857142857,4,2,1,60,0,0
139000,-43.4782608695652,4,2,1,60,0,1
139300,-43.4782608695652,4,2,2,60,0,1
139600,-43.4782608695652,4,2,1,60,0,1
140200,-100,4,2,1,60,0,1
140500,-66.6666666666667,4,2,1,60,0,1
140800,-50,4,2,1,60,0,1
141400,-100,4,2,1,60,0,1
141550,-35.7142857142857,4,2,1,60,0,0
141775,-100,4,2,1,30,0,1
141850,-35.7142857142857,4,2,1,60,0,0
142000,-400,4,2,1,60,0,1
142225,-400,4,2,1,20,0,1
142300,-35.7142857142857,4,2,1,60,0,1
142600,-43.4782608695652,4,2,1,60,0,1
143050,-86.9565217391304,4,2,1,60,0,1
143200,-35.7142857142857,4,2,1,60,0,1
143350,-35.7142857142857,4,2,1,60,0,0
143500,-35.7142857142857,4,2,1,60,0,0
143800,-66.6666666666667,4,2,1,60,0,1
144100,-1000,4,2,1,60,0,1
144325,-1000,4,2,1,20,0,1
144400,-43.4782608695652,4,2,1,60,0,1
144850,-86.9565217391304,4,2,1,60,0,1
145000,-43.4782608695652,4,2,1,60,0,1
145600,-86.9565217391304,4,2,1,60,0,1
145618,-35.7142857142857,4,2,1,60,0,0
145900,-57.1428571428571,4,2,1,60,0,1
146050,-35.7142857142857,4,2,1,60,0,0
146200,-35.7142857142857,4,2,1,60,0,1
146350,-35.7142857142857,4,2,1,60,0,0
146500,-71.4285714285714,4,2,1,60,0,1
146650,-71.4285714285714,4,2,1,30,0,1
146725,-35.7142857142857,4,2,1,60,0,0
146800,-1000,4,2,1,60,0,1
147025,-1000,4,2,1,30,0,1
147100,-35.7142857142857,4,2,1,60,0,1
148000,-43.4782608695652,4,2,1,60,0,1
148150,-35.7142857142857,4,2,1,60,0,0
148300,-35.7142857142857,4,2,1,60,0,0
149575,-43.4782608695652,4,2,1,20,0,1
149650,-43.4782608695652,4,2,1,25,0,1
149725,-43.4782608695652,4,2,1,30,0,1
149800,-43.4782608695652,4,2,1,35,0,1
149875,-43.4782608695652,4,2,1,40,0,1
149950,-43.4782608695652,4,2,1,45,0,1
150025,-43.4782608695652,4,2,1,50,0,1
150100,-43.4782608695652,4,2,1,55,0,1
150175,-43.4782608695652,4,2,1,60,0,1
150400,-100,4,2,2,60,0,1
151000,-100,4,2,2,75,0,0
158500,-100,4,2,1,10,0,0
158575,-100,4,2,1,15,0,0
158650,-100,4,2,1,20,0,0
158725,-100,4,2,1,25,0,0
158800,-100,4,2,1,30,0,0
158875,-100,4,2,1,35,0,0
158950,-100,4,2,1,40,0,0
159025,-100,4,2,1,45,0,0
159100,-100,4,2,1,50,0,0
159400,-51.5463917525773,4,2,2,75,0,0
160525,-51.5463917525773,4,2,2,5,0,0
160600,-66.6666666666667,4,2,1,50,0,0
160900,-80,4,2,1,50,0,0
163000,-45.4545454545455,4,2,1,50,0,0
163300,-66.6666666666667,4,2,1,50,0,0
165400,-45.4545454545455,4,2,1,50,0,0
165700,-75.7575757575758,4,2,1,50,0,0
167800,-45.4545454545455,4,2,1,50,0,0
168100,-71.4285714285714,4,2,1,50,0,0
169300,-62.5,4,2,1,50,0,0
169337,-62.5,4,2,1,20,0,0
169375,-50,4,2,1,50,0,0
169412,-50,4,2,1,20,0,0
169450,-41.6666666666667,4,2,1,50,0,0
169487,-41.6666666666667,4,2,1,20,0,0
169525,-37.037037037037,4,2,1,50,0,0
169562,-37.037037037037,4,2,1,20,0,0
169600,-60.2409638554217,4,2,1,50,0,0
169900,-50,4,2,1,50,0,0
170200,-40,4,2,1,60,0,0
170800,-43.4782608695652,4,2,1,60,0,0
171400,-38.4615384615385,4,2,1,60,0,0
172000,-40.8163265306122,4,2,1,60,0,0
172300,-30.3030303030303,4,2,1,60,0,0
172600,-32.258064516129,4,2,1,50,0,0
173200,-40,4,2,1,50,0,0
173500,-43.4782608695652,4,2,1,50,0,0
173800,-18.7617260787992,4,2,1,50,0,0
174400,-52.6315789473684,4,2,1,50,0,0
174700,-45.4545454545455,4,2,1,50,0,0
175000,-62.5,4,2,1,50,0,0
175900,-500,4,2,1,50,0,0
176125,-250.000000000001,4,2,1,5,0,0
176200,-57.8034682080925,4,2,1,50,0,0
177100,-10,4,2,1,50,0,0
177118,-10,4,2,2,20,0,0
177400,-50,4,2,1,50,0,0
177437,-50,4,2,1,30,0,0
177700,-50,4,2,1,50,0,0
178037,-50,4,2,1,30,0,0
178300,-45.4545454545455,4,2,1,50,0,0
178637,-45.4545454545455,4,2,1,30,0,0
178900,-40,4,2,1,50,0,0
178937,-40,4,2,1,30,0,0
179200,-33.3333333333333,4,2,1,50,0,0
179237,-33.3333333333333,4,2,1,30,0,0
179500,-28.5714285714286,4,2,1,50,0,0
179537,-28.5714285714286,4,2,1,30,0,0
179800,-28.5714285714286,4,2,2,50,0,0
180100,-50,4,2,1,20,0,0
180137,-50,4,2,1,5,0,0
180250,-47.6190476190476,4,2,1,25,0,0
180287,-50,4,2,1,5,0,0
180400,-44.4444444444445,4,2,1,30,0,0
180437,-50,4,2,1,5,0,0
180550,-41.6666666666667,4,2,1,35,0,0
180587,-50,4,2,1,5,0,0
180700,-35.7142857142857,4,2,1,40,0,0
180737,-50,4,2,1,5,0,0
180850,-31.25,4,2,1,45,0,0
180887,-50,4,2,1,5,0,0
181000,-25,4,2,1,50,0,0
181037,-50,4,2,1,5,0,0
181150,-25,4,2,1,55,0,0
181187,-76.9230769230769,4,2,1,5,0,0
181300,-25,4,2,1,60,0,0
181337,-76.9230769230769,4,2,1,5,0,0
181450,-20.8333333333333,4,2,1,65,0,0
181487,-76.9230769230769,4,2,1,5,0,0
181600,-20.8333333333333,4,2,1,70,0,0
181637,-76.9230769230769,4,2,1,5,0,0
181750,-20.8333333333333,4,2,1,75,0,0
181787,-76.9230769230769,4,2,1,5,0,0
181900,-34.4827586206897,4,2,1,75,0,0
182200,-50,4,2,1,75,0,1
182500,-100,4,2,1,75,0,1
182950,-50,4,2,1,75,0,1
183100,-100,4,2,1,75,0,1
183550,-50,4,2,1,75,0,1
183700,-100,4,2,1,75,0,1
184000,-40,4,2,1,75,0,0
184300,-43.4782608695652,4,2,1,75,0,0
184600,-50,4,2,1,75,0,1
184900,-100,4,2,1,75,0,1
185350,-50,4,2,1,75,0,1
185500,-100,4,2,1,75,0,1
185650,-200,4,2,1,75,0,1
185762,-200,4,2,1,45,0,1
186250,-100,4,2,1,75,0,1
186400,-300.0003000003,4,2,2,75,0,0
186700,-25,4,2,1,75,0,0
187000,-50,4,2,1,75,0,1
187300,-100,4,2,1,75,0,1
187750,-50,4,2,1,75,0,1
187900,-100,4,2,1,75,0,1
188350,-50,4,2,1,75,0,1
188500,-100,4,2,1,75,0,1
188650,-40,4,2,1,75,0,1
188800,-40,4,2,1,75,0,0
189100,-43.4782608695652,4,2,1,75,0,0
189400,-50,4,2,1,75,0,1
190000,-45.4545454545455,4,2,1,75,0,1
190300,-37.037037037037,4,2,1,75,0,1
190600,-50,4,2,1,75,0,1
191200,-43.4782608695652,4,2,1,75,0,1
191800,-100,4,2,1,75,0,0
191950,-100,4,2,1,25,0,0
192100,-43.4782608695652,4,2,1,75,0,1
192550,-50,4,2,1,75,0,1
193150,-52.6315789473684,4,2,1,75,0,1
193600,-43.4782608695652,4,2,1,75,0,1
194200,-50,4,2,2,75,0,1
194500,-100,4,2,1,75,0,1
194950,-50,4,2,1,75,0,1
195400,-40,4,2,1,75,0,1
195700,-43.4782608695652,4,2,1,75,0,1
195925,-40,4,2,1,75,0,1
196300,-43.4782608695652,4,2,1,75,0,1
196600,-66.6666666666667,4,2,2,75,0,1
196900,-50,4,2,1,75,0,1
199000,-50,4,2,1,45,0,1
199225,-50,4,2,1,50,0,1
199450,-50,4,2,1,55,0,1
199675,-50,4,2,1,60,0,1
199900,-50,4,2,1,65,0,1
200125,-50,4,2,1,70,0,1
200350,-50,4,2,1,75,0,1
200575,-50,4,2,1,80,0,1
200800,-66.6666666666667,4,2,1,75,0,0
201400,-66.6666666666667,4,2,1,60,0,1
201437,-66.6666666666667,4,2,1,60,0,0
201700,-40,4,2,1,60,0,0
202150,-133.333333333333,4,2,1,60,0,0
202300,-256.410256410256,4,2,1,60,0,0
202750,-133.333333333333,4,2,1,60,0,0
202900,-256.410256410256,4,2,1,60,0,0
203200,-40,4,2,1,60,0,0
203500,-66.6666666666667,4,2,1,60,0,0
203650,-200,4,2,1,60,0,0
203800,-36.3636363636364,4,2,1,60,0,0
204550,-133.333333333333,4,2,1,60,0,0
204700,-256.410256410256,4,2,1,60,0,0
205000,-33.3333333333333,4,2,1,60,0,0
205225,-66.6666666666667,4,2,1,60,0,0
205450,-138.888888888889,4,2,1,60,0,0
206200,-40,4,2,1,75,0,1
206950,-50,4,2,1,75,0,1
207100,-100,4,2,1,75,0,1
207550,-50,4,2,1,75,0,1
207700,-100,4,2,1,75,0,1
208000,-40,4,2,1,75,0,1
208300,-43.4782608695652,4,2,1,75,0,1
208600,-40,4,2,1,75,0,1
209500,-35.7142857142857,4,2,1,75,0,1
209800,-100,4,2,1,75,0,1
210025,-66.6666666666667,4,2,1,75,0,1
210250,-50,4,2,1,75,0,1
210475,-40,4,2,1,75,0,1
210700,-33.3333333333333,4,2,1,75,0,1
210850,-28.5714285714286,4,2,1,75,0,1
211000,-200,4,2,1,60,0,0
211600,-50,4,2,1,60,0,1
211637,-50,4,2,1,60,0,0
211750,-133.333333333333,4,2,1,60,0,0
211900,-256.410256410256,4,2,1,60,0,0
212350,-133.333333333333,4,2,1,60,0,0
212500,-256.410256410256,4,2,1,60,0,0
212800,-66.6666666666667,4,2,1,60,0,0
213100,-50,4,2,1,60,0,0
213400,-125,4,2,1,60,0,0
214000,-50,4,2,1,60,0,0
214037,-50,4,2,1,60,0,1
214150,-133.333333333333,4,2,1,60,0,0
214300,-256.410256410256,4,2,1,60,0,0
214600,-33.3333333333333,4,2,1,60,0,0
214750,-66.6666666666667,4,2,1,60,0,0
215050,-133.333333333333,4,2,1,60,0,0
215800,-500,4,2,1,75,0,0
216100,-43.4782608695652,4,2,1,75,0,1
216400,-500,4,2,1,75,0,0
216700,-43.4782608695652,4,2,1,75,0,1
217000,-500,4,2,1,75,0,0
217300,-43.4782608695652,4,2,1,75,0,1
217600,-57.1428571428571,4,2,1,75,0,0
218200,-50,4,2,1,45,0,1
218800,-44.4444444444445,4,2,1,55,0,1
219400,-40,4,2,1,65,0,1
219625,-36.3636363636364,4,2,1,75,0,1
219850,-30.7692307692308,4,2,1,75,0,1
220000,-1000,4,2,1,75,0,0
220037,-1000,4,2,1,5,0,0
220075,-1000,4,2,1,10,0,0
220150,-1000,4,2,1,25,0,0
220225,-1000,4,2,1,50,0,0
220300,-1000,4,2,1,75,0,0
220375,-1000,4,2,1,85,0,0
220450,-1000,4,2,1,95,0,0
220525,-1000,4,2,1,100,0,0
220600,-357.142857142857,4,2,1,100,0,0
220637,-357.142857142857,4,2,1,5,0,0
225400,-100,4,2,1,5,0,0
230200,-333.333333333333,4,2,2,28,0,0
231400,-333.333333333333,4,2,2,24,0,0
232600,-333.333333333333,4,2,2,20,0,0
235000,-333.333333333333,4,2,2,28,0,0
236200,-333.333333333333,4,2,2,24,0,0
237400,-333.333333333333,4,2,2,20,0,0
239800,-250,4,2,2,30,0,0
241000,-250,4,2,2,25,0,0
242200,-250,4,2,2,20,0,0
243400,-250,4,2,2,15,0,0
244000,-250,4,2,2,25,0,0
244600,-250,4,2,2,35,0,0
245800,-250,4,2,2,25,0,0
247000,-250,4,2,2,35,0,0
248200,-250,4,2,2,45,0,0
248800,-250,4,2,2,55,0,0
249100,-250,4,2,2,65,0,0
249400,-250,4,2,40,40,0,0
249550,-250,4,2,41,30,0,0
249700,-250,4,2,42,30,0,0
249850,-250,4,2,43,50,0,0
250000,-250,4,2,43,30,0,0
250150,-250,4,2,44,30,0,0
250300,-250,4,2,45,40,0,0
250450,-250,4,2,46,40,0,0
250600,-250,4,2,47,50,0,0
250750,-250,4,2,48,30,0,0
250900,-250,4,2,49,30,0,0
251050,-250,4,2,50,50,0,0
251350,-250,4,2,51,40,0,0
251500,-250,4,2,52,35,0,0
251650,-250,4,2,53,30,0,0
251800,-250,4,2,54,40,0,0
251950,-250,4,2,55,30,0,0
252100,-250,4,2,56,20,0,0
252250,-250,4,2,57,60,0,0
252400,-250,4,2,57,20,0,0
252550,-250,4,2,58,25,0,0
252700,-250,4,2,59,30,0,0
252850,-250,4,2,60,35,0,0
253000,-250,4,2,61,40,0,0
253150,-250,4,2,62,45,0,0
253300,-250,4,2,63,50,0,0
253450,-250,4,2,64,40,0,0
253750,-250,4,2,65,40,0,0
253900,-250,4,2,66,40,0,0
254050,-250,4,2,67,40,0,0
254200,-250,4,2,68,50,0,0
254350,-250,4,2,69,30,0,0
254500,-250,4,2,70,30,0,0
254650,-250,4,2,71,40,0,0
254800,-250,4,2,71,30,0,0
254950,-250,4,2,72,30,0,0
255100,-250,4,2,73,30,0,0
255250,-250,4,2,74,30,0,0
255400,-250,4,2,75,50,0,0
255550,-250,4,2,76,30,0,0
255700,-250,4,2,77,35,0,0
255850,-250,4,2,78,40,0,0
256000,-250,4,2,79,45,0,0
256150,-250,4,2,80,40,0,0
256300,-250,4,2,81,35,0,0
256450,-250,4,2,82,30,0,0
256600,-250,4,2,83,40,0,0
256750,-250,4,2,84,20,0,0
256900,-250,4,2,85,30,0,0
257050,-250,4,2,86,60,0,0
257350,-250,4,2,87,40,0,0
257500,-250,4,2,88,40,0,0
257650,-250,4,2,89,40,0,0
257800,-250,4,2,90,35,0,0
257950,-250,4,2,91,30,0,0
258100,-250,4,2,92,25,0,0
258250,-250,4,2,93,20,0,0
258400,-250,4,2,16,60,0,0
258550,-250,4,2,95,20,0,0
258700,-250,4,2,96,30,0,0
258850,-250,4,2,97,40,0,0
259000,-166.666666666667,4,2,11,50,0,0
259150,-166.666666666667,4,2,41,30,0,0
259300,-166.666666666667,4,2,42,30,0,0
259450,-166.666666666667,4,2,43,30,0,0
259600,-166.666666666667,4,2,44,30,0,0
259750,-166.666666666667,4,2,11,60,0,0
259900,-166.666666666667,4,2,45,30,0,0
260050,-166.666666666667,4,2,46,30,0,0
260200,-166.666666666667,4,2,12,60,0,0
260350,-166.666666666667,4,2,48,30,0,0
260500,-166.666666666667,4,2,49,30,0,0
260650,-166.666666666667,4,2,50,30,0,0
260800,-166.666666666667,4,2,12,60,0,0
260950,-166.666666666667,4,2,51,30,0,0
261100,-166.666666666667,4,2,52,30,0,0
261250,-166.666666666667,4,2,13,60,0,0
261400,-166.666666666667,4,2,54,30,0,0
261550,-166.666666666667,4,2,55,30,0,0
261700,-166.666666666667,4,2,56,30,0,0
261850,-166.666666666667,4,2,57,30,0,0
262150,-166.666666666667,4,2,58,30,0,0
262300,-166.666666666667,4,2,59,30,0,0
262450,-166.666666666667,4,2,60,30,0,0
262600,-166.666666666667,4,2,61,30,0,0
262750,-166.666666666667,4,2,62,30,0,0
262900,-166.666666666667,4,2,63,30,0,0
263050,-166.666666666667,4,2,64,30,0,0
263350,-166.666666666667,4,2,65,30,0,0
263500,-166.666666666667,4,2,66,30,0,0
263650,-166.666666666667,4,2,67,30,0,0
263800,-166.666666666667,4,2,13,60,0,0
263950,-166.666666666667,4,2,69,30,0,0
264100,-166.666666666667,4,2,70,30,0,0
264250,-166.666666666667,4,2,71,30,0,0
264550,-166.666666666667,4,2,13,60,0,0
264700,-166.666666666667,4,2,73,30,0,0
264850,-166.666666666667,4,2,74,30,0,0
265000,-166.666666666667,4,2,14,60,0,0
265150,-166.666666666667,4,2,76,30,0,0
265300,-166.666666666667,4,2,77,30,0,0
265450,-166.666666666667,4,2,78,30,0,0
265600,-166.666666666667,4,2,14,60,0,0
265750,-166.666666666667,4,2,80,30,0,0
265900,-166.666666666667,4,2,81,30,0,0
266050,-166.666666666667,4,2,15,60,0,0
266200,-166.666666666667,4,2,1,30,0,0
266350,-166.666666666667,4,2,1,20,0,0
266650,-166.666666666667,4,2,1,30,0,0
267100,-166.666666666667,4,2,1,40,0,0
267550,-166.666666666667,4,2,1,50,0,0
267850,-250,4,2,1,30,0,0
268600,-50,4,2,11,60,0,0
268900,-100,4,2,2,50,0,0
269200,-40,4,2,2,50,0,0
269350,-66.6666666666667,4,2,11,60,0,0
269800,-66.6666666666667,4,2,12,60,0,0
270100,-40,4,2,1,50,0,0
270400,-66.6666666666667,4,2,12,60,0,0
270550,-40,4,2,1,50,0,0
270850,-57.1428571428571,4,2,13,60,0,0
271300,-57.1428571428571,4,2,2,50,0,0
271600,-200,4,2,2,50,0,0
271750,-100,4,2,2,50,0,0
271900,-66.6666666666667,4,2,2,50,0,0
272200,-50,4,2,2,50,0,0
272350,-40,4,2,2,50,0,0
272500,-33.3333333333333,4,2,2,50,0,0
272650,-28.5714285714286,4,2,1,50,0,0
272800,-1000,4,2,2,50,0,0
273400,-57.1428571428571,4,2,13,50,0,0
274000,-40,4,2,1,50,0,0
274150,-66.6666666666667,4,2,13,50,0,0
274600,-66.6666666666667,4,2,14,50,0,0
274900,-40,4,2,1,50,0,0
275200,-66.6666666666667,4,2,14,50,0,0
275350,-40,4,2,1,50,0,0
275650,-66.6666666666667,4,2,15,50,0,0
275687,-66.6666666666667,4,2,15,5,0,0
277600,-100,4,2,3,50,0,0
277900,-66.6666666666667,4,2,1,50,0,0
278200,-50,4,2,11,50,0,0
278500,-100,4,2,2,50,0,0
278800,-40,4,2,2,50,0,0
278950,-66.6666666666667,4,2,11,50,0,0
279400,-66.6666666666667,4,2,12,50,0,0
279700,-40,4,2,1,50,0,0
280000,-66.6666666666667,4,2,12,50,0,0
280150,-40,4,2,1,50,0,0
280450,-57.1428571428571,4,2,13,50,0,0
280900,-57.1428571428571,4,2,2,50,0,0
281200,-200,4,2,2,50,0,0
281350,-100,4,2,2,50,0,0
281500,-66.6666666666667,4,2,2,50,0,0
281800,-50,4,2,2,50,0,0
281950,-40,4,2,2,50,0,0
282100,-33.3333333333333,4,2,2,50,0,0
282250,-28.5714285714286,4,2,1,50,0,0
282400,-1000,4,2,2,50,0,0
283000,-57.1428571428571,4,2,13,50,0,0
283600,-40,4,2,1,50,0,0
283750,-66.6666666666667,4,2,13,50,0,0
284200,-66.6666666666667,4,2,14,50,0,0
284500,-40,4,2,1,50,0,0
284800,-66.6666666666667,4,2,14,50,0,0
284950,-40,4,2,1,50,0,0
285250,-66.6666666666667,4,2,15,50,0,0
285287,-66.6666666666667,4,2,15,5,0,0
289600,-1000,4,2,1,50,0,0
290200,-50,4,2,1,50,0,0
293800,-40,4,2,1,50,0,0
294175,-50,4,2,1,50,0,0
294700,-40,4,2,1,50,0,0
295000,-50,4,2,1,50,0,0
295300,-45.4545454545455,4,2,1,50,0,0
295600,-41.6666666666667,4,2,1,50,0,0
295750,-45.4545454545455,4,2,1,50,0,0
295900,-50,4,2,1,50,0,0
296050,-55.5555555555556,4,2,1,50,0,0
296200,-47.6190476190476,4,2,1,50,0,0
296800,-41.6666666666667,4,2,1,50,0,0
296950,-38.4615384615385,4,2,1,50,0,0
297100,-43.4782608695652,4,2,1,50,0,0
297250,-50,4,2,1,50,0,0
297400,-45.4545454545455,4,2,1,50,0,0
298000,-38.4615384615385,4,2,1,50,0,0
298150,-50,4,2,1,50,0,0
298300,-71.4285714285714,4,2,1,50,0,0
298450,-125,4,2,1,50,0,0
298600,-40,4,2,1,50,0,0
298900,-34.4827586206897,4,2,1,50,0,0
299200,-37.037037037037,4,2,1,50,0,0
299800,-57.1428571428571,4,2,1,50,0,0
301900,-200,4,2,1,50,0,0
302200,-57.1428571428571,4,2,1,50,0,0
303100,-50,4,2,1,50,0,0
304300,-333.333333333333,4,2,1,50,0,0
305500,-333.333333333333,4,2,2,50,0,0
305800,-333.333333333333,4,2,1,50,0,0
306700,-11.1111111111111,4,2,2,60,0,0
306737,-43.4782608695652,4,2,2,5,0,0
306775,-43.4782608695652,4,2,2,30,0,0
306850,-43.4782608695652,4,2,2,60,0,0
306925,-43.4782608695652,4,2,2,100,0,0
307000,-50,4,2,1,60,0,0
307037,-50,4,2,1,40,0,0
307300,-50,4,2,1,60,0,0
307600,-50,4,2,1,60,0,0
307637,-50,4,2,1,40,0,0
307900,-45.4545454545455,4,2,1,60,0,0
308500,-40,4,2,1,70,0,0
308800,-33.3333333333333,4,2,1,80,0,0
309100,-28.5714285714286,4,2,1,90,0,0
309400,-333.333333333333,4,2,2,100,0,0
309437,-333.333333333333,4,2,1,20,0,0
309850,-200,4,2,1,20,0,0
310450,-133.333333333333,4,2,1,30,0,0
310600,-100,4,2,1,40,0,0
310750,-80,4,2,1,50,0,0
310975,-66.6666666666667,4,2,1,60,0,0
311500,-200,4,2,1,30,0,0
311800,-38.4615384615385,4,2,33,80,0,1
312100,-40.650406504065,4,2,22,80,0,1
312325,-40.650406504065,4,2,23,80,0,1
312475,-40.650406504065,4,2,26,80,0,1
312700,-40.650406504065,4,2,28,80,0,1
313000,-36.231884057971,4,2,33,80,0,1
313300,-40.650406504065,4,2,22,80,0,1
313525,-40.650406504065,4,2,23,80,0,1
313675,-40.650406504065,4,2,26,80,0,1
313900,-40.650406504065,4,2,38,80,0,1
314200,-41.6666666666667,4,2,36,80,0,1
314500,-33.3333333333333,4,2,32,80,0,1
314725,-40.650406504065,4,2,27,80,0,1
314800,-42.3728813559322,4,2,1,80,0,1
314875,-42.3728813559322,4,2,26,80,0,1
315100,-42.3728813559322,4,2,33,80,0,1
315400,-25,4,2,34,80,0,1
315700,-46.2962962962963,4,2,26,80,0,1
315925,-40.650406504065,4,2,27,80,0,1
316075,-40.650406504065,4,2,32,80,0,1
316300,-42.3728813559322,4,2,22,80,0,1
316450,-42.3728813559322,4,2,24,80,0,1
316600,-39.0625,4,2,21,80,0,1
316900,-45.045045045045,4,2,26,80,0,1
317125,-45.045045045045,4,2,31,80,0,1
317275,-45.045045045045,4,2,34,80,0,1
317500,-39.3700787401575,4,2,29,80,0,1
317800,-40.983606557377,4,2,21,80,0,1
318100,-45.045045045045,4,2,26,80,0,1
318325,-45.045045045045,4,2,31,80,0,1
318475,-45.045045045045,4,2,34,80,0,1
318700,-41.1522633744856,4,2,29,80,0,1
319000,-38.4615384615385,4,2,21,80,0,1
319300,-43.1034482758621,4,2,26,80,0,1
319525,-43.1034482758621,4,2,31,80,0,1
319675,-43.1034482758621,4,2,30,80,0,1
319900,-43.1034482758621,4,2,28,80,0,1
320050,-43.1034482758621,4,2,23,80,0,1
320125,-43.1034482758621,4,2,25,80,0,1
320200,-43.1034482758621,4,2,28,80,0,1
320350,-43.1034482758621,4,2,20,80,0,1
320500,-43.1034482758621,4,2,34,80,0,1
320650,-36.7647058823529,4,2,1,80,0,1
320725,-36.7647058823529,4,2,35,80,0,1
320875,-36.7647058823529,4,2,37,80,0,1
321025,-36.7647058823529,4,2,39,80,0,1
321250,-36.7647058823529,4,2,27,80,0,1
321400,-133.333333333333,4,2,32,80,0,0
321475,-133.333333333333,4,2,33,50,0,0
321700,-32.8947368421053,4,2,22,80,0,1
321925,-37.593984962406,4,2,23,80,0,1
322075,-37.593984962406,4,2,26,80,0,1
322300,-36.231884057971,4,2,28,80,0,1
322600,-38.1679389312977,4,2,33,80,0,1
322900,-40.983606557377,4,2,22,80,0,1
323125,-45.045045045045,4,2,23,80,0,1
323275,-45.045045045045,4,2,26,80,0,1
323500,-38.1679389312977,4,2,38,80,0,1
323800,-38.1679389312977,4,2,36,80,0,1
324100,-35.4609929078014,4,2,32,80,0,1
324325,-35.4609929078014,4,2,27,80,0,1
324475,-36.7647058823529,4,2,26,80,0,1
324700,-36.7647058823529,4,2,33,80,0,1
325000,-36.7647058823529,4,2,34,80,0,1
325150,-36.7647058823529,4,2,20,80,0,1
325300,-36.7647058823529,4,2,26,80,0,1
325525,-36.7647058823529,4,2,27,80,0,1
325675,-36.7647058823529,4,2,32,80,0,1
325900,-36.7647058823529,4,2,22,80,0,1
326050,-36.7647058823529,4,2,24,80,0,1
326200,-36.7647058823529,4,2,21,80,0,0
326500,-36.7647058823529,4,2,26,80,0,0
326725,-40.983606557377,4,2,31,80,0,0
326875,-40.983606557377,4,2,34,80,0,0
327100,-111.111111111111,4,2,2,100,0,1
327118,-111.111111111111,4,2,2,5,0,1
327137,-111.111111111111,4,2,2,100,0,1
327155,-111.111111111111,4,2,2,5,0,1
327175,-111.111111111111,4,2,2,100,0,1
327193,-111.111111111111,4,2,2,5,0,1
327212,-111.111111111111,4,2,2,100,0,1
327230,-111.111111111111,4,2,2,5,0,1
327250,-111.111111111111,4,2,2,100,0,1
327268,-111.111111111111,4,2,2,5,0,1
327287,-111.111111111111,4,2,2,100,0,1
327305,-111.111111111111,4,2,2,5,0,1
327325,-111.111111111111,4,2,2,100,0,1
327343,-111.111111111111,4,2,2,5,0,1
327400,-45.045045045045,4,2,21,80,0,0
327700,-45.045045045045,4,2,26,80,0,0
327850,-39.2156862745098,4,2,31,80,0,0
328075,-42.9184549356223,4,2,34,80,0,0
328300,-100,4,2,2,80,0,1
328600,-333.333333333333,4,2,1,70,0,0
329200,-34.2465753424658,4,2,1,10,0,0
329425,-333.333333333333,4,2,1,10,0,0
329500,-20.7900207900208,4,2,1,10,0,0
329725,-333.333333333333,4,2,1,10,0,0
329800,-13.4408602150538,4,2,1,30,0,0
330025,-333.333333333333,4,2,1,30,0,0
330062,-10.7758620689655,4,2,1,30,0,0
330325,-14.0449438202247,4,2,1,30,0,0
330400,-10,4,2,1,50,0,0
330600,-10,4,2,1,50,0,0
330700,-1000,4,2,1,10,0,0
330925,-250,4,2,1,5,0,0
331000,-40,4,2,33,80,0,1
331300,-40,4,2,22,80,0,1
331525,-40,4,2,23,80,0,1
331675,-40,4,2,26,80,0,1
331900,-40,4,2,28,80,0,1
332200,-40,4,2,33,80,0,1
332500,-40,4,2,22,80,0,1
332725,-45.045045045045,4,2,23,80,0,1
332875,-45.045045045045,4,2,26,80,0,1
333100,-40,4,2,38,80,0,1
333400,-40,4,2,36,80,0,1
333700,-40,4,2,32,80,0,1
333925,-40,4,2,27,80,0,1
334075,-40,4,2,26,80,0,1
334300,-40,4,2,33,80,0,1
334600,-57.1428571428571,4,2,34,80,0,1
334750,-42.3728813559322,4,2,20,80,0,1
334900,-40,4,2,26,80,0,1
335125,-40,4,2,27,80,0,1
335275,-40,4,2,32,80,0,1
335500,-40,4,2,22,80,0,1
335650,-40,4,2,24,80,0,1
335800,-50,4,2,21,80,0,1
336100,-40,4,2,26,80,0,1
336325,-40,4,2,31,80,0,1
336475,-40,4,2,34,80,0,1
336700,-40,4,2,29,80,0,1
337000,-40,4,2,21,80,0,1
337300,-40,4,2,26,80,0,1
337525,-40,4,2,31,80,0,1
337675,-40,4,2,34,80,0,1
337900,-40,4,2,29,80,0,1
338200,-50,4,2,21,80,0,1
338350,-50,4,2,26,80,0,1
338725,-50,4,2,32,80,0,1
338800,-44.4444444444445,4,2,1,80,0,1
339100,-40,4,2,28,80,0,1
339250,-40,4,2,23,80,0,1
339325,-40,4,2,25,80,0,1
339400,-40,4,2,28,80,0,1
339550,-40,4,2,20,80,0,1
339700,-33.3333333333333,4,2,34,80,0,1
339925,-40,4,2,35,80,0,1
340075,-40,4,2,37,80,0,1
340225,-128.205128205128,4,2,39,50,0,1
340450,-25,4,2,27,80,0,1
340600,-36.3636363636364,4,2,33,80,0,1
340900,-36.3636363636364,4,2,22,80,0,1
341125,-36.3636363636364,4,2,23,80,0,1
341275,-36.3636363636364,4,2,26,80,0,1
341500,-36.3636363636364,4,2,28,80,0,1
341800,-36.3636363636364,4,2,33,80,0,1
342100,-36.3636363636364,4,2,22,80,0,1
342325,-36.3636363636364,4,2,23,80,0,1
342475,-36.3636363636364,4,2,26,80,0,1
342700,-36.3636363636364,4,2,38,80,0,1
343000,-36.3636363636364,4,2,36,80,0,1
343300,-36.3636363636364,4,2,32,80,0,1
343525,-36.3636363636364,4,2,27,80,0,1
343675,-36.3636363636364,4,2,26,80,0,1
343900,-36.3636363636364,4,2,33,80,0,1
344200,-42.3728813559322,4,2,34,80,0,1
344350,-31.4465408805031,4,2,20,80,0,1
344500,-31.25,4,2,26,80,0,1
344725,-36.3636363636364,4,2,27,80,0,1
344875,-36.3636363636364,4,2,32,80,0,1
345100,-100,4,2,22,80,0,1
345250,-100,4,2,24,80,0,1
345400,-33.3333333333333,4,2,1,80,0,1
345700,-33.3333333333333,4,2,26,80,0,1
345925,-33.3333333333333,4,2,31,80,0,1
346075,-33.3333333333333,4,2,34,80,0,1
346300,-285.714285714286,4,2,29,80,0,1
346600,-50,4,2,21,80,0,1
346900,-50,4,2,26,80,0,1
347125,-50,4,2,31,80,0,1
347275,-50,4,2,34,80,0,1
347500,-142.857142857143,4,2,29,80,0,1
347800,-62.5,4,2,21,80,0,1
348025,-62.5,4,2,26,80,0,1
348325,-62.5,4,2,31,80,0,1
348475,-62.5,4,2,30,80,0,1
348700,-500,4,2,29,80,0,1
349000,-57.8034682080925,4,2,21,80,0,1
349300,-57.8034682080925,4,2,26,80,0,1
349525,-57.8034682080925,4,2,31,80,0,1
349675,-57.8034682080925,4,2,30,80,0,1
349900,-10,4,2,29,80,0,1
349918,-10,4,2,1,20,0,1
350200,-50,4,2,21,80,0,1
350237,-50,4,2,21,60,0,1
350500,-50,4,2,26,80,0,1
350725,-50,4,2,31,80,0,1
350800,-50,4,2,1,80,0,1
350875,-50,4,2,30,80,0,1
350912,-50,4,2,30,60,0,1
351100,-45.4545454545455,4,2,28,80,0,1
351250,-45.4545454545455,4,2,23,80,0,1
351325,-45.4545454545455,4,2,25,80,0,1
351400,-45.4545454545455,4,2,28,80,0,1
351437,-45.4545454545455,4,2,28,50,0,1
351550,-45.4545454545455,4,2,20,80,0,1
351587,-45.4545454545455,4,2,20,50,0,1
351700,-40,4,2,34,80,0,1
352000,-200,4,2,1,80,0,0
352075,-200,4,2,1,50,0,0
352225,-80,4,2,1,50,0,0
352450,-400,4,2,1,80,0,0
352600,-169.491525423729,4,2,4,90,0,0
352637,-169.491525423729,4,2,4,20,0,0
355900,-151.515151515152,4,2,5,20,0,0
355975,-151.515151515152,4,2,6,25,0,0
356050,-333.333333333333,4,2,7,30,0,0
356125,-333.333333333333,4,2,8,30,0,0
356200,-333.333333333333,4,2,9,40,0,0
356350,-333.333333333333,4,2,10,40,0,0
356500,-333.333333333333,4,2,11,40,0,0
356650,-333.333333333333,4,2,12,50,0,0
356800,-333.333333333333,4,2,13,40,0,0
356950,-333.333333333333,4,2,14,40,0,0
357100,-333.333333333333,4,2,15,40,0,0
357250,-333.333333333333,4,2,16,40,0,0
357400,-333.333333333333,4,2,17,50,0,0
357550,-333.333333333333,4,2,18,30,0,0
357700,-333.333333333333,4,2,19,30,0,0
357850,-333.333333333333,4,2,20,50,0,0
358600,-333.333333333333,4,2,21,40,0,0
358750,-333.333333333333,4,2,22,30,0,0
358900,-333.333333333333,4,2,23,30,0,0
359050,-400,4,2,24,50,0,0
359500,-400,4,2,25,40,0,0
359800,-400,4,2,26,40,0,0
359950,-400,4,2,27,30,0,0
360100,-400,4,2,28,30,0,0
360250,-333.333333333333,4,2,29,50,0,0
360700,-333.333333333333,4,2,30,20,0,0
360775,-333.333333333333,4,2,31,25,0,0
360850,-250,4,2,32,30,0,0
360925,-250,4,2,33,35,0,0
361000,-250,4,2,34,40,0,0
361150,-250,4,2,34,20,0,0
361300,-250,4,2,35,20,0,0
361450,-250,4,2,36,20,0,0
361600,-250,4,2,37,50,0,0
361750,-250,4,2,39,30,0,0
361900,-500,4,2,40,60,0,0
362050,-500,4,2,41,30,0,0
362200,-500,4,2,42,60,0,0
362350,-250,4,2,43,30,0,0
362500,-250,4,2,44,30,0,0
362650,-250,4,2,45,50,0,0
363400,-250,4,2,46,50,0,0
363550,-250,4,2,47,30,0,0
363700,-250,4,2,48,30,0,0
363850,-250,4,2,49,40,0,0
364000,-250,4,2,50,60,0,0
364150,-250,4,2,51,60,0,0
364300,-250,4,2,52,60,0,0
364450,-250,4,2,53,60,0,0
364600,-250,4,2,54,40,0,0
364750,-250,4,2,55,60,0,0
364900,-250,4,2,56,60,0,0
365050,-250,4,2,57,40,0,0
365500,-250,4,2,58,20,0,0
365575,-250,4,2,59,25,0,0
365650,-250,4,2,60,30,0,0
365725,-250,4,2,61,35,0,0
365800,-250,4,2,62,40,0,0
365950,-250,4,2,63,40,0,0
366100,-250,4,2,64,40,0,0
366250,-250,4,2,65,30,0,0
366400,-250,4,2,66,60,0,0
366550,-250,4,2,67,40,0,0
366700,-250,4,2,68,20,0,0
367000,-250,4,2,69,60,0,0
367150,-250,4,2,70,40,0,0
367300,-250,4,2,71,40,0,0
367450,-250,4,2,72,50,0,0
367900,-250,4,2,73,60,0,0
368050,-250,4,2,74,70,0,0
368200,-250,4,2,75,50,0,0
368350,-250,4,2,76,40,0,0
368500,-250,4,2,77,40,0,0
368650,-250,4,2,78,60,0,0
368950,-250,4,2,79,70,0,0
369100,-250,4,2,80,70,0,0
369250,-250,4,2,81,70,0,0
369400,-250,4,2,82,50,0,0
371650,-250,4,2,82,5,0,0
371800,-333.333333333333,4,2,2,28,0,0
373000,-333.333333333333,4,2,2,24,0,0
374200,-333.333333333333,4,2,2,20,0,0
376600,-333.333333333333,4,2,2,28,0,0
377800,-333.333333333333,4,2,2,24,0,0
379000,-333.333333333333,4,2,2,20,0,0
381400,-500,4,2,2,26,0,0
382600,-500,4,2,2,22,0,0
383800,-500,4,2,2,18,0,0
386200,-500,4,2,2,26,0,0
387400,-500,4,2,2,22,0,0
388600,-500,4,2,2,18,0,0
390100,-500,4,2,2,15,0,0
390400,-500,4,2,2,10,0,0
391000,-270.27027027027,4,2,2,10,0,0
406047,-5,4,2,2,5,0,0

[Colours]
Combo1 : 2,255,122
Combo2 : 231,241,237
Combo3 : 166,215,197
Combo4 : 255,218,91
Combo5 : 253,139,64
Combo6 : 68,227,255
Combo7 : 78,68,253

[HitObjects]
219,154,104200,6,0,B|241:114|241:114|325:103,1,78.7500030040742
255,138,104275,2,0,B|299:125|299:125|367:175,1,78.7500030040742
292,153,104350,2,0,B|333:174|333:174|347:257,1,78.7500030040742
308,189,104425,2,0,B|324:233|324:233|275:302,1,78.7500030040742
295,227,104500,2,0,B|276:268|276:268|193:285,1,78.7500030040742
259,244,104575,2,0,B|217:261|217:261|145:215,1,78.7500030040742
222,232,104650,2,0,B|179:215|179:215|160:132,1,78.7500030040742
203,197,104725,2,0,B|185:155|185:155|228:82,1,78.7500030040742
205,160,104800,2,0,B|191:203|191:203|111:231,1,78.7500030040742
172,182,104875,2,0,B|132:204|132:204|55:169,1,78.7500030040742
132,175,104950,2,0,B|87:163|87:163|56:84,1,91.8750008761883
109,143,105025,2,0,B|85:103|85:103|117:25,1,93.1875003554821
114,104,105100,2,0,B|124:59|124:59|201:25,1,94.499997116089
146,79,105175,2,0,B|184:54|184:54|263:83,1,95.8124986293912
185,83,105250,2,0,B|229:91|229:91|266:168,1,97.1249996294975
211,113,105325,2,0,B|237:150|237:150|210:230,1,98.4375023469329
128,192,107800,6,8,B|192:160|192:160|288:192|288:192|320:128|320:128|288:64|288:64|352:0|352:0|448:64,1,514.499984298707,8|0,0:0|0:0,0:0:0:0:
338,315,108100,2,0,L|332:211,1,65.625
223,156,108175,1,0,0:0:0:0:
226,221,108212,1,0,0:0:0:0:
225,299,108250,1,0,0:0:0:0:
195,275,108325,1,0,0:0:0:0:
115,304,108400,2,0,L|163:126,1,131.25
372,211,108550,1,0,0:0:0:0:
410,182,108625,1,0,0:0:0:0:
374,271,108775,1,0,0:0:0:0:
325,200,108850,1,0,0:0:0:0:
371,102,108925,1,0,0:0:0:0:
268,192,109000,1,0,0:0:0:0:
248,109,109150,1,0,0:0:0:0:
173,171,109225,1,0,0:0:0:0:
184,306,109375,1,0,0:0:0:0:
243,294,109450,1,0,0:0:0:0:
80,336,109525,1,0,0:0:0:0:
42,326,109600,2,0,L|167:165,1,120.750002303124
229,164,109750,6,0,B|245:135|245:135|305:127,1,60.3750011515618
255,152,109825,2,0,B|287:143|287:143|336:179,1,60.3750011515618
282,164,109900,6,0,B|312:179|312:179|322:239,1,60.3750011515618
295,189,109975,2,0,B|305:221|305:221|271:271,1,60.3750011515618
284,217,110050,6,0,B|270:247|270:247|210:259,1,60.3750011515618
259,230,110125,2,0,B|228:242|228:242|176:209,1,60.3750011515618
18,272,110200,6,0,B|225:77|225:77|237:102,1,293.999991027832
338,315,110500,2,0,L|332:211,1,65.625
223,156,110575,1,0,0:0:0:0:
226,221,110612,1,0,0:0:0:0:
225,299,110650,1,0,0:0:0:0:
195,275,110725,1,0,0:0:0:0:
115,304,110800,2,0,L|163:126,1,131.25
372,211,110950,1,0,0:0:0:0:
410,182,111025,1,0,0:0:0:0:
374,271,111175,1,0,0:0:0:0:
317,222,111250,6,0,L|325:173,1,40.9500013746644
271,274,111475,1,0,0:0:0:0:
287,303,111550,1,0,0:0:0:0:
289,291,111625,1,0,0:0:0:0:
229,200,111775,1,0,0:0:0:0:
229,200,111850,1,0,0:0:0:0:
234,203,111925,1,0,0:0:0:0:
312,183,112000,1,0,0:0:0:0:
310,73,112075,1,0,0:0:0:0:
254,177,112150,1,0,0:0:0:0:
94,133,112300,1,0,0:0:0:0:
259,121,112450,1,0,0:0:0:0:
352,224,112600,6,0,B|480:96|480:96|384:0|384:0|320:96|320:96|384:160,1,514.499984298707
174,69,112900,2,0,L|180:173,1,65.625
289,228,112975,1,0,0:0:0:0:
285,162,113012,1,0,0:0:0:0:
287,85,113050,1,0,0:0:0:0:
317,109,113125,1,0,0:0:0:0:
397,80,113200,2,0,L|349:258,1,131.25
140,173,113350,1,0,0:0:0:0:
102,202,113425,1,0,0:0:0:0:
138,113,113575,1,0,0:0:0:0:
187,184,113650,1,0,0:0:0:0:
141,282,113725,1,0,0:0:0:0:
244,192,113800,1,0,0:0:0:0:
264,275,113950,1,0,0:0:0:0:
339,213,114025,1,0,0:0:0:0:
328,78,114175,1,0,0:0:0:0:
269,90,114250,1,0,0:0:0:0:
432,48,114325,1,0,0:0:0:0:
470,58,114400,2,0,L|345:219,1,120.750002303124
282,219,114550,6,0,B|266:248|266:248|206:256,1,60.3750011515618
256,231,114625,2,0,B|224:240|224:240|175:204,1,60.3750011515618
229,219,114700,6,0,B|199:204|199:204|189:144,1,60.3750011515618
216,194,114775,2,0,B|206:162|206:162|240:112,1,60.3750011515618
227,166,114850,6,0,B|241:136|241:136|301:124,1,60.3750011515618
252,153,114925,2,0,B|283:141|283:141|335:174,1,60.3750011515618
494,112,115000,2,0,B|287:307|287:307|275:282,1,293.999991027832
174,69,115300,2,0,L|180:173,1,65.625
289,228,115375,1,0,0:0:0:0:
287,85,115450,1,0,0:0:0:0:
317,109,115525,1,0,0:0:0:0:
397,80,115600,2,0,L|349:258,1,131.25
256,288,115750,1,0,0:0:0:0:
224,96,115900,1,0,0:0:0:0:
32,224,116200,2,0,L|160:192,1,131.25
64,256,116425,2,0,L|289:256,1,196.875007510186
0,160,116650,2,0,L|256:224,1,262.5
36,118,116875,2,0,L|416:128,1,328.125
384,224,117100,1,0,0:0:0:0:
448,352,117250,1,0,0:0:0:0:
224,288,117400,2,0,L|224:160,1,118.125004506111
192,160,117700,6,0,B|384:96|384:96|352:320|352:320|448:320,1,420
195,275,117925,1,0,0:0:0:0:
115,304,118000,2,0,L|163:126,1,131.25
372,211,118150,1,0,0:0:0:0:
410,182,118225,1,0,0:0:0:0:
374,271,118375,1,0,0:0:0:0:
325,200,118450,1,0,0:0:0:0:
371,102,118525,1,0,0:0:0:0:
268,192,118600,1,0,0:0:0:0:
248,109,118750,1,0,0:0:0:0:
173,171,118825,1,0,0:0:0:0:
184,306,118975,1,0,0:0:0:0:
243,294,119050,1,0,0:0:0:0:
80,336,119125,1,0,0:0:0:0:
42,326,119200,2,0,L|167:165,1,120.750002303124
229,164,119350,6,0,B|245:135|245:135|305:127,1,60.3750011515618
255,152,119425,2,0,B|287:143|287:143|336:179,1,60.3750011515618
282,164,119500,6,0,B|312:179|312:179|322:239,1,60.3750011515618
295,189,119575,2,0,B|305:221|305:221|271:271,1,60.3750011515618
284,217,119650,6,0,B|270:247|270:247|210:259,1,60.3750011515618
259,230,119725,2,0,B|228:242|228:242|176:209,1,60.3750011515618
18,272,119800,6,0,B|225:77|225:77|237:102,1,293.999991027832
338,315,120100,2,0,L|332:211,1,65.625
223,156,120175,1,0,0:0:0:0:
226,221,120212,1,0,0:0:0:0:
225,299,120250,1,0,0:0:0:0:
195,275,120325,1,0,0:0:0:0:
115,304,120400,2,0,L|163:126,1,131.25
372,211,120550,1,0,0:0:0:0:
410,182,120625,1,0,0:0:0:0:
374,271,120775,1,0,0:0:0:0:
317,222,120850,6,0,L|325:173,1,40.9500013746644
271,274,121075,1,0,0:0:0:0:
287,303,121150,1,0,0:0:0:0:
289,291,121225,1,0,0:0:0:0:
229,200,121375,1,0,0:0:0:0:
229,200,121450,1,0,0:0:0:0:
234,203,121525,1,0,0:0:0:0:
312,183,121600,1,0,0:0:0:0:
310,73,121675,1,0,0:0:0:0:
254,177,121750,1,0,0:0:0:0:
94,133,121900,1,0,0:0:0:0:
259,121,122050,1,0,0:0:0:0:
352,224,122200,6,0,B|480:96|480:96|384:0|384:0|320:96|320:96|384:160,1,514.499984298707
174,69,122500,2,0,L|180:173,1,65.625
289,228,122575,1,0,0:0:0:0:
285,162,122612,1,0,0:0:0:0:
287,85,122650,1,0,0:0:0:0:
317,109,122725,1,0,0:0:0:0:
397,80,122800,2,0,L|349:258,1,131.25
140,173,122950,1,0,0:0:0:0:
102,202,123025,1,0,0:0:0:0:
244,192,123400,1,0,0:0:0:0:
264,275,123550,1,0,0:0:0:0:
339,213,123625,1,0,0:0:0:0:
320,160,148600,5,0,0:0:0:0:
320,224,148750,1,0,0:0:0:0:
352,192,148900,1,0,0:0:0:0:
416,192,149200,1,0,0:0:0:0:
416,192,149350,1,0,0:0:0:0:
224,192,186400,6,0,L|219:130,1,52.4999465942926
128,320,186700,6,8,B|192:224|192:224|288:320|288:320|352:224|352:224|288:160|288:160|352:64|352:64|480:160,1,630,8|0,0:0|0:0,0:0:0:0:
384,256,187000,1,0,0:0:0:0:
317,164,201700,5,0,0:0:0:0:
317,164,201775,1,0,0:0:0:0:
317,164,201812,1,0,0:0:0:0:
317,164,201850,1,0,0:0:0:0:
291,265,201925,1,0,0:0:0:0:
367,265,202000,1,0,0:0:0:0:
383,233,202150,1,0,0:0:0:0:
417,239,202225,1,0,0:0:0:0:
188,202,202300,5,0,0:0:0:0:
208,204,202375,1,0,0:0:0:0:
226,208,202450,1,0,0:0:0:0:
228,229,202525,1,0,0:0:0:0:
298,216,202600,1,0,0:0:0:0:
314,248,202750,1,0,0:0:0:0:
348,242,202825,1,0,0:0:0:0:
379,176,202900,5,0,0:0:0:0:
359,174,202975,1,0,0:0:0:0:
341,170,203050,1,0,0:0:0:0:
339,149,203125,1,0,0:0:0:0:
269,162,203200,1,0,0:0:0:0:
253,130,203275,1,0,0:0:0:0:
232,130,203350,1,0,0:0:0:0:
216,98,203425,1,0,0:0:0:0:
164,13,203500,6,0,L|165:40,4,19.6875007510186
159,76,203650,6,0,L|160:64,4,6.5625
207,224,203800,6,0,L|211:171,4,36.0937503442168
357,67,203950,6,0,L|352:119,4,36.0937503442168
195,220,204100,5,0,0:0:0:0:
195,220,204175,1,0,0:0:0:0:
195,220,204212,1,0,0:0:0:0:
195,220,204250,1,0,0:0:0:0:
221,119,204325,1,0,0:0:0:0:
145,119,204400,1,0,0:0:0:0:
129,151,204550,1,0,0:0:0:0:
95,145,204625,1,0,0:0:0:0:
324,182,204700,5,0,0:0:0:0:
288,192,204775,1,0,0:0:0:0:
256,192,204850,2,0,L|261:249,1,40.9500013746644
288,288,205075,1,0,0:0:0:0:
288,288,205150,1,0,0:0:0:0:
288,288,205225,1,0,0:0:0:0:
288,288,205300,1,0,0:0:0:0:
64,224,205375,1,0,0:0:0:0:
64,224,205450,2,0,L|128:256,1,37.8000009228516
224,224,205600,1,0,0:0:0:0:
224,64,205750,1,0,0:0:0:0:
320,160,205900,1,0,0:0:0:0:
353,308,206050,6,0,L|352:320,1,6.5625
416,128,206125,6,0,L|415:116,1,6.5625
305,160,206200,6,0,L|300:212,4,36.0937503442168
155,317,206350,6,0,L|159:264,4,36.0937503442168
137,118,206500,2,0,B|146:81|146:81|210:53,1,65.625,8|0,0:0|0:0,0:0:0:0:
164,97,206575,2,2,B|196:77|196:77|262:101,1,65.625
196,101,206650,2,0,B|234:108|234:108|264:172,1,65.625,8|0,0:0|0:0,0:0:0:0:
218,126,206725,2,0,B|240:157|240:157|218:224,1,65.625,8|0,0:0|0:0,0:0:0:0:
212,154,206800,1,0,0:0:0:0:
220,212,206950,1,0,0:0:0:0:
218,316,207025,1,0,0:0:0:0:
373,179,207100,1,0,0:0:0:0:
373,179,207175,1,0,0:0:0:0:
373,179,207250,1,0,0:0:0:0:
373,179,207325,1,0,0:0:0:0:
337,240,207400,1,0,0:0:0:0:
266,64,207550,1,0,0:0:0:0:
314,90,207625,1,0,0:0:0:0:
387,97,207700,1,0,0:0:0:0:
387,97,207775,1,0,0:0:0:0:
387,97,207850,1,0,0:0:0:0:
387,97,207925,1,0,0:0:0:0:
178,222,208000,2,0,B|257:154|257:154|272:217|272:217|306:226|306:226|330:246|330:246|244:363,1,262.5
196,333,208300,1,0,0:0:0:0:
70,269,208600,5,0,0:0:0:0:
200,254,208675,1,0,0:0:0:0:
330,239,208750,1,0,0:0:0:0:
70,115,208900,5,0,0:0:0:0:
200,129,208975,1,0,0:0:0:0:
330,144,209050,1,0,0:0:0:0:
178,20,209200,5,0,0:0:0:0:
193,150,209275,1,0,0:0:0:0:
208,280,209350,1,0,0:0:0:0:
330,384,209500,6,0,L|286:44,1,293.999991027832
144,130,209800,2,0,L|273:92,1,105
153,250,210025,2,0,B|276:295|276:295|282:212,1,157.500006008148
153,133,210250,2,0,B|267:80|276:88|276:88|354:114|354:114|282:171,1,210
429,298,210475,2,0,B|476:51|476:51|399:129,1,262.5
12,260,210700,2,0,L|239:157,1,157.500006008148
474,160,210850,2,0,B|368:115|368:115|247:57,1,183.750001752377
237,188,211000,1,0,0:0:0:0:
317,296,211150,1,0,0:0:0:0:
64,256,211300,2,4,L|96:256,3,26.25,4|4|4|4,3:0|3:0|3:0|3:0,3:0:0:0:
338,245,211600,5,8,1:0:0:0:
256,160,211750,1,8,1:0:0:0:
256,160,211825,1,8,1:0:0:0:
192,256,211900,1,8,1:0:0:0:
192,256,211975,1,8,1:0:0:0:
160,128,212050,1,8,1:0:0:0:
160,192,212125,1,8,1:0:0:0:
256,96,212200,6,8,L|288:96,1,20.4750006873322,8|8,1:0|1:0,1:0:0:0:
224,160,212350,2,8,L|277:158,1,39.3750015020371,8|8,1:0|1:0,1:0:0:0:
160,192,212500,1,8,1:0:0:0:
160,192,212537,1,8,1:0:0:0:
160,192,212575,1,8,1:0:0:0:
160,192,212650,1,8,1:0:0:0:
160,192,212725,1,8,1:0:0:0:
192,256,212800,6,2,L|384:256,1,157.500006008148,2|2,1:0|1:0,1:0:0:0:
320,128,213100,2,2,B|192:160|192:160|96:160,1,210,2|2,1:0|1:0,1:0:0:0:
160,32,213400,6,8,L|192:128,1,84,8|8,1:0|1:0,1:0:0:0:
192,160,213587,1,8,1:0:0:0:
192,192,213625,1,8,1:0:0:0:
192,224,213662,1,8,1:0:0:0:
192,256,213700,5,8,1:0:0:0:
416,320,213775,1,8,1:0:0:0:
384,128,213850,1,12,3:0:0:0:
320,192,213925,1,4,3:0:0:0:
270,214,290200,6,0,L|470:71,1,210
483,65,290425,1,0,0:0:0:0:
230,197,290500,6,0,L|430:54,1,210
443,48,290725,1,0,0:0:0:0:
211,174,290800,6,0,L|411:31,1,210
424,25,291025,1,0,0:0:0:0:
171,157,291100,6,0,L|371:14,1,210
384,8,291325,1,0,0:0:0:0:
270,170,291400,6,0,L|470:313,1,210
483,319,291625,1,0,0:0:0:0:
230,187,291700,6,0,L|430:330,1,210
443,336,291925,1,0,0:0:0:0:
211,210,292000,6,0,L|411:353,1,210
424,359,292225,1,0,0:0:0:0:
171,227,292300,6,0,L|371:370,1,210
384,376,292525,5,0,0:0:0:0:
341,349,292600,2,0,L|171:227,1,210
424,359,292825,5,0,0:0:0:0:
381,332,292900,2,0,L|211:210,1,210
443,336,293125,5,0,0:0:0:0:
400,309,293230,2,0,L|230:187,1,210
483,319,293425,5,0,0:0:0:0:
440,292,293500,2,0,L|270:170,1,210
384,8,293725,5,0,0:0:0:0:
128,192,311800,6,8,B|192:160|192:160|288:192|288:192|320:128|320:128|288:64|288:64|352:0|352:0|448:64,1,477.749978130342,8|0,0:0|0:0,0:0:0:0:
448,96,312100,2,0,L|448:288,1,129.150001970673
384,288,312250,2,8,B|416:256|416:256|416:192|352:224,1,129.150001970673
160,288,312400,6,0,P|128:256|160:160,1,129.150001970673,12|0,0:0|0:0,0:0:0:0:
249,97,312550,2,0,L|224:224,1,129.150001970673,8|0,0:0|0:0,0:0:0:0:
160,288,312700,6,0,P|192:320|288:288,1,129.150001970673,8|0,0:0|0:0,0:0:0:0:
350,198,312850,2,0,L|224:224,1,129.150001970673
384,192,313000,6,8,B|320:288|224:192|224:192|192:256|224:320|224:320|128:256|64:320,1,434.7000006633,8|0,0:0|0:0,0:0:0:0:
64,288,313300,2,0,L|64:96,1,129.150001970673
127,96,313450,2,8,B|95:128|95:128|95:192|159:160,1,129.150001970673
128,32,313600,6,0,B|160:64|160:64|128:160,1,129.150001970673,12|0,0:0|0:0,0:0:0:0:
38,223,313750,2,0,P|63:160|63:96,1,129.150001970673,8|0,0:0|0:0,0:0:0:0:
328,8,313900,6,12,B|387:50|354:125|354:125|289:118|245:166|245:166|303:237|297:302,1,377.999988464356,12|4,0:0|0:0,0:0:0:0:
328,376,314200,6,12,B|387:334|354:259|354:259|289:266|245:218|245:218|303:147|297:82,1,377.999988464356,12|4,0:0|0:0,0:0:0:0:
288,64,314500,6,8,B|224:160|224:160|128:64|96:128|96:128|125:188|125:188|128:192|32:128|-32:192,1,472.500018024445,12|0,0:0|0:0,0:0:0:0:
132,287,314800,2,0,B|214:302|214:302|184:219|184:219|256:193|256:193|319:237|319:237|334:145,1,371.699986955109
328,376,315100,6,12,B|387:334|354:259|354:259|289:266|245:218|245:218|303:147|297:82,1,377.999988464356,12|4,0:0|0:0,0:0:0:0:
205,31,315400,6,12,B|264:73|231:148|231:148|166:141|122:189|122:189|180:260|174:325,1,315,12|4,0:0|0:0,0:0:0:0:
191,349,315550,6,0,B|250:307|217:232|217:232|152:239|108:191|108:191|166:120|160:55,1,315,0|8,0:0|0:0,0:0:0:0:
108,112,315700,2,0,B|231:124|231:124|261:214|269:186|269:186|336:178|336:178,1,226.800005537109
387,241,315925,1,0,0:0:0:0:
389,157,316000,1,0,0:0:0:0:
94,246,316075,2,0,B|327:269|327:269|340:203,1,258.300003941345
0,192,321400,5,0,0:0:0:0:
0,192,321550,5,0,0:0:0:0:
256,192,321625,5,0,0:0:0:0:
512,192,321700,5,0,0:0:0:0:
384,256,326200,5,10,3:0:0:0:
320,160,326500,1,10,3:0:0:0:
192,224,326725,1,10,3:0:0:0:
192,224,326875,1,10,3:0:0:0:
320,320,327025,1,10,3:0:0:0:
320,256,327100,2,10,L|320:96,1,141.749995674133,10|10,3:0|3:0,3:0:0:0:
448,128,327400,1,10,3:0:0:0:
416,224,327550,1,10,3:0:0:0:
192,288,327700,1,10,3:0:0:0:
416,224,327850,1,10,3:0:0:0:
382,297,327925,1,10,3:0:0:0:
322,297,328075,1,10,3:0:0:0:
256,154,328225,1,10,3:0:0:0:
256,256,328300,1,10,3:0:0:0:
196,236,328400,1,10,3:0:0:0:
196,173,328450,1,10,3:0:0:0:
256,154,328550,1,10,3:0:0:0:
296,199,328600,2,10,B|303:102|303:102|323:170|323:170|352:154|352:154|363:119|363:119|371:126|371:126|383:113|383:113|399:139|387:167|387:167|411:180|411:180|459:224,1,409.499987503052,10|10,3:0|3:0,3:0:0:0:
139,200,330700,6,0,L|145:185,1,15.75
384,160,331000,2,0,B|320:128|320:128|256:160|256:160|288:224|288:224|256:288|256:288|320:288|320:288|352:320|320:352|320:352|256:352|256:352,1,459.375
160,320,331300,2,0,L|160:192,1,65.625
160,254,345100,5,0,0:0:0:0:
256,96,345175,1,0,0:0:0:0:
352,256,345250,1,0,0:0:0:0:
256,192,345325,1,0,0:0:0:0:
160,254,345400,2,4,B|288:190|512:254|512:254|512:382,1,472.500018024445,4|0,0:0|0:0,0:0:0:0:
160,256,345700,5,8,0:0:0:0:
256,98,345775,1,0,0:0:0:0:
352,258,345850,1,0,0:0:0:0:
256,192,345925,2,0,L|256:32,1,157.500006008148
256,66,346075,1,8,0:0:0:0:
352,226,346150,1,0,0:0:0:0:
256,162,346225,1,0,0:0:0:0:
160,192,346300,5,0,0:0:0:0:
256,34,346375,1,0,0:0:0:0:
352,194,346450,1,0,0:0:0:0:
256,130,346525,1,0,0:0:0:0:
192,256,346600,2,2,L|224:224,16,26.25
