osu file format v14

[General]
AudioFilename: audio.mp3
AudioLeadIn: 0
PreviewTime: 311680
Countdown: 0
SampleSet: Normal
StackLeniency: 0.2
Mode: 1
LetterboxInBreaks: 0
WidescreenStoryboard: 0

[Editor]
DistanceSpacing: 1.2
BeatDivisor: 4
GridSize: 8
TimelineZoom: 2.599999

[Metadata]
Title:Exit This Earth's Atomosphere (Camellia's ''PLANETARY//200STEP'' Remix)
TitleUnicode:Exit This Earth's Atomosphere (かめりあ's ''PLANETARY//200STEP'' Remix)
Artist:Camellia
ArtistUnicode:かめりあ
Creator:Axer
Version:Supernova Universalis
Source:
Tags:atmosphere electronic planet shaper cametek remix summary & vips 02 dnb drum and bass
BeatmapID:1747526
BeatmapSetID:834190

[Difficulty]
HPDrainRate:4
CircleSize:2
OverallDifficulty:7
ApproachRate:10
SliderMultiplier:1.4
SliderTickRate:1

[Events]
//Background and Video events
0,0,"newbg.jpg",0,0
//Break Periods
2,156030,158080
//Storyboard Layer 0 (Background)
//Storyboard Layer 1 (Fail)
//Storyboard Layer 2 (Pass)
//Storyboard Layer 3 (Foreground)
//Storyboard Sound Samples

[TimingPoints]
1030,300,4,1,0,20,1,0
1030,-200,4,1,0,20,0,0
26230,-153.846153846154,4,1,0,20,0,0
26380,-153.569492498898,4,1,0,20,0,0
26530,-153.293589415384,4,1,0,20,0,0
26680,-153.018910076907,4,1,0,20,0,0
26830,-152.744980036231,4,1,0,20,0,0
26980,-152.47226148383,4,1,0,20,0,0
27130,-152.200283396928,4,1,0,20,0,0
27280,-151.929504709815,4,1,0,20,0,0
27430,-151.659457787107,4,1,0,20,0,0
27580,-151.390598341062,4,1,0,20,0,0
27730,-151.122462087152,4,1,0,20,0,0
27880,-150.855501549286,4,1,0,20,0,0
28030,-150.58925575778,4,1,0,20,0,0
28180,-150.324174081407,4,1,0,20,0,0
28330,-150.059798829834,4,1,0,20,0,0
28480,-149.796576249453,4,1,0,20,0,0
28630,-149.534051894297,4,1,0,20,0,0
28780,-149.272668920684,4,1,0,20,0,0
28930,-149.011976092519,4,1,0,20,0,0
29080,-148.752413507909,4,1,0,20,0,0
29230,-148.493533106633,4,1,0,20,0,0
29380,-148.235771960018,4,1,0,20,0,0
29530,-147.978685150191,4,1,0,20,0,0
29680,-147.7227067527,4,1,0,20,0,0
29830,-147.467394958975,4,1,0,20,0,0
29980,-147.213180879363,4,1,0,20,0,0
30130,-146.959625782009,4,1,0,20,0,0
30280,-146.707157842231,4,1,0,20,0,0
30430,-146.455341372755,4,1,0,20,0,0
30580,-146.204601643632,4,1,0,20,0,0
30730,-145.954505980486,4,1,0,20,0,0
30880,-145.705476777461,4,1,0,20,0,0
31030,-145.457084341836,4,1,0,20,0,0
31180,-145.209748220818,4,1,0,20,0,0
31330,-144.963041672526,4,1,0,20,0,0
31480,-144.717381425814,4,1,0,20,0,0
31630,-144.472343659253,4,1,0,20,0,0
31780,-144.228342311548,4,1,0,20,0,0
31930,-143.98495645175,4,1,0,20,0,0
32080,-143.742597256241,4,1,0,20,0,0
32230,-143.500846654995,4,1,0,20,0,0
32380,-143.260113089533,4,1,0,20,0,0
32530,-143.01998132159,4,1,0,20,0,0
32680,-142.780857084929,4,1,0,20,0,0
32830,-142.542327944283,4,1,0,20,0,0
32980,-142.3047969524,4,1,0,20,0,0
33130,-142.067854448642,4,1,0,20,0,0
33280,-141.831900831135,4,1,0,20,0,0
33430,-141.596529185877,4,1,0,20,0,0
33580,-141.362137282426,4,1,0,20,0,0
33730,-141.128320925802,4,1,0,20,0,0
33880,-140.895475282707,4,1,0,20,0,0
34030,-140.663198849938,4,1,0,20,0,0
34180,-140.43188421672,4,1,0,20,0,0
34330,-140.201132544749,4,1,0,20,0,0
34480,-139.971333870823,4,1,0,20,0,0
34630,-139.742091995014,4,1,0,20,0,0
34780,-139.513794426424,4,1,0,20,0,0
34930,-139.286047577328,4,1,0,20,0,0
35080,-139.059236453544,4,1,0,20,0,0
35230,-138.832970053728,4,1,0,20,0,0
35380,-138.607630904512,4,1,0,20,0,0
35530,-138.382830565446,4,1,0,20,0,0
35680,-138.15894910777,4,1,0,20,0,0
35830,-137.935600626779,4,1,0,20,0,0
35980,-137.71316276181,4,1,0,20,0,0
36130,-137.491252119084,4,1,0,20,0,0
36280,-137.270243929223,4,1,0,20,0,0
36430,-137.04975728488,4,1,0,20,0,0
36580,-136.830165030862,4,1,0,20,0,0
36730,-136.611088722072,4,1,0,20,0,0
36880,-136.392898840115,4,1,0,20,0,0
37030,-136.175219378278,4,1,0,20,0,0
37180,-135.958418477293,4,1,0,20,0,0
37330,-135.742122545273,4,1,0,20,0,0
37480,-135.526697404122,4,1,0,20,0,0
37630,-135.311771853528,4,1,0,20,0,0
37780,-135.097709418337,4,1,0,20,0,0
37930,-134.884141266859,4,1,0,20,0,0
38080,-134.671428648384,4,1,0,20,0,0
38230,-134.459385870201,4,1,0,20,0,0
38380,-134.247829548216,4,1,0,20,0,0
38530,-134.037117558594,4,1,0,20,0,0
38680,-133.826886892192,4,1,0,20,0,0
38830,-133.61749320221,4,1,0,20,0,0
38980,-133.408575770068,4,1,0,20,0,0
39130,-133.200488046588,4,1,0,20,0,0
39280,-132.992871582083,4,1,0,20,0,0
39430,-132.786077645331,4,1,0,20,0,0
39580,-132.579750034139,4,1,0,20,0,0
39730,-132.374237855326,4,1,0,20,0,0
39880,-132.169187133065,4,1,0,20,0,0
40030,-131.964944832055,4,1,0,20,0,0
40180,-131.761159181974,4,1,0,20,0,0
40330,-131.558175024996,4,1,0,20,0,0
40480,-131.355642775702,4,1,0,20,0,0
40630,-131.153905173103,4,1,0,20,0,0
40780,-130.952614796336,4,1,0,20,0,0
40930,-130.752112300374,4,1,0,20,0,0
41080,-130.552052408816,4,1,0,20,0,0
41230,-130.352773711495,4,1,0,20,0,0
41380,-130.153933056626,4,1,0,20,0,0
41530,-129.955866987571,4,1,0,20,0,0
41680,-129.758234457559,4,1,0,20,0,0
41830,-129.561369981926,4,1,0,20,0,0
41980,-129.364934599557,4,1,0,20,0,0
42130,-129.169260815988,4,1,0,20,0,0
42280,-128.974011736635,4,1,0,20,0,0
42430,-128.779517875241,4,1,0,20,0,0
42580,-128.585444384867,4,1,0,20,0,0
42730,-128.392119805255,4,1,0,20,0,0
42880,-128.199211318452,4,1,0,20,0,0
43030,-128.007045507785,4,1,0,20,0,0
43180,-127.815291565852,4,1,0,20,0,0
43330,-127.624274136941,4,1,0,20,0,0
43480,-127.433664405993,4,1,0,23,0,0
43630,-127.243785095426,4,1,0,26,0,0
43780,-127.054309364538,4,1,0,29,0,0
43930,-126.865558030844,4,1,0,31,0,0
44080,-126.677206210223,4,1,0,34,0,0
44230,-126.489572832064,4,1,0,37,0,0
44380,-126.302334951266,4,1,0,40,0,0
44530,-126.115809625663,4,1,0,43,0,0
44680,-125.929675831828,4,1,0,46,0,0
44830,-125.744248772422,4,1,0,49,0,0
44980,-125.559209328547,4,1,0,51,0,0
45130,-125.374870863883,4,1,0,54,0,0
45280,-125.190916147124,4,1,0,57,0,0
62080,-125,4,1,0,60,0,0
62380,-121.224904929368,4,1,0,61,0,0
62530,-119.421522146721,4,1,0,62,0,0
62830,-115.971072175756,4,1,0,63,0,0
63130,-112.71453803383,4,1,0,64,0,0
63280,-111.153843588757,4,1,0,66,0,0
63430,-109.635778978655,4,1,0,67,0,0
63580,-108.158738090371,4,1,0,68,0,0
63730,-106.720852400792,4,1,0,69,0,0
63880,-105.320696254059,4,1,0,70,0,0
64630,-100,4,1,0,80,0,0
67480,-100,4,1,0,20,0,0
68830,-100,4,1,0,60,0,0
72430,-125.007656718974,4,1,0,20,0,0
73630,-133.333333333333,4,1,0,80,0,0
73930,-114.45432185242,4,1,0,80,0,0
74230,-100.258365808689,4,1,0,80,0,0
77080,-100,4,1,0,20,0,0
78430,-100,4,1,0,60,0,0
81430,-100,4,1,0,20,0,0
86230,-95.2380952380952,4,1,0,80,0,0
95830,-95.2380952380952,4,1,0,80,0,0
95980,-95.096808551105,4,1,0,80,0,0
96055,-95.0262319913412,4,1,0,80,0,0
96130,-94.9558502774135,4,1,0,80,0,0
96280,-94.8153991586081,4,1,0,80,0,0
96430,-94.6752732801763,4,1,0,80,0,0
96505,-94.6054102942039,4,1,0,80,0,0
96580,-94.5356503390994,4,1,0,80,0,0
96730,-94.396349504372,4,1,0,80,0,0
96805,-94.3268974091231,4,1,0,80,0,0
96880,-94.2575474374672,4,1,0,80,0,0
97030,-94.1190643812048,4,1,0,80,0,0
97180,-93.9810759705426,4,1,0,80,0,0
97255,-93.9122333831694,4,1,0,80,0,0
97330,-93.8434035125586,4,1,0,80,0,0
97480,-93.7062216245848,4,1,0,80,0,0
97630,-93.5693526685044,4,1,0,80,0,0
97705,-93.5011117282184,4,1,0,80,0,0
97780,-93.4329702528109,4,1,0,80,0,0
97855,-93.364928024977,4,1,0,80,0,0
97930,-93.2968977848518,4,1,0,80,0,0
97980,-93.2516573150796,4,1,0,80,0,0
98030,-93.2064606990298,4,1,0,80,0,0
98080,-93.161307872969,4,1,0,80,0,0
98230,-93.0261114992367,4,1,0,80,0,0
98380,-92.8912206649525,4,1,0,80,0,0
98455,-92.8239649199672,4,1,0,80,0,0
98530,-92.7568064944606,4,1,0,80,0,0
98680,-92.6226949684573,4,1,0,80,0,0
98830,-92.4890562324213,4,1,0,80,0,0
98905,-92.4222959546761,4,1,0,80,0,0
98980,-92.3557172806783,4,1,0,80,0,0
99130,-92.2228472881872,4,1,0,80,0,0
99205,-92.1564706283505,4,1,0,80,0,0
99280,-92.0902742540458,4,1,0,80,0,0
99430,-91.9581663909454,4,1,0,80,0,0
99580,-91.8263526940015,4,1,0,80,0,0
99655,-91.7606295513272,4,1,0,80,0,0
99730,-91.695000421797,4,1,0,80,0,0
99880,-91.5639395568122,4,1,0,80,0,0
100030,-91.433336411589,4,1,0,80,0,0
100105,-91.3681744547376,4,1,0,80,0,0
100180,-91.3030219474204,4,1,0,80,0,0
100255,-91.2380455350838,4,1,0,80,0,0
100330,-91.1731615387842,4,1,0,80,0,0
100367,-91.140754135056,4,1,0,80,0,0
100480,-91.0435871173324,4,1,0,80,0,0
100517,-91.0112717460057,4,1,0,80,0,0
100630,-90.9090909090909,4,1,0,80,0,0
100705,-90.780347870293,4,1,0,80,0,0
100780,-90.6518867830456,4,1,0,80,0,0
100855,-90.5238706920821,4,1,0,80,0,0
100930,-90.3961339381437,4,1,0,80,0,0
101005,-90.2688386552832,4,1,0,80,0,0
101080,-90.1418201256036,4,1,0,80,0,0
101155,-90.0152395800609,4,1,0,80,0,0
101230,-89.8889332340959,4,1,0,80,0,0
101305,-89.7630614230677,4,1,0,80,0,0
101380,-89.6374612878214,4,1,0,80,0,0
101455,-89.5122922755367,4,1,0,80,0,0
101530,-89.38739244462,4,1,0,80,0,0
101567,-89.3251130409306,4,1,0,80,0,0
101680,-89.1387149941124,4,1,0,80,0,0
101717,-89.0767815133611,4,1,0,80,0,0
101830,-88.8914963727825,4,1,0,80,0,0
101905,-88.7683217816157,4,1,0,80,0,0
101980,-88.6455666579203,4,1,0,80,0,0
102055,-88.5230722109257,4,1,0,80,0,0
102130,-88.4009939807763,4,1,0,80,0,0
102205,-88.2791740600475,4,1,0,80,0,0
102280,-88.1577671400739,4,1,0,80,0,0
102355,-88.0366161894055,4,1,0,80,0,0
102430,-87.915875057475,4,1,0,80,0,0
102505,-87.795387581518,4,1,0,80,0,0
102580,-87.6753067758984,4,1,0,80,0,0
102655,-87.5554773393291,4,1,0,80,0,0
102730,-87.436051457865,4,1,0,80,0,0
102780,-87.3566150359953,4,1,0,80,0,0
102830,-87.2772466472446,4,1,0,80,0,0
102880,-87.1980983838704,4,1,0,80,0,0
103030,-86.9614369507842,4,1,0,80,0,0
103080,-86.8828601837572,4,1,0,80,0,0
103130,-86.8043499395842,4,1,0,80,0,0
103180,-86.7260566702745,4,1,0,80,0,0
103255,-86.6088812211159,4,1,0,80,0,0
103330,-86.491947167259,4,1,0,80,0,0
103405,-86.3754030492245,4,1,0,80,0,0
103480,-86.2590981783804,4,1,0,80,0,0
103555,-86.143180302845,4,1,0,80,0,0
103630,-86.0274995505063,4,1,0,80,0,0
103680,-85.950600751724,4,1,0,80,0,0
103730,-85.8738393077195,4,1,0,80,0,0
103780,-85.7971412392539,4,1,0,80,0,0
103855,-85.6824608002742,4,1,0,80,0,0
103930,-85.5680133075374,4,1,0,80,0,0
104005,-85.4539441695201,4,1,0,80,0,0
104080,-85.3401059241395,4,1,0,80,0,0
104155,-85.2266432122944,4,1,0,80,0,0
104230,-85.113481805291,4,1,0,80,0,0
104280,-85.0381353517985,4,1,0,80,0,0
104330,-84.9629943678031,4,1,0,80,0,0
104380,-84.8879860579972,4,1,0,80,0,0
104455,-84.7756497205795,4,1,0,80,0,0
104530,-84.6636819896643,4,1,0,80,0,0
104580,-84.5891294509743,4,1,0,80,0,0
104630,-84.5147795220689,4,1,0,80,0,0
104680,-84.4405601786762,4,1,0,80,0,0
104755,-84.3294041452962,4,1,0,80,0,0
104830,-84.2186113024745,4,1,0,80,0,0
104880,-84.1448401963268,4,1,0,80,0,0
104930,-84.0712688960686,4,1,0,80,0,0
104980,-83.9978261362596,4,1,0,80,0,0
105055,-83.8878319022069,4,1,0,80,0,0
105130,-83.7781955517129,4,1,0,80,0,0
105180,-83.7052637218039,4,1,0,80,0,0
105230,-83.6323888170115,4,1,0,80,0,0
105280,-83.5597105157389,4,1,0,80,0,0
105355,-83.4509296016303,4,1,0,80,0,0
105430,-83.3333333333333,4,1,0,40,0,0
105580,-85.0969679950303,4,1,0,42,0,0
105730,-86.936942027839,4,1,0,43,0,0
105880,-88.8581637105037,4,1,0,45,0,0
105955,-89.8510539079368,4,1,0,47,0,0
106030,-90.8663011418259,4,1,0,49,0,0
106105,-91.9047535895699,4,1,0,50,0,0
106180,-92.9672160409353,4,1,0,52,0,0
106330,-95.1676711614358,4,1,0,54,0,0
106480,-97.474722367622,4,1,0,56,0,0
106630,-100,4,1,0,57,0,0
106780,-97.5733507664387,4,1,0,59,0,0
106855,-96.4035684744906,4,1,0,61,0,0
106930,-95.261593097726,4,1,0,63,0,0
107080,-93.0569294377221,4,1,0,64,0,0
107155,-91.9923425574055,4,1,0,66,0,0
107305,-89.9347703110934,4,1,0,68,0,0
107380,-88.9401183970856,4,1,0,70,0,0
107455,-87.9671495476729,4,1,0,71,0,0
107530,-87.0153138250801,4,1,0,73,0,0
107605,-86.0838560058124,4,1,0,75,0,0
107680,-85.1721286133211,4,1,0,77,0,0
107755,-84.2795113136816,4,1,0,78,0,0
107830,-83.4053399434845,4,1,0,80,0,1
112630,-76.9230769230769,4,1,0,80,0,1
112930,-83.4053399434845,4,1,0,80,0,1
116230,-83.3333333333333,4,1,0,80,0,1
116455,-82.0578130115792,4,1,0,80,0,1
116680,-80.8207508894324,4,1,0,80,0,1
116905,-79.6204334695639,4,1,0,80,0,1
117130,-78.4553091099951,4,1,0,80,0,1
117280,-77.6972402717228,4,1,0,80,0,1
117430,-76.9537400287191,4,1,0,80,0,0
117730,-83.3333333333333,4,1,0,80,0,0
118030,-83.3333333333333,4,1,0,80,0,1
121630,-83.3333333333333,4,1,0,80,0,1
121780,-81.6498495193273,4,1,0,80,0,1
121855,-80.8333596041752,4,1,0,80,0,1
121930,-80.0329735851171,4,1,0,80,0,1
122005,-79.2483452945502,4,1,0,80,0,1
122080,-78.4789523373779,4,1,0,80,0,1
122155,-77.7243552376111,4,1,0,80,0,1
122230,-76.9841312610232,4,1,0,80,0,1
122530,-83.3333333333333,4,1,0,80,0,1
124630,-83.3333333333333,4,1,0,80,0,0
124780,-85.0939266762653,4,1,0,80,0,0
124855,-86.002344423909,4,1,0,80,0,0
124930,-86.9304426063485,4,1,0,80,0,0
125080,-88.8480582701105,4,1,0,80,0,0
125155,-89.8389457220042,4,1,0,80,0,0
125230,-90.8521018633766,4,1,0,80,0,0
125305,-91.8884547669893,4,1,0,80,0,0
125380,-92.9487239069695,4,1,0,80,0,0
125455,-94.0337468310627,4,1,0,80,0,0
125530,-95.2380952380952,4,1,0,80,0,0
125680,-94.1234051965532,4,1,0,80,0,0
125755,-93.5757444184408,4,1,0,80,0,0
125830,-93.0345064984603,4,1,0,80,0,0
125980,-91.9704296674533,4,1,0,80,0,0
126055,-91.4475507145254,4,1,0,80,0,0
126130,-90.9305009088503,4,1,0,80,0,0
126280,-89.9138265885975,4,1,0,80,0,0
126355,-89.4139274709986,4,1,0,80,0,0
126430,-88.9196353227916,4,1,0,80,0,0
126505,-88.4306999555193,4,1,0,80,0,0
126580,-87.9471121246527,4,1,0,80,0,0
126655,-87.4688610854536,4,1,0,80,0,0
126730,-86.9565217391304,4,1,0,80,0,0
126830,-85.7392480839422,4,1,0,80,0,0
126930,-84.555655800983,4,1,0,80,0,0
127030,-83.4042269262206,4,1,0,80,0,0
127330,-100,4,1,0,40,0,0
127405,-99.548349139952,4,1,0,41,0,0
127480,-99.1007597064239,4,1,0,42,0,0
127555,-98.6571771616527,4,1,0,42,0,0
127630,-98.2176444069471,4,1,0,43,0,0
127705,-97.7819150392497,4,1,0,44,0,0
127780,-97.3500347052874,4,1,0,45,0,0
127855,-96.9219526284264,4,1,0,46,0,0
127930,-96.4976189212531,4,1,0,46,0,0
128005,-96.0769845661932,4,1,0,47,0,0
128080,-95.660001396636,4,1,0,48,0,0
128155,-95.2467127978246,4,1,0,49,0,0
128230,-94.8368900328325,4,1,0,50,0,0
128280,-94.5655987373601,4,1,0,50,0,0
128330,-94.2959440485586,4,1,0,51,0,0
128380,-94.0277344205447,4,1,0,52,0,0
128455,-93.6283124526592,4,1,0,53,0,0
128530,-93.2322695531377,4,1,0,54,0,0
128605,-92.8395630227448,4,1,0,54,0,0
128680,-92.4501508786462,4,1,0,55,0,0
128755,-92.0640765973117,4,1,0,56,0,0
128830,-91.681129364824,4,1,0,57,0,0
128880,-91.427568337536,4,1,0,58,0,0
128930,-91.1754891109113,4,1,0,58,0,0
128980,-90.9247134280345,4,1,0,59,0,0
129055,-90.5511668423359,4,1,0,60,0,0
129130,-90.1806769863421,4,1,0,61,0,0
129205,-89.8132064931356,4,1,0,62,0,0
129280,-89.4487986131858,4,1,0,62,0,0
129355,-89.087256513392,4,1,0,63,0,0
129430,-88.7286252741714,4,1,0,64,0,0
129480,-88.4911115103043,4,1,0,65,0,0
129530,-88.2549438213155,4,1,0,66,0,0
129580,-88.0199558843981,4,1,0,66,0,0
129655,-87.6698493744318,4,1,0,67,0,0
129730,-87.3225169842296,4,1,0,68,0,0
129780,-87.0925375630114,4,1,0,69,0,0
129830,-86.8636908903441,4,1,0,70,0,0
129880,-86.636118771188,4,1,0,70,0,0
129955,-86.2969131594163,4,1,0,71,0,0
130030,-85.9603533658206,4,1,0,72,0,0
130080,-85.7374103186688,4,1,0,73,0,0
130130,-85.5156938401335,4,1,0,74,0,0
130180,-85.2950483665572,4,1,0,74,0,0
130255,-84.9662429116912,4,1,0,75,0,0
130330,-84.64003439771,4,1,0,76,0,0
130380,-84.4238787875718,4,1,0,77,0,0
130430,-84.2088244111277,4,1,0,78,0,0
130480,-83.9949334256158,4,1,0,78,0,0
130555,-83.6760565148086,4,1,0,79,0,0
130630,-83.3333333333333,4,1,0,20,0,0
130780,-85.6973666056216,4,1,0,28,0,0
130930,-88.1995214293967,4,1,0,36,0,0
131080,-90.8521018633766,4,1,0,44,0,0
131230,-93.6692687989539,4,1,0,52,0,0
131380,-96.6666441111164,4,1,0,60,0,0
131530,-95.2380952380952,4,1,0,70,0,0
131680,-87.260034904014,4,1,0,70,0,0
131830,-83.3333333333333,4,1,0,80,0,1
136630,-76.9230769230769,4,1,0,80,0,1
136780,-83.3333333333333,4,1,0,80,0,1
140230,-83.3333333333333,4,1,0,80,0,1
140380,-82.478648339911,4,1,0,80,0,1
140455,-82.0578130115792,4,1,0,80,0,1
140605,-81.22896169892,4,1,0,80,0,1
140680,-80.8207508894324,4,1,0,80,0,1
140830,-80.016579435259,4,1,0,80,0,1
140905,-79.6204334695639,4,1,0,80,0,1
141055,-78.8398557545999,4,1,0,80,0,1
141130,-78.4553091099951,4,1,0,80,0,1
141280,-77.6972402717228,4,1,0,80,0,1
141355,-77.3237328186666,4,1,0,80,0,1
141430,-76.9230769230769,4,1,0,80,0,0
141730,-74.1023427455659,4,1,0,80,0,0
142030,-71.4285714285714,4,1,0,80,0,0
142080,-73.1343250835377,4,1,0,80,0,0
142130,-74.9235405268923,4,1,0,80,0,0
142180,-76.8024970027826,4,1,0,80,0,0
142230,-78.7781198498804,4,1,0,80,0,0
142280,-80.8580657942081,4,1,0,80,0,0
142330,-83.3333333333333,4,1,0,80,0,1
146230,-76.9230769230769,4,1,0,80,0,0
146530,-74.0740740740741,4,1,0,80,0,0
146830,-71.4285714285714,4,1,0,80,0,0
146880,-73.1343250835377,4,1,0,80,0,0
146930,-74.9235405268923,4,1,0,80,0,0
146980,-76.8024970027826,4,1,0,80,0,0
147030,-78.7781198498804,4,1,0,80,0,0
147080,-80.8580657942081,4,1,0,80,0,0
147130,-83.3333333333333,4,1,0,80,0,1
148630,-83.3333333333333,4,1,0,80,0,0
148855,-82.3567877229089,4,1,0,80,0,0
149080,-81.4028644039926,4,1,0,80,0,0
149305,-80.4707215326775,4,1,0,80,0,0
149530,-79.5597481774851,4,1,0,80,0,0
149755,-78.6691693951757,4,1,0,80,0,0
149980,-77.7983078868035,4,1,0,80,0,0
150205,-76.9464568080301,4,1,0,80,0,0
150430,-83.3333333333333,4,1,0,80,0,0
150505,-82.4830023152979,4,1,0,80,0,0
150580,-81.6498495193273,4,1,0,80,0,0
150655,-80.8333596041752,4,1,0,80,0,0
150730,-80.0329735851171,4,1,0,80,0,0
150805,-79.2483452945502,4,1,0,80,0,0
150880,-78.4789523373779,4,1,0,80,0,0
150955,-77.7243552376111,4,1,0,80,0,0
151030,-76.9841312610232,4,1,0,80,0,0
151180,-66.6666666666667,4,1,0,20,0,0
151330,-133.333333333333,4,1,0,23,0,0
158530,-133.333333333333,4,1,0,26,0,0
158605,-129.87012987013,4,1,0,29,0,0
158680,-126.582278481013,4,1,0,31,0,0
158755,-123.456790123457,4,1,0,34,0,0
158830,-120.481927710843,4,1,0,37,0,0
158905,-117.647058823529,4,1,0,40,0,0
158980,-114.942528735632,4,1,0,43,0,0
159055,-112.359550561798,4,1,0,46,0,0
159130,-109.89010989011,4,1,0,49,0,0
159205,-107.52688172043,4,1,0,51,0,0
159280,-105.263157894737,4,1,0,54,0,0
159355,-103.092783505155,4,1,0,57,0,0
159430,-101.010101010101,4,1,0,20,0,0
160630,-95.2380952380952,4,1,0,80,0,0
170230,-95.2380952380952,4,1,0,80,0,0
170380,-95.096808551105,4,1,0,80,0,0
170455,-95.0262319913412,4,1,0,80,0,0
170530,-94.9558502774135,4,1,0,80,0,0
170680,-94.8153991586081,4,1,0,80,0,0
170830,-94.6752732801763,4,1,0,80,0,0
170905,-94.6054102942039,4,1,0,80,0,0
170980,-94.5356503390994,4,1,0,80,0,0
171130,-94.396349504372,4,1,0,80,0,0
171205,-94.3268974091231,4,1,0,80,0,0
171280,-94.2575474374672,4,1,0,80,0,0
171430,-94.1190643812048,4,1,0,80,0,0
171580,-93.9810759705426,4,1,0,80,0,0
171655,-93.9122333831694,4,1,0,80,0,0
171730,-93.8434035125586,4,1,0,80,0,0
171880,-93.7062216245848,4,1,0,80,0,0
172030,-93.5693526685044,4,1,0,80,0,0
172105,-93.5011117282184,4,1,0,80,0,0
172180,-93.4329702528109,4,1,0,80,0,0
172255,-93.364928024977,4,1,0,80,0,0
172330,-93.2968977848518,4,1,0,80,0,0
172380,-93.2516573150796,4,1,0,80,0,0
172430,-93.2064606990298,4,1,0,80,0,0
172480,-93.161307872969,4,1,0,80,0,0
172630,-93.0261114992367,4,1,0,80,0,0
172780,-92.8912206649525,4,1,0,80,0,0
172855,-92.8239649199672,4,1,0,80,0,0
172930,-92.7568064944606,4,1,0,80,0,0
173080,-92.6226949684573,4,1,0,80,0,0
173230,-92.4890562324213,4,1,0,80,0,0
173305,-92.4222959546761,4,1,0,80,0,0
173380,-92.3557172806783,4,1,0,80,0,0
173530,-92.2228472881872,4,1,0,80,0,0
173605,-92.1564706283505,4,1,0,80,0,0
173680,-92.0902742540458,4,1,0,80,0,0
173830,-91.9581663909454,4,1,0,80,0,0
173980,-91.8263526940015,4,1,0,80,0,0
174055,-91.7606295513272,4,1,0,80,0,0
174130,-91.695000421797,4,1,0,80,0,0
174280,-91.5639395568122,4,1,0,80,0,0
174430,-91.433336411589,4,1,0,80,0,0
174505,-91.3681744547376,4,1,0,80,0,0
174580,-91.3030219474204,4,1,0,80,0,0
174655,-91.2380455350838,4,1,0,80,0,0
174730,-91.1731615387842,4,1,0,80,0,0
174767,-91.140754135056,4,1,0,80,0,0
174880,-91.0435871173324,4,1,0,80,0,0
174917,-91.0112717460057,4,1,0,80,0,0
175030,-90.9090909090909,4,1,0,80,0,0
175105,-90.780347870293,4,1,0,80,0,0
175180,-90.6518867830456,4,1,0,80,0,0
175255,-90.5238706920821,4,1,0,80,0,0
175330,-90.3961339381437,4,1,0,80,0,0
175405,-90.2688386552832,4,1,0,80,0,0
175480,-90.1418201256036,4,1,0,80,0,0
175555,-90.0152395800609,4,1,0,80,0,0
175630,-89.8889332340959,4,1,0,80,0,0
175705,-89.7630614230677,4,1,0,80,0,0
175780,-89.6374612878214,4,1,0,80,0,0
175855,-89.5122922755367,4,1,0,80,0,0
175930,-89.38739244462,4,1,0,80,0,0
175967,-89.3251130409306,4,1,0,80,0,0
176080,-89.1387149941124,4,1,0,80,0,0
176117,-89.0767815133611,4,1,0,80,0,0
176230,-88.8914963727825,4,1,0,80,0,0
176305,-88.7683217816157,4,1,0,80,0,0
176380,-88.6455666579203,4,1,0,80,0,0
176455,-88.5230722109257,4,1,0,80,0,0
176530,-88.4009939807763,4,1,0,80,0,0
176605,-88.2791740600475,4,1,0,80,0,0
176680,-88.1577671400739,4,1,0,80,0,0
176755,-88.0366161894055,4,1,0,80,0,0
176830,-87.915875057475,4,1,0,80,0,0
176905,-87.795387581518,4,1,0,80,0,0
176980,-87.6753067758984,4,1,0,80,0,0
177055,-87.5554773393291,4,1,0,80,0,0
177130,-87.436051457865,4,1,0,80,0,0
177180,-87.3566150359953,4,1,0,80,0,0
177230,-87.2772466472446,4,1,0,80,0,0
177280,-87.1980983838704,4,1,0,80,0,0
177430,-86.9614369507842,4,1,0,80,0,0
177480,-86.8828601837572,4,1,0,80,0,0
177530,-86.8043499395842,4,1,0,80,0,0
177580,-86.7260566702745,4,1,0,80,0,0
177655,-86.6088812211159,4,1,0,80,0,0
177730,-86.491947167259,4,1,0,80,0,0
177805,-86.3754030492245,4,1,0,80,0,0
177880,-86.2590981783804,4,1,0,80,0,0
177955,-86.143180302845,4,1,0,80,0,0
178030,-86.0274995505063,4,1,0,80,0,0
178080,-85.950600751724,4,1,0,80,0,0
178130,-85.8738393077195,4,1,0,80,0,0
178180,-85.7971412392539,4,1,0,80,0,0
178255,-85.6824608002742,4,1,0,80,0,0
178330,-85.5680133075374,4,1,0,80,0,0
178405,-85.4539441695201,4,1,0,80,0,0
178480,-85.3401059241395,4,1,0,80,0,0
178555,-85.2266432122944,4,1,0,80,0,0
178630,-85.113481805291,4,1,0,80,0,0
178680,-85.0381353517985,4,1,0,80,0,0
178730,-84.9629943678031,4,1,0,80,0,0
178780,-84.8879860579972,4,1,0,80,0,0
178855,-84.7756497205795,4,1,0,80,0,0
178930,-84.6636819896643,4,1,0,80,0,0
178980,-84.5891294509743,4,1,0,80,0,0
179030,-84.5147795220689,4,1,0,80,0,0
179080,-84.4405601786762,4,1,0,80,0,0
179155,-84.3294041452962,4,1,0,80,0,0
179230,-84.2186113024745,4,1,0,80,0,0
179280,-84.1448401963268,4,1,0,80,0,0
179330,-84.0712688960686,4,1,0,80,0,0
179380,-83.9978261362596,4,1,0,80,0,0
179455,-83.8878319022069,4,1,0,80,0,0
179530,-83.7781955517129,4,1,0,80,0,0
179580,-83.7052637218039,4,1,0,80,0,0
179630,-83.6323888170115,4,1,0,80,0,0
179680,-83.5597105157389,4,1,0,80,0,0
179755,-83.4509296016303,4,1,0,80,0,0
179830,-83.3333333333333,4,1,0,40,0,0
179980,-85.0969679950303,4,1,0,42,0,0
180130,-86.936942027839,4,1,0,44,0,0
180280,-88.8581637105037,4,1,0,45,0,0
180430,-90.8663011418259,4,1,0,47,0,0
180580,-92.9672160409353,4,1,0,49,0,0
180730,-95.1676711614358,4,1,0,51,0,0
180880,-97.474722367622,4,1,0,53,0,0
181030,-100,4,1,0,55,0,0
181105,-98.7717730027113,4,1,0,56,0,0
181180,-97.5733507664387,4,1,0,58,0,0
181255,-96.4035684744906,4,1,0,60,0,0
181330,-95.261593097726,4,1,0,62,0,0
181480,-93.0569294377221,4,1,0,64,0,0
181555,-91.9923425574055,4,1,0,65,0,0
181630,-90.9519209955233,4,1,0,67,0,0
181705,-89.9347703110934,4,1,0,69,0,0
181780,-88.9401183970856,4,1,0,71,0,0
181855,-87.9671495476729,4,1,0,73,0,0
181930,-87.0153138250801,4,1,0,75,0,0
182080,-85.1721286133211,4,1,0,76,0,0
182155,-84.2795113136816,4,1,0,78,0,0
182230,-83.3333333333333,4,1,0,80,0,1
187030,-76.9230769230769,4,1,0,80,0,1
187180,-83.3333333333333,4,1,0,80,0,1
191830,-83.3333333333333,4,1,0,80,0,0
192130,-83.3333333333333,4,1,0,80,0,1
196630,-76.9230769230769,4,1,0,80,0,0
196930,-90.9090909090909,4,1,0,80,0,0
197230,-90.9090909090909,4,1,0,80,0,0
199030,-90.9090909090909,4,1,0,80,0,0
199255,-88.8957634945991,4,1,0,80,0,0
199480,-86.9696049927511,4,1,0,80,0,0
199705,-85.1252191974394,4,1,0,80,0,0
199930,-83.3573680411185,4,1,0,80,0,0
200155,-81.6615179079626,4,1,0,80,0,0
200380,-80.0332297970117,4,1,0,80,0,0
200605,-78.4686682454563,4,1,0,80,0,0
200830,-76.9640454765152,4,1,0,80,0,0
200980,-80,4,1,0,80,0,0
201430,-76.9230769230769,4,1,0,80,0,1
201730,-83.3333333333333,4,1,0,80,0,1
209830,-83.3333333333333,4,1,0,80,0,1
210055,-82.0578130115792,4,1,0,80,0,1
210280,-80.8207508894324,4,1,0,80,0,1
210505,-79.6204334695639,4,1,0,80,0,1
210730,-78.4553091099951,4,1,0,80,0,1
210880,-77.6972402717228,4,1,0,80,0,1
211030,-83.3333333333333,4,1,0,80,0,0
211180,-83.3333333333333,4,1,0,80,0,0
211330,-81.1110921851896,4,1,0,80,0,0
211380,-80.396450979068,4,1,0,80,0,0
211430,-79.6942926932288,4,1,0,80,0,0
211480,-79.0043555101193,4,1,0,80,0,0
211555,-77.991439659583,4,1,0,80,0,0
211630,-76.9230769230769,4,1,0,80,0,1
211780,-83.3333333333333,4,1,0,80,0,1
215830,-76.9230769230769,4,1,0,80,0,0
216130,-83.3333333333333,4,1,0,80,0,1
218230,-83.3333333333333,4,1,0,80,0,0
218455,-81.9418917269008,4,1,0,80,0,0
218680,-80.5960886718168,4,1,0,80,0,0
218830,-79.7232010459684,4,1,0,80,0,0
219055,-78.4487851028895,4,1,0,80,0,0
219280,-77.2144724630027,4,1,0,80,0,0
219430,-76.4129324303362,4,1,0,80,0,0
219655,-75.2413177162454,4,1,0,80,0,0
219880,-74.1051433415788,4,1,0,80,0,0
220030,-66.6666666666667,4,1,0,80,0,0
220630,-76.9230769230769,4,1,0,80,0,0
220930,-76.9230769230769,4,1,0,60,0,0
221230,-79.5064241190688,4,1,0,58,0,0
221380,-80.8642773968172,4,1,0,56,0,0
221530,-82.269316835593,4,1,0,54,0,0
221680,-83.7240455458808,4,1,0,52,0,0
221980,-86.7935009026524,4,1,0,50,0,0
222130,-88.414202857547,4,1,0,48,0,0
222430,-91.844232182219,4,1,0,46,0,0
222580,-93.6610220290724,4,1,0,44,0,0
222880,-97.5191137462943,4,1,0,42,0,0
223030,-99.5698582125219,4,1,0,40,0,0
223330,-103.941460169632,4,1,0,38,0,0
223480,-106.274443121918,4,1,0,36,0,0
223780,-111.269360868791,4,1,0,34,0,0
223930,-113.947128532361,4,1,0,32,0,0
224230,-119.708868032944,4,1,0,30,0,0
224380,-122.813912359992,4,1,0,28,0,0
224680,-129.533678756477,4,1,0,26,0,0
225130,-133.333333333333,4,1,0,24,0,0
225280,-134.734935960485,4,1,0,22,0,0
225430,-136.166504401582,4,1,0,20,0,0
225730,-139.122498751376,4,1,0,20,0,0
226030,-142.209884724667,4,1,0,20,0,0
226180,-143.805436995962,4,1,0,20,0,0
226330,-145.437410283298,4,1,0,20,0,0
226480,-147.106633185197,4,1,0,20,0,0
226780,-150.562954888327,4,1,0,20,0,0
226930,-152.352629301677,4,1,0,20,0,0
227230,-156.062968286444,4,1,0,20,0,0
227380,-157.98661853341,4,1,0,20,0,0
227680,-161.980044058572,4,1,0,20,0,0
227830,-164.053297635336,4,1,0,20,0,0
228130,-168.363490040458,4,1,0,20,0,0
228280,-170.60450293525,4,1,0,20,0,0
228580,-175.270705604807,4,1,0,20,0,0
228730,-177.700695165119,4,1,0,20,0,0
229030,-182.76891247014,4,1,0,20,0,0
229180,-185.412830938727,4,1,0,20,0,0
229480,-190.937349636837,4,1,0,20,0,0
229630,-193.824743666776,4,1,0,20,0,0
229930,-199.870084445111,4,1,0,20,0,0
230230,-153.846153846154,4,1,0,20,0,0
230380,-153.569492498898,4,1,0,20,0,0
230530,-153.293589415384,4,1,0,20,0,0
230680,-153.018910076907,4,1,0,20,0,0
230830,-152.744980036231,4,1,0,20,0,0
230980,-152.47226148383,4,1,0,20,0,0
231130,-152.200283396928,4,1,0,20,0,0
231280,-151.929504709815,4,1,0,20,0,0
231430,-151.659457787107,4,1,0,20,0,0
231580,-151.390598341062,4,1,0,20,0,0
231730,-151.122462087152,4,1,0,20,0,0
231880,-150.855501549286,4,1,0,20,0,0
232030,-150.58925575778,4,1,0,20,0,0
232180,-150.324174081407,4,1,0,20,0,0
232330,-150.059798829834,4,1,0,20,0,0
232480,-149.796576249453,4,1,0,20,0,0
232630,-149.534051894297,4,1,0,20,0,0
232780,-149.272668920684,4,1,0,20,0,0
232930,-149.011976092519,4,1,0,20,0,0
233080,-148.752413507909,4,1,0,20,0,0
233230,-148.493533106633,4,1,0,20,0,0
233380,-148.235771960018,4,1,0,20,0,0
233530,-147.978685150191,4,1,0,20,0,0
233680,-147.7227067527,4,1,0,20,0,0
233830,-147.467394958975,4,1,0,20,0,0
233980,-147.213180879363,4,1,0,20,0,0
234130,-146.959625782009,4,1,0,20,0,0
234280,-146.707157842231,4,1,0,20,0,0
234430,-146.455341372755,4,1,0,20,0,0
234580,-146.204601643632,4,1,0,20,0,0
234730,-145.954505980486,4,1,0,20,0,0
234880,-145.705476777461,4,1,0,20,0,0
235030,-145.457084341836,4,1,0,20,0,0
235180,-145.209748220818,4,1,0,20,0,0
235330,-144.963041672526,4,1,0,20,0,0
235480,-144.717381425814,4,1,0,20,0,0
235630,-144.472343659253,4,1,0,20,0,0
235780,-144.228342311548,4,1,0,20,0,0
235930,-143.98495645175,4,1,0,20,0,0
236080,-143.742597256241,4,1,0,20,0,0
236230,-143.500846654995,4,1,0,20,0,0
236380,-143.260113089533,4,1,0,20,0,0
236530,-143.01998132159,4,1,0,20,0,0
236680,-142.780857084929,4,1,0,20,0,0
236830,-142.542327944283,4,1,0,20,0,0
236980,-142.3047969524,4,1,0,20,0,0
237130,-142.067854448642,4,1,0,20,0,0
237280,-141.831900831135,4,1,0,20,0,0
237430,-141.596529185877,4,1,0,20,0,0
237580,-141.362137282426,4,1,0,20,0,0
237730,-141.128320925802,4,1,0,20,0,0
237880,-140.895475282707,4,1,0,20,0,0
238030,-140.663198849938,4,1,0,20,0,0
238180,-140.43188421672,4,1,0,20,0,0
238330,-140.201132544749,4,1,0,20,0,0
238480,-139.971333870823,4,1,0,20,0,0
238630,-139.742091995014,4,1,0,20,0,0
238780,-139.513794426424,4,1,0,20,0,0
238930,-139.286047577328,4,1,0,20,0,0
239080,-139.059236453544,4,1,0,20,0,0
239230,-138.832970053728,4,1,0,20,0,0
239380,-138.607630904512,4,1,0,20,0,0
239530,-138.382830565446,4,1,0,20,0,0
239680,-138.15894910777,4,1,0,20,0,0
239830,-137.935600626779,4,1,0,20,0,0
239980,-137.71316276181,4,1,0,20,0,0
240130,-137.491252119084,4,1,0,20,0,0
240280,-137.270243929223,4,1,0,20,0,0
240430,-137.04975728488,4,1,0,20,0,0
240580,-136.830165030862,4,1,0,20,0,0
240730,-136.611088722072,4,1,0,20,0,0
240880,-136.392898840115,4,1,0,20,0,0
241030,-136.175219378278,4,1,0,20,0,0
241180,-135.958418477293,4,1,0,20,0,0
241330,-135.742122545273,4,1,0,20,0,0
241480,-135.526697404122,4,1,0,20,0,0
241630,-135.311771853528,4,1,0,20,0,0
241780,-135.097709418337,4,1,0,20,0,0
241930,-134.884141266859,4,1,0,20,0,0
242080,-134.671428648384,4,1,0,20,0,0
242230,-134.459385870201,4,1,0,20,0,0
242380,-134.247829548216,4,1,0,20,0,0
242530,-134.037117558594,4,1,0,20,0,0
242680,-133.826886892192,4,1,0,20,0,0
242830,-133.61749320221,4,1,0,20,0,0
242980,-133.408575770068,4,1,0,20,0,0
243130,-133.200488046588,4,1,0,20,0,0
243280,-132.992871582083,4,1,0,20,0,0
243430,-132.786077645331,4,1,0,20,0,0
243580,-132.579750034139,4,1,0,20,0,0
243730,-132.374237855326,4,1,0,20,0,0
243880,-132.169187133065,4,1,0,20,0,0
244030,-131.964944832055,4,1,0,20,0,0
244180,-131.761159181974,4,1,0,20,0,0
244330,-131.558175024996,4,1,0,20,0,0
244480,-131.355642775702,4,1,0,20,0,0
244630,-131.153905173103,4,1,0,20,0,0
244780,-130.952614796336,4,1,0,20,0,0
244930,-130.752112300374,4,1,0,20,0,0
245080,-130.552052408816,4,1,0,20,0,0
245230,-130.352773711495,4,1,0,20,0,0
245380,-130.153933056626,4,1,0,20,0,0
245530,-129.955866987571,4,1,0,20,0,0
245680,-129.758234457559,4,1,0,20,0,0
245830,-129.561369981926,4,1,0,20,0,0
245980,-129.364934599557,4,1,0,20,0,0
246130,-129.169260815988,4,1,0,20,0,0
246280,-128.974011736635,4,1,0,20,0,0
246430,-128.779517875241,4,1,0,20,0,0
246580,-128.585444384867,4,1,0,20,0,0
246730,-128.392119805255,4,1,0,20,0,0
246880,-128.199211318452,4,1,0,20,0,0
247030,-128.007045507785,4,1,0,20,0,0
247180,-127.815291565852,4,1,0,20,0,0
247330,-127.632418634333,4,1,0,20,0,0
247480,-126.291100987777,4,1,0,21,0,0
247630,-124.977682556686,4,1,0,23,0,0
247780,-123.691301850952,4,1,0,24,0,0
247930,-122.431132487976,4,1,0,26,0,0
248080,-121.196381422326,4,1,0,27,0,0
248230,-119.986287281454,4,1,0,29,0,0
248380,-118.800118800119,4,1,0,30,0,0
248530,-117.637173346778,4,1,0,31,0,0
248680,-116.496775535677,4,1,0,33,0,0
248830,-115.378275918906,4,1,0,34,0,0
248980,-114.281049753071,4,1,0,36,0,0
249130,-113.204495835692,4,1,0,37,0,0
249280,-112.148035406737,4,1,0,39,0,0
249430,-111.111111111111,4,1,0,40,0,0
266230,-111.111111111111,4,1,0,70,0,0
266380,-110.004103153048,4,1,0,70,0,0
266530,-108.919054626173,4,1,0,70,0,0
266680,-107.855085906576,4,1,0,70,0,0
266830,-106.811816804917,4,1,0,70,0,0
266980,-105.788425265238,4,1,0,70,0,0
267130,-104.784458369135,4,1,0,70,0,0
267280,-103.799476020245,4,1,0,70,0,0
267430,-102.832733304334,4,1,0,70,0,0
267580,-101.883935857949,4,1,0,70,0,0
267730,-100.952384798186,4,1,0,70,0,0
267880,-100.03771421826,4,1,0,70,0,0
268630,-95.2380952380952,4,1,0,80,0,0
268930,-100.03771421826,4,1,0,80,0,0
269380,-95.2380952380952,4,1,0,80,0,0
269680,-100.03771421826,4,1,0,80,0,0
269830,-95.2380952380952,4,1,0,80,0,0
270130,-100.03771421826,4,1,0,80,0,0
270430,-95.2380952380952,4,1,0,80,0,0
271180,-100.03771421826,4,1,0,80,0,0
271630,-100,4,1,0,80,0,0
271780,-101.440557354998,4,1,0,80,0,0
271930,-102.923225449208,4,1,0,80,0,0
272080,-104.449987257102,4,1,0,80,0,0
272155,-105.230370326719,4,1,0,80,0,0
272230,-106.022614623699,4,1,0,80,0,0
272380,-107.643321700678,4,1,0,80,0,0
272530,-109.314347617439,4,1,0,80,0,0
272680,-111.038072734379,4,1,0,80,0,0
272830,-111.111111111111,4,1,0,80,0,0
272880,-109.604535874113,4,1,0,80,0,0
272930,-108.138269917447,4,1,0,80,0,0
272980,-106.710716850583,4,1,0,80,0,0
273055,-104.638630489604,4,1,0,80,0,0
273130,-102.645482007787,4,1,0,80,0,0
273205,-100.726844912891,4,1,0,80,0,0
273280,-98.87871536773,4,1,0,80,0,0
273355,-97.0970883496117,4,1,0,80,0,0
273430,-95.3785287671181,4,1,0,80,0,0
273730,-100.03771421826,4,1,0,80,0,0
274180,-95.3785287671181,4,1,0,80,0,0
274330,-100.03771421826,4,1,0,80,0,0
274630,-95.3785287671181,4,1,0,80,0,0
275230,-95.3785287671181,4,1,0,80,0,0
276130,-100,4,1,0,80,0,0
276430,-102.550429173546,4,1,0,80,0,0
276730,-105.23446765566,4,1,0,80,0,0
276880,-106.629815402464,4,1,0,80,0,0
277330,-111.047197279788,4,1,0,80,0,0
277480,-111.111111111111,4,1,0,80,0,0
277530,-111.583481181446,4,1,0,80,0,0
277580,-112.059759228401,4,1,0,80,0,0
277630,-112.540247205907,4,1,0,80,0,0
277730,-113.51356260046,4,1,0,80,0,0
277830,-114.503860497657,4,1,0,80,0,0
277930,-115.511589277752,4,1,0,80,0,0
278030,-116.53721324562,4,1,0,80,0,0
278130,-117.581213344057,4,1,0,80,0,0
278230,-95.3785287671181,4,1,0,80,0,0
278530,-100,4,1,0,80,0,0
278980,-95.3785287671181,4,1,0,80,0,0
279280,-100,4,1,0,80,0,0
279430,-95.3785287671181,4,1,0,80,0,0
279730,-100,4,1,0,80,0,0
280030,-95.3785287671181,4,1,0,80,0,0
280780,-100,4,1,0,80,0,0
281230,-100,4,1,0,80,0,0
281380,-101.440557354998,4,1,0,80,0,0
281530,-102.923225449208,4,1,0,80,0,0
281680,-104.449987257102,4,1,0,80,0,0
281755,-105.230370326719,4,1,0,80,0,0
281830,-106.022614623699,4,1,0,80,0,0
281980,-107.643321700678,4,1,0,80,0,0
282130,-109.314347617439,4,1,0,80,0,0
282280,-111.038072734379,4,1,0,80,0,0
282430,-111.111111111111,4,1,0,80,0,0
282480,-109.604535874113,4,1,0,80,0,0
282530,-108.138269917447,4,1,0,80,0,0
282580,-106.710716850583,4,1,0,80,0,0
282655,-104.638630489604,4,1,0,80,0,0
282730,-102.645482007787,4,1,0,80,0,0
282805,-100.726844912891,4,1,0,80,0,0
282880,-98.87871536773,4,1,0,80,0,0
282955,-97.0970883496117,4,1,0,80,0,0
283030,-95.3785287671181,4,1,0,80,0,0
283330,-100,4,1,0,80,0,0
283780,-95.3785287671181,4,1,0,80,0,0
283930,-100,4,1,0,80,0,0
284230,-95.3785287671181,4,1,0,80,0,0
284530,-100,4,1,0,80,0,0
284830,-95.2380952380952,4,1,0,80,0,0
284980,-90.9657377548746,4,1,0,80,0,0
285130,-87.060236977965,4,1,0,80,0,0
285280,-83.4762864739199,4,1,0,80,0,0
285430,-66.6666666666667,4,1,0,20,0,0
285730,-100,4,1,0,20,0,0
289630,-200,4,1,0,20,0,0
290230,-100,4,1,0,80,0,0
290380,-99.8441432923207,4,1,0,80,0,0
290455,-99.7663472148229,4,1,0,80,0,0
290530,-99.6886722764805,4,1,0,80,0,0
290680,-99.5337837568828,4,1,0,80,0,0
290755,-99.4564703893223,4,1,0,80,0,0
290905,-99.3022034165916,4,1,0,80,0,0
290980,-99.2253477104247,4,1,0,80,0,0
291055,-99.1485125740144,4,1,0,80,0,0
291130,-99.0717963400897,4,1,0,80,0,0
291280,-98.91881732662,4,1,0,80,0,0
291355,-98.8424559978097,4,1,0,80,0,0
291430,-98.7662124737776,4,1,0,80,0,0
291580,-98.6141749987427,4,1,0,80,0,0
291655,-98.5382831083704,4,1,0,80,0,0
291730,-98.4625079385397,4,1,0,80,0,0
291880,-98.3114033362958,4,1,0,80,0,0
291955,-98.2359765687549,4,1,0,80,0,0
292105,-98.0854697166017,4,1,0,80,0,0
292180,-98.0104851617026,4,1,0,80,0,0
292255,-97.860667938203,4,1,0,80,0,0
292330,-97.7859309513984,4,1,0,80,0,0
292480,-97.7114035070577,4,1,0,80,0,0
292555,-97.6368942485035,4,1,0,80,0,0
292630,-97.5624985365625,4,1,0,80,0,0
292780,-97.4141416109377,4,1,0,80,0,0
292855,-97.340084841618,4,1,0,80,0,0
292930,-97.2661405865343,4,1,0,80,0,0
293080,-97.1186829152698,4,1,0,80,0,0
293155,-97.045074525765,4,1,0,80,0,0
293305,-96.898285869323,4,1,0,80,0,0
293380,-96.8250110622575,4,1,0,80,0,0
293530,-96.6787934099867,4,1,0,80,0,0
293680,-96.5331098913616,4,1,0,80,0,0
293755,-96.4603861309257,4,1,0,80,0,0
293830,-96.3877718617105,4,1,0,80,0,0
293905,-96.3153596030266,4,1,0,80,0,0
293980,-96.2429634363358,4,1,0,80,0,0
294055,-96.17067602215,4,1,0,80,0,0
294130,-96.0984971156036,4,1,0,80,0,0
294280,-95.9545559223152,4,1,0,80,0,0
294355,-95.8827009389793,4,1,0,80,0,0
294505,-95.7394049987458,4,1,0,80,0,0
294580,-95.667871762958,4,1,0,80,0,0
294730,-95.5251254961336,4,1,0,80,0,0
294805,-95.4540031022551,4,1,0,80,0,0
294880,-95.382895557637,4,1,0,80,0,0
294955,-95.3118938759249,4,1,0,80,0,0
295030,-95.241088529449,4,1,0,80,0,0
295180,-95.0996120886823,4,1,0,80,0,0
295255,-95.0290313690832,4,1,0,80,0,0
295330,-94.9586455098804,4,1,0,80,0,0
295480,-94.8180063186719,4,1,0,80,0,0
295555,-94.7478428284884,4,1,0,80,0,0
295705,-94.6079164120137,4,1,0,80,0,0
295780,-94.5380633877715,4,1,0,80,0,0
295930,-94.3987554468082,4,1,0,80,0,0
296005,-94.3292108323893,4,1,0,80,0,0
296080,-94.25976861112,4,1,0,80,0,0
296155,-94.1904285570309,4,1,0,80,0,0
296230,-94.121279032885,4,1,0,80,0,0
296380,-93.9831074762622,4,1,0,80,0,0
296455,-93.9141737149254,4,1,0,80,0,0
296530,-93.8454290706863,4,1,0,80,0,0
296680,-93.7080656406258,4,1,0,80,0,0
296755,-93.639534611513,4,1,0,80,0,0
296905,-93.5028602524951,4,1,0,80,0,0
296980,-93.4346289290429,4,1,0,80,0,0
297130,-93.2985516332844,4,1,0,80,0,0
297205,-93.2306180537363,4,1,0,80,0,0
297280,-93.1627833313148,4,1,0,80,0,0
297355,-93.0951339173501,4,1,0,80,0,0
297430,-93.0274961370332,4,1,0,80,0,0
297580,-92.8925149998189,4,1,0,80,0,0
297655,-92.8252573812324,4,1,0,80,0,0
297730,-92.758011045624,4,1,0,80,0,0
297880,-92.6238102471574,4,1,0,80,0,0
297955,-92.5569410301217,4,1,0,80,0,0
298105,-92.4233209917392,4,1,0,80,0,0
298180,-92.3566555438468,4,1,0,80,0,0
298255,-92.2901713736192,4,1,0,80,0,0
298330,-92.223697801387,4,1,0,80,0,0
298480,-92.0910375160469,4,1,0,80,0,0
298555,-92.0249350764083,4,1,0,80,0,0
298630,-91.9588429002716,4,1,0,80,0,0
298705,-91.8928455906137,4,1,0,80,0,0
298780,-91.826942943329,4,1,0,80,0,0
298855,-91.7612189560326,4,1,0,80,0,0
298930,-91.6955049029587,4,1,0,80,0,0
299080,-91.5643587564828,4,1,0,80,0,0
299155,-91.499009980712,4,1,0,80,0,0
299305,-91.3684248997232,4,1,0,80,0,0
299380,-91.3033553983109,4,1,0,80,0,0
299455,-91.2382952671959,4,1,0,80,0,0
299530,-91.173327789995,4,1,0,80,0,0
299605,-91.1084527689225,4,1,0,80,0,0
299680,-91.0437528963294,4,1,0,80,0,0
299755,-90.9790620786532,4,1,0,80,0,0
299830,-90.9090909090909,4,1,0,80,0,0
299980,-90.7337273596667,4,1,0,80,0,0
300055,-90.6462990475793,4,1,0,80,0,0
300130,-90.5590390599247,4,1,0,80,0,0
300205,-90.4720287628674,4,1,0,80,0,0
300280,-90.385103811811,4,1,0,80,0,0
300355,-90.2983457343062,4,1,0,80,0,0
300430,-90.2117540502822,4,1,0,80,0,0
300505,-90.1253282815083,4,1,0,80,0,0
300580,-90.0390679515842,4,1,0,80,0,0
300655,-89.9529725859321,4,1,0,80,0,0
300730,-89.8670417117874,4,1,0,80,0,0
300805,-89.7812748581905,4,1,0,80,0,0
300880,-89.6957520091848,4,1,0,80,0,0
300955,-89.6103116377808,4,1,0,80,0,0
301030,-89.5250338852253,4,1,0,80,0,0
301105,-89.4399182876907,4,1,0,80,0,0
301180,-89.3549643831112,4,1,0,80,0,0
301255,-89.2701717111753,4,1,0,80,0,0
301330,-89.1855398133168,4,1,0,80,0,0
301405,-89.1010682327071,4,1,0,80,0,0
301480,-89.0167565142463,4,1,0,80,0,0
301555,-88.9326832947069,4,1,0,80,0,0
301630,-88.848689792796,4,1,0,80,0,0
301705,-88.7648547984505,4,1,0,80,0,0
301780,-88.6811778634044,4,1,0,80,0,0
301855,-88.5976585410801,4,1,0,80,0,0
301930,-88.5142963865809,4,1,0,80,0,0
301980,-88.4588608798649,4,1,0,80,0,0
302030,-88.4034166152453,4,1,0,80,0,0
302080,-88.3480418098273,4,1,0,80,0,0
302230,-88.1824883687298,4,1,0,80,0,0
302305,-88.0999052926018,4,1,0,80,0,0
302380,-88.0174767501835,4,1,0,80,0,0
302455,-87.9352023081232,4,1,0,80,0,0
302530,-87.8530815346879,4,1,0,80,0,0
302605,-87.771113999756,4,1,0,80,0,0
302680,-87.6892992748095,4,1,0,80,0,0
302755,-87.6076369329267,4,1,0,80,0,0
302830,-87.5261265487748,4,1,0,80,0,0
302905,-87.4448441645432,4,1,0,80,0,0
302980,-87.3636362842149,4,1,0,80,0,0
303055,-87.2825790954732,4,1,0,80,0,0
303130,-87.2016721792657,4,1,0,80,0,0
303205,-87.1209151180924,4,1,0,80,0,0
303280,-87.0403074959983,4,1,0,80,0,0
303355,-86.9598488985666,4,1,0,80,0,0
303430,-86.8795389129111,4,1,0,80,0,0
303505,-86.7994524690538,4,1,0,80,0,0
303580,-86.7194383355418,4,1,0,80,0,0
303655,-86.6395715846464,4,1,0,80,0,0
303730,-86.5598518095337,4,1,0,80,0,0
303805,-86.4802786048655,4,1,0,80,0,0
303880,-86.400851566793,4,1,0,80,0,0
303955,-86.3215702929495,4,1,0,80,0,0
304030,-86.2424343824438,4,1,0,80,0,0
304105,-86.1634434358535,4,1,0,80,0,0
304180,-86.0846711608604,4,1,0,80,0,0
304255,-86.0059688142357,4,1,0,80,0,0
304330,-85.9274102423754,4,1,0,80,0,0
304367,-85.8881478650354,4,1,0,80,0,0
304480,-85.770722849921,4,1,0,80,0,0
304517,-85.7316769973337,4,1,0,80,0,0
304630,-85.6146058517583,4,1,0,80,0,0
304705,-85.5367602780971,4,1,0,80,0,0
304780,-85.4590561389086,4,1,0,80,0,0
304855,-85.3815659491484,4,1,0,80,0,0
304930,-85.3041433928529,4,1,0,80,0,0
305005,-85.226861120273,4,1,0,80,0,0
305080,-85.149718750479,4,1,0,80,0,0
305155,-85.0727159039189,4,1,0,80,0,0
305230,-84.9958522024125,4,1,0,80,0,0
305305,-84.9191272691452,4,1,0,80,0,0
305380,-84.8425407286617,4,1,0,80,0,0
305455,-84.7660922068598,4,1,0,80,0,0
305530,-84.689853054636,4,1,0,80,0,0
305567,-84.6517132236981,4,1,0,80,0,0
305680,-84.5376424987636,4,1,0,80,0,0
305717,-84.4996396090371,4,1,0,80,0,0
305830,-84.3859780883369,4,1,0,80,0,0
305905,-84.3103497699171,4,1,0,80,0,0
305980,-84.2348568891899,4,1,0,80,0,0
306055,-84.1594990826615,4,1,0,80,0,0
306130,-84.0842759881374,4,1,0,80,0,0
306205,-84.0092578202118,4,1,0,80,0,0
306280,-83.9343029424009,4,1,0,80,0,0
306355,-83.8594816980874,4,1,0,80,0,0
306430,-83.7847937302163,4,1,0,80,0,0
306505,-83.7102386830036,4,1,0,80,0,0
306580,-83.6358162019303,4,1,0,80,0,0
306655,-83.5615259337374,4,1,0,80,0,0
306730,-83.4873675264196,4,1,0,80,0,0
306780,-83.4380480836784,4,1,0,80,0,0
306830,-83.3887173397665,4,1,0,80,0,0
306880,-83.3395143473141,4,1,0,80,0,0
307030,-83.3333333333333,4,1,0,80,0,0
307080,-83.1892772349215,4,1,0,80,0,0
307130,-83.0457183288544,4,1,0,80,0,0
307180,-82.9026540455666,4,1,0,80,0,0
307255,-82.6889794608844,4,1,0,80,0,0
307330,-82.4764035009584,4,1,0,80,0,0
307405,-82.2649853897386,4,1,0,80,0,0
307480,-82.0545810662336,4,1,0,80,0,0
307555,-81.8452502745908,4,1,0,80,0,0
307630,-81.6369848196027,4,1,0,80,0,0
307680,-81.4987290273208,4,1,0,80,0,0
307730,-81.3609407277411,4,1,0,80,0,0
307780,-81.2236175537233,4,1,0,80,0,0
307855,-81.0184997642362,4,1,0,80,0,0
307930,-80.8144153521528,4,1,0,80,0,0
308005,-80.6114215098681,4,1,0,80,0,0
308080,-80.4093802366609,4,1,0,80,0,0
308155,-80.2083492079024,4,1,0,80,0,0
308230,-80.00832086537,4,1,0,80,0,0
308280,-79.8755219865362,4,1,0,80,0,0
308330,-79.7431632199013,4,1,0,80,0,0
308380,-79.6112423812041,4,1,0,80,0,0
308455,-79.4141774954516,4,1,0,80,0,0
308530,-79.2180858058618,4,1,0,80,0,0
308580,-79.087895123124,4,1,0,80,0,0
308630,-78.9581316611054,4,1,0,80,0,0
308680,-78.8288554601989,4,1,0,80,0,0
308755,-78.6356401884739,4,1,0,80,0,0
308830,-78.4433697702786,4,1,0,80,0,0
308880,-78.315710993098,4,1,0,80,0,0
308930,-78.188467044734,4,1,0,80,0,0
308980,-78.061635906479,4,1,0,80,0,0
309055,-77.8721588342849,4,1,0,80,0,0
309130,-77.6835993608194,4,1,0,80,0,0
309180,-77.5583995358905,4,1,0,80,0,0
309230,-77.4336026215921,4,1,0,80,0,0
309280,-77.3092664432944,4,1,0,80,0,0
309355,-77.1234198375318,4,1,0,80,0,0
309430,-76.9230769230769,4,1,0,40,0,0
309580,-78.7324702155065,4,1,0,42,0,0
309730,-80.6289704728647,4,1,0,43,0,0
309880,-82.6191595483376,4,1,0,45,0,0
309955,-83.6514878253625,4,1,0,46,0,0
310030,-84.7100122151838,4,1,0,48,0,0
310105,-85.7956690346271,4,1,0,50,0,0
310180,-86.9095150275242,4,1,0,51,0,0
310330,-89.2262035945668,4,1,0,53,0,0
310480,-91.6698674728726,4,1,0,54,0,0
310555,-92.9425039082323,4,1,0,56,0,0
310630,-94.2510622094711,4,1,0,58,0,0
310705,-95.5969936657432,4,1,0,59,0,0
310780,-96.981922569633,4,1,0,61,0,0
310855,-98.4074718825251,4,1,0,62,0,0
310930,-100,4,1,0,64,0,0
311080,-96.7957696376837,4,1,0,66,0,0
311155,-95.2693980403085,4,1,0,67,0,0
311305,-92.3566555438468,4,1,0,69,0,0
311380,-90.9661514950287,4,1,0,70,0,0
311455,-89.6168164163669,4,1,0,72,0,0
311530,-88.3069266187101,4,1,0,74,0,0
311605,-87.0347773563361,4,1,0,75,0,0
311680,-85.7988343370367,4,1,0,77,0,0
311755,-84.5974304376479,4,1,0,78,0,0
311830,-83.3333333333333,4,1,0,80,0,1
321430,-83.3333333333333,4,1,0,80,0,0
321580,-80.0653333119826,4,1,0,80,0,0
321655,-78.5256649356993,4,1,0,80,0,0
321730,-76.9230769230769,4,1,0,80,0,1
321955,-83.3333333333333,4,1,0,80,0,1
327130,-83.3333333333333,4,1,0,80,0,0
327430,-83.3333333333333,4,1,0,80,0,1
328330,-83.3333333333333,4,1,0,80,0,0
328405,-85.0694592134478,4,1,0,80,0,0
328480,-86.8794634324339,4,1,0,80,0,0
328555,-88.7680853877967,4,1,0,80,0,0
328630,-90.7407256172865,4,1,0,80,0,0
328780,-100,4,1,0,20,0,0
330730,-100,4,1,0,40,0,0
331030,-76.9230769230769,4,1,0,80,0,1
331180,-83.3333333333333,4,1,0,80,0,1
340630,-80,4,1,0,80,0,1
345430,-80,4,1,0,80,0,0
345730,-83.3333333333333,4,1,0,80,0,1
345880,-82.199527845912,4,1,0,80,0,1
345955,-81.6441165616723,4,1,0,80,0,1
346030,-81.0962263492993,4,1,0,80,0,1
346105,-80.5555756944495,4,1,0,80,0,1
346180,-80.0220860957624,4,1,0,80,0,1
346255,-79.4956162142439,4,1,0,80,0,1
346330,-78.9760284060979,4,1,0,80,0,1
346405,-78.4631886027511,4,1,0,80,0,1
346480,-77.9569661955207,4,1,0,80,0,1
346555,-77.4572939209967,4,1,0,80,0,1
346630,-76.9230769230769,4,1,0,80,0,1
346680,-77.9014593280376,4,1,0,80,0,0
346730,-78.904988136635,4,1,0,80,0,0
346780,-79.9347732250484,4,1,0,80,0,0
346830,-80.9917275049527,4,1,0,80,0,0
346880,-82.0770752983296,4,1,0,80,0,0
346930,-83.3333333333333,4,1,0,80,0,1
347080,-82.7625476298462,4,1,0,80,0,1
347155,-82.4800769374158,4,1,0,80,0,1
347230,-82.199527845912,4,1,0,80,0,1
347305,-81.9208808133105,4,1,0,80,0,1
347380,-81.6441165616723,4,1,0,80,0,1
347455,-81.3692160726985,4,1,0,80,0,1
347530,-81.0962263492993,4,1,0,80,0,1
347605,-80.8249969084439,4,1,0,80,0,1
347680,-80.5555756944495,4,1,0,80,0,1
347755,-80.2879446848176,4,1,0,80,0,1
347830,-80.0220860957624,4,1,0,80,0,1
347980,-79.6591226822183,4,1,0,80,0,1
348055,-79.4897394644299,4,1,0,80,0,1
348130,-79.3211379727738,4,1,0,80,0,1
348205,-79.1531875384388,4,1,0,80,0,1
348280,-78.9859468203417,4,1,0,80,0,1
348355,-78.8194734543895,4,1,0,80,0,1
348430,-78.6536384779892,4,1,0,80,0,1
348505,-78.4885614694942,4,1,0,80,0,1
348580,-78.3241145850467,4,1,0,80,0,1
348655,-78.1603553482396,4,1,0,80,0,1
348730,-77.9973402906961,4,1,0,80,0,1
348880,-77.6732813233042,4,1,0,80,0,1
348955,-77.5122294920081,4,1,0,80,0,1
349030,-77.3519039784405,4,1,0,80,0,1
349180,-77.0331157661367,4,1,0,80,0,1
349255,-76.8747640905677,4,1,0,80,0,1
349330,-76.7170032497323,4,1,0,80,0,1
349405,-76.5599472042604,4,1,0,80,0,1
349480,-76.4034745244075,4,1,0,80,0,1
349555,-76.2476401355378,4,1,0,80,0,1
349630,-76.0924980406182,4,1,0,80,0,1
349705,-75.937928337377,4,1,0,80,0,1
349780,-75.7840427603883,4,1,0,80,0,1
349855,-75.6307224095343,4,1,0,80,0,1
349930,-75.4780211776232,4,1,0,80,0,1
350080,-75.1745176427075,4,1,0,80,0,1
350155,-75.0237074915673,4,1,0,80,0,1
350230,-74.8734451593195,4,1,0,80,0,1
350280,-74.773622856801,4,1,0,80,0,1
350330,-74.6740663688167,4,1,0,80,0,1
350380,-74.5747746350311,4,1,0,80,0,1
350455,-74.4263034464588,4,1,0,80,0,1
350530,-74.2784774397694,4,1,0,80,0,1
350605,-74.1311825406239,4,1,0,80,0,1
350680,-73.984525396668,4,1,0,80,0,1
350755,-73.8383928630763,4,1,0,80,0,1
350830,-73.6928364667527,4,1,0,80,0,1
350880,-73.5961353197421,4,1,0,80,0,1
350930,-73.4996876263276,4,1,0,80,0,1
350980,-73.403492391361,4,1,0,80,0,1
351055,-73.2596975693165,4,1,0,80,0,1
351130,-73.1164115635067,4,1,0,80,0,1
351205,-72.9736849594668,4,1,0,80,0,1
351280,-72.8315675319785,4,1,0,80,0,1
351355,-72.6899497421688,4,1,0,80,0,1
351430,-72.5489342561558,4,1,0,80,0,1
351480,-72.4552100005579,4,1,0,80,0,1
351530,-72.3616752306709,4,1,0,80,0,1
351580,-72.2684338707696,4,1,0,80,0,1
351655,-72.1290475215017,4,1,0,80,0,1
351730,-71.990145988817,4,1,0,80,0,1
351780,-71.8978590255539,4,1,0,80,0,1
351830,-71.8058083718392,4,1,0,80,0,1
351880,-71.7139931211938,4,1,0,80,0,1
351955,-71.5766840383279,4,1,0,80,0,1
352030,-71.4285714285714,4,1,0,60,0,0
352255,-75.42769388123,4,1,0,60,0,0
352480,-79.9011782227741,4,1,0,60,0,0
352630,-83.3333333333333,4,1,0,80,0,0
352780,-83.7690721234957,4,1,0,60,0,0
352930,-84.2093917050381,4,1,0,60,0,0
353080,-84.6543646943893,4,1,0,60,0,0
353830,-86.9516070830779,4,1,0,60,0,0
353980,-87.4261140054012,4,1,0,60,0,0
354130,-87.9058282443184,4,1,0,60,0,0
354280,-88.3908359916877,4,1,0,60,0,0
354730,-89.8784304349936,4,1,0,60,0,0
355030,-90.89834837701,4,1,0,60,0,0
355180,-91.4170372103908,4,1,0,60,0,0
355330,-91.9416795538254,4,1,0,60,0,0
355480,-92.4723785005419,4,1,0,60,0,0
355930,-94.1017936742892,4,1,0,60,0,0
356005,-94.3789768941389,4,1,0,60,0,0
356080,-94.657797862059,4,1,0,60,0,0
356155,-94.9382711361073,4,1,0,60,0,0
356230,-95.2204114473979,4,1,0,60,0,0
356380,-95.789752986964,4,1,0,60,0,0
356530,-96.3659438899655,4,1,0,60,0,0
356680,-96.9491085044727,4,1,0,60,0,0
356830,-97.5392790676806,4,1,0,60,0,0
356980,-98.1367751863127,4,1,0,60,0,0
357130,-98.7416365833814,4,1,0,60,0,0
357280,-99.3540002901137,4,1,0,60,0,0
357430,-100,4,1,0,60,0,0
357580,-100.470301481234,4,1,0,60,0,0
357730,-100.945149434152,4,1,0,60,0,0
357880,-101.424404334473,4,1,0,60,0,0
358630,-103.890814909163,4,1,0,60,0,0
358780,-104.398627366847,4,1,0,60,0,0
358930,-104.911318462504,4,1,0,60,0,0
359080,-105.429069957459,4,1,0,60,0,0
359530,-107.013676347837,4,1,0,60,0,0
359830,-108.096655705666,4,1,0,60,0,0
359980,-108.646525049543,4,1,0,60,0,0
360130,-109.201897928986,4,1,0,60,0,0
360280,-109.763098304928,4,1,0,60,0,0
360730,-111.481601633874,4,1,0,60,0,0
360805,-111.773305852003,4,1,0,60,0,0
360880,-112.066415040209,4,1,0,60,0,0
360955,-112.361191792689,4,1,0,60,0,0
361030,-112.657523382069,4,1,0,60,0,0
361330,-113.858517129445,4,1,0,60,0,0
361630,-115.085260915549,4,1,0,60,0,0
361930,-116.338862531673,4,1,0,60,0,0
362080,-116.976029272082,4,1,0,60,0,0
362230,-117.647058823529,4,1,0,60,0,0
362380,-118.080623087832,4,1,0,60,0,0
362530,-118.517394798035,4,1,0,60,0,0
362680,-118.957409678613,4,1,0,60,0,0
363430,-121.207272921204,4,1,0,60,0,0
363580,-121.66752645052,4,1,0,60,0,0
363730,-122.131288692719,4,1,0,60,0,0
363880,-122.598599923989,4,1,0,60,0,0
364030,-123.069501039322,4,1,0,60,0,0
364180,-123.544033564443,4,1,0,60,0,0
364330,-124.022239668017,4,1,0,60,0,0
364480,-124.504162174141,4,1,0,60,0,0
364630,-124.989844575128,4,1,0,60,0,0
364780,-125.47933104459,4,1,0,60,0,0
364930,-125.972666450834,4,1,0,60,0,0
365080,-126.469896370567,4,1,0,60,0,0
365530,-127.985419900965,4,1,0,60,0,0
365605,-128.241463286393,4,1,0,60,0,0
365680,-128.498698308186,4,1,0,60,0,0
365755,-128.756801578043,4,1,0,60,0,0
365830,-129.015943790334,4,1,0,60,0,0
365980,-129.53753803546,4,1,0,60,0,0
366130,-130.06336687234,4,1,0,60,0,0
366280,-130.593482079309,4,1,0,60,0,0
366430,-131.127936282313,4,1,0,60,0,0
366580,-131.666782972325,4,1,0,60,0,0
366730,-132.210076523192,4,1,0,60,0,0
366880,-132.757872209927,4,1,0,60,0,0
367030,-133.333333333333,4,1,0,60,0,0
367180,-133.890496318681,4,1,0,60,0,0
367330,-134.452335302612,4,1,0,60,0,0
367480,-135.018909398261,4,1,0,60,0,0
367930,-136.747648624182,4,1,0,60,0,0
368080,-137.333774632529,4,1,0,60,0,0
368230,-137.924756528324,4,1,0,60,0,0
368380,-138.521038575339,4,1,0,60,0,0
368530,-139.122498751376,4,1,0,60,0,0
368680,-139.729204801095,4,1,0,60,0,0
368980,-140.958631460839,4,1,0,60,0,0
369130,-141.581493599809,4,1,0,60,0,0
369280,-142.209884724667,4,1,0,60,0,0
369430,-142.843878782684,4,1,0,60,0,0
369580,-143.483551045708,4,1,0,60,0,0
369730,-144.128978139958,4,1,0,60,0,0
369880,-144.780238076623,4,1,0,60,0,0
370330,-146.769816493698,4,1,0,60,0,0
370405,-147.106633185197,4,1,0,60,0,0
370480,-147.445216729724,4,1,0,60,0,0
370555,-147.78514404618,4,1,0,60,0,0
370630,-148.126642354147,4,1,0,60,0,0
370930,-149.509012403268,4,1,0,60,0,0
371230,-150.91742703897,4,1,0,60,0,0
371530,-152.352629301677,4,1,0,60,0,0
371830,-153.846153846154,4,1,0,20,0,0
371980,-154.123813824598,4,1,0,20,0,0
372130,-154.402716252584,4,1,0,20,0,0
372280,-154.682390647284,4,1,0,20,0,0
372430,-154.963320182113,4,1,0,20,0,0
372580,-155.24503099467,4,1,0,20,0,0
372730,-155.528009816928,4,1,0,20,0,0
372880,-155.81177937052,4,1,0,20,0,0
373030,-156.096829985577,4,1,0,20,0,0
373180,-156.382680930852,4,1,0,20,0,0
373330,-156.669826174828,4,1,0,20,0,0
373480,-156.957781495933,4,1,0,20,0,0
373630,-157.247044541798,4,1,0,20,0,0
373780,-157.537127562538,4,1,0,20,0,0
373930,-157.828531926345,4,1,0,20,0,0
374080,-158.120766316482,4,1,0,20,0,0
374230,-158.414335863738,4,1,0,20,0,0
374380,-158.708745645429,4,1,0,20,0,0
374530,-159.004504597615,4,1,0,20,0,0
374680,-159.301114151992,4,1,0,20,0,0
374830,-159.599087093222,4,1,0,20,0,0
374980,-159.897921167127,4,1,0,20,0,0
375130,-160.198133050957,4,1,0,20,0,0
375280,-160.499216763822,4,1,0,20,0,0
375430,-160.801692920223,4,1,0,20,0,0
375580,-161.105051771108,4,1,0,20,0,0
375730,-161.409817913584,4,1,0,20,0,0
375880,-161.715477788379,4,1,0,20,0,0
376030,-162.022560021257,4,1,0,20,0,0
376180,-162.330547200042,4,1,0,20,0,0
376330,-162.639972025925,4,1,0,20,0,0
376480,-162.950313190502,4,1,0,20,0,0
376630,-163.262107517894,4,1,0,20,0,0
376780,-163.574829759496,4,1,0,20,0,0
376930,-163.8890209106,4,1,0,20,0,0
377080,-164.204151737773,4,1,0,20,0,0
377230,-164.520767456476,4,1,0,20,0,0
377380,-164.838334803142,4,1,0,20,0,0
377530,-165.15740326318,4,1,0,20,0,0
377680,-165.477435496896,4,1,0,20,0,0
377830,-165.79898531021,4,1,0,20,0,0
377980,-166.121511240612,4,1,0,20,0,0
378130,-166.445571465903,4,1,0,20,0,0
378280,-166.770620353354,4,1,0,20,0,0
378430,-167.097220504834,4,1,0,20,0,0
378580,-167.42482206927,4,1,0,20,0,0
378730,-167.753992125628,4,1,0,20,0,0
378880,-168.084176555619,4,1,0,20,0,0
379030,-168.415946969187,4,1,0,20,0,0
379180,-168.74874493121,4,1,0,20,0,0
379330,-169.083146637359,4,1,0,20,0,0
379480,-169.418589285291,4,1,0,20,0,0
379630,-169.755653712047,4,1,0,20,0,0
379780,-170.093772696888,4,1,0,20,0,0
379930,-170.433531774776,4,1,0,20,0,0
380080,-170.774359254604,4,1,0,20,0,0
380230,-171.116845426731,4,1,0,20,0,0
380380,-171.4604140769,4,1,0,20,0,0
380530,-171.805660309285,4,1,0,20,0,0
380680,-172.152003332863,4,1,0,20,0,0
380830,-172.500043125011,4,1,0,20,0,0
380980,-172.849194263481,4,1,0,20,0,0
381130,-173.200061659222,4,1,0,20,0,0
381280,-173.552055203438,4,1,0,20,0,0
381430,-173.905784802026,4,1,0,20,0,0
381580,-174.260655603439,4,1,0,20,0,0
381730,-174.617282570925,4,1,0,20,0,0
381880,-174.975066053087,4,1,0,20,0,0
382030,-175.334626133977,4,1,0,20,0,0
382180,-175.695358304329,4,1,0,20,0,0
382330,-176.05788783352,4,1,0,20,0,0
382480,-176.421605295471,4,1,0,20,0,0
382630,-176.787141210497,4,1,0,20,0,0
382780,-177.153881175806,4,1,0,20,0,0
382930,-177.522461029382,4,1,0,20,0,0
383080,-177.892261330848,4,1,0,20,0,0
383230,-178.26392330373,4,1,0,20,0,0
383380,-178.636822408203,4,1,0,20,0,0
383530,-179.011605322373,4,1,0,20,0,0
383680,-179.387642344094,4,1,0,20,0,0
383830,-179.765262520201,4,1,0,20,0,0
383980,-180.144800390554,4,1,0,20,0,0
384130,-180.525618390506,4,1,0,20,0,0
384280,-180.908377143312,4,1,0,20,0,0
384430,-181.292433760277,4,1,0,20,0,0
384580,-181.678454570394,4,1,0,20,0,0
384730,-182.065791294342,4,1,0,20,0,0
384880,-182.455116041454,4,1,0,20,0,0
385030,-182.845775074098,4,1,0,20,0,0
385180,-183.238446357861,4,1,0,20,0,0
385330,-183.632470627986,4,1,0,20,0,0
385480,-184.028531783568,4,1,0,20,0,0
385630,-184.425964962755,4,1,0,20,0,0
385780,-184.825460076777,4,1,0,20,0,0
385930,-185.22634659554,4,1,0,20,0,0
386080,-185.629320522435,4,1,0,20,0,0
386230,-186.033705586778,4,1,0,20,0,0
386380,-186.440203965583,4,1,0,20,0,0
386530,-186.848133573994,4,1,0,20,0,0
386680,-187.258202845576,4,1,0,20,0,0
386830,-187.669723806467,4,1,0,20,0,0
386980,-188.083411231213,4,1,0,20,0,0
387130,-188.49857118083,4,1,0,20,0,0
387280,-188.915924856802,4,1,0,20,0,0
387430,-189.334772277603,4,1,0,20,0,0
387580,-189.75584115918,4,1,0,20,0,0
387730,-190.178425398709,4,1,0,20,0,0
387880,-190.603259315734,4,1,0,20,0,0
388030,-191.029630606003,4,1,0,20,0,0
388180,-191.458280283435,4,1,0,20,0,0
388330,-191.88848976083,4,1,0,20,0,0
388480,-192.321006838935,4,1,0,20,0,0
388630,-192.755106564661,4,1,0,20,0,0
388780,-193.191543619753,4,1,0,20,0,0
388930,-193.629586600833,4,1,0,20,0,0
389080,-194.069997166578,4,1,0,20,0,0
389230,-194.512037377433,4,1,0,20,0,0
389380,-194.95647596674,4,1,0,20,0,0
389530,-195.402568371359,4,1,0,20,0,0
389680,-195.851090498872,4,1,0,20,0,0
389830,-196.301291073591,4,1,0,20,0,0
389980,-196.753953278806,4,1,0,20,0,0
390130,-197.20831903573,4,1,0,20,0,0
390280,-197.665178906753,4,1,0,20,0,0
390430,-198.123767917818,4,1,0,20,0,0
390580,-198.584884115791,4,1,0,20,0,0
390730,-199.047755537509,4,1,0,20,0,0
390880,-199.513187821715,4,1,0,20,0,0
391030,-199.980401920612,4,1,0,20,0,0
400030,-200,4,1,0,20,0,0
400180,-189.69212967354,4,1,0,20,0,0
400330,-180.394703611502,4,1,0,20,0,0
400480,-171.966384011253,4,1,0,20,0,0
400630,-164.290208796426,4,1,0,20,0,0
400780,-157.270043673891,4,1,0,20,0,0
400930,-150.825240302314,4,1,0,20,0,0
401080,-144.887849560048,4,1,0,20,0,0
401230,-139.400410952411,4,1,0,20,0,0
401380,-134.31328304644,4,1,0,20,0,0
401530,-129.584371088172,4,1,0,20,0,0
401680,-125.17712563277,4,1,0,20,0,0

[Colours]
Combo1 : 240,240,240
Combo2 : 0,0,0
Combo3 : 0,0,0

[HitObjects]
256,192,1630,12,0,6880,0:0:0:0:
256,192,7030,5,0,0:0:0:0:
256,192,7330,1,0,0:0:0:0:
256,192,7630,1,8,0:0:0:0:
256,192,7780,1,0,0:0:0:0:
256,192,7930,1,0,0:0:0:0:
256,192,8080,1,8,0:0:0:0:
256,192,8380,1,0,0:0:0:0:
256,192,8530,1,8,0:0:0:0:
256,192,8830,1,0,0:0:0:0:
256,192,8980,1,8,0:0:0:0:
256,192,9280,1,0,0:0:0:0:
256,192,9430,1,8,0:0:0:0:
256,192,9730,1,0,0:0:0:0:
256,192,9880,1,8,0:0:0:0:
256,192,10180,1,0,0:0:0:0:
256,192,10330,1,8,0:0:0:0:
256,192,10630,1,0,0:0:0:0:
256,192,10780,1,8,0:0:0:0:
256,192,11080,1,0,0:0:0:0:
256,192,11230,1,8,0:0:0:0:
256,192,11530,1,0,0:0:0:0:
256,192,11680,1,0,0:0:0:0:
256,192,11830,1,0,0:0:0:0:
256,192,12130,1,0,0:0:0:0:
256,192,12430,1,8,0:0:0:0:
256,192,12580,1,0,0:0:0:0:
256,192,12730,1,0,0:0:0:0:
256,192,12880,1,8,0:0:0:0:
256,192,13180,1,0,0:0:0:0:
256,192,13330,1,8,0:0:0:0:
256,192,13630,1,0,0:0:0:0:
256,192,13780,1,8,0:0:0:0:
256,192,14080,1,0,0:0:0:0:
256,192,14230,1,8,0:0:0:0:
256,192,14530,1,0,0:0:0:0:
256,192,14680,1,8,0:0:0:0:
256,192,14980,1,0,0:0:0:0:
256,192,15130,1,8,0:0:0:0:
256,192,15430,1,0,0:0:0:0:
256,192,15580,1,8,0:0:0:0:
256,192,15880,1,0,0:0:0:0:
256,192,16030,1,8,0:0:0:0:
256,192,16330,1,0,0:0:0:0:
256,192,16480,1,0,0:0:0:0:
256,192,16630,1,0,0:0:0:0:
256,192,16930,1,0,0:0:0:0:
256,192,17080,1,8,0:0:0:0:
256,192,17230,1,8,0:0:0:0:
256,192,17380,1,0,0:0:0:0:
256,192,17530,1,0,0:0:0:0:
256,192,17680,1,8,0:0:0:0:
256,192,17980,1,0,0:0:0:0:
256,192,18130,1,8,0:0:0:0:
256,192,18430,1,0,0:0:0:0:
256,192,18580,1,8,0:0:0:0:
256,192,18880,1,0,0:0:0:0:
256,192,19030,1,8,0:0:0:0:
256,192,19330,1,0,0:0:0:0:
256,192,19480,1,8,0:0:0:0:
256,192,19780,1,0,0:0:0:0:
256,192,19930,1,8,0:0:0:0:
256,192,20230,1,0,0:0:0:0:
256,192,20380,1,8,0:0:0:0:
256,192,20680,1,0,0:0:0:0:
256,192,20830,1,8,0:0:0:0:
256,192,21130,1,8,0:0:0:0:
256,192,21280,1,8,0:0:0:0:
256,192,21430,1,0,0:0:0:0:
256,192,21730,1,0,0:0:0:0:
256,192,21880,1,8,0:0:0:0:
256,192,22030,1,8,0:0:0:0:
256,192,22180,1,0,0:0:0:0:
256,192,22330,1,0,0:0:0:0:
256,192,22480,1,8,0:0:0:0:
256,192,22780,1,0,0:0:0:0:
256,192,22930,1,8,0:0:0:0:
256,192,23230,1,0,0:0:0:0:
256,192,23380,1,8,0:0:0:0:
256,192,23680,1,0,0:0:0:0:
256,192,23830,1,8,0:0:0:0:
256,192,24130,1,0,0:0:0:0:
256,192,24280,1,8,0:0:0:0:
256,192,24580,1,0,0:0:0:0:
256,192,24730,1,8,0:0:0:0:
256,192,25030,1,0,0:0:0:0:
256,192,25180,1,8,0:0:0:0:
256,192,25480,1,0,0:0:0:0:
256,192,25630,1,8,0:0:0:0:
256,192,25930,1,0,0:0:0:0:
256,192,26230,1,0,0:0:0:0:
256,192,26380,1,0,0:0:0:0:
256,192,26530,1,8,0:0:0:0:
256,192,26680,1,0,0:0:0:0:
256,192,26830,1,8,0:0:0:0:
256,192,26980,1,8,0:0:0:0:
256,192,27130,1,0,0:0:0:0:
256,192,27280,1,0,0:0:0:0:
256,192,27430,1,8,0:0:0:0:
256,192,27580,1,0,0:0:0:0:
256,192,27730,1,8,0:0:0:0:
256,192,27880,1,8,0:0:0:0:
256,192,28030,1,0,0:0:0:0:
256,192,28180,1,8,0:0:0:0:
256,192,28330,1,8,0:0:0:0:
256,192,28480,1,8,0:0:0:0:
256,192,28630,1,0,0:0:0:0:
256,192,28780,1,0,0:0:0:0:
256,192,28930,1,8,0:0:0:0:
256,192,29080,1,0,0:0:0:0:
256,192,29230,1,8,0:0:0:0:
256,192,29380,1,8,0:0:0:0:
256,192,29530,1,0,0:0:0:0:
256,192,29680,1,0,0:0:0:0:
256,192,29830,1,8,0:0:0:0:
256,192,29980,1,0,0:0:0:0:
256,192,30130,1,8,0:0:0:0:
256,192,30280,1,8,0:0:0:0:
256,192,30430,1,0,0:0:0:0:
256,192,30580,1,8,0:0:0:0:
256,192,30730,1,0,0:0:0:0:
256,192,30880,1,8,0:0:0:0:
256,192,31030,1,0,0:0:0:0:
256,192,31180,1,0,0:0:0:0:
256,192,31330,1,8,0:0:0:0:
256,192,31480,1,0,0:0:0:0:
256,192,31630,1,8,0:0:0:0:
256,192,31780,1,8,0:0:0:0:
256,192,31930,1,0,0:0:0:0:
256,192,32080,1,0,0:0:0:0:
256,192,32230,1,8,0:0:0:0:
256,192,32380,1,0,0:0:0:0:
256,192,32530,1,8,0:0:0:0:
256,192,32680,1,8,0:0:0:0:
256,192,32830,1,0,0:0:0:0:
256,192,32980,1,8,0:0:0:0:
256,192,33130,1,8,0:0:0:0:
256,192,33280,1,8,0:0:0:0:
256,192,33430,1,0,0:0:0:0:
256,192,33580,1,0,0:0:0:0:
256,192,33730,1,8,0:0:0:0:
256,192,33880,1,0,0:0:0:0:
256,192,34030,1,8,0:0:0:0:
256,192,34180,1,8,0:0:0:0:
256,192,34330,1,0,0:0:0:0:
256,192,34480,1,0,0:0:0:0:
256,192,34630,1,8,0:0:0:0:
256,192,34780,1,0,0:0:0:0:
256,192,34930,1,8,0:0:0:0:
256,192,35080,1,8,0:0:0:0:
256,192,35230,1,0,0:0:0:0:
256,192,35380,1,8,0:0:0:0:
256,192,35530,1,0,0:0:0:0:
256,192,35680,1,8,0:0:0:0:
256,192,35830,1,0,0:0:0:0:
256,192,35980,1,0,0:0:0:0:
256,192,36130,1,8,0:0:0:0:
256,192,36280,1,0,0:0:0:0:
256,192,36430,1,8,0:0:0:0:
256,192,36580,1,8,0:0:0:0:
256,192,36730,1,0,0:0:0:0:
256,192,36880,1,0,0:0:0:0:
256,192,37030,1,8,0:0:0:0:
256,192,37180,1,0,0:0:0:0:
256,192,37330,1,8,0:0:0:0:
256,192,37480,1,8,0:0:0:0:
256,192,37630,1,0,0:0:0:0:
256,192,37780,1,8,0:0:0:0:
256,192,37930,1,8,0:0:0:0:
256,192,38080,1,8,0:0:0:0:
256,192,38230,1,0,0:0:0:0:
256,192,38380,1,0,0:0:0:0:
256,192,38530,1,8,0:0:0:0:
256,192,38680,1,0,0:0:0:0:
256,192,38830,1,8,0:0:0:0:
256,192,38980,1,8,0:0:0:0:
256,192,39130,1,0,0:0:0:0:
256,192,39280,1,0,0:0:0:0:
256,192,39430,1,8,0:0:0:0:
256,192,39580,1,0,0:0:0:0:
256,192,39730,1,8,0:0:0:0:
256,192,39880,1,8,0:0:0:0:
256,192,40030,1,0,0:0:0:0:
256,192,40180,1,8,0:0:0:0:
256,192,40330,1,0,0:0:0:0:
256,192,40480,1,8,0:0:0:0:
256,192,40630,1,0,0:0:0:0:
256,192,40780,1,0,0:0:0:0:
256,192,40930,1,8,0:0:0:0:
256,192,41080,1,0,0:0:0:0:
256,192,41230,1,8,0:0:0:0:
256,192,41380,1,8,0:0:0:0:
256,192,41530,1,0,0:0:0:0:
256,192,41680,1,0,0:0:0:0:
256,192,41830,1,8,0:0:0:0:
256,192,41980,1,0,0:0:0:0:
256,192,42130,1,8,0:0:0:0:
256,192,42280,1,8,0:0:0:0:
256,192,42430,1,0,0:0:0:0:
256,192,42580,1,8,0:0:0:0:
256,192,42730,1,8,0:0:0:0:
256,192,42880,1,8,0:0:0:0:
256,192,43030,1,0,0:0:0:0:
256,192,43180,1,0,0:0:0:0:
256,192,43330,1,8,0:0:0:0:
256,192,43480,1,0,0:0:0:0:
256,192,43630,1,8,0:0:0:0:
256,192,43780,1,8,0:0:0:0:
256,192,43930,1,0,0:0:0:0:
256,192,44080,1,0,0:0:0:0:
256,192,44230,1,8,0:0:0:0:
256,192,44380,1,0,0:0:0:0:
256,192,44530,1,8,0:0:0:0:
256,192,44680,1,8,0:0:0:0:
256,192,44830,1,0,0:0:0:0:
256,192,44980,1,8,0:0:0:0:
256,192,45130,1,0,0:0:0:0:
256,192,45280,1,8,0:0:0:0:
256,192,45430,1,0,0:0:0:0:
256,192,46630,1,8,0:0:0:0:
256,192,47830,1,0,0:0:0:0:
256,192,50230,5,8,0:0:0:0:
256,192,51430,1,8,0:0:0:0:
256,192,52630,1,0,0:0:0:0:
256,192,54430,5,0,0:0:0:0:
256,192,54730,1,0,0:0:0:0:
256,192,54880,1,8,0:0:0:0:
256,192,55030,1,8,0:0:0:0:
256,192,55780,1,0,0:0:0:0:
256,192,56230,1,8,0:0:0:0:
256,192,56830,1,8,0:0:0:0:
256,192,56980,1,0,0:0:0:0:
256,192,57130,1,0,0:0:0:0:
256,192,57280,1,8,0:0:0:0:
256,192,57580,1,8,0:0:0:0:
256,192,57730,1,0,0:0:0:0:
256,192,59230,1,0,0:0:0:0:
256,192,59455,1,0,0:0:0:0:
256,192,59530,1,8,0:0:0:0:
256,192,59680,1,0,0:0:0:0:
256,192,59830,1,8,0:0:0:0:
256,192,60130,1,0,0:0:0:0:
256,192,60430,1,8,0:0:0:0:
256,192,60580,1,0,0:0:0:0:
256,192,60730,1,0,0:0:0:0:
256,192,60880,1,8,0:0:0:0:
256,192,61180,1,0,0:0:0:0:
256,192,61330,1,8,0:0:0:0:
256,192,61630,1,8,0:0:0:0:
256,192,61780,1,0,0:0:0:0:
256,192,61930,1,8,0:0:0:0:
256,192,62080,1,8,0:0:0:0:
256,192,62380,1,0,0:0:0:0:
256,192,62530,1,8,0:0:0:0:
256,192,62830,1,0,0:0:0:0:
256,192,63130,1,8,0:0:0:0:
256,192,63280,1,0,0:0:0:0:
256,192,63430,1,8,0:0:0:0:
256,192,63580,1,8,0:0:0:0:
256,192,63730,1,8,0:0:0:0:
256,192,63880,1,0,0:0:0:0:
256,192,64330,1,0,0:0:0:0:
256,192,64630,1,12,0:0:0:0:
256,192,65380,1,4,0:0:0:0:
256,192,65830,1,12,0:0:0:0:
256,192,66430,1,12,0:0:0:0:
256,192,66580,1,0,0:0:0:0:
256,192,66730,1,0,0:0:0:0:
256,192,66880,1,12,0:0:0:0:
256,192,67180,1,8,0:0:0:0:
256,192,67330,1,0,0:0:0:0:
256,192,67480,12,0,68680,0:0:0:0:
256,192,68830,5,0,0:0:0:0:
256,192,69055,1,8,0:0:0:0:
256,192,69130,1,0,0:0:0:0:
256,192,69280,1,0,0:0:0:0:
256,192,69430,1,12,0:0:0:0:
256,192,70180,1,12,0:0:0:0:
256,192,70330,1,0,0:0:0:0:
256,192,70480,1,0,0:0:0:0:
256,192,70630,1,12,0:0:0:0:
256,192,71230,1,12,0:0:0:0:
256,192,71380,1,0,0:0:0:0:
256,192,71530,1,8,0:0:0:0:
256,192,71680,1,12,0:0:0:0:
256,192,72430,12,0,73480,0:0:0:0:
256,192,73630,5,0,0:0:0:0:
256,192,73930,1,0,0:0:0:0:
256,192,74230,1,12,0:0:0:0:
256,192,74980,1,4,0:0:0:0:
256,192,75430,1,12,0:0:0:0:
256,192,76030,1,12,0:0:0:0:
256,192,76180,1,0,0:0:0:0:
256,192,76330,1,0,0:0:0:0:
256,192,76480,1,12,0:0:0:0:
256,192,76780,1,8,0:0:0:0:
256,192,76930,1,0,0:0:0:0:
256,192,77080,12,0,78280,0:0:0:0:
256,192,78430,5,0,0:0:0:0:
256,192,78655,1,8,0:0:0:0:
256,192,78730,1,0,0:0:0:0:
256,192,78880,1,0,0:0:0:0:
256,192,79030,1,12,0:0:0:0:
256,192,79780,1,12,0:0:0:0:
256,192,79930,1,0,0:0:0:0:
256,192,80080,1,0,0:0:0:0:
256,192,80230,1,12,0:0:0:0:
256,192,80830,1,12,0:0:0:0:
256,192,80980,1,0,0:0:0:0:
256,192,81130,1,8,0:0:0:0:
256,192,81280,1,12,0:0:0:0:
256,192,81430,12,0,86080,0:0:0:0:
256,192,86230,5,12,0:0:0:0:
256,192,86380,1,0,0:0:0:0:
256,192,86455,1,0,0:0:0:0:
256,192,86530,1,8,0:0:0:0:
256,192,86605,1,8,0:0:0:0:
256,192,86680,1,0,0:0:0:0:
256,192,86755,1,0,0:0:0:0:
256,192,86830,1,8,0:0:0:0:
256,192,86980,1,8,0:0:0:0:
256,192,87055,1,8,0:0:0:0:
256,192,87130,1,0,0:0:0:0:
256,192,87280,1,8,0:0:0:0:
256,192,87355,1,0,0:0:0:0:
256,192,87430,1,8,0:0:0:0:
256,192,87505,1,8,0:0:0:0:
256,192,87580,1,0,0:0:0:0:
256,192,87655,1,8,0:0:0:0:
256,192,87730,1,0,0:0:0:0:
256,192,87880,1,0,0:0:0:0:
256,192,88030,1,8,0:0:0:0:
256,192,88105,1,0,0:0:0:0:
256,192,88180,1,8,0:0:0:0:
256,192,88255,1,8,0:0:0:0:
256,192,88330,1,0,0:0:0:0:
256,192,88405,1,8,0:0:0:0:
256,192,88480,1,0,0:0:0:0:
256,192,88555,1,0,0:0:0:0:
256,192,88630,1,8,0:0:0:0:
256,192,88780,1,0,0:0:0:0:
256,192,88855,1,0,0:0:0:0:
256,192,88930,1,8,0:0:0:0:
256,192,89005,1,8,0:0:0:0:
256,192,89080,1,0,0:0:0:0:
256,192,89155,1,0,0:0:0:0:
256,192,89230,1,8,0:0:0:0:
256,192,89380,1,8,0:0:0:0:
256,192,89455,1,8,0:0:0:0:
256,192,89530,1,0,0:0:0:0:
256,192,89680,1,8,0:0:0:0:
256,192,89755,1,0,0:0:0:0:
256,192,89830,1,8,0:0:0:0:
256,192,89905,1,8,0:0:0:0:
256,192,89980,1,0,0:0:0:0:
256,192,90055,1,8,0:0:0:0:
256,192,90130,1,0,0:0:0:0:
256,192,90280,1,0,0:0:0:0:
256,192,90430,1,8,0:0:0:0:
256,192,90505,1,0,0:0:0:0:
256,192,90580,1,8,0:0:0:0:
256,192,90655,1,8,0:0:0:0:
256,192,90730,1,0,0:0:0:0:
256,192,90805,1,8,0:0:0:0:
256,192,90880,1,0,0:0:0:0:
256,192,90955,1,0,0:0:0:0:
256,192,91030,1,8,0:0:0:0:
256,192,91180,1,0,0:0:0:0:
256,192,91255,1,0,0:0:0:0:
256,192,91330,1,8,0:0:0:0:
256,192,91405,1,8,0:0:0:0:
256,192,91480,1,0,0:0:0:0:
256,192,91555,1,0,0:0:0:0:
256,192,91630,1,8,0:0:0:0:
256,192,91780,1,8,0:0:0:0:
256,192,91855,1,8,0:0:0:0:
256,192,91930,1,0,0:0:0:0:
256,192,92080,1,8,0:0:0:0:
256,192,92155,1,0,0:0:0:0:
256,192,92230,1,8,0:0:0:0:
256,192,92305,1,8,0:0:0:0:
256,192,92380,1,0,0:0:0:0:
256,192,92455,1,8,0:0:0:0:
256,192,92530,1,0,0:0:0:0:
256,192,92680,1,0,0:0:0:0:
256,192,92830,1,8,0:0:0:0:
256,192,92905,1,0,0:0:0:0:
256,192,92980,1,8,0:0:0:0:
256,192,93055,1,0,0:0:0:0:
256,192,93130,1,8,0:0:0:0:
256,192,93205,1,8,0:0:0:0:
256,192,93280,1,0,0:0:0:0:
256,192,93355,1,0,0:0:0:0:
256,192,93430,1,8,0:0:0:0:
256,192,93580,1,0,0:0:0:0:
256,192,93655,1,0,0:0:0:0:
256,192,93730,1,8,0:0:0:0:
256,192,93805,1,8,0:0:0:0:
256,192,93880,1,0,0:0:0:0:
256,192,93955,1,0,0:0:0:0:
256,192,94030,1,8,0:0:0:0:
256,192,94180,1,8,0:0:0:0:
256,192,94255,1,8,0:0:0:0:
256,192,94330,1,0,0:0:0:0:
256,192,94480,1,0,0:0:0:0:
256,192,94630,1,8,0:0:0:0:
256,192,94780,1,8,0:0:0:0:
256,192,94855,1,0,0:0:0:0:
256,192,94930,1,8,0:0:0:0:
256,192,95005,1,0,0:0:0:0:
256,192,95080,1,8,0:0:0:0:
256,192,95155,1,8,0:0:0:0:
256,192,95230,1,0,0:0:0:0:
256,192,95380,1,0,0:0:0:0:
256,192,95530,1,8,0:0:0:0:
256,192,95680,1,8,0:0:0:0:
256,192,95830,1,12,0:0:0:0:
256,192,95980,1,0,0:0:0:0:
256,192,96055,1,0,0:0:0:0:
256,192,96130,1,8,0:0:0:0:
256,192,96280,1,0,0:0:0:0:
256,192,96430,1,8,0:0:0:0:
256,192,96505,1,8,0:0:0:0:
256,192,96580,1,0,0:0:0:0:
256,192,96730,1,8,0:0:0:0:
256,192,96805,1,8,0:0:0:0:
256,192,96880,1,0,0:0:0:0:
256,192,97030,1,8,0:0:0:0:
256,192,97180,1,0,0:0:0:0:
256,192,97255,1,0,0:0:0:0:
256,192,97330,1,8,0:0:0:0:
256,192,97480,1,0,0:0:0:0:
256,192,97630,1,0,0:0:0:0:
256,192,97705,1,0,0:0:0:0:
256,192,97780,1,8,0:0:0:0:
256,192,97855,1,0,0:0:0:0:
256,192,97930,1,8,0:0:0:0:
256,192,97980,1,8,0:0:0:0:
256,192,98030,1,8,0:0:0:0:
256,192,98080,1,0,0:0:0:0:
256,192,98230,1,12,0:0:0:0:
256,192,98380,1,0,0:0:0:0:
256,192,98455,1,0,0:0:0:0:
256,192,98530,1,8,0:0:0:0:
256,192,98680,1,0,0:0:0:0:
256,192,98830,1,8,0:0:0:0:
256,192,98905,1,8,0:0:0:0:
256,192,98980,1,0,0:0:0:0:
256,192,99130,1,8,0:0:0:0:
256,192,99205,1,8,0:0:0:0:
256,192,99280,1,0,0:0:0:0:
256,192,99430,1,8,0:0:0:0:
256,192,99580,1,0,0:0:0:0:
256,192,99655,1,0,0:0:0:0:
256,192,99730,1,8,0:0:0:0:
256,192,99880,1,0,0:0:0:0:
256,192,99955,1,0,0:0:0:0:
256,192,100030,1,8,0:0:0:0:
256,192,100105,1,0,0:0:0:0:
256,192,100180,1,8,0:0:0:0:
256,192,100255,1,0,0:0:0:0:
256,192,100330,1,8,0:0:0:0:
256,192,100367,1,8,0:0:0:0:
256,192,100480,1,8,0:0:0:0:
256,192,100517,1,8,0:0:0:0:
256,192,100630,1,8,0:0:0:0:
256,192,100705,1,8,0:0:0:0:
256,192,100780,1,0,0:0:0:0:
256,192,100855,1,0,0:0:0:0:
256,192,100930,1,8,0:0:0:0:
256,192,101005,1,8,0:0:0:0:
256,192,101080,1,0,0:0:0:0:
256,192,101155,1,0,0:0:0:0:
256,192,101230,1,8,0:0:0:0:
256,192,101305,1,8,0:0:0:0:
256,192,101380,1,8,0:0:0:0:
256,192,101455,1,8,0:0:0:0:
256,192,101530,1,0,0:0:0:0:
256,192,101567,1,0,0:0:0:0:
256,192,101680,1,0,0:0:0:0:
256,192,101717,1,0,0:0:0:0:
256,192,101830,1,8,0:0:0:0:
256,192,101905,1,8,0:0:0:0:
256,192,101980,1,0,0:0:0:0:
256,192,102055,1,0,0:0:0:0:
256,192,102130,1,8,0:0:0:0:
256,192,102205,1,8,0:0:0:0:
256,192,102280,1,0,0:0:0:0:
256,192,102355,1,0,0:0:0:0:
256,192,102430,1,8,0:0:0:0:
256,192,102505,1,8,0:0:0:0:
256,192,102580,1,0,0:0:0:0:
256,192,102655,1,0,0:0:0:0:
256,192,102730,1,8,0:0:0:0:
256,192,102780,1,8,0:0:0:0:
256,192,102830,1,0,0:0:0:0:
256,192,102880,1,8,0:0:0:0:
256,192,103030,1,8,0:0:0:0:
256,192,103080,1,8,0:0:0:0:
256,192,103130,1,8,0:0:0:0:
256,192,103180,1,0,0:0:0:0:
256,192,103255,1,0,0:0:0:0:
256,192,103330,1,8,0:0:0:0:
256,192,103405,1,8,0:0:0:0:
256,192,103480,1,0,0:0:0:0:
256,192,103555,1,0,0:0:0:0:
256,192,103630,1,8,0:0:0:0:
256,192,103680,1,8,0:0:0:0:
256,192,103730,1,8,0:0:0:0:
256,192,103780,1,0,0:0:0:0:
256,192,103855,1,0,0:0:0:0:
256,192,103930,1,8,0:0:0:0:
256,192,104005,1,8,0:0:0:0:
256,192,104080,1,0,0:0:0:0:
256,192,104155,1,0,0:0:0:0:
256,192,104230,1,8,0:0:0:0:
256,192,104280,1,0,0:0:0:0:
256,192,104330,1,0,0:0:0:0:
256,192,104380,1,8,0:0:0:0:
256,192,104455,1,0,0:0:0:0:
256,192,104530,1,8,0:0:0:0:
256,192,104580,1,0,0:0:0:0:
256,192,104630,1,0,0:0:0:0:
256,192,104680,1,8,0:0:0:0:
256,192,104755,1,0,0:0:0:0:
256,192,104830,1,8,0:0:0:0:
256,192,104880,1,8,0:0:0:0:
256,192,104930,1,8,0:0:0:0:
256,192,104980,1,0,0:0:0:0:
256,192,105055,1,0,0:0:0:0:
256,192,105130,1,8,0:0:0:0:
256,192,105180,1,8,0:0:0:0:
256,192,105230,1,8,0:0:0:0:
256,192,105280,1,0,0:0:0:0:
256,192,105355,1,0,0:0:0:0:
256,192,105430,1,8,0:0:0:0:
256,192,105580,1,0,0:0:0:0:
256,192,105730,1,8,0:0:0:0:
256,192,105880,1,0,0:0:0:0:
256,192,105955,1,0,0:0:0:0:
256,192,106030,1,8,0:0:0:0:
256,192,106105,1,8,0:0:0:0:
256,192,106180,1,0,0:0:0:0:
256,192,106330,1,8,0:0:0:0:
256,192,106480,1,0,0:0:0:0:
256,192,106630,1,8,0:0:0:0:
256,192,106780,1,0,0:0:0:0:
256,192,106855,1,0,0:0:0:0:
256,192,106930,1,8,0:0:0:0:
256,192,107080,1,0,0:0:0:0:
256,192,107155,1,8,0:0:0:0:
256,192,107305,1,8,0:0:0:0:
256,192,107380,1,0,0:0:0:0:
256,192,107455,1,8,0:0:0:0:
256,192,107530,1,8,0:0:0:0:
256,192,107605,1,8,0:0:0:0:
256,192,107680,1,0,0:0:0:0:
256,192,107755,1,0,0:0:0:0:
256,192,107830,1,12,0:0:0:0:
256,192,108130,1,0,0:0:0:0:
256,192,108180,1,0,0:0:0:0:
256,192,108230,1,0,0:0:0:0:
256,192,108280,1,8,0:0:0:0:
256,192,108355,1,8,0:0:0:0:
256,192,108430,1,0,0:0:0:0:
256,192,108580,1,8,0:0:0:0:
256,192,108655,1,0,0:0:0:0:
256,192,108805,1,8,0:0:0:0:
256,192,108880,1,0,0:0:0:0:
256,192,108955,1,0,0:0:0:0:
256,192,109030,1,8,0:0:0:0:
256,192,109180,1,0,0:0:0:0:
256,192,109255,1,8,0:0:0:0:
256,192,109405,1,0,0:0:0:0:
256,192,109480,1,8,0:0:0:0:
256,192,109555,1,8,0:0:0:0:
256,192,109630,1,0,0:0:0:0:
256,192,109780,1,8,0:0:0:0:
256,192,109855,1,0,0:0:0:0:
256,192,109930,1,8,0:0:0:0:
256,192,110005,1,8,0:0:0:0:
256,192,110080,1,0,0:0:0:0:
256,192,110155,1,0,0:0:0:0:
256,192,110230,1,8,0:0:0:0:
256,192,110380,1,0,0:0:0:0:
256,192,110530,1,8,0:0:0:0:
256,192,110580,1,8,0:0:0:0:
256,192,110630,1,8,0:0:0:0:
256,192,110680,1,0,0:0:0:0:
256,192,110755,1,0,0:0:0:0:
256,192,110830,1,8,0:0:0:0:
256,192,110980,1,8,0:0:0:0:
256,192,111055,1,0,0:0:0:0:
256,192,111205,1,0,0:0:0:0:
256,192,111280,1,8,0:0:0:0:
256,192,111430,1,8,0:0:0:0:
256,192,111505,1,0,0:0:0:0:
256,192,111580,1,8,0:0:0:0:
256,192,111655,1,8,0:0:0:0:
256,192,111730,1,0,0:0:0:0:
256,192,111805,1,8,0:0:0:0:
256,192,111880,1,0,0:0:0:0:
256,192,111955,1,0,0:0:0:0:
256,192,112030,1,8,0:0:0:0:
256,192,112080,1,8,0:0:0:0:
256,192,112130,1,8,0:0:0:0:
256,192,112180,1,0,0:0:0:0:
256,192,112330,1,8,0:0:0:0:
256,192,112380,1,8,0:0:0:0:
256,192,112430,1,0,0:0:0:0:
256,192,112480,1,0,0:0:0:0:
256,192,112630,1,12,0:0:0:0:
256,192,112930,1,0,0:0:0:0:
256,192,112980,1,0,0:0:0:0:
256,192,113030,1,0,0:0:0:0:
256,192,113080,1,8,0:0:0:0:
256,192,113155,1,8,0:0:0:0:
256,192,113230,1,0,0:0:0:0:
256,192,113380,1,8,0:0:0:0:
256,192,113455,1,0,0:0:0:0:
256,192,113605,1,8,0:0:0:0:
256,192,113680,1,0,0:0:0:0:
256,192,113755,1,0,0:0:0:0:
256,192,113830,1,8,0:0:0:0:
256,192,113980,1,0,0:0:0:0:
256,192,114055,1,8,0:0:0:0:
256,192,114205,1,0,0:0:0:0:
256,192,114280,1,8,0:0:0:0:
256,192,114355,1,8,0:0:0:0:
256,192,114430,1,0,0:0:0:0:
256,192,114580,1,8,0:0:0:0:
256,192,114730,1,0,0:0:0:0:
256,192,114805,1,0,0:0:0:0:
256,192,114880,1,8,0:0:0:0:
256,192,114955,1,8,0:0:0:0:
256,192,115030,1,0,0:0:0:0:
256,192,115105,1,0,0:0:0:0:
256,192,115180,1,8,0:0:0:0:
256,192,115330,1,0,0:0:0:0:
256,192,115480,1,8,0:0:0:0:
256,192,115555,1,0,0:0:0:0:
256,192,115630,1,8,0:0:0:0:
256,192,115705,1,8,0:0:0:0:
256,192,115780,1,0,0:0:0:0:
256,192,115930,1,8,0:0:0:0:
256,192,116080,1,0,0:0:0:0:
256,192,116155,1,0,0:0:0:0:
256,192,116230,1,12,0:0:0:0:
256,192,116455,1,4,0:0:0:0:
256,192,116680,1,12,0:0:0:0:
256,192,116905,1,12,0:0:0:0:
256,192,117130,1,4,0:0:0:0:
256,192,117280,1,12,0:0:0:0:
256,192,117430,1,4,0:0:0:0:
256,192,117730,1,8,0:0:0:0:
256,192,117805,1,0,0:0:0:0:
256,192,117880,1,8,0:0:0:0:
256,192,117955,1,8,0:0:0:0:
256,192,118030,1,4,0:0:0:0:
256,192,118180,1,8,0:0:0:0:
256,192,118255,1,0,0:0:0:0:
256,192,118405,1,8,0:0:0:0:
256,192,118480,1,0,0:0:0:0:
256,192,118555,1,0,0:0:0:0:
256,192,118630,1,8,0:0:0:0:
256,192,118780,1,0,0:0:0:0:
256,192,118855,1,8,0:0:0:0:
256,192,119005,1,0,0:0:0:0:
256,192,119080,1,8,0:0:0:0:
256,192,119155,1,8,0:0:0:0:
256,192,119230,1,0,0:0:0:0:
256,192,119380,1,8,0:0:0:0:
256,192,119455,1,0,0:0:0:0:
256,192,119530,1,8,0:0:0:0:
256,192,119605,1,8,0:0:0:0:
256,192,119680,1,0,0:0:0:0:
256,192,119755,1,0,0:0:0:0:
256,192,119830,1,8,0:0:0:0:
256,192,119980,1,0,0:0:0:0:
256,192,120130,1,8,0:0:0:0:
256,192,120180,1,8,0:0:0:0:
256,192,120230,1,8,0:0:0:0:
256,192,120280,1,0,0:0:0:0:
256,192,120355,1,0,0:0:0:0:
256,192,120430,1,8,0:0:0:0:
256,192,120580,1,8,0:0:0:0:
256,192,120655,1,0,0:0:0:0:
256,192,120805,1,8,0:0:0:0:
256,192,120880,1,0,0:0:0:0:
256,192,121030,1,8,0:0:0:0:
256,192,121105,1,0,0:0:0:0:
256,192,121180,1,0,0:0:0:0:
256,192,121255,1,8,0:0:0:0:
256,192,121330,1,0,0:0:0:0:
256,192,121405,1,8,0:0:0:0:
256,192,121480,1,8,0:0:0:0:
256,192,121555,1,8,0:0:0:0:
256,192,121630,1,0,0:0:0:0:
256,192,121780,1,8,0:0:0:0:
256,192,121855,1,0,0:0:0:0:
256,192,121930,1,8,0:0:0:0:
256,192,122005,1,0,0:0:0:0:
256,192,122080,1,8,0:0:0:0:
256,192,122155,1,8,0:0:0:0:
256,192,122230,1,4,0:0:0:0:
256,192,122530,1,0,0:0:0:0:
256,192,122580,1,0,0:0:0:0:
256,192,122630,1,0,0:0:0:0:
256,192,122680,1,8,0:0:0:0:
256,192,122755,1,8,0:0:0:0:
256,192,122830,1,0,0:0:0:0:
256,192,122980,1,8,0:0:0:0:
256,192,123055,1,0,0:0:0:0:
256,192,123205,1,0,0:0:0:0:
256,192,123280,1,8,0:0:0:0:
256,192,123430,1,0,0:0:0:0:
256,192,123580,1,8,0:0:0:0:
256,192,123655,1,0,0:0:0:0:
256,192,123805,1,0,0:0:0:0:
256,192,123880,1,8,0:0:0:0:
256,192,123955,1,8,0:0:0:0:
256,192,124030,1,0,0:0:0:0:
256,192,124180,1,8,0:0:0:0:
256,192,124255,1,0,0:0:0:0:
256,192,124330,1,8,0:0:0:0:
256,192,124405,1,8,0:0:0:0:
256,192,124480,1,0,0:0:0:0:
256,192,124555,1,0,0:0:0:0:
256,192,124630,1,8,0:0:0:0:
256,192,124780,1,0,0:0:0:0:
256,192,124855,1,0,0:0:0:0:
256,192,124930,1,8,0:0:0:0:
256,192,125080,1,8,0:0:0:0:
256,192,125155,1,0,0:0:0:0:
256,192,125230,1,8,0:0:0:0:
256,192,125305,1,8,0:0:0:0:
256,192,125380,1,0,0:0:0:0:
256,192,125455,1,0,0:0:0:0:
256,192,125530,1,8,0:0:0:0:
256,192,125680,1,0,0:0:0:0:
256,192,125755,1,8,0:0:0:0:
256,192,125830,1,0,0:0:0:0:
256,192,125980,1,8,0:0:0:0:
256,192,126055,1,0,0:0:0:0:
256,192,126130,1,8,0:0:0:0:
256,192,126280,1,8,0:0:0:0:
256,192,126355,1,0,0:0:0:0:
256,192,126430,1,8,0:0:0:0:
256,192,126505,1,8,0:0:0:0:
256,192,126580,1,0,0:0:0:0:
256,192,126655,1,0,0:0:0:0:
256,192,126730,1,8,0:0:0:0:
256,192,126830,1,0,0:0:0:0:
256,192,126930,1,0,0:0:0:0:
256,192,127030,1,12,0:0:0:0:
256,192,127330,1,8,0:0:0:0:
256,192,127405,1,8,0:0:0:0:
256,192,127480,1,0,0:0:0:0:
256,192,127555,1,0,0:0:0:0:
256,192,127630,1,8,0:0:0:0:
256,192,127705,1,0,0:0:0:0:
256,192,127780,1,0,0:0:0:0:
256,192,127855,1,8,0:0:0:0:
256,192,127930,1,0,0:0:0:0:
256,192,128005,1,0,0:0:0:0:
256,192,128080,1,8,0:0:0:0:
256,192,128155,1,0,0:0:0:0:
256,192,128230,1,8,0:0:0:0:
256,192,128280,1,8,0:0:0:0:
256,192,128330,1,8,0:0:0:0:
256,192,128380,1,0,0:0:0:0:
256,192,128455,1,0,0:0:0:0:
256,192,128530,1,8,0:0:0:0:
256,192,128605,1,0,0:0:0:0:
256,192,128680,1,0,0:0:0:0:
256,192,128755,1,0,0:0:0:0:
256,192,128830,1,8,0:0:0:0:
256,192,128880,1,8,0:0:0:0:
256,192,128930,1,8,0:0:0:0:
256,192,128980,1,0,0:0:0:0:
256,192,129055,1,8,0:0:0:0:
256,192,129130,1,0,0:0:0:0:
256,192,129205,1,0,0:0:0:0:
256,192,129280,1,8,0:0:0:0:
256,192,129355,1,0,0:0:0:0:
256,192,129430,1,8,0:0:0:0:
256,192,129480,1,0,0:0:0:0:
256,192,129530,1,0,0:0:0:0:
256,192,129580,1,8,0:0:0:0:
256,192,129655,1,0,0:0:0:0:
256,192,129730,1,8,0:0:0:0:
256,192,129780,1,0,0:0:0:0:
256,192,129830,1,0,0:0:0:0:
256,192,129880,1,8,0:0:0:0:
256,192,129955,1,0,0:0:0:0:
256,192,130030,1,8,0:0:0:0:
256,192,130080,1,8,0:0:0:0:
256,192,130130,1,8,0:0:0:0:
256,192,130180,1,0,0:0:0:0:
256,192,130255,1,0,0:0:0:0:
256,192,130330,1,8,0:0:0:0:
256,192,130380,1,8,0:0:0:0:
256,192,130430,1,8,0:0:0:0:
256,192,130480,1,0,0:0:0:0:
256,192,130555,1,0,0:0:0:0:
256,192,130630,1,8,0:0:0:0:
256,192,130780,1,8,0:0:0:0:
256,192,130930,1,0,0:0:0:0:
256,192,131080,1,0,0:0:0:0:
256,192,131230,1,8,0:0:0:0:
256,192,131380,1,8,0:0:0:0:
256,192,131530,1,0,0:0:0:0:
256,192,131680,1,8,0:0:0:0:
256,192,131830,1,4,0:0:0:0:
256,192,131980,1,0,0:0:0:0:
256,192,132130,1,8,0:0:0:0:
256,192,132205,1,8,0:0:0:0:
256,192,132280,1,0,0:0:0:0:
256,192,132430,1,8,0:0:0:0:
256,192,132580,1,0,0:0:0:0:
256,192,132655,1,8,0:0:0:0:
256,192,132805,1,0,0:0:0:0:
256,192,132880,1,8,0:0:0:0:
256,192,133030,1,8,0:0:0:0:
256,192,133180,1,0,0:0:0:0:
256,192,133255,1,8,0:0:0:0:
256,192,133405,1,0,0:0:0:0:
256,192,133480,1,8,0:0:0:0:
256,192,133555,1,0,0:0:0:0:
256,192,133630,1,8,0:0:0:0:
256,192,133780,1,0,0:0:0:0:
256,192,133830,1,0,0:0:0:0:
256,192,133880,1,0,0:0:0:0:
256,192,133930,1,8,0:0:0:0:
256,192,134005,1,8,0:0:0:0:
256,192,134080,1,0,0:0:0:0:
256,192,134155,1,0,0:0:0:0:
256,192,134230,1,8,0:0:0:0:
256,192,134380,1,0,0:0:0:0:
256,192,134530,1,8,0:0:0:0:
256,192,134605,1,0,0:0:0:0:
256,192,134755,1,8,0:0:0:0:
256,192,134830,1,0,0:0:0:0:
256,192,134905,1,0,0:0:0:0:
256,192,134980,1,8,0:0:0:0:
256,192,135130,1,0,0:0:0:0:
256,192,135205,1,8,0:0:0:0:
256,192,135280,1,8,0:0:0:0:
256,192,135430,1,0,0:0:0:0:
256,192,135505,1,8,0:0:0:0:
256,192,135655,1,0,0:0:0:0:
256,192,135730,1,8,0:0:0:0:
256,192,135805,1,8,0:0:0:0:
256,192,135880,1,0,0:0:0:0:
256,192,135955,1,0,0:0:0:0:
256,192,136030,1,8,0:0:0:0:
256,192,136180,1,0,0:0:0:0:
256,192,136255,1,0,0:0:0:0:
256,192,136330,1,8,0:0:0:0:
256,192,136480,1,0,0:0:0:0:
256,192,136630,1,12,0:0:0:0:
256,192,136780,1,0,0:0:0:0:
256,192,136930,1,8,0:0:0:0:
256,192,137005,1,8,0:0:0:0:
256,192,137080,1,0,0:0:0:0:
256,192,137230,1,8,0:0:0:0:
256,192,137380,1,0,0:0:0:0:
256,192,137455,1,8,0:0:0:0:
256,192,137605,1,0,0:0:0:0:
256,192,137680,1,8,0:0:0:0:
256,192,137755,1,0,0:0:0:0:
256,192,137830,1,8,0:0:0:0:
256,192,137980,1,0,0:0:0:0:
256,192,138055,1,8,0:0:0:0:
256,192,138130,1,0,0:0:0:0:
256,192,138180,1,8,0:0:0:0:
256,192,138230,1,8,0:0:0:0:
256,192,138280,1,0,0:0:0:0:
256,192,138355,1,0,0:0:0:0:
256,192,138430,1,8,0:0:0:0:
256,192,138580,1,0,0:0:0:0:
256,192,138630,1,0,0:0:0:0:
256,192,138680,1,0,0:0:0:0:
256,192,138730,1,8,0:0:0:0:
256,192,138805,1,0,0:0:0:0:
256,192,138880,1,8,0:0:0:0:
256,192,138955,1,8,0:0:0:0:
256,192,139030,1,0,0:0:0:0:
256,192,139105,1,0,0:0:0:0:
256,192,139180,1,8,0:0:0:0:
256,192,139330,1,8,0:0:0:0:
256,192,139405,1,0,0:0:0:0:
256,192,139480,1,8,0:0:0:0:
256,192,139555,1,8,0:0:0:0:
256,192,139630,1,0,0:0:0:0:
256,192,139705,1,8,0:0:0:0:
256,192,139780,1,0,0:0:0:0:
256,192,139855,1,0,0:0:0:0:
256,192,139930,1,8,0:0:0:0:
256,192,140080,1,0,0:0:0:0:
256,192,140230,1,12,0:0:0:0:
256,192,140380,1,0,0:0:0:0:
256,192,140455,1,8,0:0:0:0:
256,192,140605,1,0,0:0:0:0:
256,192,140680,1,8,0:0:0:0:
256,192,140830,1,0,0:0:0:0:
256,192,140905,1,8,0:0:0:0:
256,192,141055,1,0,0:0:0:0:
256,192,141130,1,8,0:0:0:0:
256,192,141280,1,8,0:0:0:0:
256,192,141355,1,8,0:0:0:0:
256,192,141430,1,4,0:0:0:0:
256,192,141730,1,4,0:0:0:0:
256,192,142030,1,8,0:0:0:0:
256,192,142080,1,8,0:0:0:0:
256,192,142130,1,8,0:0:0:0:
256,192,142180,1,8,0:0:0:0:
256,192,142230,1,8,0:0:0:0:
256,192,142280,1,8,0:0:0:0:
256,192,142330,1,4,0:0:0:0:
256,192,142480,1,0,0:0:0:0:
256,192,142630,1,8,0:0:0:0:
256,192,142780,1,0,0:0:0:0:
256,192,142855,1,8,0:0:0:0:
256,192,143005,1,0,0:0:0:0:
256,192,143080,1,8,0:0:0:0:
256,192,143155,1,0,0:0:0:0:
256,192,143230,1,8,0:0:0:0:
256,192,143380,1,0,0:0:0:0:
256,192,143430,1,0,0:0:0:0:
256,192,143480,1,0,0:0:0:0:
256,192,143530,1,8,0:0:0:0:
256,192,143605,1,8,0:0:0:0:
256,192,143680,1,0,0:0:0:0:
256,192,143755,1,0,0:0:0:0:
256,192,143830,1,8,0:0:0:0:
256,192,143980,1,0,0:0:0:0:
256,192,144130,1,8,0:0:0:0:
256,192,144205,1,0,0:0:0:0:
256,192,144355,1,8,0:0:0:0:
256,192,144430,1,0,0:0:0:0:
256,192,144505,1,0,0:0:0:0:
256,192,144580,1,8,0:0:0:0:
256,192,144730,1,0,0:0:0:0:
256,192,144805,1,8,0:0:0:0:
256,192,144880,1,8,0:0:0:0:
256,192,145030,1,0,0:0:0:0:
256,192,145105,1,8,0:0:0:0:
256,192,145255,1,0,0:0:0:0:
256,192,145330,1,8,0:0:0:0:
256,192,145405,1,8,0:0:0:0:
256,192,145480,1,0,0:0:0:0:
256,192,145555,1,0,0:0:0:0:
256,192,145630,1,8,0:0:0:0:
256,192,145780,1,0,0:0:0:0:
256,192,145855,1,0,0:0:0:0:
256,192,145930,1,8,0:0:0:0:
256,192,146080,1,8,0:0:0:0:
256,192,146230,1,4,0:0:0:0:
256,192,146530,1,4,0:0:0:0:
256,192,146830,1,8,0:0:0:0:
256,192,146880,1,8,0:0:0:0:
256,192,146930,1,8,0:0:0:0:
256,192,146980,1,8,0:0:0:0:
256,192,147030,1,8,0:0:0:0:
256,192,147080,1,8,0:0:0:0:
256,192,147130,1,4,0:0:0:0:
256,192,147280,1,0,0:0:0:0:
256,192,147430,1,8,0:0:0:0:
256,192,147580,1,0,0:0:0:0:
256,192,147655,1,8,0:0:0:0:
256,192,147730,1,8,0:0:0:0:
256,192,147880,1,8,0:0:0:0:
256,192,147955,1,0,0:0:0:0:
256,192,148030,1,8,0:0:0:0:
256,192,148180,1,0,0:0:0:0:
256,192,148230,1,0,0:0:0:0:
256,192,148280,1,0,0:0:0:0:
256,192,148330,1,8,0:0:0:0:
256,192,148405,1,0,0:0:0:0:
256,192,148480,1,8,0:0:0:0:
256,192,148555,1,8,0:0:0:0:
256,192,148630,1,0,0:0:0:0:
256,192,148855,1,8,0:0:0:0:
256,192,149080,1,0,0:0:0:0:
256,192,149305,1,8,0:0:0:0:
256,192,149530,1,0,0:0:0:0:
256,192,149755,1,8,0:0:0:0:
256,192,149980,1,0,0:0:0:0:
256,192,150205,1,8,0:0:0:0:
256,192,150430,1,0,0:0:0:0:
256,192,150505,1,0,0:0:0:0:
256,192,150580,1,0,0:0:0:0:
256,192,150655,1,0,0:0:0:0:
256,192,150730,1,0,0:0:0:0:
256,192,150805,1,0,0:0:0:0:
256,192,150880,1,0,0:0:0:0:
256,192,150955,1,0,0:0:0:0:
256,192,151030,1,12,0:0:0:0:
256,192,151180,12,0,155830,0:0:0:0:
256,192,158530,5,0,0:0:0:0:
256,192,158605,1,0,0:0:0:0:
256,192,158680,1,0,0:0:0:0:
256,192,158755,1,0,0:0:0:0:
256,192,158830,1,0,0:0:0:0:
256,192,158905,1,0,0:0:0:0:
256,192,158980,1,0,0:0:0:0:
256,192,159055,1,0,0:0:0:0:
256,192,159130,1,0,0:0:0:0:
256,192,159205,1,0,0:0:0:0:
256,192,159280,1,0,0:0:0:0:
256,192,159355,1,0,0:0:0:0:
256,192,159430,12,0,160480,0:0:0:0:
256,192,160630,5,12,0:0:0:0:
256,192,160780,1,0,0:0:0:0:
256,192,160855,1,0,0:0:0:0:
256,192,160930,1,8,0:0:0:0:
256,192,161005,1,8,0:0:0:0:
256,192,161080,1,0,0:0:0:0:
256,192,161155,1,0,0:0:0:0:
256,192,161230,1,8,0:0:0:0:
256,192,161380,1,8,0:0:0:0:
256,192,161455,1,8,0:0:0:0:
256,192,161530,1,0,0:0:0:0:
256,192,161680,1,8,0:0:0:0:
256,192,161755,1,0,0:0:0:0:
256,192,161830,1,8,0:0:0:0:
256,192,161905,1,8,0:0:0:0:
256,192,161980,1,0,0:0:0:0:
256,192,162055,1,8,0:0:0:0:
256,192,162130,1,0,0:0:0:0:
256,192,162280,1,0,0:0:0:0:
256,192,162430,1,8,0:0:0:0:
256,192,162505,1,0,0:0:0:0:
256,192,162580,1,8,0:0:0:0:
256,192,162655,1,8,0:0:0:0:
256,192,162730,1,0,0:0:0:0:
256,192,162805,1,8,0:0:0:0:
256,192,162880,1,0,0:0:0:0:
256,192,162955,1,0,0:0:0:0:
256,192,163030,1,8,0:0:0:0:
256,192,163180,1,0,0:0:0:0:
256,192,163255,1,0,0:0:0:0:
256,192,163330,1,8,0:0:0:0:
256,192,163405,1,8,0:0:0:0:
256,192,163480,1,0,0:0:0:0:
256,192,163555,1,0,0:0:0:0:
256,192,163630,1,8,0:0:0:0:
256,192,163780,1,8,0:0:0:0:
256,192,163855,1,8,0:0:0:0:
256,192,163930,1,0,0:0:0:0:
256,192,164080,1,8,0:0:0:0:
256,192,164155,1,0,0:0:0:0:
256,192,164230,1,8,0:0:0:0:
256,192,164305,1,8,0:0:0:0:
256,192,164380,1,0,0:0:0:0:
256,192,164455,1,8,0:0:0:0:
256,192,164530,1,0,0:0:0:0:
256,192,164680,1,0,0:0:0:0:
256,192,164830,1,8,0:0:0:0:
256,192,164905,1,0,0:0:0:0:
256,192,164980,1,8,0:0:0:0:
256,192,165055,1,8,0:0:0:0:
256,192,165130,1,0,0:0:0:0:
256,192,165205,1,8,0:0:0:0:
256,192,165280,1,0,0:0:0:0:
256,192,165355,1,0,0:0:0:0:
256,192,165430,1,8,0:0:0:0:
256,192,165580,1,0,0:0:0:0:
256,192,165655,1,0,0:0:0:0:
256,192,165730,1,8,0:0:0:0:
256,192,165805,1,8,0:0:0:0:
256,192,165880,1,0,0:0:0:0:
256,192,165955,1,0,0:0:0:0:
256,192,166030,1,8,0:0:0:0:
256,192,166180,1,8,0:0:0:0:
256,192,166255,1,8,0:0:0:0:
256,192,166330,1,0,0:0:0:0:
256,192,166480,1,8,0:0:0:0:
256,192,166555,1,0,0:0:0:0:
256,192,166630,1,8,0:0:0:0:
256,192,166705,1,8,0:0:0:0:
256,192,166780,1,0,0:0:0:0:
256,192,166855,1,8,0:0:0:0:
256,192,166930,1,0,0:0:0:0:
256,192,167080,1,0,0:0:0:0:
256,192,167230,1,8,0:0:0:0:
256,192,167305,1,0,0:0:0:0:
256,192,167380,1,8,0:0:0:0:
256,192,167455,1,0,0:0:0:0:
256,192,167530,1,8,0:0:0:0:
256,192,167605,1,8,0:0:0:0:
256,192,167680,1,0,0:0:0:0:
256,192,167755,1,0,0:0:0:0:
256,192,167830,1,8,0:0:0:0:
256,192,167980,1,0,0:0:0:0:
256,192,168055,1,0,0:0:0:0:
256,192,168130,1,8,0:0:0:0:
256,192,168205,1,8,0:0:0:0:
256,192,168280,1,0,0:0:0:0:
256,192,168355,1,0,0:0:0:0:
256,192,168430,1,8,0:0:0:0:
256,192,168580,1,8,0:0:0:0:
256,192,168655,1,8,0:0:0:0:
256,192,168730,1,0,0:0:0:0:
256,192,168880,1,0,0:0:0:0:
256,192,169030,1,8,0:0:0:0:
256,192,169180,1,8,0:0:0:0:
256,192,169255,1,0,0:0:0:0:
256,192,169330,1,8,0:0:0:0:
256,192,169405,1,0,0:0:0:0:
256,192,169480,1,8,0:0:0:0:
256,192,169555,1,8,0:0:0:0:
256,192,169630,1,0,0:0:0:0:
256,192,169780,1,0,0:0:0:0:
256,192,169930,1,8,0:0:0:0:
256,192,170080,1,8,0:0:0:0:
256,192,170230,1,12,0:0:0:0:
256,192,170380,1,0,0:0:0:0:
256,192,170455,1,0,0:0:0:0:
256,192,170530,1,8,0:0:0:0:
256,192,170680,1,0,0:0:0:0:
256,192,170830,1,8,0:0:0:0:
256,192,170905,1,8,0:0:0:0:
256,192,170980,1,0,0:0:0:0:
256,192,171130,1,8,0:0:0:0:
256,192,171205,1,8,0:0:0:0:
256,192,171280,1,0,0:0:0:0:
256,192,171430,1,8,0:0:0:0:
256,192,171580,1,0,0:0:0:0:
256,192,171655,1,0,0:0:0:0:
256,192,171730,1,8,0:0:0:0:
256,192,171880,1,0,0:0:0:0:
256,192,171955,1,0,0:0:0:0:
256,192,172030,1,8,0:0:0:0:
256,192,172105,1,0,0:0:0:0:
256,192,172180,1,8,0:0:0:0:
256,192,172255,1,0,0:0:0:0:
256,192,172330,1,8,0:0:0:0:
256,192,172380,1,8,0:0:0:0:
256,192,172430,1,8,0:0:0:0:
256,192,172480,1,0,0:0:0:0:
256,192,172630,1,12,0:0:0:0:
256,192,172780,1,0,0:0:0:0:
256,192,172855,1,0,0:0:0:0:
256,192,172930,1,8,0:0:0:0:
256,192,173080,1,0,0:0:0:0:
256,192,173230,1,8,0:0:0:0:
256,192,173305,1,8,0:0:0:0:
256,192,173380,1,0,0:0:0:0:
256,192,173530,1,8,0:0:0:0:
256,192,173605,1,8,0:0:0:0:
256,192,173680,1,0,0:0:0:0:
256,192,173830,1,8,0:0:0:0:
256,192,173980,1,0,0:0:0:0:
256,192,174055,1,0,0:0:0:0:
256,192,174130,1,8,0:0:0:0:
256,192,174280,1,0,0:0:0:0:
256,192,174355,1,0,0:0:0:0:
256,192,174430,1,8,0:0:0:0:
256,192,174505,1,8,0:0:0:0:
256,192,174580,1,0,0:0:0:0:
256,192,174655,1,0,0:0:0:0:
256,192,174730,1,8,0:0:0:0:
256,192,174767,1,8,0:0:0:0:
256,192,174880,1,8,0:0:0:0:
256,192,174917,1,8,0:0:0:0:
256,192,175030,1,8,0:0:0:0:
256,192,175105,1,8,0:0:0:0:
256,192,175180,1,0,0:0:0:0:
256,192,175255,1,0,0:0:0:0:
256,192,175330,1,8,0:0:0:0:
256,192,175405,1,8,0:0:0:0:
256,192,175480,1,0,0:0:0:0:
256,192,175555,1,0,0:0:0:0:
256,192,175630,1,8,0:0:0:0:
256,192,175705,1,8,0:0:0:0:
256,192,175780,1,8,0:0:0:0:
256,192,175855,1,8,0:0:0:0:
256,192,175930,1,0,0:0:0:0:
256,192,175967,1,0,0:0:0:0:
256,192,176080,1,0,0:0:0:0:
256,192,176117,1,0,0:0:0:0:
256,192,176230,1,8,0:0:0:0:
256,192,176305,1,8,0:0:0:0:
256,192,176380,1,0,0:0:0:0:
256,192,176455,1,0,0:0:0:0:
256,192,176530,1,8,0:0:0:0:
256,192,176605,1,8,0:0:0:0:
256,192,176680,1,0,0:0:0:0:
256,192,176755,1,0,0:0:0:0:
256,192,176830,1,8,0:0:0:0:
256,192,176905,1,0,0:0:0:0:
256,192,176980,1,8,0:0:0:0:
256,192,177055,1,0,0:0:0:0:
256,192,177130,1,8,0:0:0:0:
256,192,177180,1,8,0:0:0:0:
256,192,177230,1,0,0:0:0:0:
256,192,177280,1,8,0:0:0:0:
256,192,177430,1,8,0:0:0:0:
256,192,177480,1,8,0:0:0:0:
256,192,177530,1,8,0:0:0:0:
256,192,177580,1,0,0:0:0:0:
256,192,177655,1,0,0:0:0:0:
256,192,177730,1,8,0:0:0:0:
256,192,177805,1,8,0:0:0:0:
256,192,177880,1,0,0:0:0:0:
256,192,177955,1,0,0:0:0:0:
256,192,178030,1,8,0:0:0:0:
256,192,178080,1,8,0:0:0:0:
256,192,178130,1,8,0:0:0:0:
256,192,178180,1,0,0:0:0:0:
256,192,178255,1,0,0:0:0:0:
256,192,178330,1,8,0:0:0:0:
256,192,178405,1,0,0:0:0:0:
256,192,178480,1,8,0:0:0:0:
256,192,178555,1,0,0:0:0:0:
256,192,178630,1,8,0:0:0:0:
256,192,178680,1,0,0:0:0:0:
256,192,178730,1,0,0:0:0:0:
256,192,178780,1,8,0:0:0:0:
256,192,178855,1,0,0:0:0:0:
256,192,178930,1,8,0:0:0:0:
256,192,178980,1,0,0:0:0:0:
256,192,179030,1,0,0:0:0:0:
256,192,179080,1,8,0:0:0:0:
256,192,179155,1,0,0:0:0:0:
256,192,179230,1,8,0:0:0:0:
256,192,179280,1,8,0:0:0:0:
256,192,179330,1,8,0:0:0:0:
256,192,179380,1,0,0:0:0:0:
256,192,179455,1,0,0:0:0:0:
256,192,179530,1,8,0:0:0:0:
256,192,179580,1,8,0:0:0:0:
256,192,179630,1,8,0:0:0:0:
256,192,179680,1,0,0:0:0:0:
256,192,179755,1,0,0:0:0:0:
256,192,179830,1,8,0:0:0:0:
256,192,179980,1,0,0:0:0:0:
256,192,180130,1,8,0:0:0:0:
256,192,180280,1,8,0:0:0:0:
256,192,180430,1,0,0:0:0:0:
256,192,180580,1,0,0:0:0:0:
256,192,180730,1,8,0:0:0:0:
256,192,180880,1,8,0:0:0:0:
256,192,181030,1,0,0:0:0:0:
256,192,181105,1,8,0:0:0:0:
256,192,181180,1,0,0:0:0:0:
256,192,181255,1,0,0:0:0:0:
256,192,181330,1,8,0:0:0:0:
256,192,181480,1,0,0:0:0:0:
256,192,181555,1,0,0:0:0:0:
256,192,181630,1,8,0:0:0:0:
256,192,181705,1,8,0:0:0:0:
256,192,181780,1,0,0:0:0:0:
256,192,181855,1,0,0:0:0:0:
256,192,181930,1,8,0:0:0:0:
256,192,182080,1,0,0:0:0:0:
256,192,182155,1,0,0:0:0:0:
256,192,182230,1,12,0:0:0:0:
256,192,182380,1,0,0:0:0:0:
256,192,182530,1,0,0:0:0:0:
256,192,182580,1,0,0:0:0:0:
256,192,182630,1,0,0:0:0:0:
256,192,182680,1,8,0:0:0:0:
256,192,182755,1,8,0:0:0:0:
256,192,182830,1,8,0:0:0:0:
256,192,182905,1,0,0:0:0:0:
256,192,182980,1,8,0:0:0:0:
256,192,183055,1,8,0:0:0:0:
256,192,183130,1,0,0:0:0:0:
256,192,183205,1,0,0:0:0:0:
256,192,183280,1,8,0:0:0:0:
256,192,183355,1,0,0:0:0:0:
256,192,183430,1,8,0:0:0:0:
256,192,183505,1,0,0:0:0:0:
256,192,183580,1,8,0:0:0:0:
256,192,183655,1,8,0:0:0:0:
256,192,183730,1,0,0:0:0:0:
256,192,183805,1,8,0:0:0:0:
256,192,183880,1,8,0:0:0:0:
256,192,183955,1,8,0:0:0:0:
256,192,184030,1,0,0:0:0:0:
256,192,184080,1,0,0:0:0:0:
256,192,184180,1,8,0:0:0:0:
256,192,184230,1,8,0:0:0:0:
256,192,184330,1,0,0:0:0:0:
256,192,184380,1,0,0:0:0:0:
256,192,184480,1,8,0:0:0:0:
256,192,184530,1,8,0:0:0:0:
256,192,184630,1,0,0:0:0:0:
256,192,184780,1,8,0:0:0:0:
256,192,184930,1,0,0:0:0:0:
256,192,184980,1,0,0:0:0:0:
256,192,185030,1,0,0:0:0:0:
256,192,185080,1,8,0:0:0:0:
256,192,185155,1,8,0:0:0:0:
256,192,185230,1,8,0:0:0:0:
256,192,185305,1,0,0:0:0:0:
256,192,185380,1,8,0:0:0:0:
256,192,185455,1,8,0:0:0:0:
256,192,185530,1,0,0:0:0:0:
256,192,185605,1,0,0:0:0:0:
256,192,185680,1,8,0:0:0:0:
256,192,185730,1,8,0:0:0:0:
256,192,185780,1,8,0:0:0:0:
256,192,185830,1,0,0:0:0:0:
256,192,185905,1,8,0:0:0:0:
256,192,185980,1,8,0:0:0:0:
256,192,186055,1,8,0:0:0:0:
256,192,186130,1,0,0:0:0:0:
256,192,186205,1,8,0:0:0:0:
256,192,186280,1,8,0:0:0:0:
256,192,186355,1,8,0:0:0:0:
256,192,186430,1,0,0:0:0:0:
256,192,186480,1,0,0:0:0:0:
256,192,186530,1,0,0:0:0:0:
256,192,186580,1,8,0:0:0:0:
256,192,186730,1,8,0:0:0:0:
256,192,186780,1,8,0:0:0:0:
256,192,186830,1,8,0:0:0:0:
256,192,186880,1,0,0:0:0:0:
256,192,187030,1,12,0:0:0:0:
256,192,187180,1,0,0:0:0:0:
256,192,187330,1,0,0:0:0:0:
256,192,187380,1,0,0:0:0:0:
256,192,187430,1,0,0:0:0:0:
256,192,187480,1,8,0:0:0:0:
256,192,187555,1,8,0:0:0:0:
256,192,187630,1,8,0:0:0:0:
256,192,187705,1,0,0:0:0:0:
256,192,187780,1,8,0:0:0:0:
256,192,187855,1,8,0:0:0:0:
256,192,187930,1,0,0:0:0:0:
256,192,188005,1,0,0:0:0:0:
256,192,188080,1,8,0:0:0:0:
256,192,188155,1,0,0:0:0:0:
256,192,188230,1,8,0:0:0:0:
256,192,188305,1,0,0:0:0:0:
256,192,188380,1,8,0:0:0:0:
256,192,188455,1,8,0:0:0:0:
256,192,188530,1,0,0:0:0:0:
256,192,188605,1,8,0:0:0:0:
256,192,188680,1,8,0:0:0:0:
256,192,188755,1,8,0:0:0:0:
256,192,188830,1,0,0:0:0:0:
256,192,188880,1,0,0:0:0:0:
256,192,188980,1,8,0:0:0:0:
256,192,189030,1,8,0:0:0:0:
256,192,189130,1,0,0:0:0:0:
256,192,189180,1,0,0:0:0:0:
256,192,189280,1,8,0:0:0:0:
256,192,189330,1,8,0:0:0:0:
256,192,189430,1,0,0:0:0:0:
256,192,189580,1,0,0:0:0:0:
256,192,189655,1,8,0:0:0:0:
256,192,189805,1,0,0:0:0:0:
256,192,189880,1,8,0:0:0:0:
256,192,189955,1,8,0:0:0:0:
256,192,190030,1,0,0:0:0:0:
256,192,190105,1,8,0:0:0:0:
256,192,190180,1,0,0:0:0:0:
256,192,190330,1,8,0:0:0:0:
256,192,190630,1,0,0:0:0:0:
256,192,190780,1,0,0:0:0:0:
256,192,190855,1,8,0:0:0:0:
256,192,191005,1,0,0:0:0:0:
256,192,191080,1,8,0:0:0:0:
256,192,191230,1,0,0:0:0:0:
256,192,191305,1,8,0:0:0:0:
256,192,191455,1,0,0:0:0:0:
256,192,191530,1,8,0:0:0:0:
256,192,191605,1,0,0:0:0:0:
256,192,191680,1,8,0:0:0:0:
256,192,191755,1,8,0:0:0:0:
256,192,191830,1,4,0:0:0:0:
256,192,192130,1,0,0:0:0:0:
256,192,192180,1,0,0:0:0:0:
256,192,192230,1,0,0:0:0:0:
256,192,192280,1,8,0:0:0:0:
256,192,192355,1,8,0:0:0:0:
256,192,192430,1,8,0:0:0:0:
256,192,192505,1,0,0:0:0:0:
256,192,192580,1,8,0:0:0:0:
256,192,192655,1,8,0:0:0:0:
256,192,192730,1,0,0:0:0:0:
256,192,192805,1,0,0:0:0:0:
256,192,192880,1,8,0:0:0:0:
256,192,192955,1,0,0:0:0:0:
256,192,193030,1,8,0:0:0:0:
256,192,193105,1,0,0:0:0:0:
256,192,193180,1,8,0:0:0:0:
256,192,193255,1,8,0:0:0:0:
256,192,193330,1,0,0:0:0:0:
256,192,193405,1,8,0:0:0:0:
256,192,193480,1,8,0:0:0:0:
256,192,193555,1,8,0:0:0:0:
256,192,193630,1,0,0:0:0:0:
256,192,193680,1,0,0:0:0:0:
256,192,193780,1,8,0:0:0:0:
256,192,193830,1,8,0:0:0:0:
256,192,193930,1,0,0:0:0:0:
256,192,193980,1,0,0:0:0:0:
256,192,194080,1,8,0:0:0:0:
256,192,194130,1,10,0:0:0:0:
256,192,194230,1,0,0:0:0:0:
256,192,194380,1,8,0:0:0:0:
256,192,194530,1,0,0:0:0:0:
256,192,194580,1,0,0:0:0:0:
256,192,194630,1,0,0:0:0:0:
256,192,194680,1,8,0:0:0:0:
256,192,194755,1,8,0:0:0:0:
256,192,194830,1,0,0:0:0:0:
256,192,194980,1,8,0:0:0:0:
256,192,195130,1,0,0:0:0:0:
256,192,195242,1,0,0:0:0:0:
256,192,195355,1,0,0:0:0:0:
256,192,195430,1,8,0:0:0:0:
256,192,195580,1,0,0:0:0:0:
256,192,195730,1,8,0:0:0:0:
256,192,195805,1,0,0:0:0:0:
256,192,195880,1,0,0:0:0:0:
256,192,195955,1,8,0:0:0:0:
256,192,196105,1,8,0:0:0:0:
256,192,196180,1,0,0:0:0:0:
256,192,196330,1,8,0:0:0:0:
256,192,196480,1,8,0:0:0:0:
256,192,196555,1,8,0:0:0:0:
256,192,196630,1,4,0:0:0:0:
256,192,196930,1,0,0:0:0:0:
256,192,196980,1,0,0:0:0:0:
256,192,197030,1,0,0:0:0:0:
256,192,197080,1,8,0:0:0:0:
256,192,197155,1,8,0:0:0:0:
256,192,197230,1,4,0:0:0:0:
256,192,197380,1,0,0:0:0:0:
256,192,197455,1,8,0:0:0:0:
256,192,197605,1,0,0:0:0:0:
256,192,197680,1,8,0:0:0:0:
256,192,197830,1,0,0:0:0:0:
256,192,197905,1,0,0:0:0:0:
256,192,197980,1,8,0:0:0:0:
256,192,198055,1,8,0:0:0:0:
256,192,198130,1,0,0:0:0:0:
256,192,198355,1,0,0:0:0:0:
256,192,198430,1,8,0:0:0:0:
256,192,198580,12,0,198880,0:0:0:0:
256,192,199030,5,0,0:0:0:0:
256,192,199255,1,8,0:0:0:0:
256,192,199480,1,0,0:0:0:0:
256,192,199705,1,8,0:0:0:0:
256,192,199930,1,0,0:0:0:0:
256,192,200155,1,8,0:0:0:0:
256,192,200380,1,0,0:0:0:0:
256,192,200605,1,8,0:0:0:0:
256,192,200830,1,0,0:0:0:0:
256,192,200980,2,0,B|256:192|296:192|240:192,4,43.75
256,192,201430,1,12,0:0:0:0:
256,192,201730,1,8,0:0:0:0:
256,192,201780,1,8,0:0:0:0:
256,192,201830,1,8,0:0:0:0:
256,192,201880,1,0,0:0:0:0:
256,192,201955,1,0,0:0:0:0:
256,192,202030,1,8,0:0:0:0:
256,192,202180,1,0,0:0:0:0:
256,192,202255,1,8,0:0:0:0:
256,192,202330,1,0,0:0:0:0:
256,192,202405,1,0,0:0:0:0:
256,192,202480,1,8,0:0:0:0:
256,192,202555,1,0,0:0:0:0:
256,192,202630,1,8,0:0:0:0:
256,192,202780,1,0,0:0:0:0:
256,192,202855,1,0,0:0:0:0:
256,192,202930,1,8,0:0:0:0:
256,192,203005,1,0,0:0:0:0:
256,192,203080,1,8,0:0:0:0:
256,192,203155,1,0,0:0:0:0:
256,192,203230,1,8,0:0:0:0:
256,192,203305,1,8,0:0:0:0:
256,192,203380,1,8,0:0:0:0:
256,192,203455,1,0,0:0:0:0:
256,192,203530,1,8,0:0:0:0:
256,192,203605,1,0,0:0:0:0:
256,192,203680,1,8,0:0:0:0:
256,192,203755,1,8,0:0:0:0:
256,192,203830,1,0,0:0:0:0:
256,192,203980,1,0,0:0:0:0:
256,192,204130,1,8,0:0:0:0:
256,192,204180,1,8,0:0:0:0:
256,192,204230,1,8,0:0:0:0:
256,192,204280,1,0,0:0:0:0:
256,192,204355,1,0,0:0:0:0:
256,192,204430,1,8,0:0:0:0:
256,192,204505,1,0,0:0:0:0:
256,192,204580,1,0,0:0:0:0:
256,192,204655,1,0,0:0:0:0:
256,192,204730,1,8,0:0:0:0:
256,192,204805,1,8,0:0:0:0:
256,192,204880,1,0,0:0:0:0:
256,192,204955,1,0,0:0:0:0:
256,192,205030,1,8,0:0:0:0:
256,192,205180,1,0,0:0:0:0:
256,192,205255,1,8,0:0:0:0:
256,192,205330,1,0,0:0:0:0:
256,192,205405,1,8,0:0:0:0:
256,192,205480,1,0,0:0:0:0:
256,192,205555,1,0,0:0:0:0:
256,192,205630,1,8,0:0:0:0:
256,192,205780,1,8,0:0:0:0:
256,192,205930,1,0,0:0:0:0:
256,192,206080,1,8,0:0:0:0:
256,192,206155,1,8,0:0:0:0:
256,192,206230,1,4,0:0:0:0:
256,192,206530,1,0,0:0:0:0:
256,192,206580,1,0,0:0:0:0:
256,192,206630,1,0,0:0:0:0:
256,192,206680,1,8,0:0:0:0:
256,192,206755,1,8,0:0:0:0:
256,192,206830,1,0,0:0:0:0:
256,192,206980,1,0,0:0:0:0:
256,192,207055,1,8,0:0:0:0:
256,192,207205,1,0,0:0:0:0:
256,192,207280,1,8,0:0:0:0:
256,192,207355,1,8,0:0:0:0:
256,192,207430,1,0,0:0:0:0:
256,192,207580,1,0,0:0:0:0:
256,192,207655,1,8,0:0:0:0:
256,192,207805,1,0,0:0:0:0:
256,192,207880,1,8,0:0:0:0:
256,192,207955,1,8,0:0:0:0:
256,192,208030,1,0,0:0:0:0:
256,192,208080,1,0,0:0:0:0:
256,192,208180,1,8,0:0:0:0:
256,192,208230,1,8,0:0:0:0:
256,192,208330,1,0,0:0:0:0:
256,192,208380,1,0,0:0:0:0:
256,192,208480,1,8,0:0:0:0:
256,192,208530,1,8,0:0:0:0:
256,192,208630,1,0,0:0:0:0:
256,192,208705,1,0,0:0:0:0:
256,192,208780,1,8,0:0:0:0:
256,192,208930,1,0,0:0:0:0:
256,192,209005,1,8,0:0:0:0:
256,192,209080,1,0,0:0:0:0:
256,192,209155,1,8,0:0:0:0:
256,192,209230,1,0,0:0:0:0:
256,192,209305,1,0,0:0:0:0:
256,192,209380,1,8,0:0:0:0:
256,192,209530,1,8,0:0:0:0:
256,192,209680,1,0,0:0:0:0:
256,192,209755,1,0,0:0:0:0:
256,192,209830,1,12,0:0:0:0:
256,192,210055,1,4,0:0:0:0:
256,192,210280,1,12,0:0:0:0:
256,192,210505,1,12,0:0:0:0:
256,192,210730,1,4,0:0:0:0:
256,192,210880,1,12,0:0:0:0:
256,192,211030,1,0,0:0:0:0:
256,192,211180,1,0,0:0:0:0:
256,192,211330,1,8,0:0:0:0:
256,192,211380,1,8,0:0:0:0:
256,192,211430,1,8,0:0:0:0:
256,192,211480,1,0,0:0:0:0:
256,192,211555,1,0,0:0:0:0:
256,192,211630,1,12,0:0:0:0:
256,192,211780,1,0,0:0:0:0:
256,192,211855,1,8,0:0:0:0:
256,192,211930,1,0,0:0:0:0:
256,192,212005,1,0,0:0:0:0:
256,192,212080,1,8,0:0:0:0:
256,192,212155,1,0,0:0:0:0:
256,192,212230,1,8,0:0:0:0:
256,192,212305,1,0,0:0:0:0:
256,192,212380,1,8,0:0:0:0:
256,192,212455,1,8,0:0:0:0:
256,192,212530,1,0,0:0:0:0:
256,192,212580,1,0,0:0:0:0:
256,192,212630,1,0,0:0:0:0:
256,192,212680,1,0,0:0:0:0:
256,192,212755,1,0,0:0:0:0:
256,192,212830,1,8,0:0:0:0:
256,192,212980,1,0,0:0:0:0:
256,192,213055,1,8,0:0:0:0:
256,192,213205,1,0,0:0:0:0:
256,192,213280,1,8,0:0:0:0:
256,192,213430,1,8,0:0:0:0:
256,192,213580,1,0,0:0:0:0:
256,192,213630,1,0,0:0:0:0:
256,192,213680,1,0,0:0:0:0:
256,192,213730,1,8,0:0:0:0:
256,192,213805,1,8,0:0:0:0:
256,192,213880,1,0,0:0:0:0:
256,192,213955,1,0,0:0:0:0:
256,192,214030,1,12,0:0:0:0:
256,192,214180,1,0,0:0:0:0:
256,192,214255,1,8,0:0:0:0:
256,192,214405,1,0,0:0:0:0:
256,192,214480,1,8,0:0:0:0:
256,192,214630,1,0,0:0:0:0:
256,192,214705,1,0,0:0:0:0:
256,192,214780,1,8,0:0:0:0:
256,192,214855,1,8,0:0:0:0:
256,192,214930,1,0,0:0:0:0:
256,192,215005,1,8,0:0:0:0:
256,192,215080,1,8,0:0:0:0:
256,192,215155,1,0,0:0:0:0:
256,192,215230,1,8,0:0:0:0:
256,192,215305,1,8,0:0:0:0:
256,192,215380,1,8,0:0:0:0:
256,192,215455,1,8,0:0:0:0:
256,192,215530,1,0,0:0:0:0:
256,192,215680,1,0,0:0:0:0:
256,192,215830,1,12,0:0:0:0:
256,192,216130,1,0,0:0:0:0:
256,192,216180,1,0,0:0:0:0:
256,192,216230,1,0,0:0:0:0:
256,192,216280,1,8,0:0:0:0:
256,192,216355,1,8,0:0:0:0:
256,192,216430,1,0,0:0:0:0:
256,192,216580,1,8,0:0:0:0:
256,192,216655,1,8,0:0:0:0:
256,192,216730,1,0,0:0:0:0:
256,192,216805,1,8,0:0:0:0:
256,192,216880,1,8,0:0:0:0:
256,192,216955,1,8,0:0:0:0:
256,192,217030,1,0,0:0:0:0:
256,192,217180,1,0,0:0:0:0:
256,192,217255,1,8,0:0:0:0:
256,192,217330,1,0,0:0:0:0:
256,192,217405,1,8,0:0:0:0:
256,192,217480,1,8,0:0:0:0:
256,192,217555,1,8,0:0:0:0:
256,192,217630,1,0,0:0:0:0:
256,192,217780,1,0,0:0:0:0:
256,192,217930,1,8,0:0:0:0:
256,192,218080,1,8,0:0:0:0:
256,192,218230,1,4,0:0:0:0:
256,192,218455,1,12,0:0:0:0:
256,192,218680,1,4,0:0:0:0:
256,192,218830,1,12,0:0:0:0:
256,192,219055,1,4,0:0:0:0:
256,192,219280,1,12,0:0:0:0:
256,192,219430,1,4,0:0:0:0:
256,192,219655,1,12,0:0:0:0:
256,192,219880,1,4,0:0:0:0:
256,192,220030,12,0,220480,0:0:0:0:
256,192,220630,5,4,0:0:0:0:
256,192,220930,1,8,0:0:0:0:
256,192,221230,1,8,0:0:0:0:
256,192,221380,1,0,0:0:0:0:
256,192,221530,1,0,0:0:0:0:
256,192,221680,1,8,0:0:0:0:
256,192,221980,1,0,0:0:0:0:
256,192,222130,1,8,0:0:0:0:
256,192,222430,1,0,0:0:0:0:
256,192,222580,1,8,0:0:0:0:
256,192,222880,1,0,0:0:0:0:
256,192,223030,1,8,0:0:0:0:
256,192,223330,1,0,0:0:0:0:
256,192,223480,1,8,0:0:0:0:
256,192,223780,1,0,0:0:0:0:
256,192,223930,1,8,0:0:0:0:
256,192,224230,1,0,0:0:0:0:
256,192,224380,1,8,0:0:0:0:
256,192,224680,1,0,0:0:0:0:
256,192,224830,1,8,0:0:0:0:
256,192,225130,1,0,0:0:0:0:
256,192,225280,1,0,0:0:0:0:
256,192,225430,1,0,0:0:0:0:
256,192,225730,1,0,0:0:0:0:
256,192,226030,1,8,0:0:0:0:
256,192,226180,1,0,0:0:0:0:
256,192,226330,1,0,0:0:0:0:
256,192,226480,1,8,0:0:0:0:
256,192,226780,1,0,0:0:0:0:
256,192,226930,1,8,0:0:0:0:
256,192,227230,1,0,0:0:0:0:
256,192,227380,1,8,0:0:0:0:
256,192,227680,1,0,0:0:0:0:
256,192,227830,1,8,0:0:0:0:
256,192,228130,1,0,0:0:0:0:
256,192,228280,1,8,0:0:0:0:
256,192,228580,1,0,0:0:0:0:
256,192,228730,1,8,0:0:0:0:
256,192,229030,1,0,0:0:0:0:
256,192,229180,1,8,0:0:0:0:
256,192,229480,1,0,0:0:0:0:
256,192,229630,1,8,0:0:0:0:
256,192,229930,1,0,0:0:0:0:
256,192,230230,1,0,0:0:0:0:
256,192,230380,1,0,0:0:0:0:
256,192,230530,1,8,0:0:0:0:
256,192,230680,1,0,0:0:0:0:
256,192,230830,1,8,0:0:0:0:
256,192,230980,1,8,0:0:0:0:
256,192,231130,1,0,0:0:0:0:
256,192,231280,1,0,0:0:0:0:
256,192,231430,1,8,0:0:0:0:
256,192,231580,1,0,0:0:0:0:
256,192,231730,1,8,0:0:0:0:
256,192,231880,1,8,0:0:0:0:
256,192,232030,1,0,0:0:0:0:
256,192,232180,1,8,0:0:0:0:
256,192,232330,1,8,0:0:0:0:
256,192,232480,1,8,0:0:0:0:
256,192,232630,1,0,0:0:0:0:
256,192,232780,1,0,0:0:0:0:
256,192,232930,1,8,0:0:0:0:
256,192,233080,1,0,0:0:0:0:
256,192,233230,1,8,0:0:0:0:
256,192,233380,1,8,0:0:0:0:
256,192,233530,1,0,0:0:0:0:
256,192,233680,1,0,0:0:0:0:
256,192,233830,1,8,0:0:0:0:
256,192,233980,1,0,0:0:0:0:
256,192,234130,1,8,0:0:0:0:
256,192,234280,1,8,0:0:0:0:
256,192,234430,1,0,0:0:0:0:
256,192,234580,1,8,0:0:0:0:
256,192,234730,1,0,0:0:0:0:
256,192,234880,1,8,0:0:0:0:
256,192,235030,1,0,0:0:0:0:
256,192,235180,1,0,0:0:0:0:
256,192,235330,1,8,0:0:0:0:
256,192,235480,1,0,0:0:0:0:
256,192,235630,1,8,0:0:0:0:
256,192,235780,1,8,0:0:0:0:
256,192,235930,1,0,0:0:0:0:
256,192,236080,1,0,0:0:0:0:
256,192,236230,1,8,0:0:0:0:
256,192,236380,1,0,0:0:0:0:
256,192,236530,1,8,0:0:0:0:
256,192,236680,1,8,0:0:0:0:
256,192,236830,1,0,0:0:0:0:
256,192,236980,1,8,0:0:0:0:
256,192,237130,1,8,0:0:0:0:
256,192,237280,1,8,0:0:0:0:
256,192,237430,1,0,0:0:0:0:
256,192,237580,1,0,0:0:0:0:
256,192,237730,1,8,0:0:0:0:
256,192,237880,1,0,0:0:0:0:
256,192,238030,1,8,0:0:0:0:
256,192,238180,1,8,0:0:0:0:
256,192,238330,1,0,0:0:0:0:
256,192,238480,1,0,0:0:0:0:
256,192,238630,1,8,0:0:0:0:
256,192,238780,1,0,0:0:0:0:
256,192,238930,1,8,0:0:0:0:
256,192,239080,1,8,0:0:0:0:
256,192,239230,1,0,0:0:0:0:
256,192,239380,1,8,0:0:0:0:
256,192,239530,1,0,0:0:0:0:
256,192,239680,1,8,0:0:0:0:
256,192,239830,1,0,0:0:0:0:
256,192,239980,1,0,0:0:0:0:
256,192,240130,1,8,0:0:0:0:
256,192,240280,1,0,0:0:0:0:
256,192,240430,1,8,0:0:0:0:
256,192,240580,1,8,0:0:0:0:
256,192,240730,1,0,0:0:0:0:
256,192,240880,1,0,0:0:0:0:
256,192,241030,1,8,0:0:0:0:
256,192,241180,1,0,0:0:0:0:
256,192,241330,1,8,0:0:0:0:
256,192,241480,1,8,0:0:0:0:
256,192,241630,1,0,0:0:0:0:
256,192,241780,1,8,0:0:0:0:
256,192,241930,1,8,0:0:0:0:
256,192,242080,1,8,0:0:0:0:
256,192,242230,1,0,0:0:0:0:
256,192,242380,1,0,0:0:0:0:
256,192,242530,1,8,0:0:0:0:
256,192,242680,1,0,0:0:0:0:
256,192,242830,1,8,0:0:0:0:
256,192,242980,1,8,0:0:0:0:
256,192,243130,1,0,0:0:0:0:
256,192,243280,1,0,0:0:0:0:
256,192,243430,1,8,0:0:0:0:
256,192,243580,1,0,0:0:0:0:
256,192,243730,1,8,0:0:0:0:
256,192,243880,1,8,0:0:0:0:
256,192,244030,1,0,0:0:0:0:
256,192,244180,1,8,0:0:0:0:
256,192,244330,1,0,0:0:0:0:
256,192,244480,1,8,0:0:0:0:
256,192,244630,1,0,0:0:0:0:
256,192,244780,1,0,0:0:0:0:
256,192,244930,1,8,0:0:0:0:
256,192,245080,1,0,0:0:0:0:
256,192,245230,1,8,0:0:0:0:
256,192,245380,1,8,0:0:0:0:
256,192,245530,1,0,0:0:0:0:
256,192,245680,1,0,0:0:0:0:
256,192,245830,1,8,0:0:0:0:
256,192,245980,1,0,0:0:0:0:
256,192,246130,1,8,0:0:0:0:
256,192,246280,1,8,0:0:0:0:
256,192,246430,1,0,0:0:0:0:
256,192,246580,1,8,0:0:0:0:
256,192,246730,1,8,0:0:0:0:
256,192,246880,1,8,0:0:0:0:
256,192,247030,1,0,0:0:0:0:
256,192,247180,1,0,0:0:0:0:
256,192,247330,1,8,0:0:0:0:
256,192,247480,1,0,0:0:0:0:
256,192,247630,1,8,0:0:0:0:
256,192,247780,1,8,0:0:0:0:
256,192,247930,1,0,0:0:0:0:
256,192,248080,1,0,0:0:0:0:
256,192,248230,1,8,0:0:0:0:
256,192,248380,1,0,0:0:0:0:
256,192,248530,1,8,0:0:0:0:
256,192,248680,1,8,0:0:0:0:
256,192,248830,1,0,0:0:0:0:
256,192,248980,1,8,0:0:0:0:
256,192,249130,1,0,0:0:0:0:
256,192,249280,1,8,0:0:0:0:
256,192,249430,1,0,0:0:0:0:
256,192,249580,1,0,0:0:0:0:
256,192,249730,1,8,0:0:0:0:
256,192,249880,1,0,0:0:0:0:
256,192,250030,1,8,0:0:0:0:
256,192,250180,1,8,0:0:0:0:
256,192,250330,1,0,0:0:0:0:
256,192,250480,1,0,0:0:0:0:
256,192,250630,1,8,0:0:0:0:
256,192,250780,1,0,0:0:0:0:
256,192,250930,1,8,0:0:0:0:
256,192,251080,1,8,0:0:0:0:
256,192,251230,1,0,0:0:0:0:
256,192,251380,1,8,0:0:0:0:
256,192,251530,1,8,0:0:0:0:
256,192,251680,1,8,0:0:0:0:
256,192,251830,1,0,0:0:0:0:
256,192,251980,1,0,0:0:0:0:
256,192,252130,1,8,0:0:0:0:
256,192,252280,1,0,0:0:0:0:
256,192,252430,1,8,0:0:0:0:
256,192,252580,1,8,0:0:0:0:
256,192,252730,1,0,0:0:0:0:
256,192,252880,1,0,0:0:0:0:
256,192,253030,1,8,0:0:0:0:
256,192,253180,1,0,0:0:0:0:
256,192,253330,1,8,0:0:0:0:
256,192,253480,1,8,0:0:0:0:
256,192,253630,1,0,0:0:0:0:
256,192,253780,1,8,0:0:0:0:
256,192,253930,1,0,0:0:0:0:
256,192,254080,1,8,0:0:0:0:
256,192,254230,1,0,0:0:0:0:
256,192,254380,1,0,0:0:0:0:
256,192,254530,1,8,0:0:0:0:
256,192,254680,1,0,0:0:0:0:
256,192,254830,1,8,0:0:0:0:
256,192,254980,1,8,0:0:0:0:
256,192,255130,1,0,0:0:0:0:
256,192,255280,1,0,0:0:0:0:
256,192,255430,1,8,0:0:0:0:
256,192,255580,1,0,0:0:0:0:
256,192,255730,1,8,0:0:0:0:
256,192,255880,1,8,0:0:0:0:
256,192,256030,1,0,0:0:0:0:
256,192,256180,1,8,0:0:0:0:
256,192,256330,1,8,0:0:0:0:
256,192,256480,1,8,0:0:0:0:
256,192,256630,1,0,0:0:0:0:
256,192,256780,1,0,0:0:0:0:
256,192,256930,1,8,0:0:0:0:
256,192,257080,1,0,0:0:0:0:
256,192,257230,1,8,0:0:0:0:
256,192,257380,1,8,0:0:0:0:
256,192,257530,1,0,0:0:0:0:
256,192,257680,1,8,0:0:0:0:
256,192,257830,1,8,0:0:0:0:
256,192,257980,1,8,0:0:0:0:
256,192,258130,1,8,0:0:0:0:
256,192,258280,1,0,0:0:0:0:
256,192,258430,1,8,0:0:0:0:
256,192,258580,1,0,0:0:0:0:
256,192,258730,1,0,0:0:0:0:
256,192,258880,1,0,0:0:0:0:
256,192,259030,1,8,0:0:0:0:
256,192,259180,1,0,0:0:0:0:
256,192,259330,1,0,0:0:0:0:
256,192,259480,1,0,0:0:0:0:
256,192,259630,1,0,0:0:0:0:
256,192,259780,1,8,0:0:0:0:
256,192,259930,1,0,0:0:0:0:
256,192,260080,1,0,0:0:0:0:
256,192,260230,1,8,0:0:0:0:
256,192,260380,1,0,0:0:0:0:
256,192,260530,1,0,0:0:0:0:
256,192,260680,1,0,0:0:0:0:
256,192,260830,1,8,0:0:0:0:
256,192,260980,1,8,0:0:0:0:
256,192,261130,1,0,0:0:0:0:
256,192,261280,1,8,0:0:0:0:
256,192,261430,1,0,0:0:0:0:
256,192,261580,1,8,0:0:0:0:
256,192,261730,1,8,0:0:0:0:
256,192,261880,1,0,0:0:0:0:
256,192,262030,1,0,0:0:0:0:
256,192,262180,1,0,0:0:0:0:
256,192,262330,1,8,0:0:0:0:
256,192,262480,1,0,0:0:0:0:
256,192,262630,1,8,0:0:0:0:
256,192,262780,1,8,0:0:0:0:
256,192,262930,1,0,0:0:0:0:
256,192,263080,1,0,0:0:0:0:
256,192,263230,1,8,0:0:0:0:
256,192,263380,1,0,0:0:0:0:
256,192,263530,1,8,0:0:0:0:
256,192,263680,1,0,0:0:0:0:
256,192,263830,1,8,0:0:0:0:
256,192,263980,1,0,0:0:0:0:
256,192,264130,1,0,0:0:0:0:
256,192,264280,1,0,0:0:0:0:
256,192,264430,1,8,0:0:0:0:
256,192,264580,1,0,0:0:0:0:
256,192,264730,1,8,0:0:0:0:
256,192,264880,1,8,0:0:0:0:
256,192,265030,1,0,0:0:0:0:
256,192,265180,1,8,0:0:0:0:
256,192,265330,1,8,0:0:0:0:
256,192,265480,1,0,0:0:0:0:
256,192,265630,1,8,0:0:0:0:
256,192,265780,1,8,0:0:0:0:
256,192,265930,1,8,0:0:0:0:
256,192,266080,1,8,0:0:0:0:
256,192,266230,1,0,0:0:0:0:
256,192,266380,1,0,0:0:0:0:
256,192,266530,1,8,0:0:0:0:
256,192,266680,1,0,0:0:0:0:
256,192,266830,1,8,0:0:0:0:
256,192,266980,1,8,0:0:0:0:
256,192,267130,1,0,0:0:0:0:
256,192,267280,1,8,0:0:0:0:
256,192,267430,1,0,0:0:0:0:
256,192,267580,1,8,0:0:0:0:
256,192,267730,1,8,0:0:0:0:
256,192,267880,1,0,0:0:0:0:
256,192,268330,1,0,0:0:0:0:
256,192,268630,1,12,0:0:0:0:
256,192,268930,1,0,0:0:0:0:
256,192,269080,1,0,0:0:0:0:
256,192,269230,1,0,0:0:0:0:
256,192,269380,1,12,0:0:0:0:
256,192,269680,1,0,0:0:0:0:
256,192,269830,1,12,0:0:0:0:
256,192,270130,1,0,0:0:0:0:
256,192,270430,1,12,0:0:0:0:
256,192,270580,1,8,0:0:0:0:
256,192,270730,1,0,0:0:0:0:
256,192,270880,1,12,0:0:0:0:
256,192,271180,1,8,0:0:0:0:
256,192,271330,1,0,0:0:0:0:
256,192,271630,1,0,0:0:0:0:
256,192,271780,1,0,0:0:0:0:
256,192,271930,1,8,0:0:0:0:
256,192,272080,1,0,0:0:0:0:
256,192,272155,1,0,0:0:0:0:
256,192,272230,1,8,0:0:0:0:
256,192,272380,1,8,0:0:0:0:
256,192,272530,1,0,0:0:0:0:
256,192,272680,1,0,0:0:0:0:
256,192,272830,1,8,0:0:0:0:
256,192,272880,1,8,0:0:0:0:
256,192,272930,1,8,0:0:0:0:
256,192,272980,1,0,0:0:0:0:
256,192,273055,1,0,0:0:0:0:
256,192,273130,1,8,0:0:0:0:
256,192,273205,1,8,0:0:0:0:
256,192,273280,1,0,0:0:0:0:
256,192,273355,1,0,0:0:0:0:
256,192,273430,1,12,0:0:0:0:
256,192,273730,1,0,0:0:0:0:
256,192,273880,1,0,0:0:0:0:
256,192,274030,1,0,0:0:0:0:
256,192,274180,1,12,0:0:0:0:
256,192,274330,1,0,0:0:0:0:
256,192,274480,1,0,0:0:0:0:
256,192,274630,1,12,0:0:0:0:
256,192,274930,1,0,0:0:0:0:
256,192,275230,1,12,0:0:0:0:
256,192,275380,1,0,0:0:0:0:
256,192,275530,1,0,0:0:0:0:
256,192,275680,1,12,0:0:0:0:
256,192,276130,1,0,0:0:0:0:
256,192,276430,1,8,0:0:0:0:
256,192,276730,1,0,0:0:0:0:
256,192,276880,1,8,0:0:0:0:
256,192,277330,1,8,0:0:0:0:
256,192,277480,1,0,0:0:0:0:
256,192,277530,1,0,0:0:0:0:
256,192,277580,1,0,0:0:0:0:
256,192,277630,1,8,0:0:0:0:
256,192,277730,1,8,0:0:0:0:
256,192,277830,1,8,0:0:0:0:
256,192,277930,1,0,0:0:0:0:
256,192,278030,1,0,0:0:0:0:
256,192,278130,1,0,0:0:0:0:
256,192,278230,1,12,0:0:0:0:
256,192,278530,1,0,0:0:0:0:
256,192,278680,1,0,0:0:0:0:
256,192,278830,1,0,0:0:0:0:
256,192,278980,1,12,0:0:0:0:
256,192,279280,1,0,0:0:0:0:
256,192,279430,1,12,0:0:0:0:
256,192,279730,1,0,0:0:0:0:
256,192,280030,1,12,0:0:0:0:
256,192,280180,1,8,0:0:0:0:
256,192,280330,1,0,0:0:0:0:
256,192,280480,1,12,0:0:0:0:
256,192,280780,1,8,0:0:0:0:
256,192,280930,1,0,0:0:0:0:
256,192,281230,1,0,0:0:0:0:
256,192,281380,1,0,0:0:0:0:
256,192,281530,1,8,0:0:0:0:
256,192,281680,1,0,0:0:0:0:
256,192,281755,1,0,0:0:0:0:
256,192,281830,1,8,0:0:0:0:
256,192,281980,1,8,0:0:0:0:
256,192,282130,1,0,0:0:0:0:
256,192,282280,1,0,0:0:0:0:
256,192,282430,1,8,0:0:0:0:
256,192,282480,1,8,0:0:0:0:
256,192,282530,1,8,0:0:0:0:
256,192,282580,1,0,0:0:0:0:
256,192,282655,1,0,0:0:0:0:
256,192,282730,1,8,0:0:0:0:
256,192,282805,1,8,0:0:0:0:
256,192,282880,1,0,0:0:0:0:
256,192,282955,1,0,0:0:0:0:
256,192,283030,1,12,0:0:0:0:
256,192,283330,1,0,0:0:0:0:
256,192,283480,1,0,0:0:0:0:
256,192,283630,1,0,0:0:0:0:
256,192,283780,1,12,0:0:0:0:
256,192,283930,1,0,0:0:0:0:
256,192,284080,1,0,0:0:0:0:
256,192,284230,1,12,0:0:0:0:
256,192,284530,1,0,0:0:0:0:
256,192,284830,1,12,0:0:0:0:
256,192,284980,1,8,0:0:0:0:
256,192,285130,1,0,0:0:0:0:
256,192,285280,1,12,0:0:0:0:
256,192,285430,12,0,289480,0:0:0:0:
256,192,289630,12,0,290080,0:0:0:0:
256,192,290230,5,12,0:0:0:0:
256,192,290380,1,0,0:0:0:0:
256,192,290455,1,0,0:0:0:0:
256,192,290530,1,8,0:0:0:0:
256,192,290680,1,0,0:0:0:0:
256,192,290755,1,8,0:0:0:0:
256,192,290905,1,8,0:0:0:0:
256,192,290980,1,0,0:0:0:0:
256,192,291055,1,0,0:0:0:0:
256,192,291130,1,8,0:0:0:0:
256,192,291280,1,0,0:0:0:0:
256,192,291355,1,0,0:0:0:0:
256,192,291430,1,8,0:0:0:0:
256,192,291580,1,8,0:0:0:0:
256,192,291655,1,0,0:0:0:0:
256,192,291730,1,8,0:0:0:0:
256,192,291880,1,0,0:0:0:0:
256,192,291955,1,8,0:0:0:0:
256,192,292105,1,8,0:0:0:0:
256,192,292180,1,0,0:0:0:0:
256,192,292255,1,0,0:0:0:0:
256,192,292330,1,8,0:0:0:0:
256,192,292480,1,8,0:0:0:0:
256,192,292555,1,0,0:0:0:0:
256,192,292630,1,8,0:0:0:0:
256,192,292780,1,0,0:0:0:0:
256,192,292855,1,0,0:0:0:0:
256,192,292930,1,8,0:0:0:0:
256,192,293080,1,0,0:0:0:0:
256,192,293155,1,8,0:0:0:0:
256,192,293305,1,8,0:0:0:0:
256,192,293380,1,0,0:0:0:0:
256,192,293530,1,8,0:0:0:0:
256,192,293680,1,0,0:0:0:0:
256,192,293755,1,0,0:0:0:0:
256,192,293830,1,8,0:0:0:0:
256,192,293905,1,0,0:0:0:0:
256,192,293980,1,8,0:0:0:0:
256,192,294055,1,8,0:0:0:0:
256,192,294130,1,0,0:0:0:0:
256,192,294280,1,0,0:0:0:0:
256,192,294355,1,8,0:0:0:0:
256,192,294505,1,8,0:0:0:0:
256,192,294580,1,0,0:0:0:0:
256,192,294730,1,8,0:0:0:0:
256,192,294805,1,8,0:0:0:0:
256,192,294880,1,0,0:0:0:0:
256,192,294955,1,8,0:0:0:0:
256,192,295030,1,0,0:0:0:0:
256,192,295180,1,0,0:0:0:0:
256,192,295255,1,0,0:0:0:0:
256,192,295330,1,8,0:0:0:0:
256,192,295480,1,0,0:0:0:0:
256,192,295555,1,8,0:0:0:0:
256,192,295705,1,8,0:0:0:0:
256,192,295780,1,0,0:0:0:0:
256,192,295930,1,8,0:0:0:0:
256,192,296005,1,0,0:0:0:0:
256,192,296080,1,8,0:0:0:0:
256,192,296155,1,8,0:0:0:0:
256,192,296230,1,0,0:0:0:0:
256,192,296380,1,0,0:0:0:0:
256,192,296455,1,0,0:0:0:0:
256,192,296530,1,8,0:0:0:0:
256,192,296680,1,0,0:0:0:0:
256,192,296755,1,8,0:0:0:0:
256,192,296905,1,8,0:0:0:0:
256,192,296980,1,0,0:0:0:0:
256,192,297130,1,8,0:0:0:0:
256,192,297205,1,8,0:0:0:0:
256,192,297280,1,0,0:0:0:0:
256,192,297355,1,8,0:0:0:0:
256,192,297430,1,0,0:0:0:0:
256,192,297580,1,0,0:0:0:0:
256,192,297655,1,0,0:0:0:0:
256,192,297730,1,8,0:0:0:0:
256,192,297880,1,0,0:0:0:0:
256,192,297955,1,8,0:0:0:0:
256,192,298105,1,8,0:0:0:0:
256,192,298180,1,0,0:0:0:0:
256,192,298255,1,0,0:0:0:0:
256,192,298330,1,8,0:0:0:0:
256,192,298480,1,0,0:0:0:0:
256,192,298555,1,0,0:0:0:0:
256,192,298630,1,8,0:0:0:0:
256,192,298705,1,8,0:0:0:0:
256,192,298780,1,0,0:0:0:0:
256,192,298855,1,0,0:0:0:0:
256,192,298930,1,8,0:0:0:0:
256,192,299080,1,0,0:0:0:0:
256,192,299155,1,8,0:0:0:0:
256,192,299305,1,8,0:0:0:0:
256,192,299380,1,0,0:0:0:0:
256,192,299455,1,0,0:0:0:0:
256,192,299530,1,8,0:0:0:0:
256,192,299605,1,0,0:0:0:0:
256,192,299680,1,8,0:0:0:0:
256,192,299755,1,8,0:0:0:0:
256,192,299830,1,4,0:0:0:0:
256,192,299980,1,0,0:0:0:0:
256,192,300055,1,0,0:0:0:0:
256,192,300130,1,8,0:0:0:0:
256,192,300205,1,8,0:0:0:0:
256,192,300280,1,0,0:0:0:0:
256,192,300355,1,0,0:0:0:0:
256,192,300430,1,8,0:0:0:0:
256,192,300505,1,0,0:0:0:0:
256,192,300580,1,8,0:0:0:0:
256,192,300655,1,0,0:0:0:0:
256,192,300730,1,8,0:0:0:0:
256,192,300805,1,0,0:0:0:0:
256,192,300880,1,8,0:0:0:0:
256,192,300955,1,0,0:0:0:0:
256,192,301030,1,8,0:0:0:0:
256,192,301105,1,8,0:0:0:0:
256,192,301180,1,0,0:0:0:0:
256,192,301255,1,0,0:0:0:0:
256,192,301330,1,8,0:0:0:0:
256,192,301405,1,8,0:0:0:0:
256,192,301480,1,0,0:0:0:0:
256,192,301555,1,0,0:0:0:0:
256,192,301630,1,8,0:0:0:0:
256,192,301705,1,0,0:0:0:0:
256,192,301780,1,8,0:0:0:0:
256,192,301855,1,0,0:0:0:0:
256,192,301930,1,8,0:0:0:0:
256,192,301980,1,8,0:0:0:0:
256,192,302030,1,8,0:0:0:0:
256,192,302080,1,0,0:0:0:0:
256,192,302230,1,8,0:0:0:0:
256,192,302305,1,8,0:0:0:0:
256,192,302380,1,0,0:0:0:0:
256,192,302455,1,0,0:0:0:0:
256,192,302530,1,8,0:0:0:0:
256,192,302605,1,8,0:0:0:0:
256,192,302680,1,0,0:0:0:0:
256,192,302755,1,0,0:0:0:0:
256,192,302830,1,8,0:0:0:0:
256,192,302905,1,0,0:0:0:0:
256,192,302980,1,8,0:0:0:0:
256,192,303055,1,0,0:0:0:0:
256,192,303130,1,8,0:0:0:0:
256,192,303205,1,0,0:0:0:0:
256,192,303280,1,8,0:0:0:0:
256,192,303355,1,0,0:0:0:0:
256,192,303430,1,8,0:0:0:0:
256,192,303505,1,8,0:0:0:0:
256,192,303580,1,0,0:0:0:0:
256,192,303655,1,0,0:0:0:0:
256,192,303730,1,8,0:0:0:0:
256,192,303805,1,8,0:0:0:0:
256,192,303880,1,0,0:0:0:0:
256,192,303955,1,0,0:0:0:0:
256,192,304030,1,8,0:0:0:0:
256,192,304105,1,0,0:0:0:0:
256,192,304180,1,8,0:0:0:0:
256,192,304255,1,0,0:0:0:0:
256,192,304330,1,8,0:0:0:0:
256,192,304367,1,8,0:0:0:0:
256,192,304480,1,8,0:0:0:0:
256,192,304517,1,8,0:0:0:0:
256,192,304630,1,8,0:0:0:0:
256,192,304705,1,8,0:0:0:0:
256,192,304780,1,0,0:0:0:0:
256,192,304855,1,0,0:0:0:0:
256,192,304930,1,8,0:0:0:0:
256,192,305005,1,8,0:0:0:0:
256,192,305080,1,0,0:0:0:0:
256,192,305155,1,0,0:0:0:0:
256,192,305230,1,8,0:0:0:0:
256,192,305305,1,8,0:0:0:0:
256,192,305380,1,8,0:0:0:0:
256,192,305455,1,8,0:0:0:0:
256,192,305530,1,0,0:0:0:0:
256,192,305567,1,0,0:0:0:0:
256,192,305680,1,0,0:0:0:0:
256,192,305717,1,0,0:0:0:0:
256,192,305830,1,8,0:0:0:0:
256,192,305905,1,8,0:0:0:0:
256,192,305980,1,0,0:0:0:0:
256,192,306055,1,0,0:0:0:0:
256,192,306130,1,8,0:0:0:0:
256,192,306205,1,8,0:0:0:0:
256,192,306280,1,0,0:0:0:0:
256,192,306355,1,0,0:0:0:0:
256,192,306430,1,8,0:0:0:0:
256,192,306505,1,0,0:0:0:0:
256,192,306580,1,8,0:0:0:0:
256,192,306655,1,0,0:0:0:0:
256,192,306730,1,8,0:0:0:0:
256,192,306780,1,8,0:0:0:0:
256,192,306830,1,0,0:0:0:0:
256,192,306880,1,8,0:0:0:0:
256,192,307030,1,8,0:0:0:0:
256,192,307080,1,8,0:0:0:0:
256,192,307130,1,8,0:0:0:0:
256,192,307180,1,0,0:0:0:0:
256,192,307255,1,0,0:0:0:0:
256,192,307330,1,8,0:0:0:0:
256,192,307405,1,8,0:0:0:0:
256,192,307480,1,0,0:0:0:0:
256,192,307555,1,0,0:0:0:0:
256,192,307630,1,8,0:0:0:0:
256,192,307680,1,8,0:0:0:0:
256,192,307730,1,8,0:0:0:0:
256,192,307780,1,0,0:0:0:0:
256,192,307855,1,0,0:0:0:0:
256,192,307930,1,8,0:0:0:0:
256,192,308005,1,0,0:0:0:0:
256,192,308080,1,8,0:0:0:0:
256,192,308155,1,0,0:0:0:0:
256,192,308230,1,8,0:0:0:0:
256,192,308280,1,0,0:0:0:0:
256,192,308330,1,0,0:0:0:0:
256,192,308380,1,8,0:0:0:0:
256,192,308455,1,0,0:0:0:0:
256,192,308530,1,8,0:0:0:0:
256,192,308580,1,0,0:0:0:0:
256,192,308630,1,0,0:0:0:0:
256,192,308680,1,8,0:0:0:0:
256,192,308755,1,0,0:0:0:0:
256,192,308830,1,8,0:0:0:0:
256,192,308880,1,8,0:0:0:0:
256,192,308930,1,8,0:0:0:0:
256,192,308980,1,0,0:0:0:0:
256,192,309055,1,0,0:0:0:0:
256,192,309130,1,8,0:0:0:0:
256,192,309180,1,8,0:0:0:0:
256,192,309230,1,8,0:0:0:0:
256,192,309280,1,0,0:0:0:0:
256,192,309355,1,0,0:0:0:0:
256,192,309430,1,8,0:0:0:0:
256,192,309580,1,0,0:0:0:0:
256,192,309730,1,8,0:0:0:0:
256,192,309880,1,0,0:0:0:0:
256,192,309955,1,0,0:0:0:0:
256,192,310030,1,8,0:0:0:0:
256,192,310105,1,8,0:0:0:0:
256,192,310180,1,0,0:0:0:0:
256,192,310330,1,8,0:0:0:0:
256,192,310480,1,0,0:0:0:0:
256,192,310555,1,0,0:0:0:0:
256,192,310630,1,8,0:0:0:0:
256,192,310705,1,8,0:0:0:0:
256,192,310780,1,0,0:0:0:0:
256,192,310855,1,0,0:0:0:0:
256,192,310930,1,8,0:0:0:0:
256,192,311080,1,0,0:0:0:0:
256,192,311155,1,8,0:0:0:0:
256,192,311305,1,8,0:0:0:0:
256,192,311380,1,0,0:0:0:0:
256,192,311455,1,0,0:0:0:0:
256,192,311530,1,8,0:0:0:0:
256,192,311605,1,8,0:0:0:0:
256,192,311680,1,0,0:0:0:0:
256,192,311755,1,0,0:0:0:0:
256,192,311830,1,12,0:0:0:0:
256,192,311980,1,0,0:0:0:0:
256,192,312055,1,0,0:0:0:0:
256,192,312130,1,8,0:0:0:0:
256,192,312280,1,0,0:0:0:0:
256,192,312355,1,8,0:0:0:0:
256,192,312505,1,8,0:0:0:0:
256,192,312580,1,0,0:0:0:0:
256,192,312655,1,0,0:0:0:0:
256,192,312730,1,8,0:0:0:0:
256,192,312880,1,0,0:0:0:0:
256,192,312955,1,0,0:0:0:0:
256,192,313030,1,8,0:0:0:0:
256,192,313105,1,8,0:0:0:0:
256,192,313180,1,0,0:0:0:0:
256,192,313255,1,0,0:0:0:0:
256,192,313330,1,8,0:0:0:0:
256,192,313480,1,0,0:0:0:0:
256,192,313555,1,8,0:0:0:0:
256,192,313705,1,8,0:0:0:0:
256,192,313780,1,8,0:0:0:0:
256,192,313855,1,0,0:0:0:0:
256,192,313930,1,8,0:0:0:0:
256,192,314080,1,0,0:0:0:0:
256,192,314155,1,0,0:0:0:0:
256,192,314230,1,8,0:0:0:0:
256,192,314305,1,0,0:0:0:0:
256,192,314380,1,8,0:0:0:0:
256,192,314455,1,0,0:0:0:0:
256,192,314530,1,8,0:0:0:0:
256,192,314680,1,0,0:0:0:0:
256,192,314755,1,8,0:0:0:0:
256,192,314905,1,8,0:0:0:0:
256,192,314980,1,0,0:0:0:0:
256,192,315055,1,0,0:0:0:0:
256,192,315130,1,8,0:0:0:0:
256,192,315280,1,0,0:0:0:0:
256,192,315355,1,0,0:0:0:0:
256,192,315430,1,8,0:0:0:0:
256,192,315505,1,8,0:0:0:0:
256,192,315580,1,0,0:0:0:0:
256,192,315655,1,8,0:0:0:0:
256,192,315730,1,0,0:0:0:0:
256,192,315880,1,0,0:0:0:0:
256,192,315955,1,8,0:0:0:0:
256,192,316105,1,8,0:0:0:0:
256,192,316180,1,8,0:0:0:0:
256,192,316255,1,0,0:0:0:0:
256,192,316330,1,8,0:0:0:0:
256,192,316405,1,0,0:0:0:0:
256,192,316480,1,8,0:0:0:0:
256,192,316555,1,8,0:0:0:0:
256,192,316630,1,0,0:0:0:0:
256,192,316705,1,8,0:0:0:0:
256,192,316780,1,0,0:0:0:0:
256,192,316855,1,0,0:0:0:0:
256,192,316930,1,8,0:0:0:0:
256,192,317080,1,0,0:0:0:0:
256,192,317155,1,8,0:0:0:0:
256,192,317305,1,8,0:0:0:0:
256,192,317380,1,0,0:0:0:0:
256,192,317530,1,8,0:0:0:0:
256,192,317605,1,0,0:0:0:0:
256,192,317680,1,8,0:0:0:0:
256,192,317755,1,8,0:0:0:0:
256,192,317830,1,0,0:0:0:0:
256,192,317905,1,8,0:0:0:0:
256,192,317980,1,0,0:0:0:0:
256,192,318055,1,0,0:0:0:0:
256,192,318130,1,8,0:0:0:0:
256,192,318280,1,0,0:0:0:0:
256,192,318355,1,8,0:0:0:0:
256,192,318505,1,8,0:0:0:0:
256,192,318580,1,0,0:0:0:0:
256,192,318730,1,8,0:0:0:0:
256,192,318805,1,0,0:0:0:0:
256,192,318880,1,8,0:0:0:0:
256,192,318955,1,8,0:0:0:0:
256,192,319030,1,0,0:0:0:0:
256,192,319105,1,8,0:0:0:0:
256,192,319180,1,0,0:0:0:0:
256,192,319255,1,0,0:0:0:0:
256,192,319330,1,8,0:0:0:0:
256,192,319480,1,0,0:0:0:0:
256,192,319555,1,8,0:0:0:0:
256,192,319705,1,8,0:0:0:0:
256,192,319780,1,0,0:0:0:0:
256,192,319855,1,0,0:0:0:0:
256,192,319930,1,8,0:0:0:0:
256,192,320005,1,8,0:0:0:0:
256,192,320080,1,0,0:0:0:0:
256,192,320155,1,0,0:0:0:0:
256,192,320230,1,12,0:0:0:0:
256,192,320380,1,0,0:0:0:0:
256,192,320455,1,0,0:0:0:0:
256,192,320530,1,8,0:0:0:0:
256,192,320680,1,0,0:0:0:0:
256,192,320755,1,8,0:0:0:0:
256,192,320905,1,8,0:0:0:0:
256,192,320980,1,0,0:0:0:0:
256,192,321055,1,0,0:0:0:0:
256,192,321130,1,8,0:0:0:0:
256,192,321205,1,0,0:0:0:0:
256,192,321280,1,8,0:0:0:0:
256,192,321355,1,8,0:0:0:0:
256,192,321430,1,0,0:0:0:0:
256,192,321580,1,0,0:0:0:0:
256,192,321655,1,0,0:0:0:0:
256,192,321730,1,12,0:0:0:0:
256,192,321955,1,0,0:0:0:0:
256,192,322105,1,8,0:0:0:0:
256,192,322180,1,0,0:0:0:0:
256,192,322255,1,0,0:0:0:0:
256,192,322330,1,8,0:0:0:0:
256,192,322480,1,0,0:0:0:0:
256,192,322555,1,0,0:0:0:0:
256,192,322630,1,8,0:0:0:0:
256,192,322780,1,8,0:0:0:0:
256,192,322855,1,0,0:0:0:0:
256,192,322930,1,8,0:0:0:0:
256,192,323080,1,0,0:0:0:0:
256,192,323155,1,8,0:0:0:0:
256,192,323305,1,8,0:0:0:0:
256,192,323380,1,8,0:0:0:0:
256,192,323455,1,0,0:0:0:0:
256,192,323530,1,8,0:0:0:0:
256,192,323680,1,0,0:0:0:0:
256,192,323755,1,0,0:0:0:0:
256,192,323830,1,8,0:0:0:0:
256,192,323905,1,8,0:0:0:0:
256,192,323980,1,0,0:0:0:0:
256,192,324055,1,0,0:0:0:0:
256,192,324130,1,8,0:0:0:0:
256,192,324280,1,0,0:0:0:0:
256,192,324355,1,8,0:0:0:0:
256,192,324505,1,8,0:0:0:0:
256,192,324580,1,0,0:0:0:0:
256,192,324655,1,0,0:0:0:0:
256,192,324730,1,8,0:0:0:0:
256,192,324880,1,0,0:0:0:0:
256,192,324955,1,0,0:0:0:0:
256,192,325030,1,8,0:0:0:0:
256,192,325105,1,8,0:0:0:0:
256,192,325180,1,0,0:0:0:0:
256,192,325255,1,8,0:0:0:0:
256,192,325330,1,0,0:0:0:0:
256,192,325480,1,8,0:0:0:0:
256,192,325555,1,0,0:0:0:0:
256,192,325705,1,0,0:0:0:0:
256,192,325780,1,8,0:0:0:0:
256,192,325855,1,0,0:0:0:0:
256,192,325930,1,8,0:0:0:0:
256,192,326005,1,8,0:0:0:0:
256,192,326080,1,0,0:0:0:0:
256,192,326155,1,0,0:0:0:0:
256,192,326230,1,12,0:0:0:0:
256,192,326380,1,0,0:0:0:0:
256,192,326530,1,8,0:0:0:0:
256,192,326605,1,0,0:0:0:0:
256,192,326680,1,0,0:0:0:0:
256,192,326755,1,8,0:0:0:0:
256,192,326905,1,0,0:0:0:0:
256,192,326980,1,8,0:0:0:0:
256,192,327055,1,8,0:0:0:0:
256,192,327130,1,0,0:0:0:0:
256,192,327430,1,12,0:0:0:0:
256,192,327580,1,0,0:0:0:0:
256,192,327730,1,8,0:0:0:0:
256,192,327880,1,0,0:0:0:0:
256,192,327955,1,8,0:0:0:0:
256,192,328105,1,0,0:0:0:0:
256,192,328180,1,8,0:0:0:0:
256,192,328255,1,0,0:0:0:0:
256,192,328330,1,8,0:0:0:0:
256,192,328405,1,8,0:0:0:0:
256,192,328480,1,0,0:0:0:0:
256,192,328555,1,0,0:0:0:0:
256,192,328630,1,12,0:0:0:0:
256,192,328780,12,0,330580,0:0:0:0:
256,192,330730,5,0,0:0:0:0:
256,192,331030,1,12,0:0:0:0:
256,192,331180,1,0,0:0:0:0:
256,192,331255,1,0,0:0:0:0:
256,192,331330,1,8,0:0:0:0:
256,192,331405,1,8,0:0:0:0:
256,192,331480,1,0,0:0:0:0:
256,192,331555,1,8,0:0:0:0:
256,192,331630,1,0,0:0:0:0:
256,192,331705,1,8,0:0:0:0:
256,192,331780,1,0,0:0:0:0:
256,192,331855,1,0,0:0:0:0:
256,192,331930,1,8,0:0:0:0:
256,192,332080,1,0,0:0:0:0:
256,192,332155,1,0,0:0:0:0:
256,192,332230,1,8,0:0:0:0:
256,192,332380,1,0,0:0:0:0:
256,192,332455,1,0,0:0:0:0:
256,192,332530,1,8,0:0:0:0:
256,192,332605,1,8,0:0:0:0:
256,192,332680,1,0,0:0:0:0:
256,192,332755,1,8,0:0:0:0:
256,192,332830,1,0,0:0:0:0:
256,192,332905,1,8,0:0:0:0:
256,192,332980,1,0,0:0:0:0:
256,192,333055,1,0,0:0:0:0:
256,192,333130,1,8,0:0:0:0:
256,192,333280,1,0,0:0:0:0:
256,192,333355,1,0,0:0:0:0:
256,192,333430,1,8,0:0:0:0:
256,192,333580,1,0,0:0:0:0:
256,192,333655,1,0,0:0:0:0:
256,192,333730,1,8,0:0:0:0:
256,192,333805,1,0,0:0:0:0:
256,192,333880,1,8,0:0:0:0:
256,192,333955,1,8,0:0:0:0:
256,192,334030,1,0,0:0:0:0:
256,192,334105,1,8,0:0:0:0:
256,192,334180,1,0,0:0:0:0:
256,192,334255,1,0,0:0:0:0:
256,192,334330,1,8,0:0:0:0:
256,192,334480,1,0,0:0:0:0:
256,192,334555,1,0,0:0:0:0:
256,192,334630,1,8,0:0:0:0:
256,192,334780,1,8,0:0:0:0:
256,192,334855,1,0,0:0:0:0:
256,192,334930,1,8,0:0:0:0:
256,192,335005,1,0,0:0:0:0:
256,192,335080,1,8,0:0:0:0:
256,192,335155,1,8,0:0:0:0:
256,192,335230,1,0,0:0:0:0:
256,192,335305,1,8,0:0:0:0:
256,192,335380,1,0,0:0:0:0:
256,192,335455,1,0,0:0:0:0:
256,192,335530,1,8,0:0:0:0:
256,192,335605,1,8,0:0:0:0:
256,192,335680,1,0,0:0:0:0:
256,192,335755,1,0,0:0:0:0:
256,192,335830,1,8,0:0:0:0:
256,192,335980,1,8,0:0:0:0:
256,192,336055,1,0,0:0:0:0:
256,192,336130,1,8,0:0:0:0:
256,192,336280,1,0,0:0:0:0:
256,192,336355,1,8,0:0:0:0:
256,192,336430,1,0,0:0:0:0:
256,192,336505,1,8,0:0:0:0:
256,192,336580,1,0,0:0:0:0:
256,192,336655,1,0,0:0:0:0:
256,192,336730,1,8,0:0:0:0:
256,192,336880,1,0,0:0:0:0:
256,192,336955,1,0,0:0:0:0:
256,192,337030,1,8,0:0:0:0:
256,192,337180,1,0,0:0:0:0:
256,192,337255,1,0,0:0:0:0:
256,192,337330,1,8,0:0:0:0:
256,192,337405,1,8,0:0:0:0:
256,192,337480,1,0,0:0:0:0:
256,192,337555,1,8,0:0:0:0:
256,192,337630,1,0,0:0:0:0:
256,192,337705,1,8,0:0:0:0:
256,192,337780,1,0,0:0:0:0:
256,192,337855,1,0,0:0:0:0:
256,192,337930,1,8,0:0:0:0:
256,192,338080,1,0,0:0:0:0:
256,192,338155,1,0,0:0:0:0:
256,192,338230,1,8,0:0:0:0:
256,192,338380,1,0,0:0:0:0:
256,192,338455,1,0,0:0:0:0:
256,192,338530,1,8,0:0:0:0:
256,192,338605,1,0,0:0:0:0:
256,192,338680,1,8,0:0:0:0:
256,192,338755,1,8,0:0:0:0:
256,192,338830,1,0,0:0:0:0:
256,192,338905,1,8,0:0:0:0:
256,192,338980,1,0,0:0:0:0:
256,192,339055,1,0,0:0:0:0:
256,192,339130,1,8,0:0:0:0:
256,192,339205,1,8,0:0:0:0:
256,192,339280,1,0,0:0:0:0:
256,192,339355,1,0,0:0:0:0:
256,192,339430,1,12,0:0:0:0:
256,192,339580,1,0,0:0:0:0:
256,192,339730,1,8,0:0:0:0:
256,192,339880,1,0,0:0:0:0:
256,192,339955,1,8,0:0:0:0:
256,192,340105,1,0,0:0:0:0:
256,192,340180,1,0,0:0:0:0:
256,192,340255,1,8,0:0:0:0:
256,192,340330,1,8,0:0:0:0:
256,192,340480,1,0,0:0:0:0:
256,192,340630,1,12,0:0:0:0:
256,192,340780,1,0,0:0:0:0:
256,192,340855,1,0,0:0:0:0:
256,192,340930,1,8,0:0:0:0:
256,192,341005,1,0,0:0:0:0:
256,192,341080,1,0,0:0:0:0:
256,192,341155,1,8,0:0:0:0:
256,192,341230,1,0,0:0:0:0:
256,192,341305,1,8,0:0:0:0:
256,192,341380,1,8,0:0:0:0:
256,192,341455,1,0,0:0:0:0:
256,192,341530,1,8,0:0:0:0:
256,192,341680,1,0,0:0:0:0:
256,192,341755,1,0,0:0:0:0:
256,192,341830,1,8,0:0:0:0:
256,192,341905,1,0,0:0:0:0:
256,192,341980,1,8,0:0:0:0:
256,192,342055,1,0,0:0:0:0:
256,192,342130,1,8,0:0:0:0:
256,192,342205,1,0,0:0:0:0:
256,192,342280,1,0,0:0:0:0:
256,192,342355,1,8,0:0:0:0:
256,192,342430,1,0,0:0:0:0:
256,192,342505,1,8,0:0:0:0:
256,192,342580,1,8,0:0:0:0:
256,192,342655,1,0,0:0:0:0:
256,192,342730,1,8,0:0:0:0:
256,192,342880,1,0,0:0:0:0:
256,192,342955,1,0,0:0:0:0:
256,192,343030,1,8,0:0:0:0:
256,192,343105,1,8,0:0:0:0:
256,192,343180,1,8,0:0:0:0:
256,192,343255,1,0,0:0:0:0:
256,192,343330,1,8,0:0:0:0:
256,192,343405,1,0,0:0:0:0:
256,192,343480,1,0,0:0:0:0:
256,192,343555,1,8,0:0:0:0:
256,192,343630,1,0,0:0:0:0:
256,192,343705,1,8,0:0:0:0:
256,192,343780,1,8,0:0:0:0:
256,192,343855,1,0,0:0:0:0:
256,192,343930,1,8,0:0:0:0:
256,192,344080,1,8,0:0:0:0:
256,192,344155,1,0,0:0:0:0:
256,192,344230,1,8,0:0:0:0:
256,192,344305,1,8,0:0:0:0:
256,192,344380,1,0,0:0:0:0:
256,192,344455,1,0,0:0:0:0:
256,192,344530,1,8,0:0:0:0:
256,192,344680,1,0,0:0:0:0:
256,192,344755,1,8,0:0:0:0:
256,192,344905,1,8,0:0:0:0:
256,192,344980,1,0,0:0:0:0:
256,192,345055,1,8,0:0:0:0:
256,192,345130,1,0,0:0:0:0:
256,192,345205,1,0,0:0:0:0:
256,192,345280,1,8,0:0:0:0:
256,192,345355,1,0,0:0:0:0:
256,192,345430,1,8,0:0:0:0:
256,192,345480,1,8,0:0:0:0:
256,192,345530,1,8,0:0:0:0:
256,192,345580,1,0,0:0:0:0:
256,192,345730,1,12,0:0:0:0:
256,192,345880,1,0,0:0:0:0:
256,192,345955,1,0,0:0:0:0:
256,192,346030,1,8,0:0:0:0:
256,192,346105,1,0,0:0:0:0:
256,192,346180,1,8,0:0:0:0:
256,192,346255,1,0,0:0:0:0:
256,192,346330,1,8,0:0:0:0:
256,192,346405,1,8,0:0:0:0:
256,192,346480,1,0,0:0:0:0:
256,192,346555,1,0,0:0:0:0:
256,192,346630,1,8,0:0:0:0:
256,192,346680,1,8,0:0:0:0:
256,192,346730,1,8,0:0:0:0:
256,192,346780,1,8,0:0:0:0:
256,192,346830,1,8,0:0:0:0:
256,192,346880,1,8,0:0:0:0:
256,192,346930,1,4,0:0:0:0:
256,192,347080,1,0,0:0:0:0:
256,192,347155,1,0,0:0:0:0:
256,192,347230,1,8,0:0:0:0:
256,192,347305,1,0,0:0:0:0:
256,192,347380,1,8,0:0:0:0:
256,192,347455,1,0,0:0:0:0:
256,192,347530,1,8,0:0:0:0:
256,192,347605,1,8,0:0:0:0:
256,192,347680,1,8,0:0:0:0:
256,192,347755,1,8,0:0:0:0:
256,192,347830,1,4,0:0:0:0:
256,192,347980,1,0,0:0:0:0:
256,192,348055,1,0,0:0:0:0:
256,192,348130,1,8,0:0:0:0:
256,192,348205,1,8,0:0:0:0:
256,192,348280,1,0,0:0:0:0:
256,192,348355,1,0,0:0:0:0:
256,192,348430,1,8,0:0:0:0:
256,192,348505,1,0,0:0:0:0:
256,192,348580,1,0,0:0:0:0:
256,192,348655,1,0,0:0:0:0:
256,192,348730,1,8,0:0:0:0:
256,192,348880,1,0,0:0:0:0:
256,192,348955,1,0,0:0:0:0:
256,192,349030,1,12,0:0:0:0:
256,192,349180,1,0,0:0:0:0:
256,192,349255,1,0,0:0:0:0:
256,192,349330,1,8,0:0:0:0:
256,192,349405,1,8,0:0:0:0:
256,192,349480,1,0,0:0:0:0:
256,192,349555,1,0,0:0:0:0:
256,192,349630,1,8,0:0:0:0:
256,192,349705,1,8,0:0:0:0:
256,192,349780,1,8,0:0:0:0:
256,192,349855,1,8,0:0:0:0:
256,192,349930,1,0,0:0:0:0:
256,192,350080,1,0,0:0:0:0:
256,192,350155,1,0,0:0:0:0:
256,192,350230,1,8,0:0:0:0:
256,192,350280,1,0,0:0:0:0:
256,192,350330,1,0,0:0:0:0:
256,192,350380,1,8,0:0:0:0:
256,192,350455,1,8,0:0:0:0:
256,192,350530,1,0,0:0:0:0:
256,192,350605,1,0,0:0:0:0:
256,192,350680,1,8,0:0:0:0:
256,192,350755,1,8,0:0:0:0:
256,192,350830,1,0,0:0:0:0:
256,192,350880,1,0,0:0:0:0:
256,192,350930,1,0,0:0:0:0:
256,192,350980,1,8,0:0:0:0:
256,192,351055,1,8,0:0:0:0:
256,192,351130,1,0,0:0:0:0:
256,192,351205,1,0,0:0:0:0:
256,192,351280,1,8,0:0:0:0:
256,192,351355,1,8,0:0:0:0:
256,192,351430,1,0,0:0:0:0:
256,192,351480,1,8,0:0:0:0:
256,192,351530,1,8,0:0:0:0:
256,192,351580,1,0,0:0:0:0:
256,192,351655,1,0,0:0:0:0:
256,192,351730,1,8,0:0:0:0:
256,192,351780,1,8,0:0:0:0:
256,192,351830,1,8,0:0:0:0:
256,192,351880,1,0,0:0:0:0:
256,192,351955,1,0,0:0:0:0:
256,192,352030,1,8,0:0:0:0:
256,192,352255,1,8,0:0:0:0:
256,192,352480,1,8,0:0:0:0:
256,192,352630,1,4,0:0:0:0:
256,192,352780,1,0,0:0:0:0:
256,192,352930,1,8,0:0:0:0:
256,192,353080,1,8,0:0:0:0:
256,192,353830,1,0,0:0:0:0:
256,192,353980,1,0,0:0:0:0:
256,192,354130,1,0,0:0:0:0:
256,192,354280,1,8,0:0:0:0:
256,192,354730,1,8,0:0:0:0:
256,192,355030,1,0,0:0:0:0:
256,192,355180,1,0,0:0:0:0:
256,192,355330,1,0,0:0:0:0:
256,192,355480,1,8,0:0:0:0:
256,192,355930,1,0,0:0:0:0:
256,192,356005,1,0,0:0:0:0:
256,192,356080,1,0,0:0:0:0:
256,192,356155,1,0,0:0:0:0:
256,192,356230,1,8,0:0:0:0:
256,192,356380,1,0,0:0:0:0:
256,192,356530,1,8,0:0:0:0:
256,192,356680,1,0,0:0:0:0:
256,192,356830,1,8,0:0:0:0:
256,192,356980,1,0,0:0:0:0:
256,192,357130,1,8,0:0:0:0:
256,192,357280,1,8,0:0:0:0:
256,192,357430,1,0,0:0:0:0:
256,192,357580,1,0,0:0:0:0:
256,192,357730,1,8,0:0:0:0:
256,192,357880,1,8,0:0:0:0:
256,192,358630,1,0,0:0:0:0:
256,192,358780,1,0,0:0:0:0:
256,192,358930,1,0,0:0:0:0:
256,192,359080,1,8,0:0:0:0:
256,192,359530,1,8,0:0:0:0:
256,192,359830,1,0,0:0:0:0:
256,192,359980,1,0,0:0:0:0:
256,192,360130,1,0,0:0:0:0:
256,192,360280,1,8,0:0:0:0:
256,192,360730,1,0,0:0:0:0:
256,192,360805,1,0,0:0:0:0:
256,192,360880,1,0,0:0:0:0:
256,192,360955,1,0,0:0:0:0:
256,192,361030,1,8,0:0:0:0:
256,192,361330,1,0,0:0:0:0:
256,192,361630,1,8,0:0:0:0:
256,192,361930,1,8,0:0:0:0:
256,192,362080,1,0,0:0:0:0:
256,192,362230,1,8,0:0:0:0:
256,192,362380,1,0,0:0:0:0:
256,192,362530,1,8,0:0:0:0:
256,192,362680,1,8,0:0:0:0:
256,192,363430,1,8,0:0:0:0:
256,192,363580,1,0,0:0:0:0:
256,192,363730,1,8,0:0:0:0:
256,192,363880,1,0,0:0:0:0:
256,192,364030,1,8,0:0:0:0:
256,192,364180,1,8,0:0:0:0:
256,192,364330,1,0,0:0:0:0:
256,192,364480,1,8,0:0:0:0:
256,192,364630,1,0,0:0:0:0:
256,192,364780,1,8,0:0:0:0:
256,192,364930,1,8,0:0:0:0:
256,192,365080,1,0,0:0:0:0:
256,192,365530,1,8,0:0:0:0:
256,192,365605,1,0,0:0:0:0:
256,192,365680,1,0,0:0:0:0:
256,192,365755,1,0,0:0:0:0:
256,192,365830,1,8,0:0:0:0:
256,192,365980,1,8,0:0:0:0:
256,192,366130,1,0,0:0:0:0:
256,192,366280,1,0,0:0:0:0:
256,192,366430,1,8,0:0:0:0:
256,192,366580,1,8,0:0:0:0:
256,192,366730,1,8,0:0:0:0:
256,192,366880,1,0,0:0:0:0:
256,192,367030,1,8,0:0:0:0:
256,192,367180,1,0,0:0:0:0:
256,192,367330,1,8,0:0:0:0:
256,192,367480,1,8,0:0:0:0:
256,192,367930,1,0,0:0:0:0:
256,192,368080,1,8,0:0:0:0:
256,192,368230,1,0,0:0:0:0:
256,192,368380,1,0,0:0:0:0:
256,192,368530,1,8,0:0:0:0:
256,192,368680,1,8,0:0:0:0:
256,192,368980,1,0,0:0:0:0:
256,192,369130,1,8,0:0:0:0:
256,192,369280,1,0,0:0:0:0:
256,192,369430,1,8,0:0:0:0:
256,192,369580,1,8,0:0:0:0:
256,192,369730,1,0,0:0:0:0:
256,192,369880,1,8,0:0:0:0:
256,192,370330,1,0,0:0:0:0:
256,192,370405,1,0,0:0:0:0:
256,192,370480,1,0,0:0:0:0:
256,192,370555,1,0,0:0:0:0:
256,192,370630,1,8,0:0:0:0:
256,192,370930,1,8,0:0:0:0:
256,192,371230,1,0,0:0:0:0:
256,192,371530,1,8,0:0:0:0:
256,192,371830,1,0,0:0:0:0:
256,192,371980,1,0,0:0:0:0:
256,192,372130,1,8,0:0:0:0:
256,192,372280,1,0,0:0:0:0:
256,192,372430,1,8,0:0:0:0:
256,192,372580,1,8,0:0:0:0:
256,192,372730,1,0,0:0:0:0:
256,192,372880,1,0,0:0:0:0:
256,192,373030,1,8,0:0:0:0:
256,192,373180,1,0,0:0:0:0:
256,192,373330,1,8,0:0:0:0:
256,192,373480,1,8,0:0:0:0:
256,192,373630,1,0,0:0:0:0:
256,192,373780,1,8,0:0:0:0:
256,192,373930,1,8,0:0:0:0:
256,192,374080,1,8,0:0:0:0:
256,192,374230,1,0,0:0:0:0:
256,192,374380,1,0,0:0:0:0:
256,192,374530,1,8,0:0:0:0:
256,192,374680,1,0,0:0:0:0:
256,192,374830,1,8,0:0:0:0:
256,192,374980,1,8,0:0:0:0:
256,192,375130,1,0,0:0:0:0:
256,192,375280,1,0,0:0:0:0:
256,192,375430,1,8,0:0:0:0:
256,192,375580,1,0,0:0:0:0:
256,192,375730,1,8,0:0:0:0:
256,192,375880,1,8,0:0:0:0:
256,192,376030,1,0,0:0:0:0:
256,192,376180,1,8,0:0:0:0:
256,192,376330,1,0,0:0:0:0:
256,192,376480,1,8,0:0:0:0:
256,192,376630,1,0,0:0:0:0:
256,192,376780,1,0,0:0:0:0:
256,192,376930,1,8,0:0:0:0:
256,192,377080,1,0,0:0:0:0:
256,192,377230,1,8,0:0:0:0:
256,192,377380,1,8,0:0:0:0:
256,192,377530,1,0,0:0:0:0:
256,192,377680,1,0,0:0:0:0:
256,192,377830,1,8,0:0:0:0:
256,192,377980,1,0,0:0:0:0:
256,192,378130,1,8,0:0:0:0:
256,192,378280,1,8,0:0:0:0:
256,192,378430,1,0,0:0:0:0:
256,192,378580,1,8,0:0:0:0:
256,192,378730,1,8,0:0:0:0:
256,192,378880,1,8,0:0:0:0:
256,192,379030,1,0,0:0:0:0:
256,192,379180,1,0,0:0:0:0:
256,192,379330,1,8,0:0:0:0:
256,192,379480,1,0,0:0:0:0:
256,192,379630,1,8,0:0:0:0:
256,192,379780,1,8,0:0:0:0:
256,192,379930,1,0,0:0:0:0:
256,192,380080,1,0,0:0:0:0:
256,192,380230,1,8,0:0:0:0:
256,192,380380,1,0,0:0:0:0:
256,192,380530,1,8,0:0:0:0:
256,192,380680,1,8,0:0:0:0:
256,192,380830,1,0,0:0:0:0:
256,192,380980,1,8,0:0:0:0:
256,192,381130,1,0,0:0:0:0:
256,192,381280,1,8,0:0:0:0:
256,192,381430,1,0,0:0:0:0:
256,192,381580,1,0,0:0:0:0:
256,192,381730,1,8,0:0:0:0:
256,192,381880,1,0,0:0:0:0:
256,192,382030,1,8,0:0:0:0:
256,192,382180,1,8,0:0:0:0:
256,192,382330,1,0,0:0:0:0:
256,192,382480,1,0,0:0:0:0:
256,192,382630,1,8,0:0:0:0:
256,192,382780,1,0,0:0:0:0:
256,192,382930,1,8,0:0:0:0:
256,192,383080,1,8,0:0:0:0:
256,192,383230,1,0,0:0:0:0:
256,192,383380,1,8,0:0:0:0:
256,192,383530,1,8,0:0:0:0:
256,192,383680,1,8,0:0:0:0:
256,192,383830,1,0,0:0:0:0:
256,192,383980,1,0,0:0:0:0:
256,192,384130,1,8,0:0:0:0:
256,192,384280,1,0,0:0:0:0:
256,192,384430,1,8,0:0:0:0:
256,192,384580,1,8,0:0:0:0:
256,192,384730,1,0,0:0:0:0:
256,192,384880,1,0,0:0:0:0:
256,192,385030,1,8,0:0:0:0:
256,192,385180,1,0,0:0:0:0:
256,192,385330,1,8,0:0:0:0:
256,192,385480,1,8,0:0:0:0:
256,192,385630,1,0,0:0:0:0:
256,192,385780,1,8,0:0:0:0:
256,192,385930,1,0,0:0:0:0:
256,192,386080,1,8,0:0:0:0:
256,192,386230,1,0,0:0:0:0:
256,192,386380,1,0,0:0:0:0:
256,192,386530,1,8,0:0:0:0:
256,192,386680,1,0,0:0:0:0:
256,192,386830,1,8,0:0:0:0:
256,192,386980,1,8,0:0:0:0:
256,192,387130,1,0,0:0:0:0:
256,192,387280,1,0,0:0:0:0:
256,192,387430,1,8,0:0:0:0:
256,192,387580,1,0,0:0:0:0:
256,192,387730,1,8,0:0:0:0:
256,192,387880,1,8,0:0:0:0:
256,192,388030,1,0,0:0:0:0:
256,192,388180,1,8,0:0:0:0:
256,192,388330,1,8,0:0:0:0:
256,192,388480,1,8,0:0:0:0:
256,192,388630,1,0,0:0:0:0:
256,192,388780,1,0,0:0:0:0:
256,192,388930,1,8,0:0:0:0:
256,192,389080,1,0,0:0:0:0:
256,192,389230,1,8,0:0:0:0:
256,192,389380,1,8,0:0:0:0:
256,192,389530,1,0,0:0:0:0:
256,192,389680,1,0,0:0:0:0:
256,192,389830,1,8,0:0:0:0:
256,192,389980,1,0,0:0:0:0:
256,192,390130,1,8,0:0:0:0:
256,192,390280,1,8,0:0:0:0:
256,192,390430,1,0,0:0:0:0:
256,192,390580,1,8,0:0:0:0:
256,192,390730,1,0,0:0:0:0:
256,192,390880,1,8,0:0:0:0:
256,192,391030,1,0,0:0:0:0:
256,192,391330,1,0,0:0:0:0:
256,192,391630,1,8,0:0:0:0:
256,192,391930,1,0,0:0:0:0:
256,192,392080,1,8,0:0:0:0:
256,192,392380,1,0,0:0:0:0:
256,192,392530,1,8,0:0:0:0:
256,192,392830,1,0,0:0:0:0:
256,192,392980,1,8,0:0:0:0:
256,192,393280,1,0,0:0:0:0:
256,192,393430,1,8,0:0:0:0:
256,192,393730,1,0,0:0:0:0:
256,192,393880,1,8,0:0:0:0:
256,192,394180,1,0,0:0:0:0:
256,192,394330,1,8,0:0:0:0:
256,192,394630,1,0,0:0:0:0:
256,192,394780,1,8,0:0:0:0:
256,192,395080,1,0,0:0:0:0:
256,192,395230,1,8,0:0:0:0:
256,192,395530,1,0,0:0:0:0:
256,192,395680,1,8,0:0:0:0:
256,192,395980,1,0,0:0:0:0:
256,192,396130,1,8,0:0:0:0:
256,192,396430,1,0,0:0:0:0:
256,192,396580,1,8,0:0:0:0:
256,192,396880,1,0,0:0:0:0:
256,192,397030,1,8,0:0:0:0:
256,192,397180,1,8,0:0:0:0:
256,192,397330,1,0,0:0:0:0:
256,192,397480,1,8,0:0:0:0:
256,192,397780,1,0,0:0:0:0:
256,192,397930,1,8,0:0:0:0:
256,192,398230,1,0,0:0:0:0:
256,192,398380,1,8,0:0:0:0:
256,192,398680,1,0,0:0:0:0:
256,192,398830,1,8,0:0:0:0:
256,192,399130,1,0,0:0:0:0:
256,192,399280,1,0,0:0:0:0:
256,192,399430,1,8,0:0:0:0:
256,192,399730,1,0,0:0:0:0:
256,192,400030,1,0,0:0:0:0:
256,192,400180,1,8,0:0:0:0:
256,192,400330,1,0,0:0:0:0:
256,192,400480,1,0,0:0:0:0:
256,192,400630,1,8,0:0:0:0:
256,192,400780,1,0,0:0:0:0:
256,192,400930,1,0,0:0:0:0:
256,192,401080,1,8,0:0:0:0:
256,192,401230,1,0,0:0:0:0:
256,192,401380,1,0,0:0:0:0:
256,192,401530,1,8,0:0:0:0:
256,192,401680,1,0,0:0:0:0:
