osu file format v14

[General]
AudioFilename: audio.ogg
AudioLeadIn: 0
PreviewTime: 102687
Countdown: 0
SampleSet: Normal
StackLeniency: 0.7
Mode: 1
LetterboxInBreaks: 0
WidescreenStoryboard: 0

[Editor]
Bookmarks: 27560,40360,53160,65960,75560,78760,85160,91560,97960,104360,117160,129960,142760,155560,168360,181160,193960,206760,219560,232360,243560,245160,257960,269160,270760,283570,293160,296360,309167,321960,325167,334760,347560,360370,372370
DistanceSpacing: 1.8
BeatDivisor: 4
GridSize: 32
TimelineZoom: 2.690893

[Metadata]
Title:Ethnik Khemikal Teknologi
TitleUnicode:Ethnik Khemikal Teknologi
Artist:Camellia
ArtistUnicode:かめりあ
Creator:paz08
Version:Plague Khaller
Source:
Tags:Ethnic Chemical Technology うごうゴウ かめるかめりあ Kamel INVAIDAS FROM DA JUNGLE cametek 大箭将也 masaya oya kamelcamellia drumstep dubstep trance psytrance psystyle fa featured artist electronic instrumental CTCD-016 C92 Comiket 92 mpg mappers' guild mg
BeatmapID:3616009
BeatmapSetID:1766532

[Difficulty]
HPDrainRate:4.5
CircleSize:2
OverallDifficulty:7
ApproachRate:10
SliderMultiplier:1.4
SliderTickRate:1

[Events]
//Background and Video events
0,0,"81664953_p1.jpg",0,-40
//Break Periods
//Storyboard Layer 0 (Background)
//Storyboard Layer 1 (Fail)
//Storyboard Layer 2 (Pass)
//Storyboard Layer 3 (Foreground)
//Storyboard Layer 4 (Overlay)
//Storyboard Sound Samples

[TimingPoints]
3023,400,38,1,0,40,1,8
17983,400,4,1,0,50,1,0
17983,-142.85715,4,1,0,50,0,0
18270,-142.85703,4,1,0,51,0,0
18770,-142.85374,4,1,0,52,0,0
19070,-142.84676,4,1,0,52,0,0
19570,-142.81859,4,1,0,53,0,0
19870,-142.78679,4,1,0,54,0,0
20370,-142.69789,4,1,0,55,0,0
20670,-142.61676,4,1,0,56,0,0
21070,-142.4677,4,1,0,56,0,0
21170,-142.42209,4,1,0,57,0,0
21370,-142.31963,4,1,0,57,0,0
21470,-142.26247,4,1,0,57,0,0
21770,-142.06522,4,1,0,58,0,0
21970,-141.91052,4,1,0,58,0,0
22070,-141.82568,4,1,0,59,0,0
22270,-141.64018,4,1,0,59,0,0
22670,-141.20087,4,1,0,60,0,0
22770,-141.07579,4,1,0,60,0,0
22970,-140.80612,4,1,0,60,0,0
23070,-140.6612,4,1,0,61,0,0
23370,-140.18396,4,1,0,61,0,0
23570,-139.8288,4,1,0,62,0,0
23670,-139.6396,4,1,0,62,0,0
23870,-139.23729,4,1,0,62,0,0
24270,-138.33266,4,1,0,63,0,0
24370,-138.08484,4,1,0,63,0,0
24570,-137.56227,4,1,0,64,0,0
24670,-137.28728,4,1,0,64,0,0
24970,-136.40611,4,1,0,65,0,0
25170,-135.7708,4,1,0,65,0,0
25270,-135.43849,4,1,0,65,0,0
25470,-134.74422,4,1,0,66,0,0
25770,-133.6276,4,1,0,66,0,0
25870,-133.23512,4,1,0,66,0,0
25970,-132.83243,4,1,0,67,0,0
26170,-131.9963,4,1,0,67,0,0
26270,-131.56284,4,1,0,67,0,0
26570,-130.20073,4,1,0,68,0,0
26770,-129.24133,4,1,0,68,0,0
26870,-128.74632,4,1,0,69,0,0
27070,-127.725845,4,1,0,69,0,0
27370,-126.1199,4,1,0,70,0,0
27470,-125.56483,4,1,0,70,0,0
27570,-125,4,1,0,70,0,0
51170,-129.24329,4,1,0,70,0,0
51370,-130.68948,4,1,0,70,0,0
51570,-132.15187,4,1,0,70,0,0
51770,-133.63062,4,1,0,70,0,0
52170,-136.63794,4,1,0,70,0,0
52570,-139.71294,4,1,0,70,0,0
52970,-142.85715,4,1,0,70,0,0
53170,-111.111111111111,4,1,0,80,0,0
59170,-100,4,1,0,80,0,0
59236,-100.84992,4,1,0,80,0,0
59303,-101.72012,4,1,0,80,0,0
59370,-102.59785,4,1,0,80,0,0
59470,-103.92194,4,1,0,80,0,0
59570,-105.26316,4,1,0,80,0,0
59870,-111.111115,4,1,0,80,0,0
59970,-111.1111,4,1,0,80,0,0
60170,-111.11062,4,1,0,80,0,0
60370,-111.1082,4,1,0,80,0,0
60470,-111.10559,4,1,0,80,0,0
60570,-111.10163,4,1,0,80,0,0
60670,-111.09598,4,1,0,80,0,0
60770,-111.08827,4,1,0,80,0,0
60970,-111.06502,4,1,0,80,0,0
61170,-111.02842,4,1,0,80,0,0
61370,-110.97474,4,1,0,80,0,0
61570,-110.89991,4,1,0,80,0,0
61670,-110.85324,4,1,0,80,0,0
61770,-110.799675,4,1,0,80,0,0
61970,-110.66955,4,1,0,80,0,0
62170,-110.504906,4,1,0,80,0,0
62270,-110.40814,4,1,0,80,0,0
62370,-110.30096,4,1,0,80,0,0
62670,-109.91081,4,1,0,80,0,0
62770,-109.755875,4,1,0,80,0,0
62970,-109.40504,4,1,0,80,0,0
63070,-109.207954,4,1,0,80,0,0
63170,-108.99567,4,1,0,80,0,0
63370,-108.52317,4,1,0,80,0,0
63570,-107.98318,4,1,0,80,0,0
63870,-107.037865,4,1,0,80,0,0
63970,-106.684814,4,1,0,80,0,0
64170,-105.91942,4,1,0,80,0,0
64370,-105.07263,4,1,0,80,0,0
64570,-104.14222,4,1,0,80,0,0
64670,-103.64512,4,1,0,80,0,0
64770,-103.12655,4,1,0,80,0,0
64970,-102.02464,4,1,0,80,0,0
65170,-100.836235,4,1,0,80,0,0
65470,-98.89265,4,1,0,80,0,0
65770,-96.760376,4,1,0,80,0,0
65983,-95.2381,4,1,0,80,0,0
66183,-95.23731,4,1,0,80,0,0
66283,-95.23594,4,1,0,80,0,0
66383,-95.233665,4,1,0,80,0,0
66583,-95.22589,4,1,0,80,0,0
66683,-95.22015,4,1,0,80,0,0
66783,-95.21305,4,1,0,80,0,0
66983,-95.19435,4,1,0,80,0,0
67183,-95.16911,4,1,0,80,0,0
67383,-95.13671,4,1,0,80,0,0
67483,-95.117645,4,1,0,80,0,0
67583,-95.09658,4,1,0,80,0,0
67783,-95.04823,4,1,0,80,0,0
67983,-94.99116,4,1,0,80,0,0
68083,-94.95922,4,1,0,80,0,0
68183,-94.92494,4,1,0,80,0,0
68283,-94.88826,4,1,0,80,0,0
68383,-94.84915,4,1,0,80,0,0
68583,-94.76341,4,1,0,80,0,0
68783,-94.667366,4,1,0,80,0,0
68983,-94.5607,4,1,0,80,0,0
69083,-94.50328,4,1,0,80,0,0
69183,-94.44308,4,1,0,80,0,0
69383,-94.31423,4,1,0,80,0,0
69483,-94.24552,4,1,0,80,0,0
69583,-94.17391,4,1,0,80,0,0
69683,-94.09936,4,1,0,80,0,0
69783,-94.021866,4,1,0,80,0,0
69883,-93.94137,4,1,0,80,0,0
69983,-93.85787,4,1,0,80,0,0
70183,-93.68174,4,1,0,80,0,0
70383,-93.4933,4,1,0,80,0,0
70583,-93.29242,4,1,0,80,0,0
70683,-93.187256,4,1,0,80,0,0
70783,-93.078926,4,1,0,80,0,0
70983,-92.85275,4,1,0,80,0,0
71083,-92.73487,4,1,0,80,0,0
71183,-92.61379,4,1,0,80,0,0
71283,-92.48949,4,1,0,80,0,0
71383,-92.36196,4,1,0,80,0,0
71483,-92.23122,4,1,0,80,0,0
71583,-92.09724,4,1,0,80,0,0
71783,-91.81959,4,1,0,80,0,0
71883,-91.67591,4,1,0,80,0,0
71983,-91.52901,4,1,0,80,0,0
72183,-91.22549,4,1,0,80,0,0
72383,-90.90909,4,1,0,80,0,0
72483,-90.9078,4,1,0,80,0,0
72583,-90.90177,4,1,0,80,0,0
72683,-90.888916,4,1,0,80,0,0
72783,-90.86769,4,1,0,80,0,0
72883,-90.83679,4,1,0,80,0,0
72983,-90.7951,4,1,0,80,0,0
73083,-90.7416,4,1,0,80,0,0
73183,-90.67539,4,1,0,80,0,0
73283,-90.59565,4,1,0,80,0,0
73383,-90.501625,4,1,0,80,0,0
73483,-90.3926,4,1,0,80,0,0
73583,-90.26798,4,1,0,80,0,0
73683,-90.12718,4,1,0,80,0,0
73783,-89.969666,4,1,0,80,0,0
73883,-89.795,4,1,0,80,0,0
73983,-89.60272,4,1,0,80,0,0
74083,-89.39251,4,1,0,80,0,0
74183,-89.16401,4,1,0,80,0,0
74283,-88.916985,4,1,0,80,0,0
74383,-88.6512,4,1,0,80,0,0
74483,-88.36648,4,1,0,80,0,0
74583,-88.062706,4,1,0,80,0,0
74683,-87.739815,4,1,0,80,0,0
74783,-87.39776,4,1,0,80,0,0
74883,-87.03655,4,1,0,80,0,0
74983,-86.656265,4,1,0,80,0,0
75083,-86.257,4,1,0,80,0,0
75183,-85.83891,4,1,0,80,0,0
75283,-85.40218,4,1,0,80,0,0
75383,-84.94704,4,1,0,80,0,0
75483,-84.47377,4,1,0,80,0,0
75583,-83.982666,4,1,0,80,0,0
75649,-83.64894,4,1,0,80,0,0
75716,-83.3025,4,1,0,80,0,0
75783,-82.948425,4,1,0,80,0,0
75883,-82.40607,4,1,0,80,0,0
75983,-81.84747,4,1,0,80,0,0
76049,-81.47013,4,1,0,80,0,0
76116,-81.08021,4,1,0,80,0,0
76183,-80.68351,4,1,0,80,0,0
76283,-80.07916,4,1,0,80,0,0
76383,-79.460655,4,1,0,80,0,0
76449,-79.044945,4,1,0,80,0,0
76516,-78.617035,4,1,0,80,0,0
76583,-78.18339,4,1,0,80,0,0
76683,-77.52584,4,1,0,80,0,0
76783,-76.85649,4,1,0,80,0,0
76883,-76.176,4,1,0,80,0,0
76983,-75.48501,4,1,0,80,0,0
77083,-74.78414,4,1,0,80,0,0
77183,-74.07407,4,1,0,80,0,0
78770,-100,4,1,0,90,0,0
85170,-105.26316,4,1,0,85,0,0
85370,-102.59785,4,1,0,88,0,0
85570,-100,4,1,0,90,0,0
90170,-111.111115,4,1,0,90,0,0
90270,-110.13981,4,1,0,90,0,0
90370,-109.17702,4,1,0,90,0,0
90470,-108.22263,4,1,0,90,0,0
90570,-107.276596,4,1,0,90,0,0
90670,-106.33882,4,1,0,90,0,0
90770,-105.409256,4,1,0,90,0,0
90870,-104.4878,4,1,0,90,0,0
90970,-103.5744,4,1,0,90,0,0
91070,-102.66901,4,1,0,90,0,0
91170,-101.77151,4,1,0,90,0,0
91270,-100.88187,4,1,0,90,0,0
91370,-100,4,1,0,90,0,0
91570,-90.9090909090909,4,1,0,90,0,0
91770,-100,4,1,0,90,0,0
97570,-95.2381,4,1,0,90,0,0
97670,-96.406876,4,1,0,90,0,0
97770,-97.59001,4,1,0,90,0,0
97870,-98.78765,4,1,0,90,0,0
97970,-90.9090909090909,4,1,0,90,0,0
98170,-100,4,1,0,90,0,0
100970,-99.995056,4,1,0,90,0,0
101070,-99.98332,4,1,0,90,0,0
101170,-99.96047,4,1,0,90,0,0
101270,-99.92282,4,1,0,90,0,0
101370,-99.86672,4,1,0,90,0,0
101470,-99.78853,4,1,0,90,0,0
101570,-99.68466,4,1,0,90,0,0
101670,-99.55161,4,1,0,90,0,0
101770,-99.38594,4,1,0,90,0,0
101870,-99.18436,4,1,0,90,0,0
101970,-98.94363,4,1,0,90,0,0
102070,-98.66075,4,1,0,90,0,0
102170,-98.33288,4,1,0,90,0,0
102270,-97.95735,4,1,0,90,0,0
102370,-97.531746,4,1,0,90,0,0
102470,-97.05393,4,1,0,90,0,0
102570,-96.52201,4,1,0,90,0,0
102670,-95.93445,4,1,0,90,0,0
102770,-95.28999,4,1,0,90,0,0
102836,-94.833046,4,1,0,90,0,0
102903,-94.34325,4,1,0,90,0,0
102970,-93.827225,4,1,0,90,0,0
103070,-93.0082,4,1,0,90,0,0
103170,-92.130936,4,1,0,90,0,0
103236,-91.5203,4,1,0,90,0,0
103303,-90.874985,4,1,0,90,0,0
103370,-90.204384,4,1,0,90,0,0
103470,-89.157425,4,1,0,90,0,0
103570,-88.05679,4,1,0,90,0,0
103636,-87.30197,4,1,0,90,0,0
103703,-86.51338,4,1,0,90,0,0
103770,-85.70303,4,1,0,90,0,0
103836,-84.88432,4,1,0,90,0,0
103903,-84.033264,4,1,0,90,0,0
103957,-83.33333,4,1,0,90,0,0
104383,-80,4,1,0,100,0,1
104570,-90.9090909090909,4,1,0,100,0,1
116170,-90.81546,4,1,0,100,0,1
116270,-90.65156,4,1,0,100,0,1
116370,-90.381996,4,1,0,100,0,1
116436,-90.139015,4,1,0,100,0,1
116503,-89.8353,4,1,0,100,0,1
116570,-89.47123,4,1,0,100,0,1
116670,-88.8108,4,1,0,100,0,1
116770,-88.0058,4,1,0,100,0,1
116820,-87.54824,4,1,0,100,0,1
116870,-87.05387,4,1,0,100,0,1
116970,-85.955414,4,1,0,100,0,1
117070,-84.713425,4,1,0,100,0,1
117170,-83.33333,4,1,0,100,0,1
117370,-90.9090909090909,4,1,0,100,0,1
121770,-88.91085,4,1,0,100,0,1
121870,-87.92825,4,1,0,100,0,1
121970,-83.3333333333333,4,1,0,100,0,1
122170,-90.9090909090909,4,1,0,100,0,1
122270,-83.3333333333333,4,1,0,100,0,1
122470,-90.9090909090909,4,1,0,100,0,1
122570,-83.3333333333333,4,1,0,100,0,1
122770,-90.90909,4,1,0,100,0,1
122870,-93.10124,4,1,0,100,0,1
122920,-94.217064,4,1,0,100,0,1
122970,-95.34625,4,1,0,100,0,1
123070,-97.64541,4,1,0,100,0,1
123183,-83.3333333333333,4,1,0,100,0,0
123570,-100,4,1,0,80,0,0
123670,-98.78765,4,1,0,80,0,0
123770,-97.59001,4,1,0,80,0,0
123870,-96.40688,4,1,0,80,0,0
123983,-90.9090909090909,4,1,0,100,0,1
124070,-90.90907,4,1,0,100,0,1
124170,-90.908844,4,1,0,100,0,1
124270,-90.908066,4,1,0,100,0,1
124370,-90.90628,4,1,0,100,0,1
124470,-90.90296,4,1,0,100,0,1
124570,-90.897484,4,1,0,100,0,1
124670,-90.88919,4,1,0,100,0,1
124770,-90.87733,4,1,0,100,0,1
124870,-90.86114,4,1,0,100,0,1
124970,-90.83977,4,1,0,100,0,1
125070,-90.81235,4,1,0,100,0,1
125170,-90.777954,4,1,0,100,0,1
125270,-90.735634,4,1,0,100,0,1
125370,-90.6844,4,1,0,100,0,1
125470,-90.623215,4,1,0,100,0,1
125570,-90.551056,4,1,0,100,0,1
125670,-90.46683,4,1,0,100,0,1
125770,-90.36947,4,1,0,100,0,1
125870,-90.25785,4,1,0,100,0,1
125970,-90.13089,4,1,0,100,0,1
126070,-89.98746,4,1,0,100,0,1
126170,-89.826416,4,1,0,100,0,1
126270,-89.6467,4,1,0,100,0,1
126370,-89.44718,4,1,0,100,0,1
126470,-89.22681,4,1,0,100,0,1
126570,-88.98451,4,1,0,100,0,1
126670,-88.719284,4,1,0,100,0,1
126770,-88.430145,4,1,0,100,0,1
126836,-88.22575,4,1,0,100,0,1
126903,-88.00691,4,1,0,100,0,1
126970,-87.77641,4,1,0,100,0,1
127070,-87.4101,4,1,0,100,0,1
127170,-87.01648,4,1,0,100,0,1
127236,-86.74138,4,1,0,100,0,1
127303,-86.44945,4,1,0,100,0,1
127370,-86.144585,4,1,0,100,0,1
127470,-85.66517,4,1,0,100,0,1
127570,-85.15616,4,1,0,100,0,1
127636,-84.80383,4,1,0,100,0,1
127703,-84.43276,4,1,0,100,0,1
127770,-84.048134,4,1,0,100,0,1
127870,-83.44872,4,1,0,100,0,1
127970,-82.818985,4,1,0,100,0,1
128036,-82.38677,4,1,0,100,0,1
128103,-81.934586,4,1,0,100,0,1
128170,-81.46895,4,1,0,100,0,1
128236,-80.997185,4,1,0,100,0,1
128303,-80.50514,4,1,0,100,0,1
128383,-80,4,1,0,100,0,0
128470,-80,4,1,0,60,0,0
128770,-33.3333333333333,4,1,0,65,0,0
129170,-20,4,1,0,70,0,0
129370,-10,4,1,0,75,0,0
129570,-117.647058823529,4,1,0,80,0,0
129770,-105.263157894737,4,1,0,90,0,0
129983,-83.3333333333333,4,1,0,100,0,1
130170,-90.9090909090909,4,1,0,100,0,1
139770,-89.340744,4,1,0,100,0,1
139870,-88.56675,4,1,0,100,0,1
139970,-87.79947,4,1,0,100,0,1
140070,-87.03882,4,1,0,100,0,1
140170,-86.28476,4,1,0,100,0,1
140236,-85.79069,4,1,0,100,0,1
140303,-85.29199,4,1,0,100,0,1
140370,-84.7962,4,1,0,100,0,1
140570,-83.33332,4,1,0,100,0,1
140770,-90.90909,4,1,0,100,0,1
140870,-89.90442,4,1,0,100,0,1
140970,-88.91085,4,1,0,100,0,1
141170,-76.9230769230769,4,1,0,100,0,1
141370,-90.9090909090909,4,1,0,100,0,1
141483,-89.6860986547085,4,1,0,100,0,0
141783,-76.9230769230769,4,1,0,100,0,1
141970,-90.9090909090909,4,1,0,100,0,1
142083,-89.6860986547085,4,1,0,100,0,0
142370,-100,4,1,0,90,0,0
142470,-97.64541,4,1,0,90,0,0
142570,-95.34626,4,1,0,90,0,0
142670,-93.10124,4,1,0,90,0,0
142783,-83.3333333333333,4,1,0,100,0,1
142970,-90.9090909090909,4,1,0,100,0,1
147570,-83.33333,4,1,0,100,0,1
147703,-85.5192,4,1,0,100,0,1
147836,-87.762405,4,1,0,100,0,1
147970,-90.081985,4,1,0,100,0,1
148103,-92.44488,4,1,0,100,0,1
148236,-94.86975,4,1,0,100,0,1
148370,-97.377174,4,1,0,100,0,1
148503,-99.93142,4,1,0,100,0,1
148636,-102.552666,4,1,0,100,0,1
148783,-105.26316,4,1,0,100,0,0
149183,-83.3333333333333,4,1,0,100,0,1
149370,-90.9090909090909,4,1,0,100,0,1
152370,-90.90343,4,1,0,100,0,1
152470,-90.885666,4,1,0,100,0,1
152570,-90.84501,4,1,0,100,0,1
152670,-90.769264,4,1,0,100,0,1
152770,-90.64478,4,1,0,100,0,1
152870,-90.45668,4,1,0,100,0,1
152970,-90.189285,4,1,0,100,0,1
153070,-89.826416,4,1,0,100,0,1
153170,-89.351875,4,1,0,100,0,1
153303,-88.52075,4,1,0,100,0,1
153436,-87.43032,4,1,0,100,0,1
153570,-86.04058,4,1,0,100,0,1
153703,-84.35162,4,1,0,100,0,1
153836,-82.34387,4,1,0,100,0,1
153983,-80,4,1,0,100,0,0
154170,-117.647058823529,4,1,0,100,0,0
154370,-132.57816,4,1,0,94,0,0
154570,-219.71208,4,1,0,88,0,0
154770,-364.11288,4,1,0,82,0,0
154970,-603.4176,4,1,0,76,0,0
155170,-1000,4,1,0,70,0,0
155370,-80,4,1,0,80,0,0
155570,-83.3333333333333,4,1,0,100,0,0
155770,-90.90913,4,1,0,100,0,0
155870,-90.909195,4,1,0,100,0,0
155970,-90.90935,4,1,0,100,0,0
156170,-90.909935,4,1,0,100,0,0
156370,-90.91111,4,1,0,100,0,0
156470,-90.911964,4,1,0,100,0,0
156570,-90.91303,4,1,0,100,0,0
156670,-90.91434,4,1,0,100,0,0
156770,-90.91589,4,1,0,100,0,0
156970,-90.91991,4,1,0,100,0,0
157070,-90.92239,4,1,0,100,0,0
157170,-90.92524,4,1,0,100,0,0
157370,-90.93208,4,1,0,100,0,0
157470,-90.936134,4,1,0,100,0,0
157570,-90.94063,4,1,0,100,0,0
157770,-90.951065,4,1,0,100,0,0
157970,-90.9636,4,1,0,100,0,0
158070,-90.9707,4,1,0,100,0,0
158170,-90.97841,4,1,0,100,0,0
158270,-90.98672,4,1,0,100,0,0
158370,-90.99568,4,1,0,100,0,0
158570,-91.01562,4,1,0,100,0,0
158770,-91.03841,4,1,0,100,0,0
158970,-91.06425,4,1,0,100,0,0
159070,-91.07837,4,1,0,100,0,0
159170,-91.09333,4,1,0,100,0,0
159370,-91.12585,4,1,0,100,0,0
159570,-91.162,4,1,0,100,0,0
159670,-91.18151,4,1,0,100,0,0
159770,-91.202,4,1,0,100,0,0
159870,-91.223495,4,1,0,100,0,0
159970,-91.24603,4,1,0,100,0,0
160170,-91.29429,4,1,0,100,0,0
160270,-91.32008,4,1,0,100,0,0
160370,-91.347015,4,1,0,100,0,0
160470,-91.3751,4,1,0,100,0,0
160570,-91.40437,4,1,0,100,0,0
160670,-91.43486,4,1,0,100,0,0
160770,-91.46659,4,1,0,100,0,0
160970,-91.53389,4,1,0,100,0,0
161070,-91.5695,4,1,0,100,0,0
161170,-91.60647,4,1,0,100,0,0
161270,-91.644806,4,1,0,100,0,0
161320,-91.6645,4,1,0,100,0,0
161370,-91.68455,4,1,0,100,0,0
161470,-91.72571,4,1,0,100,0,0
161570,-91.76835,4,1,0,100,0,0
161970,-91.954025,4,1,0,100,0,0
162170,-92.05636,4,1,0,100,0,0
162270,-92.11,4,1,0,100,0,0
162370,-92.16533,4,1,0,100,0,0
162570,-92.28119,4,1,0,100,0,0
162770,-92.404175,4,1,0,100,0,0
162870,-92.46843,4,1,0,100,0,0
162970,-92.53455,4,1,0,100,0,0
163070,-92.602585,4,1,0,100,0,0
163170,-92.67257,4,1,0,100,0,0
163370,-92.81849,4,1,0,100,0,0
163470,-92.89449,4,1,0,100,0,0
163570,-92.97258,4,1,0,100,0,0
163770,-93.13513,4,1,0,100,0,0
163870,-93.21966,4,1,0,100,0,0
163970,-93.30642,4,1,0,100,0,0
164170,-93.486725,4,1,0,100,0,0
164370,-93.676384,4,1,0,100,0,0
164470,-93.77481,4,1,0,100,0,0
164570,-93.87568,4,1,0,100,0,0
164670,-93.97904,4,1,0,100,0,0
164770,-94.084946,4,1,0,100,0,0
164970,-94.30451,4,1,0,100,0,0
165170,-94.53471,4,1,0,100,0,0
165370,-94.77591,4,1,0,100,0,0
165470,-94.90074,4,1,0,100,0,0
165570,-95.028465,4,1,0,100,0,0
165770,-95.292755,4,1,0,100,0,0
165970,-95.56919,4,1,0,100,0,0
166070,-95.71208,4,1,0,100,0,0
166170,-95.85817,4,1,0,100,0,0
166270,-96.007484,4,1,0,100,0,0
166370,-96.16011,4,1,0,100,0,0
166570,-96.475464,4,1,0,100,0,0
166670,-96.63832,4,1,0,100,0,0
166770,-96.80469,4,1,0,100,0,0
166870,-96.974655,4,1,0,100,0,0
166970,-97.14826,4,1,0,100,0,0
167070,-97.325584,4,1,0,100,0,0
167170,-97.50669,4,1,0,100,0,0
167370,-97.880486,4,1,0,100,0,0
167470,-98.07332,4,1,0,100,0,0
167570,-98.270195,4,1,0,100,0,0
167670,-98.47119,4,1,0,100,0,0
167720,-98.57326,4,1,0,100,0,0
167770,-98.6764,4,1,0,100,0,0
167870,-98.88586,4,1,0,100,0,0
167970,-99.09967,4,1,0,100,0,0
168370,-100,4,1,0,90,0,0
168570,-111.111115,4,1,0,90,0,0
168670,-111.11116,4,1,0,90,0,0
168770,-111.11153,4,1,0,90,0,0
168970,-111.114426,4,1,0,90,0,0
169170,-111.1223,4,1,0,90,0,0
169370,-111.13764,4,1,0,90,0,0
169470,-111.14889,4,1,0,90,0,0
169570,-111.16294,4,1,0,90,0,0
169770,-111.20071,4,1,0,90,0,0
169970,-111.25343,4,1,0,90,0,0
170170,-111.3237,4,1,0,90,0,0
170270,-111.366196,4,1,0,90,0,0
170370,-111.41403,4,1,0,90,0,0
170570,-111.52707,4,1,0,90,0,0
170770,-111.665436,4,1,0,90,0,0
170970,-111.831856,4,1,0,90,0,0
171070,-111.926445,4,1,0,90,0,0
171170,-112.02908,4,1,0,90,0,0
171370,-112.26,4,1,0,90,0,0
171570,-112.52758,4,1,0,90,0,0
171770,-112.83486,4,1,0,90,0,0
171870,-113.00442,4,1,0,90,0,0
171970,-113.18512,4,1,0,90,0,0
172170,-113.58169,4,1,0,90,0,0
172370,-114.02818,4,1,0,90,0,0
172570,-114.52835,4,1,0,90,0,0
172670,-114.799835,4,1,0,90,0,0
172770,-115.08626,4,1,0,90,0,0
172970,-115.70623,4,1,0,90,0,0
173170,-116.392914,4,1,0,90,0,0
173370,-117.151344,4,1,0,90,0,0
173470,-117.559135,4,1,0,90,0,0
173570,-117.98696,4,1,0,90,0,0
173770,-118.90574,4,1,0,90,0,0
173970,-119.914185,4,1,0,90,0,0
174170,-121.01947,4,1,0,90,0,0
174270,-121.61086,4,1,0,90,0,0
174370,-122.229515,4,1,0,90,0,0
174570,-123.5531,4,1,0,90,0,0
174770,-125,4,1,0,90,0,0
175070,-125.003815,4,1,0,89,0,0
175170,-125.00904,4,1,0,89,0,0
175370,-125.030525,4,1,0,89,0,0
175570,-125.07237,4,1,0,88,0,0
175670,-125.10308,4,1,0,88,0,0
175870,-125.18833,4,1,0,88,0,0
175970,-125.24462,4,1,0,88,0,0
176170,-125.38889,4,1,0,87,0,0
176370,-125.5814,4,1,0,87,0,0
176670,-125.97665,4,1,0,86,0,0
176770,-126.140594,4,1,0,86,0,0
176970,-126.52273,4,1,0,85,0,0
177170,-126.98412,4,1,0,85,0,0
177270,-127.24727,4,1,0,85,0,0
177470,-127.84419,4,1,0,84,0,0
177570,-128.1804,4,1,0,84,0,0
177770,-128.93477,4,1,0,84,0,0
177970,-129.8077,4,1,0,83,0,0
178270,-131.3661,4,1,0,83,0,0
178370,-131.95876,4,1,0,83,0,0
178570,-133.26521,4,1,0,82,0,0
178770,-134.74734,4,1,0,82,0,0
178870,-135.56013,4,1,0,81,0,0
179070,-137.3423,4,1,0,81,0,0
179170,-138.31746,4,1,0,81,0,0
179370,-140.45213,4,1,0,80,0,0
179570,-142.85715,4,1,0,80,0,0
179770,-147.058823529412,4,1,0,80,0,0
181170,-100,4,1,0,80,0,0
182770,-142.857142857143,4,1,0,70,0,0
194570,-142.85686,4,1,0,70,0,0
194770,-142.85643,4,1,0,70,0,0
195570,-142.84964,4,1,0,70,0,0
196170,-142.83344,4,1,0,70,0,0
196370,-142.8245,4,1,0,70,0,0
196970,-142.78226,4,1,0,70,0,0
197170,-142.76172,4,1,0,70,0,0
197970,-142.63515,4,1,0,70,0,0
198570,-142.47884,4,1,0,70,0,0
198770,-142.41194,4,1,0,70,0,0
199370,-142.15785,4,1,0,70,0,0
199570,-142.05309,4,1,0,70,0,0
200170,-141.6683,4,1,0,70,0,0
200370,-141.51405,4,1,0,70,0,0
200970,-140.96234,4,1,0,70,0,0
201170,-140.74612,4,1,0,70,0,0
201570,-140.26031,4,1,0,70,0,0
201970,-139.69797,4,1,0,70,0,0
202570,-138.69682,4,1,0,70,0,0
202770,-138.31796,4,1,0,70,0,0
203170,-137.488,4,1,0,70,0,0
203570,-136.55705,4,1,0,70,0,0
204170,-134.96005,4,1,0,70,0,0
204370,-134.37196,4,1,0,70,0,0
204770,-133.10931,4,1,0,70,0,0
205170,-131.72884,4,1,0,70,0,0
205970,-128.60661,4,1,0,70,0,0
206370,-126.8635,4,1,0,70,0,0
206770,-125,4,1,0,70,0,0
230370,-129.24329,4,1,0,70,0,0
230570,-130.68948,4,1,0,70,0,0
230770,-132.15187,4,1,0,70,0,0
230970,-133.63062,4,1,0,70,0,0
231370,-136.63794,4,1,0,70,0,0
231770,-139.71294,4,1,0,70,0,0
232170,-142.85715,4,1,0,70,0,0
232370,-147.058823529412,4,1,0,70,0,0
232570,-125,4,1,0,70,0,0
233970,-129.48773,4,1,0,70,0,0
235570,-134.8142,4,1,0,70,0,0
237170,-140.35977,4,1,0,70,0,0
237870,-142.85715,4,1,0,70,0,0
237970,-142.85703,4,1,0,70,0,0
238170,-142.85417,4,1,0,71,0,0
238270,-142.8501,4,1,0,71,0,0
238370,-142.84337,4,1,0,71,0,0
238570,-142.81937,4,1,0,71,0,0
238770,-142.77686,4,1,0,72,0,0
239070,-142.66696,4,1,0,72,0,0
239170,-142.61545,4,1,0,72,0,0
239470,-142.4072,4,1,0,73,0,0
239570,-142.31778,4,1,0,73,0,0
239770,-142.10527,4,1,0,73,0,0
239870,-141.98096,4,1,0,74,0,0
239970,-141.84383,4,1,0,74,0,0
240170,-141.52881,4,1,0,74,0,0
240370,-141.15578,4,1,0,74,0,0
240670,-140.47833,4,1,0,75,0,0
240770,-140.21912,4,1,0,75,0,0
240970,-139.64795,4,1,0,75,0,0
241070,-139.33514,4,1,0,76,0,0
241170,-139.00372,4,1,0,76,0,0
241470,-137.89429,4,1,0,76,0,0
241570,-137.4851,4,1,0,76,0,0
241770,-136.60626,4,1,0,77,0,0
241970,-135.6455,4,1,0,77,0,0
242170,-134.60182,4,1,0,78,0,0
242270,-134.04872,4,1,0,78,0,0
242370,-133.47475,4,1,0,78,0,0
242570,-132.26427,4,1,0,78,0,0
242770,-130.971,4,1,0,79,0,0
242970,-129.59604,4,1,0,79,0,0
243070,-128.87842,4,1,0,79,0,0
243170,-128.14102,4,1,0,79,0,0
243370,-126.60812,4,1,0,80,0,0
243570,-100,4,1,0,80,0,0
243970,-142.85715,4,1,0,80,0,0
244070,-140.49243,4,1,0,80,0,0
244270,-135.87984,4,1,0,80,0,0
244470,-131.41864,4,1,0,80,0,0
244570,-129.24329,4,1,0,80,0,0
244770,-124.99999,4,1,0,80,0,0
245170,-111.111111111111,4,1,0,80,0,0
245357,-111.11087,4,1,0,80,0,0
245457,-111.1103,4,1,0,80,0,0
245557,-111.109184,4,1,0,80,0,0
245757,-111.104614,4,1,0,80,0,0
245957,-111.095726,4,1,0,80,0,0
246057,-111.089195,4,1,0,80,0,0
246157,-111.08107,4,1,0,80,0,0
246257,-111.07113,4,1,0,80,0,0
246357,-111.0592,4,1,0,80,0,0
246557,-111.0287,4,1,0,80,0,0
246657,-111.009766,4,1,0,80,0,0
246757,-110.98814,4,1,0,80,0,0
246957,-110.93611,4,1,0,80,0,0
247057,-110.90534,4,1,0,80,0,0
247157,-110.871185,4,1,0,81,0,0
247357,-110.792,4,1,0,81,0,0
247457,-110.74663,4,1,0,81,0,0
247557,-110.69717,4,1,0,81,0,0
247657,-110.64347,4,1,0,81,0,0
247757,-110.58536,4,1,0,81,0,0
247857,-110.52265,4,1,0,81,0,0
247957,-110.45522,4,1,0,81,0,0
248157,-110.30549,4,1,0,81,0,0
248257,-110.22287,4,1,0,81,0,0
248357,-110.1349,4,1,0,81,0,0
248557,-109.94222,4,1,0,81,0,0
248657,-109.83724,4,1,0,81,0,0
248757,-109.7263,4,1,0,81,0,0
248857,-109.609276,4,1,0,81,0,0
248957,-109.48601,4,1,0,81,0,0
249157,-109.220276,4,1,0,82,0,0
249257,-109.077545,4,1,0,82,0,0
249357,-108.928085,4,1,0,82,0,0
249457,-108.771774,4,1,0,82,0,0
249557,-108.608505,4,1,0,82,0,0
249757,-108.26064,4,1,0,82,0,0
249857,-108.07586,4,1,0,82,0,0
249957,-107.883736,4,1,0,82,0,0
250157,-107.47701,4,1,0,82,0,0
250257,-107.26228,4,1,0,82,0,0
250357,-107.03987,4,1,0,82,0,0
250457,-106.809715,4,1,0,82,0,0
250557,-106.571754,4,1,0,82,0,0
250657,-106.32593,4,1,0,82,0,0
250757,-106.0722,4,1,0,82,0,0
250957,-105.54084,4,1,0,83,0,0
251057,-105.26316,4,1,0,83,0,0
251357,-117.647058823529,4,1,0,83,0,0
251570,-111.111115,4,1,0,83,0,0
251770,-111.11055,4,1,0,83,0,0
251870,-111.1092,4,1,0,83,0,0
251970,-111.10659,4,1,0,83,0,0
252170,-111.095856,4,1,0,83,0,0
252270,-111.08689,4,1,0,83,0,0
252370,-111.07495,4,1,0,83,0,0
252470,-111.05963,4,1,0,83,0,0
252570,-111.04052,4,1,0,83,0,0
252670,-111.017166,4,1,0,84,0,0
252770,-110.989174,4,1,0,84,0,0
252970,-110.9176,4,1,0,84,0,0
253070,-110.87321,4,1,0,84,0,0
253170,-110.82251,4,1,0,84,0,0
253370,-110.700645,4,1,0,84,0,0
253470,-110.62868,4,1,0,84,0,0
253570,-110.548836,4,1,0,84,0,0
253670,-110.46072,4,1,0,84,0,0
253770,-110.36397,4,1,0,84,0,0
253870,-110.2582,4,1,0,84,0,0
253970,-110.14306,4,1,0,84,0,0
254070,-110.01817,4,1,0,84,0,0
254170,-109.88322,4,1,0,84,0,0
254270,-109.73784,4,1,0,84,0,0
254370,-109.58171,4,1,0,84,0,0
254570,-109.235954,4,1,0,84,0,0
254770,-108.84354,4,1,0,85,0,0
254870,-108.629135,4,1,0,85,0,0
254970,-108.40227,4,1,0,85,0,0
255070,-108.16268,4,1,0,85,0,0
255170,-107.910164,4,1,0,85,0,0
255370,-107.365486,4,1,0,85,0,0
255470,-107.07297,4,1,0,85,0,0
255570,-106.76676,4,1,0,85,0,0
255770,-106.112785,4,1,0,85,0,0
255970,-105.40266,4,1,0,85,0,0
256070,-105.02634,4,1,0,85,0,0
256170,-104.63577,4,1,0,85,0,0
256270,-104.23094,4,1,0,85,0,0
256370,-103.81184,4,1,0,85,0,0
256570,-102.9309,4,1,0,85,0,0
256670,-102.46915,4,1,0,85,0,0
256770,-101.9933,4,1,0,85,0,0
256970,-100.99973,4,1,0,86,0,0
257170,-99.951195,4,1,0,86,0,0
257470,-98.278275,4,1,0,86,0,0
257770,-96.49041,4,1,0,86,0,0
257970,-90.90909,4,1,0,86,0,0
258036,-90.90908,4,1,0,86,0,0
258103,-90.90906,4,1,0,86,0,0
258170,-90.90896,4,1,0,86,0,0
258270,-90.90867,4,1,0,86,0,0
258370,-90.90807,4,1,0,86,0,0
258436,-90.907486,4,1,0,86,0,0
258503,-90.906685,4,1,0,86,0,0
258570,-90.90567,4,1,0,86,0,0
258670,-90.90365,4,1,0,86,0,0
258770,-90.90097,4,1,0,87,0,0
258836,-90.898796,4,1,0,87,0,0
258903,-90.89622,4,1,0,87,0,0
258970,-90.89324,4,1,0,87,0,0
259070,-90.88798,4,1,0,87,0,0
259170,-90.88169,4,1,0,87,0,0
259570,-90.84417,4,1,0,87,0,0
259636,-90.83582,4,1,0,87,0,0
259703,-90.826614,4,1,0,87,0,0
259770,-90.81669,4,1,0,87,0,0
259870,-90.800446,4,1,0,87,0,0
259970,-90.782394,4,1,0,87,0,0
260036,-90.76945,4,1,0,87,0,0
260103,-90.75544,4,1,0,87,0,0
260170,-90.74053,4,1,0,87,0,0
260270,-90.71654,4,1,0,87,0,0
260370,-90.69037,4,1,0,88,0,0
260436,-90.671875,4,1,0,88,0,0
260503,-90.65207,4,1,0,88,0,0
260570,-90.63119,4,1,0,88,0,0
260670,-90.598,4,1,0,88,0,0
260770,-90.56226,4,1,0,88,0,0
261170,-90.39236,4,1,0,88,0,0
261236,-90.35992,4,1,0,88,0,0
261303,-90.325645,4,1,0,88,0,0
261370,-90.289986,4,1,0,88,0,0
261470,-90.23415,4,1,0,88,0,0
261570,-90.17512,4,1,0,88,0,0
261636,-90.13435,4,1,0,88,0,0
261703,-90.091484,4,1,0,88,0,0
261770,-90.0471,4,1,0,88,0,0
261870,-89.97794,4,1,0,88,0,0
261970,-89.90528,4,1,0,89,0,0
262036,-89.855354,4,1,0,89,0,0
262103,-89.80305,4,1,0,89,0,0
262170,-89.74907,4,1,0,89,0,0
262270,-89.66538,4,1,0,89,0,0
262370,-89.57789,4,1,0,89,0,0
262770,-89.18834,4,1,0,89,0,0
262836,-89.11779,4,1,0,89,0,0
262903,-89.04432,4,1,0,89,0,0
262970,-88.96895,4,1,0,89,0,0
263070,-88.852875,4,1,0,89,0,0
263170,-88.73249,4,1,0,89,0,0
263236,-88.650635,4,1,0,89,0,0
263303,-88.56558,4,1,0,89,0,0
263370,-88.47854,4,1,0,89,0,0
263470,-88.344864,4,1,0,89,0,0
263570,-88.20667,4,1,0,90,0,0
263636,-88.11297,4,1,0,90,0,0
263703,-88.01579,4,1,0,90,0,0
263770,-87.91654,4,1,0,90,0,0
263870,-87.76452,4,1,0,90,0,0
263970,-87.60781,4,1,0,90,0,0
264370,-83.33333,4,1,0,90,0,0
264436,-83.33164,4,1,0,90,0,0
264503,-83.323555,4,1,0,90,0,0
264570,-83.30622,4,1,0,90,0,0
264670,-83.258644,4,1,0,90,0,0
264770,-83.18016,4,1,0,90,0,0
264870,-83.066124,4,1,0,90,0,0
264970,-82.912605,4,1,0,90,0,0
265070,-82.716255,4,1,0,90,0,0
265170,-82.47423,4,1,0,90,0,0
265236,-82.28828,4,1,0,90,0,0
265303,-82.0775,4,1,0,90,0,0
265370,-81.844,4,1,0,90,0,0
265436,-81.59136,4,1,0,90,0,0
265503,-81.31157,4,1,0,90,0,0
265570,-81.008,4,1,0,90,0,0
265670,-80.510315,4,1,0,90,0,0
265770,-79.95898,4,1,0,90,0,0
265870,-79.35409,4,1,0,90,0,0
265970,-78.69612,4,1,0,90,0,0
266036,-78.23319,4,1,0,90,0,0
266103,-77.74031,4,1,0,90,0,0
266170,-77.22474,4,1,0,90,0,0
266270,-76.41405,4,1,0,90,0,0
266370,-75.555725,4,1,0,90,0,0
266470,-74.65187,4,1,0,90,0,0
266570,-73.70488,4,1,0,90,0,0
266670,-72.71732,4,1,0,90,0,0
266770,-71.692,4,1,0,90,0,0
266836,-70.99602,4,1,0,90,0,0
266903,-70.27488,4,1,0,90,0,0
266970,-69.53993,4,1,0,90,0,0
267036,-68.80339,4,1,0,90,0,0
267103,-68.04388,4,1,0,90,0,0
267170,-67.273445,4,1,0,90,0,0
267270,-66.10532,4,1,0,90,0,0
267370,-64.91824,4,1,0,90,0,0
267470,-63.71543,4,1,0,90,0,0
267570,-58.8235294117647,4,1,0,90,0,0
269370,-1000,4,1,0,70,0,0
269570,-668.3251,4,1,0,72,0,0
269770,-446.65836,4,1,0,74,0,0
269970,-298.51294,4,1,0,76,0,0
270170,-199.50371,4,1,0,78,0,0
270370,-133.33333,4,1,0,80,0,0
270783,-76.9230769230769,4,1,0,100,0,1
270970,-86.9565217391304,4,1,0,100,0,1
281370,-85.16264,4,1,0,100,0,1
281436,-84.57882,4,1,0,100,0,1
281503,-83.990234,4,1,0,100,0,1
281570,-83.40577,4,1,0,100,0,1
281670,-82.54097,4,1,0,100,0,1
281770,-81.685135,4,1,0,100,0,1
281870,-80.83817,4,1,0,100,0,1
281970,-71.4285714285714,4,1,0,100,0,1
282170,-86.9565217391304,4,1,0,100,0,1
282270,-71.4285714285714,4,1,0,100,0,1
282470,-86.9565217391304,4,1,0,100,0,1
282570,-71.4285714285714,4,1,0,100,0,1
282770,-79.30731,4,1,0,100,0,1
282870,-82.061,4,1,0,100,0,1
282920,-83.47349,4,1,0,100,0,1
282970,-84.910286,4,1,0,100,0,1
283070,-87.858505,4,1,0,100,0,1
283183,-90.90909,4,1,0,90,0,0
283370,-100,4,1,0,90,0,0
283583,-76.9230769230769,4,1,0,100,0,1
283770,-86.9565217391304,4,1,0,100,0,1
286170,-86.897484,4,1,0,100,0,1
286270,-86.7576,4,1,0,100,0,1
286370,-86.48649,4,1,0,100,0,1
286470,-86.04319,4,1,0,100,0,1
286570,-85.39027,4,1,0,100,0,1
286670,-84.49542,4,1,0,100,0,1
286720,-83.94905,4,1,0,100,0,1
286770,-83.33333,4,1,0,100,0,1
287170,-66.6666666666667,4,1,0,100,0,1
287370,-86.9565217391304,4,1,0,100,0,1
288770,-80,4,1,0,100,0,1
288870,-81.685135,4,1,0,100,0,1
288970,-83.40577,4,1,0,100,0,1
289070,-85.16264,4,1,0,100,0,1
289170,-86.95652,4,1,0,100,0,1
289270,-85.19771,4,1,0,100,0,1
289320,-84.33168,4,1,0,100,0,1
289370,-83.474464,4,1,0,100,0,1
289470,-81.78609,4,1,0,100,0,1
289570,-80.13185,4,1,0,100,0,1
289636,-79.058426,4,1,0,100,0,1
289703,-77.983444,4,1,0,100,0,1
289770,-76.92308,4,1,0,100,0,1
289970,-86.95652,4,1,0,100,0,1
290070,-86.95642,4,1,0,100,0,1
290170,-86.95537,4,1,0,100,0,1
290270,-86.95175,4,1,0,100,0,1
290370,-86.943474,4,1,0,100,0,1
290470,-86.928024,4,1,0,100,0,1
290570,-86.9026,4,1,0,100,0,1
290670,-86.86407,4,1,0,100,0,1
290770,-86.80909,4,1,0,100,0,1
290870,-86.73406,4,1,0,100,0,1
290970,-86.63522,4,1,0,100,0,1
291070,-86.50865,4,1,0,100,0,1
291170,-86.35033,4,1,0,100,0,1
291270,-86.15612,4,1,0,100,0,1
291370,-85.92193,4,1,0,100,0,1
291470,-85.64362,4,1,0,100,0,1
291570,-85.31716,4,1,0,100,0,1
291636,-85.073425,4,1,0,100,0,1
291703,-84.801674,4,1,0,100,0,1
291770,-84.50436,4,1,0,100,0,1
291870,-84.01081,4,1,0,100,0,1
291970,-83.45486,4,1,0,100,0,1
292036,-83.05238,4,1,0,100,0,1
292103,-82.61403,4,1,0,100,0,1
292170,-82.14505,4,1,0,100,0,1
292270,-81.38698,4,1,0,100,0,1
292370,-80.5582,4,1,0,100,0,1
292436,-79.972084,4,1,0,100,0,1
292503,-79.34518,4,1,0,100,0,1
292570,-78.686195,4,1,0,100,0,1
292670,-77.64341,4,1,0,100,0,1
292770,-76.53079,4,1,0,100,0,1
292820,-75.948845,4,1,0,100,0,1
292870,-75.3502,4,1,0,100,0,1
292970,-74.104126,4,1,0,100,0,1
293020,-73.45749,4,1,0,100,0,1
293070,-72.79569,4,1,0,100,0,1
293183,-66.6666666666667,4,1,0,100,0,0
293370,-66.6666666666667,4,1,0,90,0,0
294570,-76.9230769230769,4,1,0,90,0,0
294970,-86.9565217391304,4,1,0,90,0,0
295170,-83.33333,4,1,0,90,0,0
295236,-84.53837,4,1,0,90,0,0
295303,-85.77949,4,1,0,90,0,0
295370,-87.038826,4,1,0,90,0,0
295470,-88.95291,4,1,0,90,0,0
295570,-90.90909,4,1,0,90,0,0
295770,-80,4,1,0,90,0,0
295836,-81.54911,4,1,0,90,0,0
295903,-83.15238,4,1,0,90,0,0
295970,-84.78718,4,1,0,90,0,0
296070,-87.287155,4,1,0,90,0,0
296170,-89.86085,4,1,0,90,0,0
296270,-92.51041,4,1,0,90,0,0
296383,-76.9230769230769,4,1,0,100,0,1
296583,-86.9565217391304,4,1,0,100,0,1
301370,-86.93902,4,1,0,100,0,1
301470,-86.897484,4,1,0,100,0,1
301570,-86.81673,4,1,0,100,0,1
301636,-86.73568,4,1,0,100,0,1
301703,-86.626495,4,1,0,100,0,1
301770,-86.48649,4,1,0,100,0,1
301870,-86.21249,4,1,0,100,0,1
301970,-85.850555,4,1,0,100,0,1
302070,-85.39027,4,1,0,100,0,1
302120,-85.12026,4,1,0,100,0,1
302170,-84.8223,4,1,0,100,0,1
302270,-84.13876,4,1,0,100,0,1
302383,-83.33333,4,1,0,90,0,0
302783,-76.9230769230769,4,1,0,100,0,1
302983,-86.9565217391304,4,1,0,100,0,1
305370,-86.03622,4,1,0,100,0,1
305436,-85.73466,4,1,0,100,0,1
305503,-85.42961,4,1,0,100,0,1
305570,-85.125656,4,1,0,100,0,1
305670,-84.673996,4,1,0,100,0,1
305770,-84.224724,4,1,0,100,0,1
305870,-83.77785,4,1,0,100,0,1
305970,-71.42856764,4,1,0,90,0,1
306170,-75.59766332,4,1,0,90,0,1
306383,-79.99999693,4,1,0,90,0,0
306783,-71.42856764,4,1,0,90,0,1
306983,-75.59766332,4,1,0,90,0,1
307183,-86.95652,4,1,0,90,0,0
307220,-86.49515,4,1,0,90,0,0
307270,-86.03622,4,1,0,90,0,0
307370,-85.125656,4,1,0,90,0,0
307583,-80,4,1,0,90,0,1
307670,-81.2886,4,1,0,90,0,1
307770,-82.59795,4,1,0,90,0,1
307870,-83.928406,4,1,0,90,0,1
308070,-86.65394,4,1,0,90,0,1
308270,-89.46798,4,1,0,90,0,1
308383,-90.90909,4,1,0,90,0,0
308570,-80,4,1,0,90,0,0
308636,-81.54911,4,1,0,90,0,0
308703,-83.15238,4,1,0,90,0,0
308770,-84.78718,4,1,0,90,0,0
308870,-87.287155,4,1,0,90,0,0
308970,-89.86085,4,1,0,90,0,0
309070,-92.51041,4,1,0,90,0,0
309183,-76.9230769230769,4,1,0,100,0,1
309370,-86.9565217391304,4,1,0,100,0,1
312370,-83.33333,4,1,0,90,0,1
312420,-84.036575,4,1,0,90,0,1
312483,-84.745766,4,1,0,90,0,0
312683,-83.33333,4,1,0,90,0,1
312720,-84.06159,4,1,0,90,0,1
312783,-84.7962,4,1,0,90,0,0
312870,-86.28477,4,1,0,90,0,0
312970,-87.79946,4,1,0,90,0,0
313070,-89.34075,4,1,0,90,0,0
313183,-71.4285714285714,4,1,0,100,0,1
313370,-86.9565217391304,4,1,0,100,0,1
313470,-71.4285714285714,4,1,0,100,0,1
313670,-86.9565217391304,4,1,0,100,0,1
313770,-71.4285714285714,4,1,0,100,0,1
314170,-86.9565217391304,4,1,0,100,0,1
314270,-71.4285714285714,4,1,0,100,0,1
314470,-86.9565217391304,4,1,0,100,0,1
314570,-80,4,1,0,100,0,1
314770,-83.40577,4,1,0,100,0,1
314970,-86.95652,4,1,0,100,0,1
315170,-80,4,1,0,100,0,1
315236,-81.70532,4,1,0,100,0,1
315303,-83.47367,4,1,0,100,0,1
315370,-85.28028,4,1,0,100,0,1
315470,-88.04972,4,1,0,100,0,1
315583,-90.90909,4,1,0,100,0,0
315983,-76.9230769230769,4,1,0,100,0,1
316170,-86.95652,4,1,0,100,0,1
316270,-88.91084,4,1,0,100,0,1
316383,-90.90909,4,1,0,100,0,0
316783,-76.9230769230769,4,1,0,100,0,1
316970,-86.95652,4,1,0,100,0,1
317070,-88.91084,4,1,0,100,0,1
317183,-90.90909,4,1,0,100,0,0
317583,-76.9230769230769,4,1,0,100,0,1
317770,-86.95652,4,1,0,100,0,1
317870,-88.91084,4,1,0,100,0,1
317983,-90.90909,4,1,0,100,0,0
318183,-80,4,1,0,100,0,1
318236,-81.13288,4,1,0,100,0,1
318303,-82.29933,4,1,0,100,0,1
318370,-83.48257,4,1,0,100,0,1
318570,-87.11674,4,1,0,100,0,1
318770,-86.95652,4,1,0,100,0,1
318870,-86.955826,4,1,0,100,0,1
318970,-86.94869,4,1,0,100,0,1
319070,-86.92416,4,1,0,100,0,1
319170,-86.868,4,1,0,100,0,1
319236,-86.80556,4,1,0,100,0,1
319303,-86.71519,4,1,0,100,0,1
319370,-86.59179,4,1,0,100,0,1
319470,-86.3328,4,1,0,100,0,1
319570,-85.96543,4,1,0,100,0,1
319670,-85.46844,4,1,0,100,0,1
319770,-84.82113,4,1,0,100,0,1
319870,-84.0043,4,1,0,100,0,1
319970,-83.001114,4,1,0,100,0,1
320036,-82.23021,4,1,0,100,0,1
320103,-81.35552,4,1,0,100,0,1
320170,-80.38598,4,1,0,100,0,1
320236,-79.33716,4,1,0,100,0,1
320303,-78.17738,4,1,0,100,0,1
320383,-76.92308,4,1,0,100,0,0
320570,-200,4,1,0,70,0,0
320770,-174.11012,4,1,0,74,0,0
320970,-151.57166,4,1,0,78,0,0
321170,-131.95079,4,1,0,82,0,0
321370,-114.86984,4,1,0,86,0,0
321570,-100,4,1,0,90,0,0
321670,-97.64541,4,1,0,90,0,0
321770,-95.34626,4,1,0,90,0,0
321870,-93.10124,4,1,0,90,0,0
321970,-86.9565217391304,4,1,0,100,0,0
322170,-86.95675,4,1,0,100,0,0
322270,-86.95716,4,1,0,100,0,0
322370,-86.95783,4,1,0,100,0,0
322436,-86.958435,4,1,0,100,0,0
322503,-86.9592,4,1,0,100,0,0
322570,-86.96012,4,1,0,100,0,0
322670,-86.961815,4,1,0,99,0,0
322770,-86.963905,4,1,0,99,0,0
322970,-86.96942,4,1,0,99,0,0
323070,-86.97289,4,1,0,99,0,0
323170,-86.976875,4,1,0,99,0,0
323270,-86.98139,4,1,0,99,0,0
323370,-86.98644,4,1,0,99,0,0
323470,-86.99208,4,1,0,99,0,0
323570,-86.998314,4,1,0,99,0,0
323770,-87.012634,4,1,0,99,0,0
323870,-87.02076,4,1,0,99,0,0
323970,-87.02956,4,1,0,98,0,0
324036,-87.035736,4,1,0,98,0,0
324103,-87.04232,4,1,0,98,0,0
324170,-87.049225,4,1,0,98,0,0
324270,-87.060135,4,1,0,98,0,0
324370,-87.071785,4,1,0,98,0,0
324570,-87.09736,4,1,0,98,0,0
324670,-87.11131,4,1,0,98,0,0
324770,-87.12608,4,1,0,98,0,0
324870,-87.141655,4,1,0,98,0,0
324970,-87.15807,4,1,0,98,0,0
325070,-87.17534,4,1,0,98,0,0
325170,-87.19346,4,1,0,98,0,0
325370,-87.23235,4,1,0,97,0,0
325570,-87.27489,4,1,0,97,0,0
325670,-87.29755,4,1,0,97,0,0
325770,-87.32115,4,1,0,97,0,0
325870,-87.34573,4,1,0,97,0,0
325970,-87.371284,4,1,0,97,0,0
326170,-87.42538,4,1,0,97,0,0
326270,-87.45395,4,1,0,97,0,0
326370,-87.48355,4,1,0,97,0,0
326470,-87.514206,4,1,0,96,0,0
326570,-87.54592,4,1,0,96,0,0
326670,-87.578705,4,1,0,96,0,0
326770,-87.61259,4,1,0,96,0,0
326970,-87.68367,4,1,0,96,0,0
327170,-87.75926,4,1,0,96,0,0
327270,-87.798805,4,1,0,96,0,0
327370,-87.83951,4,1,0,96,0,0
327470,-87.881386,4,1,0,96,0,0
327570,-87.92448,4,1,0,96,0,0
327770,-88.01431,4,1,0,95,0,0
327870,-88.06108,4,1,0,95,0,0
327970,-88.109116,4,1,0,95,0,0
328070,-88.15842,4,1,0,95,0,0
328170,-88.209,4,1,0,95,0,0
328270,-88.26088,4,1,0,95,0,0
328370,-88.31408,4,1,0,95,0,0
328570,-88.42447,4,1,0,95,0,0
328770,-88.54028,4,1,0,95,0,0
328836,-88.57971,4,1,0,95,0,0
328903,-88.62038,4,1,0,95,0,0
328970,-88.66165,4,1,0,95,0,0
329070,-88.72446,4,1,0,94,0,0
329170,-88.78869,4,1,0,94,0,0
329370,-88.92153,4,1,0,94,0,0
329470,-88.99016,4,1,0,94,0,0
329570,-89.06028,4,1,0,94,0,0
329670,-89.13191,4,1,0,94,0,0
329770,-89.20508,4,1,0,94,0,0
329870,-89.279785,4,1,0,94,0,0
329970,-89.35606,4,1,0,94,0,0
330170,-89.51334,4,1,0,94,0,0
330370,-89.67708,4,1,0,93,0,0
330436,-89.732544,4,1,0,93,0,0
330503,-89.7896,4,1,0,93,0,0
330570,-89.84739,4,1,0,93,0,0
330670,-89.93507,4,1,0,93,0,0
330770,-90.024445,4,1,0,93,0,0
330970,-90.20837,4,1,0,93,0,0
331070,-90.30296,4,1,0,93,0,0
331170,-90.39932,4,1,0,93,0,0
331270,-90.49748,4,1,0,93,0,0
331370,-90.59746,4,1,0,93,0,0
331470,-90.699265,4,1,0,93,0,0
331570,-90.80293,4,1,0,93,0,0
331770,-91.0159,4,1,0,92,0,0
331970,-91.23654,4,1,0,92,0,0
332070,-91.3498,4,1,0,92,0,0
332170,-91.46503,4,1,0,92,0,0
332270,-91.58227,4,1,0,92,0,0
332370,-91.70154,4,1,0,92,0,0
332570,-91.94624,4,1,0,92,0,0
332770,-92.19933,4,1,0,92,0,0
332870,-92.32909,4,1,0,91,0,0
332970,-92.46101,4,1,0,91,0,0
333070,-92.595146,4,1,0,91,0,0
333170,-92.73148,4,1,0,91,0,0
333370,-93.01095,4,1,0,91,0,0
333570,-93.29963,4,1,0,91,0,0
333670,-93.44749,4,1,0,91,0,0
333770,-93.59773,4,1,0,91,0,0
333870,-93.750404,4,1,0,91,0,0
333970,-93.90551,4,1,0,91,0,0
334170,-94.223175,4,1,0,90,0,0
334370,-94.550995,4,1,0,90,0,0
334470,-94.71878,4,1,0,90,0,0
334570,-94.88921,4,1,0,90,0,0
334670,-95.062294,4,1,0,90,0,0
334770,-95.2381,4,1,0,90,0,0
334970,-105.26316,4,1,0,90,0,0
335170,-105.26425,4,1,0,90,0,0
335270,-105.266174,4,1,0,90,0,0
335370,-105.26937,4,1,0,90,0,0
335470,-105.274,4,1,0,89,0,0
335570,-105.28027,4,1,0,89,0,0
335770,-105.298294,4,1,0,89,0,0
335970,-105.32455,4,1,0,89,0,0
336070,-105.34108,4,1,0,89,0,0
336170,-105.36002,4,1,0,89,0,0
336370,-105.40563,4,1,0,89,0,0
336570,-105.46221,4,1,0,88,0,0
336770,-105.530525,4,1,0,88,0,0
336870,-105.569336,4,1,0,88,0,0
336970,-105.61137,4,1,0,88,0,0
337070,-105.6567,4,1,0,88,0,0
337170,-105.705444,4,1,0,88,0,0
337370,-105.81348,4,1,0,87,0,0
337470,-105.872955,4,1,0,87,0,0
337570,-105.93617,4,1,0,87,0,0
337770,-106.07423,4,1,0,87,0,0
337970,-106.2283,4,1,0,87,0,0
338170,-106.39911,4,1,0,87,0,0
338370,-106.58736,4,1,0,86,0,0
338470,-106.688225,4,1,0,86,0,0
338570,-106.79372,4,1,0,86,0,0
338670,-106.903915,4,1,0,86,0,0
338770,-107.01893,4,1,0,86,0,0
338970,-107.26372,4,1,0,86,0,0
339170,-107.528824,4,1,0,86,0,0
339270,-107.66924,4,1,0,85,0,0
339370,-107.81503,4,1,0,85,0,0
339570,-108.12313,4,1,0,85,0,0
339770,-108.45393,4,1,0,85,0,0
339970,-108.80831,4,1,0,85,0,0
340070,-108.99462,4,1,0,85,0,0
340170,-109.18715,4,1,0,84,0,0
340270,-109.38603,4,1,0,84,0,0
340370,-109.59137,4,1,0,84,0,0
340570,-110.02196,4,1,0,84,0,0
340670,-110.247444,4,1,0,84,0,0
340770,-110.47993,4,1,0,84,0,0
340970,-110.96635,4,1,0,84,0,0
341170,-111.48234,4,1,0,83,0,0
341570,-112.60791,4,1,0,83,0,0
341670,-112.90972,4,1,0,83,0,0
341770,-113.220055,4,1,0,83,0,0
341870,-113.53907,4,1,0,83,0,0
341970,-113.866974,4,1,0,83,0,0
342170,-114.55015,4,1,0,82,0,0
342370,-115.27118,4,1,0,82,0,0
342470,-115.64641,4,1,0,82,0,0
342570,-116.031746,4,1,0,82,0,0
342770,-116.833664,4,1,0,82,0,0
343170,-118.5694,4,1,0,81,0,0
343270,-119.03234,4,1,0,81,0,0
343370,-119.50746,4,1,0,81,0,0
343470,-119.995056,4,1,0,81,0,0
343570,-120.49543,4,1,0,81,0,0
343770,-121.535835,4,1,0,81,0,0
343870,-122.076546,4,1,0,81,0,0
343970,-122.63141,4,1,0,80,0,0
344170,-123.78507,4,1,0,80,0,0
344370,-125,4,1,0,80,0,0
344583,-128.205128205128,4,1,0,80,0,0
347583,400,8,1,0,80,1,0
350783,400,4,1,0,70,1,0
350783,-142.857142857143,4,1,0,70,0,0
358670,-142.82271,4,1,0,71,0,0
358770,-142.77556,4,1,0,71,0,0
358970,-142.58217,4,1,0,72,0,0
359070,-142.42099,4,1,0,72,0,0
359370,-141.59291,4,1,0,73,0,0
359570,-140.68655,4,1,0,73,0,0
359670,-140.10875,4,1,0,73,0,0
359870,-138.67822,4,1,0,74,0,0
360170,-135.78654,4,1,0,75,0,0
360370,-133.33333,4,1,0,75,0,0
360583,400,35,1,0,75,1,8
360583,-129.87012987013,5,1,0,75,0,0

[HitObjects]
256,192,17983,5,8,0:0:0:0:
256,192,18283,1,8,0:0:0:0:
256,192,18783,1,0,0:0:0:0:
256,192,19083,1,0,0:0:0:0:
256,192,19583,1,8,0:0:0:0:
256,192,19883,1,0,0:0:0:0:
256,192,20383,1,0,0:0:0:0:
256,192,20683,1,0,0:0:0:0:
256,192,21183,1,8,0:0:0:0:
256,192,21383,1,0,0:0:0:0:
256,192,21483,1,8,0:0:0:0:
256,192,21783,1,0,0:0:0:0:
256,192,21983,1,8,0:0:0:0:
256,192,22083,1,0,0:0:0:0:
256,192,22283,1,8,0:0:0:0:
256,192,22783,1,8,0:0:0:0:
256,192,22983,1,0,0:0:0:0:
256,192,23083,1,8,0:0:0:0:
256,192,23383,1,0,0:0:0:0:
256,192,23583,1,8,0:0:0:0:
256,192,23683,1,0,0:0:0:0:
256,192,23883,1,8,0:0:0:0:
256,192,24283,1,0,0:0:0:0:
256,192,24383,1,8,0:0:0:0:
256,192,24583,1,0,0:0:0:0:
256,192,24683,1,8,0:0:0:0:
256,192,24983,1,0,0:0:0:0:
256,192,25183,1,8,0:0:0:0:
256,192,25283,1,0,0:0:0:0:
256,192,25483,1,8,0:0:0:0:
256,192,25883,1,0,0:0:0:0:
256,192,25983,1,8,0:0:0:0:
256,192,26183,1,0,0:0:0:0:
256,192,26283,1,8,0:0:0:0:
256,192,26583,1,0,0:0:0:0:
256,192,26783,1,8,0:0:0:0:
256,192,26883,1,0,0:0:0:0:
256,192,27083,1,8,0:0:0:0:
256,192,27383,1,0,0:0:0:0:
256,192,27483,1,0,0:0:0:0:
256,192,27583,1,8,0:0:0:0:
256,192,27783,1,0,0:0:0:0:
256,192,27983,1,8,0:0:0:0:
256,192,28383,1,8,0:0:0:0:
256,192,28583,1,0,0:0:0:0:
256,192,28683,1,0,0:0:0:0:
256,192,28783,1,0,0:0:0:0:
256,192,29183,1,0,0:0:0:0:
256,192,29583,1,0,0:0:0:0:
256,192,29783,1,8,0:0:0:0:
256,192,29883,1,8,0:0:0:0:
256,192,29983,1,0,0:0:0:0:
256,192,30183,1,8,0:0:0:0:
256,192,30583,1,0,0:0:0:0:
256,192,30883,1,8,0:0:0:0:
256,192,30983,1,0,0:0:0:0:
256,192,31183,1,8,0:0:0:0:
256,192,31383,1,0,0:0:0:0:
256,192,31483,1,0,0:0:0:0:
256,192,31583,1,8,0:0:0:0:
256,192,31783,1,0,0:0:0:0:
256,192,32183,1,8,0:0:0:0:
256,192,32283,1,8,0:0:0:0:
256,192,32383,1,0,0:0:0:0:
256,192,32583,1,0,0:0:0:0:
256,192,32783,1,8,0:0:0:0:
256,192,33083,1,8,0:0:0:0:
256,192,33183,1,0,0:0:0:0:
256,192,33583,1,8,0:0:0:0:
256,192,33783,1,0,0:0:0:0:
256,192,34383,1,8,0:0:0:0:
256,192,34483,1,8,0:0:0:0:
256,192,34583,1,0,0:0:0:0:
256,192,34783,1,8,0:0:0:0:
256,192,34983,1,0,0:0:0:0:
256,192,35183,1,8,0:0:0:0:
256,192,35383,1,0,0:0:0:0:
256,192,35483,1,0,0:0:0:0:
256,192,35583,1,8,0:0:0:0:
256,192,35783,1,0,0:0:0:0:
256,192,36183,1,8,0:0:0:0:
256,192,36783,1,8,0:0:0:0:
256,192,37183,1,8,0:0:0:0:
256,192,37383,1,0,0:0:0:0:
256,192,37583,1,0,0:0:0:0:
256,192,37783,1,8,0:0:0:0:
256,192,38183,1,0,0:0:0:0:
256,192,38583,1,8,0:0:0:0:
256,192,38983,1,0,0:0:0:0:
256,192,39183,1,8,0:0:0:0:
256,192,39983,1,0,0:0:0:0:
256,192,40183,1,0,0:0:0:0:
256,192,40283,1,0,0:0:0:0:
256,192,40383,1,8,0:0:0:0:
256,192,40583,1,0,0:0:0:0:
256,192,40783,1,8,0:0:0:0:
256,192,41183,1,8,0:0:0:0:
256,192,41383,1,0,0:0:0:0:
256,192,41483,1,0,0:0:0:0:
256,192,41583,1,0,0:0:0:0:
256,192,41983,1,0,0:0:0:0:
256,192,42383,1,0,0:0:0:0:
256,192,42583,1,8,0:0:0:0:
256,192,42683,1,8,0:0:0:0:
256,192,42783,1,0,0:0:0:0:
256,192,42983,1,8,0:0:0:0:
256,192,43383,1,0,0:0:0:0:
256,192,43683,1,8,0:0:0:0:
256,192,43783,1,0,0:0:0:0:
256,192,43983,1,8,0:0:0:0:
256,192,44183,1,0,0:0:0:0:
256,192,44283,1,0,0:0:0:0:
256,192,44383,1,8,0:0:0:0:
256,192,44583,1,0,0:0:0:0:
256,192,44983,1,8,0:0:0:0:
256,192,45083,1,8,0:0:0:0:
256,192,45183,1,0,0:0:0:0:
256,192,45383,1,0,0:0:0:0:
256,192,45583,1,8,0:0:0:0:
256,192,45883,1,8,0:0:0:0:
256,192,45983,1,0,0:0:0:0:
256,192,46383,1,8,0:0:0:0:
256,192,46583,1,0,0:0:0:0:
256,192,47183,1,8,0:0:0:0:
256,192,47283,1,8,0:0:0:0:
256,192,47383,1,0,0:0:0:0:
256,192,47583,1,8,0:0:0:0:
256,192,47783,1,0,0:0:0:0:
256,192,48183,1,0,0:0:0:0:
256,192,48283,1,0,0:0:0:0:
256,192,48383,1,8,0:0:0:0:
256,192,48583,1,0,0:0:0:0:
256,192,48983,1,8,0:0:0:0:
256,192,49383,1,0,0:0:0:0:
256,192,49483,1,0,0:0:0:0:
256,192,49583,1,8,0:0:0:0:
256,192,49783,1,0,0:0:0:0:
256,192,49983,1,8,0:0:0:0:
256,192,50183,1,0,0:0:0:0:
256,192,50283,1,8,0:0:0:0:
256,192,50383,1,0,0:0:0:0:
256,192,50583,1,8,0:0:0:0:
256,192,51183,1,0,0:0:0:0:
256,192,51383,1,8,0:0:0:0:
256,192,51783,1,0,0:0:0:0:
256,192,52183,1,8,0:0:0:0:
256,192,52583,1,0,0:0:0:0:
256,192,52983,1,8,0:0:0:0:
256,192,53183,1,4,0:0:0:0:
256,192,53383,1,0,0:0:0:0:
256,192,53583,1,8,0:0:0:0:
256,192,53783,1,0,0:0:0:0:
256,192,53883,1,0,0:0:0:0:
256,192,53983,1,8,0:0:0:0:
256,192,54183,1,0,0:0:0:0:
256,192,54383,1,8,0:0:0:0:
256,192,54683,1,0,0:0:0:0:
256,192,54783,1,8,0:0:0:0:
256,192,54983,1,0,0:0:0:0:
256,192,55083,1,0,0:0:0:0:
256,192,55183,1,0,0:0:0:0:
256,192,55383,1,8,0:0:0:0:
256,192,55483,1,0,0:0:0:0:
256,192,55583,1,8,0:0:0:0:
256,192,55783,1,0,0:0:0:0:
256,192,55983,1,8,0:0:0:0:
256,192,56183,1,8,0:0:0:0:
256,192,56383,1,0,0:0:0:0:
256,192,56583,1,8,0:0:0:0:
256,192,56683,1,8,0:0:0:0:
256,192,56783,1,0,0:0:0:0:
256,192,56983,1,0,0:0:0:0:
256,192,57183,1,8,0:0:0:0:
256,192,57383,1,0,0:0:0:0:
256,192,57483,1,0,0:0:0:0:
256,192,57583,1,8,0:0:0:0:
256,192,57983,1,0,0:0:0:0:
256,192,58183,1,8,0:0:0:0:
256,192,58283,1,8,0:0:0:0:
256,192,58383,1,0,0:0:0:0:
256,192,58583,1,0,0:0:0:0:
256,192,58783,1,8,0:0:0:0:
256,192,58983,1,0,0:0:0:0:
256,192,59183,1,8,0:0:0:0:
256,192,59249,1,0,0:0:0:0:
256,192,59316,1,0,0:0:0:0:
256,192,59383,1,8,0:0:0:0:
256,192,59483,1,8,0:0:0:0:
256,192,59583,1,0,0:0:0:0:
256,192,59883,1,0,0:0:0:0:
256,192,59983,1,8,0:0:0:0:
256,192,60183,1,0,0:0:0:0:
256,192,60383,1,8,0:0:0:0:
256,192,60483,1,0,0:0:0:0:
256,192,60583,1,8,0:0:0:0:
256,192,60683,1,8,0:0:0:0:
256,192,60783,1,0,0:0:0:0:
256,192,60983,1,8,0:0:0:0:
256,192,61183,1,0,0:0:0:0:
256,192,61383,1,0,0:0:0:0:
256,192,61583,1,8,0:0:0:0:
256,192,61683,1,0,0:0:0:0:
256,192,61783,1,8,0:0:0:0:
256,192,61983,1,0,0:0:0:0:
256,192,62183,1,0,0:0:0:0:
256,192,62283,1,0,0:0:0:0:
256,192,62383,1,8,0:0:0:0:
256,192,62683,1,8,0:0:0:0:
256,192,62783,1,0,0:0:0:0:
256,192,62983,1,8,0:0:0:0:
256,192,63083,1,8,0:0:0:0:
256,192,63183,1,0,0:0:0:0:
256,192,63383,1,0,0:0:0:0:
256,192,63583,1,8,0:0:0:0:
256,192,63883,1,0,0:0:0:0:
256,192,63983,1,8,0:0:0:0:
256,192,64183,1,0,0:0:0:0:
256,192,64383,1,8,0:0:0:0:
256,192,64583,1,0,0:0:0:0:
256,192,64683,1,0,0:0:0:0:
256,192,64783,1,8,0:0:0:0:
256,192,64983,1,0,0:0:0:0:
256,192,65183,1,8,0:0:0:0:
256,192,65483,1,8,0:0:0:0:
256,192,65783,1,8,0:0:0:0:
256,192,65983,1,4,0:0:0:0:
256,192,66183,1,8,0:0:0:0:
256,192,66283,1,0,0:0:0:0:
256,192,66383,1,8,0:0:0:0:
256,192,66583,1,0,0:0:0:0:
256,192,66683,1,0,0:0:0:0:
256,192,66783,1,8,0:0:0:0:
256,192,66983,1,8,0:0:0:0:
256,192,67183,1,0,0:0:0:0:
256,192,67383,1,8,0:0:0:0:
256,192,67483,1,8,0:0:0:0:
256,192,67583,1,0,0:0:0:0:
256,192,67783,1,8,0:0:0:0:
256,192,67983,1,0,0:0:0:0:
256,192,68083,1,0,0:0:0:0:
256,192,68183,1,8,0:0:0:0:
256,192,68283,1,8,0:0:0:0:
256,192,68383,1,0,0:0:0:0:
256,192,68583,1,8,0:0:0:0:
256,192,68783,1,0,0:0:0:0:
256,192,68983,1,8,0:0:0:0:
256,192,69083,1,8,0:0:0:0:
256,192,69183,1,0,0:0:0:0:
256,192,69383,1,8,0:0:0:0:
256,192,69483,1,0,0:0:0:0:
256,192,69583,1,8,0:0:0:0:
256,192,69683,1,8,0:0:0:0:
256,192,69783,1,0,0:0:0:0:
256,192,69883,1,0,0:0:0:0:
256,192,69983,1,8,0:0:0:0:
256,192,70183,1,8,0:0:0:0:
256,192,70383,1,0,0:0:0:0:
256,192,70583,1,8,0:0:0:0:
256,192,70683,1,8,0:0:0:0:
256,192,70783,1,0,0:0:0:0:
256,192,70983,1,0,0:0:0:0:
256,192,71083,1,8,0:0:0:0:
256,192,71183,1,0,0:0:0:0:
256,192,71283,1,0,0:0:0:0:
256,192,71383,1,8,0:0:0:0:
256,192,71483,1,8,0:0:0:0:
256,192,71583,1,0,0:0:0:0:
256,192,71783,1,8,0:0:0:0:
256,192,71883,1,0,0:0:0:0:
256,192,71983,1,8,0:0:0:0:
256,192,72183,1,0,0:0:0:0:
256,192,72383,1,8,0:0:0:0:
256,192,72483,1,8,0:0:0:0:
256,192,72583,1,0,0:0:0:0:
256,192,72683,1,0,0:0:0:0:
256,192,72783,1,8,0:0:0:0:
256,192,72883,1,0,0:0:0:0:
256,192,72983,1,8,0:0:0:0:
256,192,73083,1,0,0:0:0:0:
256,192,73183,1,8,0:0:0:0:
256,192,73283,1,8,0:0:0:0:
256,192,73383,1,0,0:0:0:0:
256,192,73483,1,0,0:0:0:0:
256,192,73583,1,8,0:0:0:0:
256,192,73683,1,0,0:0:0:0:
256,192,73783,1,0,0:0:0:0:
256,192,73883,1,0,0:0:0:0:
256,192,73983,1,8,0:0:0:0:
256,192,74083,1,8,0:0:0:0:
256,192,74183,1,0,0:0:0:0:
256,192,74283,1,0,0:0:0:0:
256,192,74383,1,8,0:0:0:0:
256,192,74483,1,0,0:0:0:0:
256,192,74583,1,8,0:0:0:0:
256,192,74683,1,0,0:0:0:0:
256,192,74783,1,8,0:0:0:0:
256,192,74883,1,8,0:0:0:0:
256,192,74983,1,0,0:0:0:0:
256,192,75083,1,0,0:0:0:0:
256,192,75183,1,8,0:0:0:0:
256,192,75283,1,8,0:0:0:0:
256,192,75383,1,0,0:0:0:0:
256,192,75483,1,0,0:0:0:0:
256,192,75583,1,8,0:0:0:0:
256,192,75649,1,8,0:0:0:0:
256,192,75716,1,8,0:0:0:0:
256,192,75783,1,0,0:0:0:0:
256,192,75883,1,0,0:0:0:0:
256,192,75983,1,8,0:0:0:0:
256,192,76049,1,0,0:0:0:0:
256,192,76116,1,0,0:0:0:0:
256,192,76183,1,8,0:0:0:0:
256,192,76283,1,8,0:0:0:0:
256,192,76383,1,0,0:0:0:0:
256,192,76449,1,0,0:0:0:0:
256,192,76516,1,0,0:0:0:0:
256,192,76583,1,8,0:0:0:0:
256,192,76683,1,8,0:0:0:0:
256,192,76783,1,0,0:0:0:0:
256,192,76883,1,0,0:0:0:0:
256,192,76983,1,8,0:0:0:0:
256,192,77083,1,8,0:0:0:0:
256,192,77183,1,0,0:0:0:0:
256,192,78783,1,0,0:0:0:0:
256,192,78983,1,8,0:0:0:0:
256,192,79083,1,8,0:0:0:0:
256,192,79183,1,0,0:0:0:0:
256,192,79383,1,8,0:0:0:0:
256,192,79483,1,0,0:0:0:0:
256,192,79583,1,8,0:0:0:0:
256,192,79683,1,8,0:0:0:0:
256,192,79783,1,8,0:0:0:0:
256,192,79883,1,8,0:0:0:0:
256,192,79983,1,0,0:0:0:0:
256,192,80183,1,8,0:0:0:0:
256,192,80283,1,0,0:0:0:0:
256,192,80383,1,8,0:0:0:0:
256,192,80583,1,0,0:0:0:0:
256,192,80683,1,0,0:0:0:0:
256,192,80783,1,0,0:0:0:0:
256,192,80983,1,8,0:0:0:0:
256,192,81083,1,0,0:0:0:0:
256,192,81183,1,8,0:0:0:0:
256,192,81283,1,8,0:0:0:0:
256,192,81383,1,0,0:0:0:0:
256,192,81483,1,0,0:0:0:0:
256,192,81583,1,8,0:0:0:0:
256,192,81783,1,8,0:0:0:0:
256,192,81983,1,0,0:0:0:0:
256,192,82183,1,8,0:0:0:0:
256,192,82283,1,8,0:0:0:0:
256,192,82383,1,0,0:0:0:0:
256,192,82583,1,8,0:0:0:0:
256,192,82683,1,0,0:0:0:0:
256,192,82783,1,8,0:0:0:0:
256,192,82983,1,0,0:0:0:0:
256,192,83083,1,0,0:0:0:0:
256,192,83183,1,8,0:0:0:0:
256,192,83283,1,8,0:0:0:0:
256,192,83383,1,8,0:0:0:0:
256,192,83583,1,0,0:0:0:0:
256,192,83783,1,8,0:0:0:0:
256,192,83883,1,0,0:0:0:0:
256,192,83983,1,8,0:0:0:0:
256,192,84183,1,0,0:0:0:0:
256,192,84283,1,0,0:0:0:0:
256,192,84383,1,8,0:0:0:0:
256,192,84583,1,8,0:0:0:0:
256,192,84783,1,0,0:0:0:0:
256,192,85183,1,0,0:0:0:0:
256,192,85383,1,0,0:0:0:0:
256,192,85583,1,8,0:0:0:0:
256,192,85783,1,0,0:0:0:0:
256,192,85883,1,0,0:0:0:0:
256,192,85983,1,8,0:0:0:0:
256,192,86183,1,0,0:0:0:0:
256,192,86283,1,8,0:0:0:0:
256,192,86383,1,8,0:0:0:0:
256,192,86483,1,8,0:0:0:0:
256,192,86583,1,0,0:0:0:0:
256,192,86683,1,0,0:0:0:0:
256,192,86783,1,8,0:0:0:0:
256,192,86983,1,0,0:0:0:0:
256,192,87083,1,0,0:0:0:0:
256,192,87183,1,8,0:0:0:0:
256,192,87383,1,0,0:0:0:0:
256,192,87483,1,8,0:0:0:0:
256,192,87583,1,0,0:0:0:0:
256,192,87783,1,8,0:0:0:0:
256,192,87883,1,8,0:0:0:0:
256,192,87983,1,0,0:0:0:0:
256,192,88083,1,8,0:0:0:0:
256,192,88183,1,0,0:0:0:0:
256,192,88283,1,0,0:0:0:0:
256,192,88383,1,8,0:0:0:0:
256,192,88583,1,0,0:0:0:0:
256,192,88783,1,0,0:0:0:0:
256,192,88983,1,8,0:0:0:0:
256,192,89083,1,8,0:0:0:0:
256,192,89183,1,0,0:0:0:0:
256,192,89383,1,8,0:0:0:0:
256,192,89483,1,0,0:0:0:0:
256,192,89583,1,8,0:0:0:0:
256,192,89783,1,0,0:0:0:0:
256,192,89883,1,0,0:0:0:0:
256,192,89983,1,8,0:0:0:0:
256,192,90183,1,0,0:0:0:0:
256,192,90283,1,8,0:0:0:0:
256,192,90383,1,0,0:0:0:0:
256,192,90483,1,0,0:0:0:0:
256,192,90583,1,8,0:0:0:0:
256,192,90683,1,8,0:0:0:0:
256,192,90783,1,0,0:0:0:0:
256,192,90883,1,0,0:0:0:0:
256,192,90983,1,8,0:0:0:0:
256,192,91083,1,0,0:0:0:0:
256,192,91183,1,8,0:0:0:0:
256,192,91283,1,8,0:0:0:0:
256,192,91383,1,0,0:0:0:0:
256,192,91583,1,12,0:0:0:0:
256,192,91783,1,0,0:0:0:0:
256,192,91883,1,0,0:0:0:0:
256,192,91983,1,8,0:0:0:0:
256,192,92183,1,8,0:0:0:0:
256,192,92283,1,0,0:0:0:0:
256,192,92383,1,8,0:0:0:0:
256,192,92483,1,8,0:0:0:0:
256,192,92583,1,8,0:0:0:0:
256,192,92683,1,8,0:0:0:0:
256,192,92783,1,0,0:0:0:0:
256,192,92983,1,8,0:0:0:0:
256,192,93083,1,0,0:0:0:0:
256,192,93183,1,8,0:0:0:0:
256,192,93383,1,0,0:0:0:0:
256,192,93483,1,0,0:0:0:0:
256,192,93583,1,0,0:0:0:0:
256,192,93783,1,8,0:0:0:0:
256,192,93883,1,0,0:0:0:0:
256,192,93983,1,8,0:0:0:0:
256,192,94083,1,8,0:0:0:0:
256,192,94183,1,0,0:0:0:0:
256,192,94283,1,0,0:0:0:0:
256,192,94383,1,8,0:0:0:0:
256,192,94583,1,8,0:0:0:0:
256,192,94683,1,0,0:0:0:0:
256,192,94783,1,0,0:0:0:0:
256,192,94983,1,8,0:0:0:0:
256,192,95083,1,8,0:0:0:0:
256,192,95183,1,0,0:0:0:0:
256,192,95383,1,8,0:0:0:0:
256,192,95483,1,0,0:0:0:0:
256,192,95583,1,8,0:0:0:0:
256,192,95783,1,0,0:0:0:0:
256,192,95883,1,0,0:0:0:0:
256,192,95983,1,8,0:0:0:0:
256,192,96083,1,8,0:0:0:0:
256,192,96183,1,0,0:0:0:0:
256,192,96283,1,0,0:0:0:0:
256,192,96383,1,8,0:0:0:0:
256,192,96583,1,8,0:0:0:0:
256,192,96683,1,0,0:0:0:0:
256,192,96783,1,8,0:0:0:0:
256,192,96983,1,0,0:0:0:0:
256,192,97083,1,0,0:0:0:0:
256,192,97183,1,8,0:0:0:0:
256,192,97383,1,0,0:0:0:0:
256,192,97583,1,8,0:0:0:0:
256,192,97683,1,0,0:0:0:0:
256,192,97783,1,8,0:0:0:0:
256,192,97883,1,8,0:0:0:0:
256,192,97983,1,4,0:0:0:0:
256,192,98183,1,0,0:0:0:0:
256,192,98383,1,8,0:0:0:0:
256,192,98583,1,0,0:0:0:0:
256,192,98683,1,0,0:0:0:0:
256,192,98783,1,8,0:0:0:0:
256,192,98983,1,0,0:0:0:0:
256,192,99183,1,0,0:0:0:0:
256,192,99383,1,8,0:0:0:0:
256,192,99483,1,8,0:0:0:0:
256,192,99583,1,0,0:0:0:0:
256,192,99783,1,0,0:0:0:0:
256,192,99983,1,8,0:0:0:0:
256,192,100183,1,0,0:0:0:0:
256,192,100283,1,0,0:0:0:0:
256,192,100383,1,8,0:0:0:0:
256,192,100583,1,0,0:0:0:0:
256,192,100783,1,8,0:0:0:0:
256,192,100983,1,8,0:0:0:0:
256,192,101083,1,8,0:0:0:0:
256,192,101183,1,0,0:0:0:0:
256,192,101283,1,8,0:0:0:0:
256,192,101383,1,0,0:0:0:0:
256,192,101483,1,0,0:0:0:0:
256,192,101583,1,8,0:0:0:0:
256,192,101683,1,8,0:0:0:0:
256,192,101783,1,0,0:0:0:0:
256,192,101883,1,0,0:0:0:0:
256,192,101983,1,8,0:0:0:0:
256,192,102083,1,8,0:0:0:0:
256,192,102183,1,0,0:0:0:0:
256,192,102283,1,8,0:0:0:0:
256,192,102383,1,0,0:0:0:0:
256,192,102483,1,8,0:0:0:0:
256,192,102583,1,0,0:0:0:0:
256,192,102683,1,0,0:0:0:0:
256,192,102783,1,8,0:0:0:0:
256,192,102849,1,0,0:0:0:0:
256,192,102916,1,0,0:0:0:0:
256,192,102983,1,8,0:0:0:0:
256,192,103083,1,8,0:0:0:0:
256,192,103183,1,0,0:0:0:0:
256,192,103249,1,0,0:0:0:0:
256,192,103316,1,0,0:0:0:0:
256,192,103383,1,8,0:0:0:0:
256,192,103483,1,8,0:0:0:0:
256,192,103583,1,0,0:0:0:0:
256,192,103649,1,0,0:0:0:0:
256,192,103716,1,0,0:0:0:0:
256,192,103783,1,8,0:0:0:0:
256,192,103849,1,8,0:0:0:0:
256,192,103916,1,8,0:0:0:0:
256,192,103983,1,0,0:0:0:0:
256,192,104383,1,12,0:0:0:0:
256,192,104583,1,0,0:0:0:0:
256,192,104683,1,0,0:0:0:0:
256,192,104783,1,8,0:0:0:0:
256,192,104983,1,8,0:0:0:0:
256,192,105183,1,0,0:0:0:0:
256,192,105383,1,8,0:0:0:0:
256,192,105483,1,8,0:0:0:0:
256,192,105583,1,0,0:0:0:0:
256,192,105783,1,8,0:0:0:0:
256,192,105983,1,0,0:0:0:0:
256,192,106083,1,0,0:0:0:0:
256,192,106183,1,0,0:0:0:0:
256,192,106283,1,0,0:0:0:0:
256,192,106383,1,8,0:0:0:0:
256,192,106583,1,8,0:0:0:0:
256,192,106783,1,0,0:0:0:0:
256,192,106883,1,8,0:0:0:0:
256,192,106983,1,0,0:0:0:0:
256,192,107083,1,0,0:0:0:0:
256,192,107183,1,8,0:0:0:0:
256,192,107383,1,0,0:0:0:0:
256,192,107583,1,8,0:0:0:0:
256,192,107683,1,0,0:0:0:0:
256,192,107783,1,8,0:0:0:0:
256,192,107883,1,8,0:0:0:0:
256,192,107983,1,0,0:0:0:0:
256,192,108183,1,8,0:0:0:0:
256,192,108383,1,0,0:0:0:0:
256,192,108483,1,0,0:0:0:0:
256,192,108583,1,8,0:0:0:0:
256,192,108683,1,0,0:0:0:0:
256,192,108783,1,8,0:0:0:0:
256,192,108983,1,0,0:0:0:0:
256,192,109083,1,8,0:0:0:0:
256,192,109183,1,0,0:0:0:0:
256,192,109283,1,8,0:0:0:0:
256,192,109383,1,8,0:0:0:0:
256,192,109483,1,0,0:0:0:0:
256,192,109583,1,8,0:0:0:0:
256,192,109783,1,0,0:0:0:0:
256,192,109883,1,0,0:0:0:0:
256,192,109983,1,8,0:0:0:0:
256,192,110083,1,0,0:0:0:0:
256,192,110133,1,0,0:0:0:0:
256,192,110183,1,8,0:0:0:0:
256,192,110283,1,0,0:0:0:0:
256,192,110383,1,8,0:0:0:0:
256,192,110583,1,8,0:0:0:0:
256,192,110683,1,8,0:0:0:0:
256,192,110783,1,0,0:0:0:0:
256,192,111183,1,8,0:0:0:0:
256,192,111283,1,8,0:0:0:0:
256,192,111383,1,0,0:0:0:0:
256,192,111483,1,0,0:0:0:0:
256,192,111583,1,0,0:0:0:0:
256,192,111783,1,8,0:0:0:0:
256,192,111883,1,8,0:0:0:0:
256,192,111983,1,0,0:0:0:0:
256,192,112183,1,8,0:0:0:0:
256,192,112383,1,0,0:0:0:0:
256,192,112483,1,0,0:0:0:0:
256,192,112583,1,8,0:0:0:0:
256,192,112683,1,0,0:0:0:0:
256,192,112783,1,8,0:0:0:0:
256,192,112983,1,8,0:0:0:0:
256,192,113183,1,0,0:0:0:0:
256,192,113283,1,8,0:0:0:0:
256,192,113383,1,0,0:0:0:0:
256,192,113483,1,0,0:0:0:0:
256,192,113583,1,8,0:0:0:0:
256,192,113783,1,0,0:0:0:0:
256,192,113983,1,8,0:0:0:0:
256,192,114083,1,8,0:0:0:0:
256,192,114183,1,0,0:0:0:0:
256,192,114283,1,0,0:0:0:0:
256,192,114383,1,8,0:0:0:0:
256,192,114583,1,8,0:0:0:0:
256,192,114783,1,0,0:0:0:0:
256,192,114883,1,0,0:0:0:0:
256,192,114983,1,8,0:0:0:0:
256,192,115083,1,0,0:0:0:0:
256,192,115183,1,8,0:0:0:0:
256,192,115383,1,0,0:0:0:0:
256,192,115483,1,8,0:0:0:0:
256,192,115583,1,8,0:0:0:0:
256,192,115683,1,8,0:0:0:0:
256,192,115783,1,0,0:0:0:0:
256,192,115883,1,0,0:0:0:0:
256,192,115983,1,8,0:0:0:0:
256,192,116183,1,0,0:0:0:0:
256,192,116283,1,8,0:0:0:0:
256,192,116383,1,0,0:0:0:0:
256,192,116449,1,8,0:0:0:0:
256,192,116516,1,8,0:0:0:0:
256,192,116583,1,0,0:0:0:0:
256,192,116683,1,0,0:0:0:0:
256,192,116783,1,8,0:0:0:0:
256,192,116833,1,8,0:0:0:0:
256,192,116883,1,8,0:0:0:0:
256,192,116983,1,0,0:0:0:0:
256,192,117083,1,0,0:0:0:0:
256,192,117183,1,12,0:0:0:0:
256,192,117383,1,0,0:0:0:0:
256,192,117483,1,0,0:0:0:0:
256,192,117583,1,8,0:0:0:0:
256,192,117783,1,0,0:0:0:0:
256,192,117983,1,0,0:0:0:0:
256,192,118183,1,8,0:0:0:0:
256,192,118283,1,8,0:0:0:0:
256,192,118383,1,0,0:0:0:0:
256,192,118583,1,8,0:0:0:0:
256,192,118783,1,0,0:0:0:0:
256,192,118883,1,8,0:0:0:0:
256,192,118983,1,0,0:0:0:0:
256,192,119083,1,0,0:0:0:0:
256,192,119183,1,8,0:0:0:0:
256,192,119383,1,0,0:0:0:0:
256,192,119583,1,8,0:0:0:0:
256,192,119683,1,8,0:0:0:0:
256,192,119783,1,0,0:0:0:0:
256,192,119883,1,0,0:0:0:0:
256,192,119983,1,8,0:0:0:0:
256,192,120183,1,8,0:0:0:0:
256,192,120283,1,0,0:0:0:0:
256,192,120383,1,0,0:0:0:0:
256,192,120583,1,8,0:0:0:0:
256,192,120683,1,0,0:0:0:0:
256,192,120783,1,8,0:0:0:0:
256,192,120983,1,8,0:0:0:0:
256,192,121183,1,0,0:0:0:0:
256,192,121283,1,0,0:0:0:0:
256,192,121383,1,8,0:0:0:0:
256,192,121483,1,0,0:0:0:0:
256,192,121583,1,8,0:0:0:0:
256,192,121783,1,0,0:0:0:0:
256,192,121883,1,0,0:0:0:0:
256,192,121983,1,12,0:0:0:0:
256,192,122183,1,0,0:0:0:0:
256,192,122283,1,12,0:0:0:0:
256,192,122483,1,0,0:0:0:0:
256,192,122583,1,12,0:0:0:0:
256,192,122783,1,8,0:0:0:0:
256,192,122883,1,0,0:0:0:0:
256,192,122933,1,0,0:0:0:0:
256,192,122983,1,8,0:0:0:0:
256,192,123083,1,8,0:0:0:0:
256,192,123183,1,4,0:0:0:0:
256,192,123583,1,0,0:0:0:0:
256,192,123683,1,8,0:0:0:0:
256,192,123783,1,0,0:0:0:0:
256,192,123883,1,0,0:0:0:0:
256,192,123983,1,8,0:0:0:0:
256,192,124083,1,8,0:0:0:0:
256,192,124183,1,0,0:0:0:0:
256,192,124283,1,0,0:0:0:0:
256,192,124383,1,8,0:0:0:0:
256,192,124483,1,0,0:0:0:0:
256,192,124583,1,8,0:0:0:0:
256,192,124683,1,0,0:0:0:0:
256,192,124783,1,8,0:0:0:0:
256,192,124883,1,0,0:0:0:0:
256,192,124983,1,8,0:0:0:0:
256,192,125083,1,8,0:0:0:0:
256,192,125183,1,0,0:0:0:0:
256,192,125283,1,0,0:0:0:0:
256,192,125383,1,0,0:0:0:0:
256,192,125483,1,0,0:0:0:0:
256,192,125583,1,8,0:0:0:0:
256,192,125683,1,0,0:0:0:0:
256,192,125783,1,8,0:0:0:0:
256,192,125883,1,8,0:0:0:0:
256,192,125983,1,0,0:0:0:0:
256,192,126083,1,0,0:0:0:0:
256,192,126183,1,0,0:0:0:0:
256,192,126283,1,0,0:0:0:0:
256,192,126383,1,8,0:0:0:0:
256,192,126483,1,8,0:0:0:0:
256,192,126583,1,0,0:0:0:0:
256,192,126683,1,0,0:0:0:0:
256,192,126783,1,8,0:0:0:0:
256,192,126849,1,8,0:0:0:0:
256,192,126916,1,8,0:0:0:0:
256,192,126983,1,0,0:0:0:0:
256,192,127083,1,0,0:0:0:0:
256,192,127183,1,8,0:0:0:0:
256,192,127249,1,0,0:0:0:0:
256,192,127316,1,0,0:0:0:0:
256,192,127383,1,8,0:0:0:0:
256,192,127483,1,8,0:0:0:0:
256,192,127583,1,0,0:0:0:0:
256,192,127649,1,0,0:0:0:0:
256,192,127716,1,0,0:0:0:0:
256,192,127783,1,8,0:0:0:0:
256,192,127883,1,8,0:0:0:0:
256,192,127983,1,0,0:0:0:0:
256,192,128049,1,0,0:0:0:0:
256,192,128116,1,0,0:0:0:0:
256,192,128183,1,8,0:0:0:0:
256,192,128249,1,8,0:0:0:0:
256,192,128316,1,8,0:0:0:0:
256,192,128383,1,0,0:0:0:0:
256,192,129583,1,0,0:0:0:0:
256,192,129783,1,8,0:0:0:0:
256,192,129983,1,4,0:0:0:0:
256,192,130183,1,8,0:0:0:0:
256,192,130283,1,0,0:0:0:0:
256,192,130483,1,8,0:0:0:0:
256,192,130583,1,0,0:0:0:0:
256,192,130783,1,8,0:0:0:0:
256,192,130883,1,8,0:0:0:0:
256,192,130983,1,0,0:0:0:0:
256,192,131083,1,0,0:0:0:0:
256,192,131183,1,8,0:0:0:0:
256,192,131383,1,0,0:0:0:0:
256,192,131583,1,8,0:0:0:0:
256,192,131783,1,0,0:0:0:0:
256,192,131883,1,8,0:0:0:0:
256,192,132083,1,8,0:0:0:0:
256,192,132183,1,0,0:0:0:0:
256,192,132383,1,8,0:0:0:0:
256,192,132583,1,0,0:0:0:0:
256,192,132683,1,0,0:0:0:0:
256,192,132783,1,8,0:0:0:0:
256,192,132883,1,0,0:0:0:0:
256,192,132983,1,8,0:0:0:0:
256,192,133083,1,8,0:0:0:0:
256,192,133183,1,0,0:0:0:0:
256,192,133383,1,8,0:0:0:0:
256,192,133483,1,0,0:0:0:0:
256,192,133683,1,8,0:0:0:0:
256,192,133783,1,0,0:0:0:0:
256,192,133983,1,8,0:0:0:0:
256,192,134083,1,0,0:0:0:0:
256,192,134183,1,8,0:0:0:0:
256,192,134283,1,8,0:0:0:0:
256,192,134383,1,0,0:0:0:0:
256,192,134583,1,0,0:0:0:0:
256,192,134783,1,8,0:0:0:0:
256,192,134983,1,0,0:0:0:0:
256,192,135083,1,8,0:0:0:0:
256,192,135283,1,8,0:0:0:0:
256,192,135383,1,0,0:0:0:0:
256,192,135583,1,0,0:0:0:0:
256,192,135683,1,8,0:0:0:0:
256,192,135733,1,8,0:0:0:0:
256,192,135783,1,0,0:0:0:0:
256,192,135883,1,8,0:0:0:0:
256,192,135983,1,0,0:0:0:0:
256,192,136183,1,8,0:0:0:0:
256,192,136283,1,8,0:0:0:0:
256,192,136383,1,0,0:0:0:0:
256,192,136583,1,8,0:0:0:0:
256,192,136683,1,0,0:0:0:0:
256,192,136883,1,8,0:0:0:0:
256,192,136983,1,0,0:0:0:0:
256,192,137083,1,8,0:0:0:0:
256,192,137183,1,0,0:0:0:0:
256,192,137283,1,0,0:0:0:0:
256,192,137383,1,8,0:0:0:0:
256,192,137483,1,0,0:0:0:0:
256,192,137583,1,8,0:0:0:0:
256,192,137783,1,0,0:0:0:0:
256,192,137983,1,8,0:0:0:0:
256,192,138183,1,0,0:0:0:0:
256,192,138283,1,8,0:0:0:0:
256,192,138483,1,8,0:0:0:0:
256,192,138583,1,0,0:0:0:0:
256,192,138683,1,0,0:0:0:0:
256,192,138783,1,8,0:0:0:0:
256,192,138983,1,0,0:0:0:0:
256,192,139083,1,0,0:0:0:0:
256,192,139183,1,8,0:0:0:0:
256,192,139283,1,0,0:0:0:0:
256,192,139383,1,8,0:0:0:0:
256,192,139433,1,8,0:0:0:0:
256,192,139483,1,8,0:0:0:0:
256,192,139583,1,0,0:0:0:0:
256,192,139783,1,8,0:0:0:0:
256,192,139883,1,0,0:0:0:0:
256,192,139983,1,8,0:0:0:0:
256,192,140083,1,8,0:0:0:0:
256,192,140183,1,0,0:0:0:0:
256,192,140249,1,0,0:0:0:0:
256,192,140316,1,0,0:0:0:0:
256,192,140383,1,8,0:0:0:0:
256,192,140583,1,8,0:0:0:0:
256,192,140783,1,0,0:0:0:0:
256,192,140883,1,0,0:0:0:0:
256,192,140983,1,8,0:0:0:0:
256,192,141183,1,4,0:0:0:0:
256,192,141383,1,8,0:0:0:0:
256,192,141483,1,8,0:0:0:0:
256,192,141783,1,4,0:0:0:0:
256,192,141983,1,8,0:0:0:0:
256,192,142083,1,8,0:0:0:0:
256,192,142383,1,0,0:0:0:0:
256,192,142483,1,8,0:0:0:0:
256,192,142583,1,0,0:0:0:0:
256,192,142683,1,0,0:0:0:0:
256,192,142783,1,12,0:0:0:0:
256,192,142983,1,0,0:0:0:0:
256,192,143083,1,8,0:0:0:0:
256,192,143283,1,8,0:0:0:0:
256,192,143383,1,0,0:0:0:0:
256,192,143583,1,8,0:0:0:0:
256,192,143683,1,8,0:0:0:0:
256,192,143783,1,0,0:0:0:0:
256,192,143883,1,0,0:0:0:0:
256,192,143983,1,8,0:0:0:0:
256,192,144183,1,0,0:0:0:0:
256,192,144383,1,8,0:0:0:0:
256,192,144583,1,0,0:0:0:0:
256,192,144683,1,8,0:0:0:0:
256,192,144883,1,8,0:0:0:0:
256,192,144983,1,0,0:0:0:0:
256,192,145183,1,8,0:0:0:0:
256,192,145283,1,0,0:0:0:0:
256,192,145383,1,0,0:0:0:0:
256,192,145483,1,0,0:0:0:0:
256,192,145583,1,8,0:0:0:0:
256,192,145683,1,0,0:0:0:0:
256,192,145783,1,8,0:0:0:0:
256,192,145883,1,8,0:0:0:0:
256,192,145983,1,0,0:0:0:0:
256,192,146183,1,0,0:0:0:0:
256,192,146283,1,8,0:0:0:0:
256,192,146483,1,8,0:0:0:0:
256,192,146583,1,0,0:0:0:0:
256,192,146783,1,8,0:0:0:0:
256,192,146883,1,8,0:0:0:0:
256,192,146983,1,0,0:0:0:0:
256,192,147083,1,8,0:0:0:0:
256,192,147183,1,0,0:0:0:0:
256,192,147383,1,0,0:0:0:0:
256,192,147583,1,8,0:0:0:0:
256,192,147716,1,0,0:0:0:0:
256,192,147849,1,0,0:0:0:0:
256,192,147983,1,8,0:0:0:0:
256,192,148116,1,0,0:0:0:0:
256,192,148249,1,0,0:0:0:0:
256,192,148383,1,8,0:0:0:0:
256,192,148516,1,8,0:0:0:0:
256,192,148649,1,8,0:0:0:0:
256,192,148783,1,0,0:0:0:0:
256,192,149183,1,12,0:0:0:0:
256,192,149383,1,0,0:0:0:0:
256,192,149483,1,0,0:0:0:0:
256,192,149583,1,8,0:0:0:0:
256,192,149783,1,8,0:0:0:0:
256,192,149983,1,0,0:0:0:0:
256,192,150183,1,8,0:0:0:0:
256,192,150283,1,0,0:0:0:0:
256,192,150383,1,8,0:0:0:0:
256,192,150483,1,0,0:0:0:0:
256,192,150583,1,8,0:0:0:0:
256,192,150683,1,8,0:0:0:0:
256,192,150783,1,0,0:0:0:0:
256,192,150983,1,0,0:0:0:0:
256,192,151083,1,0,0:0:0:0:
256,192,151183,1,8,0:0:0:0:
256,192,151383,1,8,0:0:0:0:
256,192,151583,1,0,0:0:0:0:
256,192,151683,1,8,0:0:0:0:
256,192,151783,1,0,0:0:0:0:
256,192,151849,1,0,0:0:0:0:
256,192,151916,1,0,0:0:0:0:
256,192,151983,1,8,0:0:0:0:
256,192,152183,1,0,0:0:0:0:
256,192,152383,1,8,0:0:0:0:
256,192,152483,1,0,0:0:0:0:
256,192,152583,1,0,0:0:0:0:
256,192,152683,1,0,0:0:0:0:
256,192,152783,1,8,0:0:0:0:
256,192,152883,1,8,0:0:0:0:
256,192,152983,1,0,0:0:0:0:
256,192,153083,1,0,0:0:0:0:
256,192,153183,1,8,0:0:0:0:
256,192,153316,1,0,0:0:0:0:
256,192,153449,1,0,0:0:0:0:
256,192,153583,1,8,0:0:0:0:
256,192,153716,1,8,0:0:0:0:
256,192,153849,1,8,0:0:0:0:
256,192,153983,1,0,0:0:0:0:
256,192,155583,1,12,0:0:0:0:
256,192,155783,1,0,0:0:0:0:
256,192,155883,1,0,0:0:0:0:
256,192,155983,1,8,0:0:0:0:
256,192,156183,1,0,0:0:0:0:
256,192,156383,1,8,0:0:0:0:
256,192,156483,1,0,0:0:0:0:
256,192,156583,1,8,0:0:0:0:
256,192,156683,1,8,0:0:0:0:
256,192,156783,1,0,0:0:0:0:
256,192,156983,1,8,0:0:0:0:
256,192,157083,1,0,0:0:0:0:
256,192,157183,1,0,0:0:0:0:
256,192,157383,1,0,0:0:0:0:
256,192,157483,1,0,0:0:0:0:
256,192,157583,1,8,0:0:0:0:
256,192,157783,1,8,0:0:0:0:
256,192,157983,1,0,0:0:0:0:
256,192,158083,1,8,0:0:0:0:
256,192,158183,1,0,0:0:0:0:
256,192,158283,1,0,0:0:0:0:
256,192,158383,1,8,0:0:0:0:
256,192,158583,1,8,0:0:0:0:
256,192,158783,1,0,0:0:0:0:
256,192,158983,1,0,0:0:0:0:
256,192,159083,1,0,0:0:0:0:
256,192,159183,1,8,0:0:0:0:
256,192,159383,1,8,0:0:0:0:
256,192,159583,1,0,0:0:0:0:
256,192,159683,1,0,0:0:0:0:
256,192,159783,1,8,0:0:0:0:
256,192,159883,1,0,0:0:0:0:
256,192,159983,1,8,0:0:0:0:
256,192,160183,1,0,0:0:0:0:
256,192,160283,1,8,0:0:0:0:
256,192,160383,1,0,0:0:0:0:
256,192,160483,1,8,0:0:0:0:
256,192,160583,1,8,0:0:0:0:
256,192,160683,1,0,0:0:0:0:
256,192,160783,1,8,0:0:0:0:
256,192,160983,1,0,0:0:0:0:
256,192,161083,1,0,0:0:0:0:
256,192,161183,1,8,0:0:0:0:
256,192,161283,1,0,0:0:0:0:
256,192,161333,1,0,0:0:0:0:
256,192,161383,1,8,0:0:0:0:
256,192,161483,1,0,0:0:0:0:
256,192,161583,1,8,0:0:0:0:
256,192,161983,1,0,0:0:0:0:
256,192,162183,1,8,0:0:0:0:
256,192,162283,1,0,0:0:0:0:
256,192,162383,1,8,0:0:0:0:
256,192,162583,1,0,0:0:0:0:
256,192,162783,1,8,0:0:0:0:
256,192,162883,1,8,0:0:0:0:
256,192,162983,1,0,0:0:0:0:
256,192,163083,1,0,0:0:0:0:
256,192,163183,1,8,0:0:0:0:
256,192,163383,1,0,0:0:0:0:
256,192,163483,1,8,0:0:0:0:
256,192,163583,1,0,0:0:0:0:
256,192,163783,1,0,0:0:0:0:
256,192,163883,1,0,0:0:0:0:
256,192,163983,1,8,0:0:0:0:
256,192,164183,1,8,0:0:0:0:
256,192,164383,1,0,0:0:0:0:
256,192,164483,1,0,0:0:0:0:
256,192,164583,1,8,0:0:0:0:
256,192,164683,1,0,0:0:0:0:
256,192,164783,1,8,0:0:0:0:
256,192,164983,1,8,0:0:0:0:
256,192,165183,1,0,0:0:0:0:
256,192,165383,1,0,0:0:0:0:
256,192,165483,1,0,0:0:0:0:
256,192,165583,1,8,0:0:0:0:
256,192,165783,1,8,0:0:0:0:
256,192,165983,1,0,0:0:0:0:
256,192,166083,1,8,0:0:0:0:
256,192,166183,1,0,0:0:0:0:
256,192,166283,1,0,0:0:0:0:
256,192,166383,1,8,0:0:0:0:
256,192,166583,1,0,0:0:0:0:
256,192,166683,1,8,0:0:0:0:
256,192,166783,1,0,0:0:0:0:
256,192,166883,1,8,0:0:0:0:
256,192,166983,1,8,0:0:0:0:
256,192,167083,1,0,0:0:0:0:
256,192,167183,1,8,0:0:0:0:
256,192,167383,1,0,0:0:0:0:
256,192,167483,1,8,0:0:0:0:
256,192,167583,1,8,0:0:0:0:
256,192,167683,1,0,0:0:0:0:
256,192,167733,1,0,0:0:0:0:
256,192,167783,1,8,0:0:0:0:
256,192,167883,1,0,0:0:0:0:
256,192,167983,1,8,0:0:0:0:
256,192,168383,1,4,0:0:0:0:
256,192,168583,1,0,0:0:0:0:
256,192,168683,1,0,0:0:0:0:
256,192,168783,1,8,0:0:0:0:
256,192,168983,1,0,0:0:0:0:
256,192,169183,1,8,0:0:0:0:
256,192,169383,1,0,0:0:0:0:
256,192,169483,1,0,0:0:0:0:
256,192,169583,1,8,0:0:0:0:
256,192,169783,1,0,0:0:0:0:
256,192,169983,1,8,0:0:0:0:
256,192,170183,1,0,0:0:0:0:
256,192,170283,1,0,0:0:0:0:
256,192,170383,1,8,0:0:0:0:
256,192,170583,1,0,0:0:0:0:
256,192,170783,1,8,0:0:0:0:
256,192,170983,1,0,0:0:0:0:
256,192,171083,1,0,0:0:0:0:
256,192,171183,1,8,0:0:0:0:
256,192,171383,1,0,0:0:0:0:
256,192,171583,1,8,0:0:0:0:
256,192,171783,1,0,0:0:0:0:
256,192,171883,1,0,0:0:0:0:
256,192,171983,1,8,0:0:0:0:
256,192,172183,1,0,0:0:0:0:
256,192,172383,1,8,0:0:0:0:
256,192,172583,1,0,0:0:0:0:
256,192,172683,1,0,0:0:0:0:
256,192,172783,1,8,0:0:0:0:
256,192,172983,1,0,0:0:0:0:
256,192,173183,1,8,0:0:0:0:
256,192,173383,1,0,0:0:0:0:
256,192,173483,1,0,0:0:0:0:
256,192,173583,1,8,0:0:0:0:
256,192,173783,1,0,0:0:0:0:
256,192,173983,1,8,0:0:0:0:
256,192,174183,1,0,0:0:0:0:
256,192,174283,1,0,0:0:0:0:
256,192,174383,1,8,0:0:0:0:
256,192,174583,1,8,0:0:0:0:
256,192,174783,1,0,0:0:0:0:
256,192,175083,1,8,0:0:0:0:
256,192,175183,1,0,0:0:0:0:
256,192,175383,1,8,0:0:0:0:
256,192,175583,1,0,0:0:0:0:
256,192,175683,1,0,0:0:0:0:
256,192,175883,1,8,0:0:0:0:
256,192,175983,1,0,0:0:0:0:
256,192,176183,1,8,0:0:0:0:
256,192,176383,1,0,0:0:0:0:
256,192,176683,1,8,0:0:0:0:
256,192,176783,1,0,0:0:0:0:
256,192,176983,1,8,0:0:0:0:
256,192,177183,1,0,0:0:0:0:
256,192,177283,1,0,0:0:0:0:
256,192,177483,1,8,0:0:0:0:
256,192,177583,1,0,0:0:0:0:
256,192,177783,1,8,0:0:0:0:
256,192,177983,1,0,0:0:0:0:
256,192,178283,1,8,0:0:0:0:
256,192,178383,1,0,0:0:0:0:
256,192,178583,1,8,0:0:0:0:
256,192,178783,1,0,0:0:0:0:
256,192,178883,1,0,0:0:0:0:
256,192,179083,1,8,0:0:0:0:
256,192,179183,1,0,0:0:0:0:
256,192,179383,1,8,0:0:0:0:
256,192,179583,1,0,0:0:0:0:
256,192,179783,8,0,180783,0:0:0:0:
256,192,181183,5,4,0:0:0:0:
256,192,182783,1,0,0:0:0:0:
256,192,183583,1,8,0:0:0:0:
256,192,184383,1,8,0:0:0:0:
256,192,185183,1,0,0:0:0:0:
256,192,185983,1,8,0:0:0:0:
256,192,186783,1,8,0:0:0:0:
256,192,187583,1,8,0:0:0:0:
256,192,188383,1,0,0:0:0:0:
256,192,189183,1,8,0:0:0:0:
256,192,189983,1,0,0:0:0:0:
256,192,190783,1,8,0:0:0:0:
256,192,191583,1,0,0:0:0:0:
256,192,192383,1,8,0:0:0:0:
256,192,193983,1,8,0:0:0:0:
256,192,194783,1,0,0:0:0:0:
256,192,195583,1,0,0:0:0:0:
256,192,196383,1,8,0:0:0:0:
256,192,197183,1,0,0:0:0:0:
256,192,197983,1,0,0:0:0:0:
256,192,198783,1,0,0:0:0:0:
256,192,199583,1,8,0:0:0:0:
256,192,200383,1,8,0:0:0:0:
256,192,201183,1,0,0:0:0:0:
256,192,201583,1,0,0:0:0:0:
256,192,201983,1,8,0:0:0:0:
256,192,202783,1,0,0:0:0:0:
256,192,203183,1,0,0:0:0:0:
256,192,203583,1,8,0:0:0:0:
256,192,204383,1,0,0:0:0:0:
256,192,204783,1,0,0:0:0:0:
256,192,205183,1,8,0:0:0:0:
256,192,205983,1,0,0:0:0:0:
256,192,206383,1,8,0:0:0:0:
256,192,206783,1,4,0:0:0:0:
256,192,206983,1,0,0:0:0:0:
256,192,207183,1,8,0:0:0:0:
256,192,207583,1,8,0:0:0:0:
256,192,207783,1,0,0:0:0:0:
256,192,207883,1,0,0:0:0:0:
256,192,207983,1,0,0:0:0:0:
256,192,208383,1,0,0:0:0:0:
256,192,208783,1,0,0:0:0:0:
256,192,208983,1,8,0:0:0:0:
256,192,209083,1,8,0:0:0:0:
256,192,209183,1,0,0:0:0:0:
256,192,209383,1,8,0:0:0:0:
256,192,209783,1,0,0:0:0:0:
256,192,210083,1,8,0:0:0:0:
256,192,210183,1,0,0:0:0:0:
256,192,210383,1,8,0:0:0:0:
256,192,210583,1,0,0:0:0:0:
256,192,210683,1,0,0:0:0:0:
256,192,210783,1,8,0:0:0:0:
256,192,210983,1,0,0:0:0:0:
256,192,211383,1,8,0:0:0:0:
256,192,211483,1,8,0:0:0:0:
256,192,211583,1,0,0:0:0:0:
256,192,211783,1,0,0:0:0:0:
256,192,211983,1,8,0:0:0:0:
256,192,212283,1,8,0:0:0:0:
256,192,212383,1,0,0:0:0:0:
256,192,212783,1,8,0:0:0:0:
256,192,212983,1,0,0:0:0:0:
256,192,213583,1,8,0:0:0:0:
256,192,213683,1,8,0:0:0:0:
256,192,213783,1,0,0:0:0:0:
256,192,213983,1,8,0:0:0:0:
256,192,214183,1,0,0:0:0:0:
256,192,214383,1,8,0:0:0:0:
256,192,214583,1,0,0:0:0:0:
256,192,214683,1,0,0:0:0:0:
256,192,214783,1,8,0:0:0:0:
256,192,214983,1,0,0:0:0:0:
256,192,215383,1,8,0:0:0:0:
256,192,215983,1,8,0:0:0:0:
256,192,216383,1,8,0:0:0:0:
256,192,216583,1,0,0:0:0:0:
256,192,216783,1,0,0:0:0:0:
256,192,216983,1,8,0:0:0:0:
256,192,217383,1,0,0:0:0:0:
256,192,217783,1,8,0:0:0:0:
256,192,218183,1,0,0:0:0:0:
256,192,218383,1,8,0:0:0:0:
256,192,219183,1,0,0:0:0:0:
256,192,219383,1,0,0:0:0:0:
256,192,219483,1,0,0:0:0:0:
256,192,219583,1,8,0:0:0:0:
256,192,219783,1,0,0:0:0:0:
256,192,219983,1,8,0:0:0:0:
256,192,220383,1,8,0:0:0:0:
256,192,220583,1,0,0:0:0:0:
256,192,220683,1,0,0:0:0:0:
256,192,220783,1,0,0:0:0:0:
256,192,221183,1,0,0:0:0:0:
256,192,221583,1,0,0:0:0:0:
256,192,221783,1,8,0:0:0:0:
256,192,221883,1,8,0:0:0:0:
256,192,221983,1,0,0:0:0:0:
256,192,222183,1,8,0:0:0:0:
256,192,222583,1,0,0:0:0:0:
256,192,222883,1,8,0:0:0:0:
256,192,222983,1,0,0:0:0:0:
256,192,223183,1,8,0:0:0:0:
256,192,223383,1,0,0:0:0:0:
256,192,223483,1,0,0:0:0:0:
256,192,223583,1,8,0:0:0:0:
256,192,223783,1,0,0:0:0:0:
256,192,224183,1,8,0:0:0:0:
256,192,224283,1,8,0:0:0:0:
256,192,224383,1,0,0:0:0:0:
256,192,224583,1,0,0:0:0:0:
256,192,224783,1,8,0:0:0:0:
256,192,225083,1,8,0:0:0:0:
256,192,225183,1,0,0:0:0:0:
256,192,225583,1,8,0:0:0:0:
256,192,225783,1,0,0:0:0:0:
256,192,226383,1,8,0:0:0:0:
256,192,226483,1,8,0:0:0:0:
256,192,226583,1,0,0:0:0:0:
256,192,226783,1,8,0:0:0:0:
256,192,226983,1,0,0:0:0:0:
256,192,227383,1,0,0:0:0:0:
256,192,227483,1,0,0:0:0:0:
256,192,227583,1,8,0:0:0:0:
256,192,227783,1,0,0:0:0:0:
256,192,228183,1,8,0:0:0:0:
256,192,228583,1,0,0:0:0:0:
256,192,228683,1,0,0:0:0:0:
256,192,228783,1,8,0:0:0:0:
256,192,228983,1,0,0:0:0:0:
256,192,229183,1,8,0:0:0:0:
256,192,229383,1,0,0:0:0:0:
256,192,229483,1,8,0:0:0:0:
256,192,229583,1,0,0:0:0:0:
256,192,229783,1,8,0:0:0:0:
256,192,230383,1,0,0:0:0:0:
256,192,230583,1,8,0:0:0:0:
256,192,230983,1,0,0:0:0:0:
256,192,231383,1,8,0:0:0:0:
256,192,231783,1,0,0:0:0:0:
256,192,232183,1,8,0:0:0:0:
256,192,232383,1,0,0:0:0:0:
256,192,232583,8,0,237183,0:0:0:0:
256,192,237883,5,8,0:0:0:0:
256,192,237983,1,0,0:0:0:0:
256,192,238183,1,8,0:0:0:0:
256,192,238283,1,8,0:0:0:0:
256,192,238383,1,0,0:0:0:0:
256,192,238583,1,8,0:0:0:0:
256,192,238783,1,0,0:0:0:0:
256,192,239083,1,0,0:0:0:0:
256,192,239183,1,8,0:0:0:0:
256,192,239483,1,8,0:0:0:0:
256,192,239583,1,0,0:0:0:0:
256,192,239783,1,8,0:0:0:0:
256,192,239883,1,8,0:0:0:0:
256,192,239983,1,0,0:0:0:0:
256,192,240183,1,0,0:0:0:0:
256,192,240383,1,8,0:0:0:0:
256,192,240683,1,0,0:0:0:0:
256,192,240783,1,8,0:0:0:0:
256,192,240983,1,8,0:0:0:0:
256,192,241083,1,8,0:0:0:0:
256,192,241183,1,0,0:0:0:0:
256,192,241483,1,8,0:0:0:0:
256,192,241583,1,0,0:0:0:0:
256,192,241783,1,0,0:0:0:0:
256,192,241983,1,8,0:0:0:0:
256,192,242183,1,8,0:0:0:0:
256,192,242283,1,8,0:0:0:0:
256,192,242383,1,0,0:0:0:0:
256,192,242583,1,0,0:0:0:0:
256,192,242783,1,8,0:0:0:0:
256,192,242983,1,0,0:0:0:0:
256,192,243083,1,0,0:0:0:0:
256,192,243183,1,8,0:0:0:0:
256,192,243383,1,8,0:0:0:0:
256,192,243583,1,4,0:0:0:0:
256,192,243983,1,8,0:0:0:0:
256,192,244083,1,0,0:0:0:0:
256,192,244283,1,0,0:0:0:0:
256,192,244483,1,8,0:0:0:0:
256,192,244583,1,0,0:0:0:0:
256,192,244783,1,8,0:0:0:0:
256,192,245183,1,12,0:0:0:0:
256,192,245383,1,0,0:0:0:0:
256,192,245483,1,0,0:0:0:0:
256,192,245583,1,8,0:0:0:0:
256,192,245783,1,0,0:0:0:0:
256,192,245983,1,8,0:0:0:0:
256,192,246083,1,8,0:0:0:0:
256,192,246183,1,0,0:0:0:0:
256,192,246283,1,0,0:0:0:0:
256,192,246383,1,8,0:0:0:0:
256,192,246583,1,0,0:0:0:0:
256,192,246683,1,8,0:0:0:0:
256,192,246783,1,0,0:0:0:0:
256,192,246983,1,0,0:0:0:0:
256,192,247083,1,0,0:0:0:0:
256,192,247183,1,8,0:0:0:0:
256,192,247383,1,0,0:0:0:0:
256,192,247483,1,0,0:0:0:0:
256,192,247583,1,8,0:0:0:0:
256,192,247683,1,8,0:0:0:0:
256,192,247783,1,0,0:0:0:0:
256,192,247883,1,0,0:0:0:0:
256,192,247983,1,8,0:0:0:0:
256,192,248183,1,0,0:0:0:0:
256,192,248283,1,0,0:0:0:0:
256,192,248383,1,8,0:0:0:0:
256,192,248583,1,0,0:0:0:0:
256,192,248683,1,8,0:0:0:0:
256,192,248783,1,8,0:0:0:0:
256,192,248883,1,8,0:0:0:0:
256,192,248983,1,0,0:0:0:0:
256,192,249183,1,8,0:0:0:0:
256,192,249283,1,8,0:0:0:0:
256,192,249383,1,0,0:0:0:0:
256,192,249483,1,0,0:0:0:0:
256,192,249583,1,8,0:0:0:0:
256,192,249783,1,0,0:0:0:0:
256,192,249883,1,8,0:0:0:0:
256,192,249983,1,0,0:0:0:0:
256,192,250183,1,8,0:0:0:0:
256,192,250283,1,8,0:0:0:0:
256,192,250383,1,0,0:0:0:0:
256,192,250483,1,8,0:0:0:0:
256,192,250583,1,0,0:0:0:0:
256,192,250683,1,0,0:0:0:0:
256,192,250783,1,8,0:0:0:0:
256,192,250983,1,0,0:0:0:0:
256,192,251083,1,0,0:0:0:0:
256,192,251383,1,8,0:0:0:0:
256,192,251583,1,4,0:0:0:0:
256,192,251783,1,8,0:0:0:0:
256,192,251883,1,8,0:0:0:0:
256,192,251983,1,0,0:0:0:0:
256,192,252183,1,8,0:0:0:0:
256,192,252283,1,0,0:0:0:0:
256,192,252383,1,8,0:0:0:0:
256,192,252483,1,0,0:0:0:0:
256,192,252583,1,8,0:0:0:0:
256,192,252683,1,8,0:0:0:0:
256,192,252783,1,0,0:0:0:0:
256,192,252983,1,8,0:0:0:0:
256,192,253083,1,8,0:0:0:0:
256,192,253183,1,0,0:0:0:0:
256,192,253383,1,8,0:0:0:0:
256,192,253483,1,0,0:0:0:0:
256,192,253583,1,8,0:0:0:0:
256,192,253683,1,8,0:0:0:0:
256,192,253783,1,0,0:0:0:0:
256,192,253883,1,0,0:0:0:0:
256,192,253983,1,8,0:0:0:0:
256,192,254083,1,8,0:0:0:0:
256,192,254183,1,0,0:0:0:0:
256,192,254283,1,8,0:0:0:0:
256,192,254383,1,0,0:0:0:0:
256,192,254583,1,0,0:0:0:0:
256,192,254783,1,8,0:0:0:0:
256,192,254883,1,0,0:0:0:0:
256,192,254983,1,0,0:0:0:0:
256,192,255083,1,0,0:0:0:0:
256,192,255183,1,8,0:0:0:0:
256,192,255383,1,0,0:0:0:0:
256,192,255483,1,0,0:0:0:0:
256,192,255583,1,8,0:0:0:0:
256,192,255783,1,0,0:0:0:0:
256,192,255983,1,8,0:0:0:0:
256,192,256083,1,8,0:0:0:0:
256,192,256183,1,0,0:0:0:0:
256,192,256283,1,0,0:0:0:0:
256,192,256383,1,8,0:0:0:0:
256,192,256583,1,0,0:0:0:0:
256,192,256683,1,0,0:0:0:0:
256,192,256783,1,8,0:0:0:0:
256,192,256983,1,0,0:0:0:0:
256,192,257183,1,8,0:0:0:0:
256,192,257483,1,8,0:0:0:0:
256,192,257783,1,8,0:0:0:0:
256,192,257983,1,0,0:0:0:0:
256,192,258049,1,0,0:0:0:0:
256,192,258116,1,0,0:0:0:0:
256,192,258183,1,8,0:0:0:0:
256,192,258283,1,8,0:0:0:0:
256,192,258383,1,0,0:0:0:0:
256,192,258449,1,0,0:0:0:0:
256,192,258516,1,0,0:0:0:0:
256,192,258583,1,8,0:0:0:0:
256,192,258683,1,8,0:0:0:0:
256,192,258783,1,0,0:0:0:0:
256,192,258849,1,0,0:0:0:0:
256,192,258916,1,0,0:0:0:0:
256,192,258983,1,8,0:0:0:0:
256,192,259083,1,8,0:0:0:0:
256,192,259183,1,0,0:0:0:0:
256,192,259583,1,8,0:0:0:0:
256,192,259649,1,8,0:0:0:0:
256,192,259716,1,8,0:0:0:0:
256,192,259783,1,0,0:0:0:0:
256,192,259883,1,0,0:0:0:0:
256,192,259983,1,8,0:0:0:0:
256,192,260049,1,8,0:0:0:0:
256,192,260116,1,8,0:0:0:0:
256,192,260183,1,0,0:0:0:0:
256,192,260283,1,0,0:0:0:0:
256,192,260383,1,8,0:0:0:0:
256,192,260449,1,8,0:0:0:0:
256,192,260516,1,8,0:0:0:0:
256,192,260583,1,0,0:0:0:0:
256,192,260683,1,0,0:0:0:0:
256,192,260783,1,8,0:0:0:0:
256,192,261183,1,0,0:0:0:0:
256,192,261249,1,0,0:0:0:0:
256,192,261316,1,0,0:0:0:0:
256,192,261383,1,8,0:0:0:0:
256,192,261483,1,8,0:0:0:0:
256,192,261583,1,0,0:0:0:0:
256,192,261649,1,8,0:0:0:0:
256,192,261716,1,8,0:0:0:0:
256,192,261783,1,0,0:0:0:0:
256,192,261883,1,0,0:0:0:0:
256,192,261983,1,8,0:0:0:0:
256,192,262049,1,8,0:0:0:0:
256,192,262116,1,8,0:0:0:0:
256,192,262183,1,0,0:0:0:0:
256,192,262283,1,0,0:0:0:0:
256,192,262383,1,8,0:0:0:0:
256,192,262783,1,8,0:0:0:0:
256,192,262849,1,8,0:0:0:0:
256,192,262916,1,8,0:0:0:0:
256,192,262983,1,0,0:0:0:0:
256,192,263083,1,0,0:0:0:0:
256,192,263183,1,8,0:0:0:0:
256,192,263249,1,0,0:0:0:0:
256,192,263316,1,0,0:0:0:0:
256,192,263383,1,8,0:0:0:0:
256,192,263483,1,8,0:0:0:0:
256,192,263583,1,0,0:0:0:0:
256,192,263649,1,0,0:0:0:0:
256,192,263716,1,0,0:0:0:0:
256,192,263783,1,8,0:0:0:0:
256,192,263883,1,8,0:0:0:0:
256,192,263983,1,0,0:0:0:0:
256,192,264383,1,8,0:0:0:0:
256,192,264449,1,0,0:0:0:0:
256,192,264516,1,0,0:0:0:0:
256,192,264583,1,8,0:0:0:0:
256,192,264683,1,8,0:0:0:0:
256,192,264783,1,0,0:0:0:0:
256,192,264883,1,0,0:0:0:0:
256,192,264983,1,8,0:0:0:0:
256,192,265083,1,8,0:0:0:0:
256,192,265183,1,0,0:0:0:0:
256,192,265249,1,0,0:0:0:0:
256,192,265316,1,0,0:0:0:0:
256,192,265383,1,8,0:0:0:0:
256,192,265449,1,8,0:0:0:0:
256,192,265516,1,8,0:0:0:0:
256,192,265583,1,0,0:0:0:0:
256,192,265683,1,0,0:0:0:0:
256,192,265783,1,8,0:0:0:0:
256,192,265883,1,8,0:0:0:0:
256,192,265983,1,0,0:0:0:0:
256,192,266049,1,8,0:0:0:0:
256,192,266116,1,8,0:0:0:0:
256,192,266183,1,0,0:0:0:0:
256,192,266283,1,0,0:0:0:0:
256,192,266383,1,8,0:0:0:0:
256,192,266483,1,8,0:0:0:0:
256,192,266583,1,0,0:0:0:0:
256,192,266683,1,0,0:0:0:0:
256,192,266783,1,8,0:0:0:0:
256,192,266849,1,8,0:0:0:0:
256,192,266916,1,8,0:0:0:0:
256,192,266983,1,0,0:0:0:0:
256,192,267049,1,0,0:0:0:0:
256,192,267116,1,0,0:0:0:0:
256,192,267183,1,8,0:0:0:0:
256,192,267283,1,8,0:0:0:0:
256,192,267383,1,8,0:0:0:0:
256,192,267483,1,8,0:0:0:0:
256,192,267583,2,4,L|320:192|320:192,24,39.6666674232483
256,192,270383,1,0,0:0:0:0:
256,192,270783,1,12,0:0:0:0:
256,192,270983,1,0,0:0:0:0:
256,192,271083,1,0,0:0:0:0:
256,192,271183,1,8,0:0:0:0:
256,192,271383,1,8,0:0:0:0:
256,192,271483,1,0,0:0:0:0:
256,192,271583,1,8,0:0:0:0:
256,192,271649,1,0,0:0:0:0:
256,192,271716,1,0,0:0:0:0:
256,192,271783,1,8,0:0:0:0:
256,192,271883,1,8,0:0:0:0:
256,192,271983,1,0,0:0:0:0:
256,192,272183,1,8,0:0:0:0:
256,192,272283,1,8,0:0:0:0:
256,192,272383,1,0,0:0:0:0:
256,192,272583,1,8,0:0:0:0:
256,192,272683,1,0,0:0:0:0:
256,192,272783,1,8,0:0:0:0:
256,192,272883,1,8,0:0:0:0:
256,192,272983,1,0,0:0:0:0:
256,192,273083,1,0,0:0:0:0:
256,192,273183,1,8,0:0:0:0:
256,192,273383,1,0,0:0:0:0:
256,192,273483,1,0,0:0:0:0:
256,192,273583,1,8,0:0:0:0:
256,192,273683,1,0,0:0:0:0:
256,192,273783,1,8,0:0:0:0:
256,192,273883,1,0,0:0:0:0:
256,192,273933,1,0,0:0:0:0:
256,192,273983,1,8,0:0:0:0:
256,192,274183,1,0,0:0:0:0:
256,192,274283,1,8,0:0:0:0:
256,192,274483,1,8,0:0:0:0:
256,192,274583,1,8,0:0:0:0:
256,192,274683,1,0,0:0:0:0:
256,192,274783,1,8,0:0:0:0:
256,192,274849,1,8,0:0:0:0:
256,192,274916,1,8,0:0:0:0:
256,192,274983,1,0,0:0:0:0:
256,192,275083,1,0,0:0:0:0:
256,192,275183,1,8,0:0:0:0:
256,192,275383,1,0,0:0:0:0:
256,192,275483,1,8,0:0:0:0:
256,192,275683,1,0,0:0:0:0:
256,192,275883,1,8,0:0:0:0:
256,192,275983,1,0,0:0:0:0:
256,192,276083,1,8,0:0:0:0:
256,192,276183,1,8,0:0:0:0:
256,192,276283,1,0,0:0:0:0:
256,192,276383,1,8,0:0:0:0:
256,192,276483,1,0,0:0:0:0:
256,192,276533,1,0,0:0:0:0:
256,192,276583,1,8,0:0:0:0:
256,192,276683,1,0,0:0:0:0:
256,192,276783,1,8,0:0:0:0:
256,192,276983,1,8,0:0:0:0:
256,192,277083,1,8,0:0:0:0:
256,192,277183,1,0,0:0:0:0:
256,192,277283,1,8,0:0:0:0:
256,192,277383,1,0,0:0:0:0:
256,192,277449,1,0,0:0:0:0:
256,192,277516,1,0,0:0:0:0:
256,192,277583,1,8,0:0:0:0:
256,192,277783,1,0,0:0:0:0:
256,192,277883,1,8,0:0:0:0:
256,192,277983,1,8,0:0:0:0:
256,192,278083,1,0,0:0:0:0:
256,192,278283,1,8,0:0:0:0:
256,192,278383,1,0,0:0:0:0:
256,192,278583,1,8,0:0:0:0:
256,192,278783,1,0,0:0:0:0:
256,192,278883,1,8,0:0:0:0:
256,192,278983,1,0,0:0:0:0:
256,192,279083,1,0,0:0:0:0:
256,192,279183,1,8,0:0:0:0:
256,192,279283,1,0,0:0:0:0:
256,192,279333,1,0,0:0:0:0:
256,192,279383,1,8,0:0:0:0:
256,192,279483,1,0,0:0:0:0:
256,192,279583,1,8,0:0:0:0:
256,192,279783,1,0,0:0:0:0:
256,192,279883,1,0,0:0:0:0:
256,192,279983,1,8,0:0:0:0:
256,192,280183,1,0,0:0:0:0:
256,192,280283,1,8,0:0:0:0:
256,192,280383,1,0,0:0:0:0:
256,192,280583,1,8,0:0:0:0:
256,192,280683,1,0,0:0:0:0:
256,192,280783,1,8,0:0:0:0:
256,192,280883,1,8,0:0:0:0:
256,192,280983,1,0,0:0:0:0:
256,192,281083,1,0,0:0:0:0:
256,192,281183,1,8,0:0:0:0:
256,192,281383,1,0,0:0:0:0:
256,192,281449,1,0,0:0:0:0:
256,192,281516,1,0,0:0:0:0:
256,192,281583,1,8,0:0:0:0:
256,192,281683,1,8,0:0:0:0:
256,192,281783,1,0,0:0:0:0:
256,192,281883,1,0,0:0:0:0:
256,192,281983,1,12,0:0:0:0:
256,192,282183,1,0,0:0:0:0:
256,192,282283,1,12,0:0:0:0:
256,192,282483,1,0,0:0:0:0:
256,192,282583,1,12,0:0:0:0:
256,192,282783,1,8,0:0:0:0:
256,192,282883,1,0,0:0:0:0:
256,192,282933,1,0,0:0:0:0:
256,192,282983,1,8,0:0:0:0:
256,192,283083,1,8,0:0:0:0:
256,192,283183,1,0,0:0:0:0:
256,192,283383,1,8,0:0:0:0:
256,192,283583,1,4,0:0:0:0:
256,192,283783,1,8,0:0:0:0:
256,192,283883,1,0,0:0:0:0:
256,192,284083,1,8,0:0:0:0:
256,192,284183,1,0,0:0:0:0:
256,192,284283,1,0,0:0:0:0:
256,192,284383,1,8,0:0:0:0:
256,192,284449,1,0,0:0:0:0:
256,192,284516,1,0,0:0:0:0:
256,192,284583,1,8,0:0:0:0:
256,192,284683,1,8,0:0:0:0:
256,192,284783,1,0,0:0:0:0:
256,192,284983,1,8,0:0:0:0:
256,192,285083,1,8,0:0:0:0:
256,192,285183,1,0,0:0:0:0:
256,192,285283,1,8,0:0:0:0:
256,192,285483,1,0,0:0:0:0:
256,192,285583,1,8,0:0:0:0:
256,192,285683,1,0,0:0:0:0:
256,192,285733,1,0,0:0:0:0:
256,192,285783,1,8,0:0:0:0:
256,192,285883,1,0,0:0:0:0:
256,192,285983,1,8,0:0:0:0:
256,192,286183,1,0,0:0:0:0:
256,192,286283,1,0,0:0:0:0:
256,192,286383,1,8,0:0:0:0:
256,192,286483,1,8,0:0:0:0:
256,192,286583,1,0,0:0:0:0:
256,192,286683,1,8,0:0:0:0:
256,192,286733,1,8,0:0:0:0:
256,192,286783,1,0,0:0:0:0:
256,192,287183,1,12,0:0:0:0:
256,192,287383,1,0,0:0:0:0:
256,192,287483,1,8,0:0:0:0:
256,192,287583,1,0,0:0:0:0:
256,192,287683,1,0,0:0:0:0:
256,192,287783,1,8,0:0:0:0:
256,192,287883,1,8,0:0:0:0:
256,192,287983,1,0,0:0:0:0:
256,192,288049,1,0,0:0:0:0:
256,192,288116,1,0,0:0:0:0:
256,192,288183,1,0,0:0:0:0:
256,192,288249,1,0,0:0:0:0:
256,192,288316,1,0,0:0:0:0:
256,192,288383,1,8,0:0:0:0:
256,192,288583,1,0,0:0:0:0:
256,192,288783,1,8,0:0:0:0:
256,192,288883,1,8,0:0:0:0:
256,192,288983,1,0,0:0:0:0:
256,192,289083,1,0,0:0:0:0:
256,192,289183,1,8,0:0:0:0:
256,192,289283,1,0,0:0:0:0:
256,192,289333,1,0,0:0:0:0:
256,192,289383,1,8,0:0:0:0:
256,192,289483,1,8,0:0:0:0:
256,192,289583,1,0,0:0:0:0:
256,192,289649,1,0,0:0:0:0:
256,192,289716,1,0,0:0:0:0:
256,192,289783,1,8,0:0:0:0:
256,192,289983,1,0,0:0:0:0:
256,192,290083,1,0,0:0:0:0:
256,192,290183,1,8,0:0:0:0:
256,192,290283,1,0,0:0:0:0:
256,192,290383,1,8,0:0:0:0:
256,192,290483,1,8,0:0:0:0:
256,192,290583,1,0,0:0:0:0:
256,192,290683,1,0,0:0:0:0:
256,192,290783,1,8,0:0:0:0:
256,192,290883,1,0,0:0:0:0:
256,192,290983,1,0,0:0:0:0:
256,192,291083,1,0,0:0:0:0:
256,192,291183,1,8,0:0:0:0:
256,192,291283,1,0,0:0:0:0:
256,192,291383,1,8,0:0:0:0:
256,192,291483,1,8,0:0:0:0:
256,192,291583,1,0,0:0:0:0:
256,192,291649,1,8,0:0:0:0:
256,192,291716,1,8,0:0:0:0:
256,192,291783,1,0,0:0:0:0:
256,192,291883,1,0,0:0:0:0:
256,192,291983,1,8,0:0:0:0:
256,192,292049,1,8,0:0:0:0:
256,192,292116,1,8,0:0:0:0:
256,192,292183,1,0,0:0:0:0:
256,192,292283,1,0,0:0:0:0:
256,192,292383,1,8,0:0:0:0:
256,192,292449,1,0,0:0:0:0:
256,192,292516,1,0,0:0:0:0:
256,192,292583,1,8,0:0:0:0:
256,192,292683,1,8,0:0:0:0:
256,192,292783,1,0,0:0:0:0:
256,192,292833,1,0,0:0:0:0:
256,192,292883,1,8,0:0:0:0:
256,192,292983,1,0,0:0:0:0:
256,192,293033,1,0,0:0:0:0:
256,192,293083,1,8,0:0:0:0:
256,192,293183,1,4,0:0:0:0:
256,192,294583,1,4,0:0:0:0:
256,192,294783,1,4,0:0:0:0:
256,192,294983,1,8,0:0:0:0:
256,192,295183,1,8,0:0:0:0:
256,192,295249,1,8,0:0:0:0:
256,192,295316,1,8,0:0:0:0:
256,192,295383,1,0,0:0:0:0:
256,192,295483,1,0,0:0:0:0:
256,192,295583,1,8,0:0:0:0:
256,192,295783,1,0,0:0:0:0:
256,192,295849,1,0,0:0:0:0:
256,192,295916,1,0,0:0:0:0:
256,192,295983,1,8,0:0:0:0:
256,192,296083,1,8,0:0:0:0:
256,192,296183,1,0,0:0:0:0:
256,192,296283,1,0,0:0:0:0:
256,192,296383,1,12,0:0:0:0:
256,192,296583,1,0,0:0:0:0:
256,192,296683,1,0,0:0:0:0:
256,192,296783,1,8,0:0:0:0:
256,192,296849,1,8,0:0:0:0:
256,192,296916,1,8,0:0:0:0:
256,192,296983,1,0,0:0:0:0:
256,192,297083,1,0,0:0:0:0:
256,192,297183,1,8,0:0:0:0:
256,192,297383,1,0,0:0:0:0:
256,192,297483,1,0,0:0:0:0:
256,192,297583,1,8,0:0:0:0:
256,192,297649,1,0,0:0:0:0:
256,192,297716,1,0,0:0:0:0:
256,192,297783,1,8,0:0:0:0:
256,192,297883,1,8,0:0:0:0:
256,192,297983,1,0,0:0:0:0:
256,192,298183,1,8,0:0:0:0:
256,192,298283,1,0,0:0:0:0:
256,192,298383,1,8,0:0:0:0:
256,192,298449,1,8,0:0:0:0:
256,192,298516,1,8,0:0:0:0:
256,192,298583,1,0,0:0:0:0:
256,192,298683,1,0,0:0:0:0:
256,192,298783,1,8,0:0:0:0:
256,192,298983,1,0,0:0:0:0:
256,192,299049,1,0,0:0:0:0:
256,192,299116,1,0,0:0:0:0:
256,192,299183,1,8,0:0:0:0:
256,192,299283,1,8,0:0:0:0:
256,192,299383,1,0,0:0:0:0:
256,192,299483,1,0,0:0:0:0:
256,192,299583,1,8,0:0:0:0:
256,192,299783,1,0,0:0:0:0:
256,192,299883,1,0,0:0:0:0:
256,192,299983,1,8,0:0:0:0:
256,192,300049,1,8,0:0:0:0:
256,192,300116,1,8,0:0:0:0:
256,192,300183,1,0,0:0:0:0:
256,192,300283,1,0,0:0:0:0:
256,192,300383,1,8,0:0:0:0:
256,192,300583,1,0,0:0:0:0:
256,192,300683,1,0,0:0:0:0:
256,192,300783,1,8,0:0:0:0:
256,192,300849,1,0,0:0:0:0:
256,192,300916,1,0,0:0:0:0:
256,192,300983,1,8,0:0:0:0:
256,192,301083,1,8,0:0:0:0:
256,192,301183,1,0,0:0:0:0:
256,192,301383,1,8,0:0:0:0:
256,192,301483,1,8,0:0:0:0:
256,192,301583,1,0,0:0:0:0:
256,192,301649,1,0,0:0:0:0:
256,192,301716,1,0,0:0:0:0:
256,192,301783,1,8,0:0:0:0:
256,192,301883,1,8,0:0:0:0:
256,192,301983,1,0,0:0:0:0:
256,192,302083,1,8,0:0:0:0:
256,192,302133,1,8,0:0:0:0:
256,192,302183,1,0,0:0:0:0:
256,192,302283,1,8,0:0:0:0:
256,192,302383,1,0,0:0:0:0:
256,192,302783,1,12,0:0:0:0:
256,192,302983,1,0,0:0:0:0:
256,192,303083,1,0,0:0:0:0:
256,192,303183,1,8,0:0:0:0:
256,192,303249,1,8,0:0:0:0:
256,192,303316,1,8,0:0:0:0:
256,192,303383,1,0,0:0:0:0:
256,192,303483,1,0,0:0:0:0:
256,192,303583,1,8,0:0:0:0:
256,192,303783,1,0,0:0:0:0:
256,192,303883,1,0,0:0:0:0:
256,192,303983,1,8,0:0:0:0:
256,192,304049,1,0,0:0:0:0:
256,192,304116,1,0,0:0:0:0:
256,192,304183,1,8,0:0:0:0:
256,192,304283,1,8,0:0:0:0:
256,192,304383,1,0,0:0:0:0:
256,192,304583,1,8,0:0:0:0:
256,192,304683,1,0,0:0:0:0:
256,192,304783,1,8,0:0:0:0:
256,192,304849,1,8,0:0:0:0:
256,192,304916,1,8,0:0:0:0:
256,192,304983,1,0,0:0:0:0:
256,192,305083,1,0,0:0:0:0:
256,192,305183,1,8,0:0:0:0:
256,192,305383,1,0,0:0:0:0:
256,192,305449,1,0,0:0:0:0:
256,192,305516,1,0,0:0:0:0:
256,192,305583,1,8,0:0:0:0:
256,192,305683,1,8,0:0:0:0:
256,192,305783,1,0,0:0:0:0:
256,192,305883,1,0,0:0:0:0:
256,192,305983,1,12,0:0:0:0:
256,192,306183,1,12,0:0:0:0:
256,192,306383,1,4,0:0:0:0:
256,192,306783,1,12,0:0:0:0:
256,192,306983,1,12,0:0:0:0:
256,192,307183,1,0,0:0:0:0:
256,192,307233,1,0,0:0:0:0:
256,192,307283,1,0,0:0:0:0:
256,192,307383,1,8,0:0:0:0:
256,192,307583,1,8,0:0:0:0:
256,192,307683,1,0,0:0:0:0:
256,192,307783,1,0,0:0:0:0:
256,192,307883,1,8,0:0:0:0:
256,192,308083,1,0,0:0:0:0:
256,192,308283,1,8,0:0:0:0:
256,192,308383,1,0,0:0:0:0:
256,192,308583,1,8,0:0:0:0:
256,192,308649,1,8,0:0:0:0:
256,192,308716,1,8,0:0:0:0:
256,192,308783,1,0,0:0:0:0:
256,192,308883,1,0,0:0:0:0:
256,192,308983,1,8,0:0:0:0:
256,192,309083,1,8,0:0:0:0:
256,192,309183,1,4,0:0:0:0:
256,192,309383,1,8,0:0:0:0:
256,192,309483,1,0,0:0:0:0:
256,192,309583,1,8,0:0:0:0:
256,192,309649,1,8,0:0:0:0:
256,192,309716,1,8,0:0:0:0:
256,192,309783,1,0,0:0:0:0:
256,192,309883,1,0,0:0:0:0:
256,192,309983,1,8,0:0:0:0:
256,192,310183,1,0,0:0:0:0:
256,192,310283,1,0,0:0:0:0:
256,192,310383,1,8,0:0:0:0:
256,192,310449,1,0,0:0:0:0:
256,192,310516,1,0,0:0:0:0:
256,192,310583,1,8,0:0:0:0:
256,192,310683,1,8,0:0:0:0:
256,192,310783,1,0,0:0:0:0:
256,192,310983,1,8,0:0:0:0:
256,192,311083,1,0,0:0:0:0:
256,192,311183,1,8,0:0:0:0:
256,192,311249,1,8,0:0:0:0:
256,192,311316,1,8,0:0:0:0:
256,192,311383,1,0,0:0:0:0:
256,192,311483,1,0,0:0:0:0:
256,192,311583,1,8,0:0:0:0:
256,192,311783,1,0,0:0:0:0:
256,192,311849,1,0,0:0:0:0:
256,192,311916,1,0,0:0:0:0:
256,192,311983,1,8,0:0:0:0:
256,192,312083,1,8,0:0:0:0:
256,192,312183,1,0,0:0:0:0:
256,192,312383,1,8,0:0:0:0:
256,192,312433,1,8,0:0:0:0:
256,192,312483,1,0,0:0:0:0:
256,192,312683,1,8,0:0:0:0:
256,192,312733,1,8,0:0:0:0:
256,192,312783,1,0,0:0:0:0:
256,192,312883,1,8,0:0:0:0:
256,192,312983,1,0,0:0:0:0:
256,192,313083,1,0,0:0:0:0:
256,192,313183,1,12,0:0:0:0:
256,192,313383,1,0,0:0:0:0:
256,192,313483,1,12,0:0:0:0:
256,192,313683,1,0,0:0:0:0:
256,192,313783,1,12,0:0:0:0:
256,192,313983,1,12,0:0:0:0:
256,192,314183,1,0,0:0:0:0:
256,192,314283,1,12,0:0:0:0:
256,192,314483,1,0,0:0:0:0:
256,192,314583,1,12,0:0:0:0:
256,192,314783,1,4,0:0:0:0:
256,192,314983,1,4,0:0:0:0:
256,192,315183,1,8,0:0:0:0:
256,192,315249,1,0,0:0:0:0:
256,192,315316,1,0,0:0:0:0:
256,192,315383,1,8,0:0:0:0:
256,192,315483,1,8,0:0:0:0:
256,192,315583,1,0,0:0:0:0:
256,192,315983,1,12,0:0:0:0:
256,192,316183,1,0,0:0:0:0:
256,192,316283,1,8,0:0:0:0:
256,192,316383,1,0,0:0:0:0:
256,192,316783,1,12,0:0:0:0:
256,192,316983,1,0,0:0:0:0:
256,192,317083,1,0,0:0:0:0:
256,192,317183,1,8,0:0:0:0:
256,192,317583,1,12,0:0:0:0:
256,192,317783,1,0,0:0:0:0:
256,192,317883,1,8,0:0:0:0:
256,192,317983,1,0,0:0:0:0:
256,192,318183,1,8,0:0:0:0:
256,192,318249,1,8,0:0:0:0:
256,192,318316,1,8,0:0:0:0:
256,192,318383,1,0,0:0:0:0:
256,192,318583,1,0,0:0:0:0:
256,192,318783,1,8,0:0:0:0:
256,192,318883,1,8,0:0:0:0:
256,192,318983,1,0,0:0:0:0:
256,192,319083,1,0,0:0:0:0:
256,192,319183,1,8,0:0:0:0:
256,192,319249,1,0,0:0:0:0:
256,192,319316,1,0,0:0:0:0:
256,192,319383,1,8,0:0:0:0:
256,192,319483,1,8,0:0:0:0:
256,192,319583,1,0,0:0:0:0:
256,192,319683,1,0,0:0:0:0:
256,192,319783,1,8,0:0:0:0:
256,192,319883,1,8,0:0:0:0:
256,192,319983,1,0,0:0:0:0:
256,192,320049,1,0,0:0:0:0:
256,192,320116,1,0,0:0:0:0:
256,192,320183,1,8,0:0:0:0:
256,192,320249,1,8,0:0:0:0:
256,192,320316,1,8,0:0:0:0:
256,192,320383,1,0,0:0:0:0:
256,192,321583,1,0,0:0:0:0:
256,192,321683,1,8,0:0:0:0:
256,192,321783,1,0,0:0:0:0:
256,192,321883,1,0,0:0:0:0:
256,192,321983,1,12,0:0:0:0:
256,192,322183,1,0,0:0:0:0:
256,192,322283,1,0,0:0:0:0:
256,192,322383,1,8,0:0:0:0:
256,192,322449,1,8,0:0:0:0:
256,192,322516,1,8,0:0:0:0:
256,192,322583,1,0,0:0:0:0:
256,192,322683,1,0,0:0:0:0:
256,192,322783,1,8,0:0:0:0:
256,192,322983,1,0,0:0:0:0:
256,192,323083,1,0,0:0:0:0:
256,192,323183,1,8,0:0:0:0:
256,192,323283,1,0,0:0:0:0:
256,192,323383,1,8,0:0:0:0:
256,192,323483,1,8,0:0:0:0:
256,192,323583,1,0,0:0:0:0:
256,192,323783,1,8,0:0:0:0:
256,192,323883,1,0,0:0:0:0:
256,192,323983,1,8,0:0:0:0:
256,192,324049,1,8,0:0:0:0:
256,192,324116,1,8,0:0:0:0:
256,192,324183,1,0,0:0:0:0:
256,192,324283,1,0,0:0:0:0:
256,192,324383,1,8,0:0:0:0:
256,192,324583,1,0,0:0:0:0:
256,192,324683,1,0,0:0:0:0:
256,192,324783,1,8,0:0:0:0:
256,192,324883,1,8,0:0:0:0:
256,192,324983,1,8,0:0:0:0:
256,192,325083,1,8,0:0:0:0:
256,192,325183,1,0,0:0:0:0:
256,192,325383,1,0,0:0:0:0:
256,192,325583,1,8,0:0:0:0:
256,192,325683,1,8,0:0:0:0:
256,192,325783,1,0,0:0:0:0:
256,192,325883,1,0,0:0:0:0:
256,192,325983,1,8,0:0:0:0:
256,192,326183,1,0,0:0:0:0:
256,192,326283,1,0,0:0:0:0:
256,192,326383,1,8,0:0:0:0:
256,192,326483,1,0,0:0:0:0:
256,192,326583,1,8,0:0:0:0:
256,192,326683,1,8,0:0:0:0:
256,192,326783,1,0,0:0:0:0:
256,192,326983,1,8,0:0:0:0:
256,192,327183,1,8,0:0:0:0:
256,192,327283,1,8,0:0:0:0:
256,192,327383,1,0,0:0:0:0:
256,192,327483,1,0,0:0:0:0:
256,192,327583,1,8,0:0:0:0:
256,192,327783,1,0,0:0:0:0:
256,192,327883,1,0,0:0:0:0:
256,192,327983,1,8,0:0:0:0:
256,192,328083,1,8,0:0:0:0:
256,192,328183,1,0,0:0:0:0:
256,192,328283,1,8,0:0:0:0:
256,192,328383,1,0,0:0:0:0:
256,192,328583,1,0,0:0:0:0:
256,192,328783,1,8,0:0:0:0:
256,192,328849,1,8,0:0:0:0:
256,192,328916,1,8,0:0:0:0:
256,192,328983,1,0,0:0:0:0:
256,192,329083,1,0,0:0:0:0:
256,192,329183,1,8,0:0:0:0:
256,192,329383,1,0,0:0:0:0:
256,192,329483,1,0,0:0:0:0:
256,192,329583,1,8,0:0:0:0:
256,192,329683,1,0,0:0:0:0:
256,192,329783,1,8,0:0:0:0:
256,192,329883,1,8,0:0:0:0:
256,192,329983,1,0,0:0:0:0:
256,192,330183,1,0,0:0:0:0:
256,192,330383,1,8,0:0:0:0:
256,192,330449,1,8,0:0:0:0:
256,192,330516,1,8,0:0:0:0:
256,192,330583,1,0,0:0:0:0:
256,192,330683,1,0,0:0:0:0:
256,192,330783,1,8,0:0:0:0:
256,192,330983,1,0,0:0:0:0:
256,192,331083,1,0,0:0:0:0:
256,192,331183,1,8,0:0:0:0:
256,192,331283,1,8,0:0:0:0:
256,192,331383,1,0,0:0:0:0:
256,192,331483,1,8,0:0:0:0:
256,192,331583,1,0,0:0:0:0:
256,192,331783,1,0,0:0:0:0:
256,192,331983,1,8,0:0:0:0:
256,192,332083,1,8,0:0:0:0:
256,192,332183,1,0,0:0:0:0:
256,192,332283,1,0,0:0:0:0:
256,192,332383,1,8,0:0:0:0:
256,192,332583,1,0,0:0:0:0:
256,192,332783,1,8,0:0:0:0:
256,192,332883,1,0,0:0:0:0:
256,192,332983,1,8,0:0:0:0:
256,192,333083,1,8,0:0:0:0:
256,192,333183,1,0,0:0:0:0:
256,192,333383,1,0,0:0:0:0:
256,192,333583,1,8,0:0:0:0:
256,192,333683,1,8,0:0:0:0:
256,192,333783,1,0,0:0:0:0:
256,192,333883,1,0,0:0:0:0:
256,192,333983,1,8,0:0:0:0:
256,192,334183,1,0,0:0:0:0:
256,192,334383,1,8,0:0:0:0:
256,192,334483,1,8,0:0:0:0:
256,192,334583,1,8,0:0:0:0:
256,192,334683,1,8,0:0:0:0:
256,192,334783,1,4,0:0:0:0:
256,192,334983,1,0,0:0:0:0:
256,192,335183,1,8,0:0:0:0:
256,192,335283,1,0,0:0:0:0:
256,192,335383,1,8,0:0:0:0:
256,192,335483,1,8,0:0:0:0:
256,192,335583,1,0,0:0:0:0:
256,192,335783,1,0,0:0:0:0:
256,192,335983,1,8,0:0:0:0:
256,192,336083,1,8,0:0:0:0:
256,192,336183,1,0,0:0:0:0:
256,192,336383,1,8,0:0:0:0:
256,192,336583,1,0,0:0:0:0:
256,192,336783,1,8,0:0:0:0:
256,192,336883,1,8,0:0:0:0:
256,192,336983,1,8,0:0:0:0:
256,192,337083,1,8,0:0:0:0:
256,192,337183,1,0,0:0:0:0:
256,192,337383,1,0,0:0:0:0:
256,192,337483,1,0,0:0:0:0:
256,192,337583,1,8,0:0:0:0:
256,192,337783,1,8,0:0:0:0:
256,192,337983,1,0,0:0:0:0:
256,192,338183,1,0,0:0:0:0:
256,192,338383,1,8,0:0:0:0:
256,192,338483,1,0,0:0:0:0:
256,192,338583,1,8,0:0:0:0:
256,192,338683,1,8,0:0:0:0:
256,192,338783,1,0,0:0:0:0:
256,192,338983,1,0,0:0:0:0:
256,192,339183,1,8,0:0:0:0:
256,192,339283,1,8,0:0:0:0:
256,192,339383,1,0,0:0:0:0:
256,192,339583,1,8,0:0:0:0:
256,192,339783,1,0,0:0:0:0:
256,192,339983,1,8,0:0:0:0:
256,192,340083,1,8,0:0:0:0:
256,192,340183,1,8,0:0:0:0:
256,192,340283,1,8,0:0:0:0:
256,192,340383,1,0,0:0:0:0:
256,192,340583,1,0,0:0:0:0:
256,192,340683,1,0,0:0:0:0:
256,192,340783,1,8,0:0:0:0:
256,192,340983,1,8,0:0:0:0:
256,192,341183,1,0,0:0:0:0:
256,192,341583,1,8,0:0:0:0:
256,192,341683,1,0,0:0:0:0:
256,192,341783,1,8,0:0:0:0:
256,192,341883,1,8,0:0:0:0:
256,192,341983,1,0,0:0:0:0:
256,192,342183,1,0,0:0:0:0:
256,192,342383,1,8,0:0:0:0:
256,192,342483,1,0,0:0:0:0:
256,192,342583,1,8,0:0:0:0:
256,192,342783,1,0,0:0:0:0:
256,192,343183,1,8,0:0:0:0:
256,192,343283,1,0,0:0:0:0:
256,192,343383,1,8,0:0:0:0:
256,192,343483,1,8,0:0:0:0:
256,192,343583,1,0,0:0:0:0:
256,192,343783,1,0,0:0:0:0:
256,192,343883,1,0,0:0:0:0:
256,192,343983,1,8,0:0:0:0:
256,192,344183,1,8,0:0:0:0:
256,192,344383,1,0,0:0:0:0:
256,192,344583,8,0,347183,0:0:0:0:
256,192,347583,5,4,0:0:0:0:
256,192,350783,1,8,0:0:0:0:
256,192,351083,1,8,0:0:0:0:
256,192,351583,1,0,0:0:0:0:
256,192,351883,1,0,0:0:0:0:
256,192,352383,1,8,0:0:0:0:
256,192,352683,1,0,0:0:0:0:
256,192,353183,1,0,0:0:0:0:
256,192,353483,1,0,0:0:0:0:
256,192,353983,1,8,0:0:0:0:
256,192,354283,1,8,0:0:0:0:
256,192,354583,1,0,0:0:0:0:
256,192,354783,1,8,0:0:0:0:
256,192,354883,1,0,0:0:0:0:
256,192,355083,1,8,0:0:0:0:
256,192,355583,1,8,0:0:0:0:
256,192,355883,1,8,0:0:0:0:
256,192,356183,1,0,0:0:0:0:
256,192,356383,1,8,0:0:0:0:
256,192,356483,1,0,0:0:0:0:
256,192,356683,1,8,0:0:0:0:
256,192,357083,1,0,0:0:0:0:
256,192,357183,1,8,0:0:0:0:
256,192,357483,1,8,0:0:0:0:
256,192,357783,1,0,0:0:0:0:
256,192,357983,1,8,0:0:0:0:
256,192,358083,1,0,0:0:0:0:
256,192,358283,1,8,0:0:0:0:
256,192,358683,1,0,0:0:0:0:
256,192,358783,1,8,0:0:0:0:
256,192,358983,1,0,0:0:0:0:
256,192,359083,1,8,0:0:0:0:
256,192,359383,1,0,0:0:0:0:
256,192,359583,1,8,0:0:0:0:
256,192,359683,1,0,0:0:0:0:
256,192,359883,1,8,0:0:0:0:
256,192,360183,1,0,0:0:0:0:
256,192,360383,1,8,0:0:0:0:
256,192,360583,8,0,372383,0:0:0:0:
