osu file format v14

[General]
AudioFilename: audio.mp3
AudioLeadIn: 0
PreviewTime: 102654
Countdown: 0
SampleSet: Normal
StackLeniency: 0.7
Mode: 1
LetterboxInBreaks: 0
WidescreenStoryboard: 0

[Editor]
Bookmarks: 27454,77054,91407,107358,110278,116980,141317,161396,168083,245054,269054,347454
DistanceSpacing: 0.6
BeatDivisor: 4
GridSize: 4
TimelineZoom: 2

[Metadata]
Title:Ethnik Khemikal Teknologi
TitleUnicode:Ethnik Khemikal Teknologi
Artist:Camellia
ArtistUnicode:かめりあ
Creator:Faputa
Version:Jungle Invasion
Source:
Tags:Ethnic Chemical Technology うごうゴウ かめるかめりあ Kamel INVAIDAS FROM DA JUNGLE cametek 大箭将也 masaya oya kamelcamellia drumstep dubstep trance psytrance psystyle Curiossity
BeatmapID:1434483
BeatmapSetID:678415

[Difficulty]
HPDrainRate:5
CircleSize:5
OverallDifficulty:6.5
ApproachRate:5
SliderMultiplier:1.6
SliderTickRate:1

[Events]
//Background and Video events
0,0,"BG.jpg",0,0
//Break Periods
//Storyboard Layer 0 (Background)
//Storyboard Layer 1 (Fail)
//Storyboard Layer 2 (Pass)
//Storyboard Layer 3 (Foreground)
//Storyboard Sound Samples

[TimingPoints]
1854,400,4,1,0,5,1,0
1854,-200,4,1,0,5,0,0
3054,-200,4,1,0,5,0,0
10454,-142.857142857143,4,1,0,25,0,0
17854,-111.111111111111,4,1,0,35,0,0
18654,-109.89010989011,4,1,0,36,0,0
19454,-108.695652173913,4,1,0,37,0,0
20254,-107.52688172043,4,1,0,38,0,0
21054,-106.382978723404,4,1,0,39,0,0
21854,-105.263157894737,4,1,0,40,0,0
22654,-104.166666666667,4,1,0,41,0,0
23454,-103.092783505155,4,1,0,42,0,0
24254,-102.040816326531,4,1,0,43,0,0
25054,-101.010101010101,4,1,0,44,0,0
25854,-100,4,1,0,45,0,0
26654,-100,4,1,0,46,0,0
26954,-100,4,1,0,47,0,0
27254,-100,4,1,0,48,0,0
27354,-100,4,1,0,49,0,0
27454,-100,4,1,0,80,0,0
84654,-66.6666666666667,4,1,0,80,0,0
85054,-100,4,1,0,80,0,0
91454,-66.6666666666667,4,1,0,80,0,0
91654,-100,4,1,0,80,0,0
104254,-66.6666666666667,4,1,0,95,0,1
104454,-100,4,1,0,95,0,1
110254,-66.6666666666667,4,1,0,95,0,1
110854,-100,4,1,0,95,0,1
116654,-66.6666666666667,4,1,0,95,0,1
117254,-100,4,1,0,95,0,1
128254,-100,4,1,0,90,0,0
129454,-66.6666666666667,4,1,0,90,0,0
129854,-66.6666666666667,4,1,0,90,0,1
130054,-100,4,1,0,95,0,1
135854,-66.6666666666667,4,1,0,95,0,1
136454,-100,4,1,0,95,0,1
140454,-66.6666666666667,4,1,0,95,0,1
140854,-100,4,1,0,95,0,1
153854,-100,4,1,0,70,0,0
174554,-101.010101010101,4,1,0,70,0,0
174654,-101.525458668316,4,1,0,70,0,0
174754,-102.040816326531,4,1,0,70,0,0
174854,-102.566799915843,4,1,0,70,0,0
174954,-103.092783505155,4,1,0,70,0,0
175054,-103.629725085911,4,1,0,70,0,0
175154,-104.166666666667,4,1,0,70,0,0
175254,-104.714912280702,4,1,0,70,0,0
175354,-105.263157894737,4,1,0,70,0,0
175454,-105.823068309071,4,1,0,70,0,0
175554,-106.382978723404,4,1,0,70,0,0
175654,-106.954930221917,4,1,0,70,0,0
175754,-107.52688172043,4,1,0,70,0,0
175854,-108.111266947172,4,1,0,70,0,0
175954,-108.695652173913,4,1,0,70,0,0
176054,-109.292881032012,4,1,0,70,0,0
176154,-109.89010989011,4,1,0,70,0,0
176254,-110.500610500611,4,1,0,70,0,0
176354,-111.111111111111,4,1,0,70,0,0
176454,-111.735330836455,4,1,0,70,0,0
176554,-112.359550561798,4,1,0,70,0,0
176654,-112.997957099081,4,1,0,70,0,0
176754,-113.636363636364,4,1,0,70,0,0
176854,-114.289446185998,4,1,0,70,0,0
176954,-114.942528735632,4,1,0,70,0,0
177054,-115.610799251537,4,1,0,70,0,0
177154,-116.279069767442,4,1,0,70,0,0
177254,-116.963064295486,4,1,0,70,0,0
177354,-117.647058823529,4,1,0,70,0,0
177454,-118.347338935574,4,1,0,70,0,0
177554,-119.047619047619,4,1,0,70,0,0
177654,-119.764773379231,4,1,0,70,0,0
177754,-120.481927710843,4,1,0,70,0,0
177854,-121.216573611519,4,1,0,70,0,0
177954,-121.951219512195,4,1,0,70,0,0
178054,-122.704004817826,4,1,0,70,0,0
178154,-123.456790123457,4,1,0,70,0,0
178254,-124.228395061729,4,1,0,70,0,0
178354,-125,4,1,0,70,0,0
178454,-125.791139240507,4,1,0,70,0,0
178554,-126.582278481013,4,1,0,70,0,0
178654,-127.393703343071,4,1,0,70,0,0
178754,-128.205128205128,4,1,0,70,0,0
178854,-129.037629037629,4,1,0,70,0,0
178954,-129.87012987013,4,1,0,70,0,0
179054,-130.724538619276,4,1,0,70,0,0
179154,-131.578947368421,4,1,0,70,0,0
179254,-132.456140350877,4,1,0,70,0,0
179354,-133.333333333333,4,1,0,70,0,0
182654,-200,4,1,0,70,0,0
183454,-196.078431372549,4,1,0,70,0,0
184254,-192.307692307692,4,1,0,70,0,0
185054,-188.679245283019,4,1,0,70,0,0
185854,-185.185185185185,4,1,0,70,0,0
186654,-181.818181818182,4,1,0,70,0,0
187454,-178.571428571429,4,1,0,70,0,0
188254,-175.438596491228,4,1,0,70,0,0
189054,-172.413793103448,4,1,0,70,0,0
189854,-169.491525423729,4,1,0,70,0,0
190654,-166.666666666667,4,1,0,70,0,0
191454,-163.934426229508,4,1,0,70,0,0
192254,-161.290322580645,4,1,0,70,0,0
193854,-156.25,4,1,0,70,0,0
194654,-153.846153846154,4,1,0,70,0,0
195454,-151.515151515152,4,1,0,70,0,0
196254,-149.253731343284,4,1,0,70,0,0
197054,-147.058823529412,4,1,0,70,0,0
197854,-144.927536231884,4,1,0,70,0,0
198654,-142.857142857143,4,1,0,70,0,0
199454,-140.845070422535,4,1,0,70,0,0
200254,-138.888888888889,4,1,0,70,0,0
201054,-136.986301369863,4,1,0,70,0,0
201854,-135.135135135135,4,1,0,70,0,0
202654,-133.333333333333,4,1,0,70,0,0
203454,-131.578947368421,4,1,0,70,0,0
204254,-129.87012987013,4,1,0,70,0,0
205054,-128.205128205128,4,1,0,70,0,0
205854,-126.582278481013,4,1,0,70,0,0
206354,-125,4,1,0,70,0,0
207054,-123.456790123457,4,1,0,70,0,0
208654,-121.951219512195,4,1,0,70,0,0
210254,-120.481927710843,4,1,0,70,0,0
211854,-119.047619047619,4,1,0,70,0,0
213454,-117.647058823529,4,1,0,70,0,0
215054,-116.279069767442,4,1,0,70,0,0
216254,-114.942528735632,4,1,0,70,0,0
218254,-113.636363636364,4,1,0,70,0,0
219854,-112.359550561798,4,1,0,70,0,0
221454,-111.111111111111,4,1,0,70,0,0
222854,-109.89010989011,4,1,0,70,0,0
224054,-108.695652173913,4,1,0,70,0,0
226254,-107.52688172043,4,1,0,70,0,0
228054,-106.382978723404,4,1,0,70,0,0
230254,-105.263157894737,4,1,0,70,0,0
230854,-104.166666666667,4,1,0,70,0,0
231654,-103.092783505155,4,1,0,70,0,0
233854,-102.040816326531,4,1,0,70,0,0
235454,-101.010101010101,4,1,0,70,0,0
237054,-100,4,1,0,70,0,0
270254,-66.6666666666667,4,1,0,70,0,0
270654,-90.9090909090909,4,1,0,95,0,1
282154,-66.6666666666667,4,1,0,95,0,1
282854,-90.9090909090909,4,1,0,95,0,1
286654,-66.6666666666667,4,1,0,95,0,1
287154,-90.9090909090909,4,1,0,95,0,1
294654,-90.9090909090909,4,1,0,90,0,0
294954,-66.6666666666667,4,1,0,90,0,0
295254,-72.7272727272727,4,1,0,90,0,0
295654,-80,4,1,0,90,0,0
295754,-81.9672131147541,4,1,0,90,0,0
295854,-84.0336134453781,4,1,0,90,0,0
295954,-86.2068965517241,4,1,0,90,0,0
296054,-87.719298245614,4,1,0,90,0,0
296154,-88.4955752212389,4,1,0,90,0,0
296254,-89.2857142857143,4,1,0,95,0,1
296354,-90.0900900900901,4,1,0,95,0,1
296454,-90.9090909090909,4,1,0,95,0,1
307754,-66.6666666666667,4,1,0,95,0,1
308354,-90.9090909090909,4,1,0,95,0,1
320254,-90.9090909090909,4,1,0,55,0,0
320554,-66.6666666666667,4,1,0,54,0,0
321254,-90.9090909090909,4,1,0,53,0,0
321354,-91.743119266055,4,1,0,52,0,0
321454,-92.5925925925926,4,1,0,51,0,0
321554,-94.3396226415094,4,1,0,50,0,0
321654,-96.1538461538461,4,1,0,50,0,0
321754,-98.0392156862745,4,1,0,50,0,0
321854,-100,4,1,0,50,0,0
347454,-100,4,1,0,49,0,0
349054,-100,4,1,0,48,0,0
350654,-100,4,1,0,47,0,0
352254,-100,4,1,0,46,0,0
353854,-101.010101010101,4,1,0,45,0,0
354654,-102.040816326531,4,1,0,44,0,0
355454,-103.092783505155,4,1,0,43,0,0
356254,-104.166666666667,4,1,0,42,0,0
357054,-105.263157894737,4,1,0,41,0,0
357854,-106.382978723404,4,1,0,40,0,0
358654,-107.52688172043,4,1,0,39,0,0
359454,-108.695652173913,4,1,0,38,0,0
360254,-109.89010989011,4,1,0,37,0,0
361054,-111.111111111111,4,1,0,36,0,0
361854,-112.359550561798,4,1,0,35,0,0
362654,-113.636363636364,4,1,0,34,0,0
363454,-114.942528735632,4,1,0,33,0,0
370654,-142.857142857143,4,1,0,25,0,0
377854,-200,4,1,0,5,0,0

[HitObjects]
256,192,3054,8,0,9854,0:0:0:0:
256,192,10454,8,0,17254,0:0:0:0:
252,192,17854,5,2,0:0:0:0:
252,192,18154,1,2,0:0:0:0:
252,192,18654,1,0,0:0:0:0:
252,192,18954,1,2,0:0:0:0:
248,192,19454,1,0,0:0:0:0:
248,192,19754,1,2,0:0:0:0:
248,196,20254,1,2,0:0:0:0:
248,196,20554,1,2,0:0:0:0:
252,192,21054,1,0,0:0:0:0:
252,192,21354,1,2,0:0:0:0:
248,192,21854,1,0,0:0:0:0:
248,192,22154,1,2,0:0:0:0:
248,196,22654,1,2,0:0:0:0:
248,196,22954,1,2,0:0:0:0:
252,192,23454,1,0,0:0:0:0:
252,192,23754,1,2,0:0:0:0:
248,192,24254,1,0,0:0:0:0:
248,192,24554,1,2,0:0:0:0:
248,196,25054,1,2,0:0:0:0:
248,196,25354,1,2,0:0:0:0:
252,192,25854,1,0,0:0:0:0:
252,192,26154,1,2,0:0:0:0:
248,192,26654,1,0,0:0:0:0:
248,192,26954,1,2,0:0:0:0:
232,252,27254,1,0,0:0:0:0:
232,252,27354,1,2,0:0:0:0:
248,196,27454,1,0,0:0:0:0:
248,196,27654,1,0,0:0:0:0:
248,200,27854,1,2,0:0:0:0:
248,196,28254,1,2,0:0:0:0:
248,196,28354,1,0,0:0:0:0:
248,196,28654,1,2,0:0:0:0:
248,196,29054,1,0,0:0:0:0:
248,196,29454,1,2,0:0:0:0:
248,196,29654,1,0,0:0:0:0:
248,196,29854,1,0,0:0:0:0:
248,196,30054,1,2,0:0:0:0:
248,196,30454,1,2,0:0:0:0:
248,196,30654,1,0,0:0:0:0:
248,196,30854,1,0,0:0:0:0:
248,196,31054,1,2,0:0:0:0:
248,196,31254,1,0,0:0:0:0:
248,196,31454,1,0,0:0:0:0:
248,196,31554,1,2,0:0:0:0:
248,196,31654,1,0,0:0:0:0:
248,196,32054,1,2,0:0:0:0:
248,196,32154,1,0,0:0:0:0:
248,196,32254,1,2,0:0:0:0:
248,196,32454,1,2,0:0:0:0:
248,196,32654,1,0,0:0:0:0:
248,196,32854,1,2,0:0:0:0:
248,196,32954,1,0,0:0:0:0:
248,196,33054,1,0,0:0:0:0:
248,196,33454,1,2,0:0:0:0:
248,196,33654,1,0,0:0:0:0:
248,196,33854,1,0,0:0:0:0:
248,196,34254,1,0,0:0:0:0:
248,196,34354,1,2,0:0:0:0:
248,196,34454,1,0,0:0:0:0:
248,196,34854,1,2,0:0:0:0:
248,196,34954,1,0,0:0:0:0:
248,196,35054,1,2,0:0:0:0:
248,196,35154,1,0,0:0:0:0:
248,196,35254,1,0,0:0:0:0:
248,196,35354,1,2,0:0:0:0:
248,196,35454,1,2,0:0:0:0:
248,196,35654,1,2,0:0:0:0:
248,196,36054,1,0,0:0:0:0:
248,196,36654,1,0,0:0:0:0:
248,196,37054,1,2,0:0:0:0:
248,196,37254,1,0,0:0:0:0:
248,196,37454,1,0,0:0:0:0:
248,196,37654,1,2,0:0:0:0:
248,196,38054,1,2,0:0:0:0:
248,196,38254,1,0,0:0:0:0:
248,196,38454,1,0,0:0:0:0:
248,196,38654,1,2,0:0:0:0:
248,196,38854,1,0,0:0:0:0:
248,196,39054,1,0,0:0:0:0:
248,196,39154,1,2,0:0:0:0:
248,196,39254,1,0,0:0:0:0:
260,188,40054,1,0,0:0:0:0:
260,188,40154,1,2,0:0:0:0:
248,196,40254,1,0,0:0:0:0:
248,196,40454,1,0,0:0:0:0:
248,200,40654,1,2,0:0:0:0:
248,196,41054,1,2,0:0:0:0:
248,196,41154,1,0,0:0:0:0:
248,196,41454,1,2,0:0:0:0:
248,196,41854,1,0,0:0:0:0:
248,196,42254,1,2,0:0:0:0:
248,196,42454,1,0,0:0:0:0:
248,196,42654,1,0,0:0:0:0:
248,196,42854,1,2,0:0:0:0:
248,196,43254,1,2,0:0:0:0:
248,196,43454,1,0,0:0:0:0:
248,196,43654,1,0,0:0:0:0:
248,196,43854,1,2,0:0:0:0:
248,196,44054,1,0,0:0:0:0:
248,196,44254,1,0,0:0:0:0:
248,196,44354,1,2,0:0:0:0:
248,196,44454,1,0,0:0:0:0:
248,196,44854,1,2,0:0:0:0:
248,196,44954,1,0,0:0:0:0:
248,196,45054,1,2,0:0:0:0:
248,196,45254,1,2,0:0:0:0:
248,196,45454,1,0,0:0:0:0:
248,196,45654,1,2,0:0:0:0:
248,196,45754,1,0,0:0:0:0:
248,196,45854,1,0,0:0:0:0:
248,196,46254,1,2,0:0:0:0:
248,196,46454,1,0,0:0:0:0:
248,196,46654,1,0,0:0:0:0:
248,196,47054,1,2,0:0:0:0:
248,196,47454,1,2,0:0:0:0:
248,196,47554,1,0,0:0:0:0:
248,196,47654,1,0,0:0:0:0:
248,196,48054,1,0,0:0:0:0:
248,196,48154,1,0,0:0:0:0:
248,196,48254,1,2,0:0:0:0:
248,196,48454,1,2,0:0:0:0:
248,196,48854,1,0,0:0:0:0:
248,196,49254,1,2,0:0:0:0:
248,196,49454,1,2,0:0:0:0:
248,196,49654,1,2,0:0:0:0:
248,196,49854,1,2,0:0:0:0:
248,196,50054,1,0,0:0:0:0:
248,196,50154,1,2,0:0:0:0:
248,196,50254,1,0,0:0:0:0:
248,196,50454,1,2,0:0:0:0:
248,196,50854,1,2,0:0:0:0:
248,196,51054,1,0,0:0:0:0:
248,196,51254,1,0,0:0:0:0:
248,196,51454,1,2,0:0:0:0:
248,196,51654,1,0,0:0:0:0:
248,196,51754,1,2,0:0:0:0:
248,196,51854,1,0,0:0:0:0:
248,196,52054,1,0,0:0:0:0:
256,188,52454,1,0,0:0:0:0:
256,192,52654,1,0,0:0:0:0:
256,192,52754,1,0,0:0:0:0:
260,188,52854,1,0,0:0:0:0:
260,188,52954,1,2,0:0:0:0:
248,196,53054,1,4,0:0:0:0:
248,196,53254,1,0,0:0:0:0:
248,200,53454,1,2,0:0:0:0:
256,192,53654,1,0,0:0:0:0:
256,192,53754,1,0,0:0:0:0:
248,196,53854,1,2,0:0:0:0:
248,196,53954,1,0,0:0:0:0:
256,192,54054,1,0,0:0:0:0:
256,192,54154,1,0,0:0:0:0:
248,196,54254,1,2,0:0:0:0:
248,200,54454,1,0,0:0:0:0:
248,196,54654,1,0,0:0:0:0:
248,196,54754,1,0,0:0:0:0:
248,196,54854,1,2,0:0:0:0:
248,196,54954,1,0,0:0:0:0:
248,196,55054,1,0,0:0:0:0:
252,200,55154,1,2,0:0:0:0:
252,200,55254,1,0,0:0:0:0:
252,200,55454,1,2,0:0:0:0:
252,200,55654,1,2,0:0:0:0:
248,196,55754,1,0,0:0:0:0:
248,196,55854,1,2,0:0:0:0:
248,196,55954,1,0,0:0:0:0:
248,196,56054,1,2,0:0:0:0:
252,200,56154,1,0,0:0:0:0:
252,200,56254,1,2,0:0:0:0:
252,200,56454,1,2,0:0:0:0:
252,200,56554,1,2,0:0:0:0:
252,200,56654,1,0,0:0:0:0:
248,196,56754,1,2,0:0:0:0:
248,196,56854,1,2,0:0:0:0:
248,196,56954,1,2,0:0:0:0:
248,196,57054,1,0,0:0:0:0:
252,200,57254,1,0,0:0:0:0:
252,200,57354,1,2,0:0:0:0:
252,200,57454,1,0,0:0:0:0:
252,200,57554,1,2,0:0:0:0:
252,200,57654,1,0,0:0:0:0:
248,196,57754,1,0,0:0:0:0:
248,196,57854,1,2,0:0:0:0:
256,200,58054,1,2,0:0:0:0:
252,200,58154,1,2,0:0:0:0:
252,200,58254,1,0,0:0:0:0:
252,200,58354,1,2,0:0:0:0:
252,200,58454,1,2,0:0:0:0:
252,200,58554,1,2,0:0:0:0:
252,200,58654,1,0,0:0:0:0:
256,200,58754,1,2,0:0:0:0:
256,200,58854,1,0,0:0:0:0:
256,200,58954,1,0,0:0:0:0:
256,200,59054,1,6,0:0:0:0:
252,200,59254,1,6,0:0:0:0:
252,200,59454,1,4,0:0:0:0:
252,200,59654,1,0,0:0:0:0:
256,200,59754,1,2,0:0:0:0:
256,200,59854,1,0,0:0:0:0:
256,200,59954,1,0,0:0:0:0:
256,200,60054,1,2,0:0:0:0:
252,200,60154,1,2,0:0:0:0:
252,200,60254,1,0,0:0:0:0:
252,200,60454,1,0,0:0:0:0:
252,200,60554,1,2,0:0:0:0:
252,200,60654,1,2,0:0:0:0:
256,200,60754,1,0,0:0:0:0:
256,200,60854,1,0,0:0:0:0:
256,200,60954,1,0,0:0:0:0:
256,200,61054,1,2,0:0:0:0:
252,200,61254,1,0,0:0:0:0:
256,204,61354,1,0,0:0:0:0:
256,204,61454,1,2,0:0:0:0:
256,204,61554,1,0,0:0:0:0:
256,204,61654,1,2,0:0:0:0:
256,204,61754,1,2,0:0:0:0:
256,204,61854,1,2,0:0:0:0:
256,200,62054,1,2,0:0:0:0:
264,200,62154,1,2,0:0:0:0:
264,200,62254,1,2,0:0:0:0:
264,200,62354,1,0,0:0:0:0:
264,200,62454,1,0,0:0:0:0:
264,200,62554,1,2,0:0:0:0:
264,200,62654,1,0,0:0:0:0:
264,200,62854,1,0,0:0:0:0:
264,196,62954,1,0,0:0:0:0:
264,196,63054,1,2,0:0:0:0:
264,200,63154,1,2,0:0:0:0:
264,200,63254,1,0,0:0:0:0:
264,200,63354,1,2,0:0:0:0:
264,200,63454,1,2,0:0:0:0:
264,200,63654,1,0,0:0:0:0:
264,200,63754,1,2,0:0:0:0:
264,200,63854,1,2,0:0:0:0:
264,196,63954,1,0,0:0:0:0:
264,196,64054,1,2,0:0:0:0:
264,200,64154,1,0,0:0:0:0:
264,200,64254,1,2,0:0:0:0:
264,200,64454,1,0,0:0:0:0:
264,200,64554,1,0,0:0:0:0:
264,200,64654,1,2,0:0:0:0:
264,200,64754,1,0,0:0:0:0:
264,200,64854,1,2,0:0:0:0:
264,196,64954,1,0,0:0:0:0:
264,196,65054,1,2,0:0:0:0:
264,200,65154,1,2,0:0:0:0:
264,200,65254,1,0,0:0:0:0:
264,200,65354,1,2,0:0:0:0:
264,200,65454,1,2,0:0:0:0:
264,200,65554,1,0,0:0:0:0:
264,200,65654,1,2,0:0:0:0:
264,200,65854,5,4,0:0:0:0:
256,200,66054,1,0,0:0:0:0:
256,200,66254,1,0,0:0:0:0:
256,200,66454,1,0,0:0:0:0:
256,200,66654,1,0,0:0:0:0:
256,200,66854,1,0,0:0:0:0:
256,200,67054,1,0,0:0:0:0:
256,200,67254,1,0,0:0:0:0:
256,200,67454,1,2,0:0:0:0:
256,200,67654,1,2,0:0:0:0:
256,200,67854,1,2,0:0:0:0:
256,200,68054,1,2,0:0:0:0:
256,200,68254,1,2,0:0:0:0:
256,200,68454,1,2,0:0:0:0:
256,200,68654,1,2,0:0:0:0:
256,200,68854,1,2,0:0:0:0:
256,200,69054,1,0,0:0:0:0:
256,200,69254,1,0,0:0:0:0:
256,200,69454,1,0,0:0:0:0:
256,200,69654,1,0,0:0:0:0:
256,200,69854,1,2,0:0:0:0:
256,200,70054,1,2,0:0:0:0:
256,200,70254,1,2,0:0:0:0:
256,200,70454,1,2,0:0:0:0:
256,200,70654,1,0,0:0:0:0:
256,200,70854,1,0,0:0:0:0:
256,200,71054,1,2,0:0:0:0:
256,200,71254,1,2,0:0:0:0:
256,200,71454,1,0,0:0:0:0:
256,200,71654,1,0,0:0:0:0:
256,200,71854,1,2,0:0:0:0:
256,200,72054,1,2,0:0:0:0:
256,200,72254,1,2,0:0:0:0:
256,200,72354,1,0,0:0:0:0:
256,200,72454,1,2,0:0:0:0:
256,200,72554,1,2,0:0:0:0:
256,200,72654,1,0,0:0:0:0:
256,200,72754,1,2,0:0:0:0:
256,200,72854,1,0,0:0:0:0:
256,200,72954,1,0,0:0:0:0:
256,200,73054,1,2,0:0:0:0:
256,200,73154,1,0,0:0:0:0:
256,200,73254,1,2,0:0:0:0:
256,200,73354,1,2,0:0:0:0:
256,200,73454,1,0,0:0:0:0:
256,200,73554,1,2,0:0:0:0:
256,200,73654,1,0,0:0:0:0:
256,200,73754,1,2,0:0:0:0:
256,200,73854,1,0,0:0:0:0:
256,200,73954,1,0,0:0:0:0:
256,200,74054,1,2,0:0:0:0:
256,200,74154,1,0,0:0:0:0:
256,200,74254,1,2,0:0:0:0:
256,200,74354,1,2,0:0:0:0:
256,200,74454,1,0,0:0:0:0:
256,200,74554,1,2,0:0:0:0:
256,200,74654,1,0,0:0:0:0:
256,200,74754,1,0,0:0:0:0:
256,200,74854,1,2,0:0:0:0:
256,200,74954,1,0,0:0:0:0:
256,200,75054,1,2,0:0:0:0:
256,200,75154,1,0,0:0:0:0:
256,200,75254,1,2,0:0:0:0:
256,200,75354,1,2,0:0:0:0:
256,200,75454,1,0,0:0:0:0:
256,200,75520,1,0,0:0:0:0:
256,200,75587,1,0,0:0:0:0:
256,200,75654,1,0,0:0:0:0:
256,200,75754,1,2,0:0:0:0:
256,200,75854,1,0,0:0:0:0:
256,200,75920,1,0,0:0:0:0:
256,200,75987,1,0,0:0:0:0:
256,200,76054,1,0,0:0:0:0:
256,200,76154,1,2,0:0:0:0:
256,200,76254,1,0,0:0:0:0:
256,200,76320,1,0,0:0:0:0:
256,200,76387,1,0,0:0:0:0:
256,200,76454,1,2,0:0:0:0:
256,200,76554,1,2,0:0:0:0:
256,200,76654,1,0,0:0:0:0:
256,200,76720,1,0,0:0:0:0:
256,200,76787,1,0,0:0:0:0:
256,200,76854,1,2,0:0:0:0:
256,200,76954,1,2,0:0:0:0:
256,200,77054,1,0,0:0:0:0:
256,192,78654,1,2,0:0:0:0:
256,192,78854,1,0,0:0:0:0:
256,192,78954,1,0,0:0:0:0:
256,192,79054,1,2,0:0:0:0:
256,192,79254,1,0,0:0:0:0:
256,192,79354,1,0,0:0:0:0:
256,192,79454,1,2,0:0:0:0:
256,192,79554,1,2,0:0:0:0:
256,192,79654,1,2,0:0:0:0:
256,192,79754,1,2,0:0:0:0:
256,192,79854,1,0,0:0:0:0:
256,192,80054,1,0,0:0:0:0:
256,192,80154,1,0,0:0:0:0:
256,192,80254,1,2,0:0:0:0:
256,192,80454,1,2,0:0:0:0:
256,192,80554,1,0,0:0:0:0:
256,192,80654,1,2,0:0:0:0:
256,192,80854,1,2,0:0:0:0:
256,192,80954,1,0,0:0:0:0:
256,192,81054,1,2,0:0:0:0:
256,192,81154,1,2,0:0:0:0:
256,192,81254,1,2,0:0:0:0:
256,192,81354,1,2,0:0:0:0:
256,192,81454,1,0,0:0:0:0:
256,192,81654,1,0,0:0:0:0:
256,192,81754,1,0,0:0:0:0:
256,192,81854,1,2,0:0:0:0:
256,192,82054,1,2,0:0:0:0:
256,192,82154,1,0,0:0:0:0:
256,192,82254,1,2,0:0:0:0:
256,192,82454,1,0,0:0:0:0:
256,192,82554,1,0,0:0:0:0:
256,192,82654,1,2,0:0:0:0:
256,192,82754,1,0,0:0:0:0:
256,188,82854,1,0,0:0:0:0:
256,188,82954,1,2,0:0:0:0:
256,188,83054,1,0,0:0:0:0:
256,188,83254,1,0,0:0:0:0:
256,188,83354,1,0,0:0:0:0:
256,188,83454,1,2,0:0:0:0:
256,188,83654,1,2,0:0:0:0:
256,188,83754,1,0,0:0:0:0:
256,188,83854,1,2,0:0:0:0:
256,188,84054,1,0,0:0:0:0:
256,188,84154,1,0,0:0:0:0:
256,188,84254,1,2,0:0:0:0:
256,188,84454,1,0,0:0:0:0:
256,188,84654,1,6,0:0:0:0:
256,188,84854,1,6,0:0:0:0:
256,188,85054,1,0,0:0:0:0:
256,188,85254,1,0,0:0:0:0:
256,188,85454,1,2,0:0:0:0:
256,188,85654,1,0,0:0:0:0:
256,188,85754,1,0,0:0:0:0:
256,188,85854,1,2,0:0:0:0:
256,188,85954,1,2,0:0:0:0:
256,188,86054,1,2,0:0:0:0:
256,188,86154,1,2,0:0:0:0:
256,188,86254,1,0,0:0:0:0:
256,188,86454,1,0,0:0:0:0:
256,188,86554,1,0,0:0:0:0:
256,188,86654,1,2,0:0:0:0:
256,188,86854,1,0,0:0:0:0:
256,188,86954,1,0,0:0:0:0:
256,188,87054,1,2,0:0:0:0:
256,188,87254,1,2,0:0:0:0:
256,188,87354,1,0,0:0:0:0:
256,188,87454,1,2,0:0:0:0:
256,188,87554,1,2,0:0:0:0:
256,188,87654,1,0,0:0:0:0:
256,188,87754,1,0,0:0:0:0:
256,188,87854,1,2,0:0:0:0:
256,188,88054,1,2,0:0:0:0:
256,188,88154,1,0,0:0:0:0:
256,188,88254,1,2,0:0:0:0:
256,188,88454,1,0,0:0:0:0:
256,188,88554,1,0,0:0:0:0:
256,188,88654,1,2,0:0:0:0:
256,188,88854,1,2,0:0:0:0:
256,188,88954,1,0,0:0:0:0:
256,188,89054,1,2,0:0:0:0:
256,188,89154,1,2,0:0:0:0:
256,188,89254,1,2,0:0:0:0:
256,188,89354,1,0,0:0:0:0:
256,188,89454,1,2,0:0:0:0:
256,192,89654,1,0,0:0:0:0:
256,192,89754,1,0,0:0:0:0:
256,192,89854,1,2,0:0:0:0:
252,192,90054,1,0,0:0:0:0:
252,192,90154,1,2,0:0:0:0:
252,192,90254,1,0,0:0:0:0:
252,192,90354,1,0,0:0:0:0:
252,192,90454,1,2,0:0:0:0:
256,192,90554,1,2,0:0:0:0:
256,192,90654,1,0,0:0:0:0:
256,192,90754,1,2,0:0:0:0:
256,192,90854,1,2,0:0:0:0:
252,192,90954,1,0,0:0:0:0:
252,192,91054,1,0,0:0:0:0:
252,192,91154,1,2,0:0:0:0:
252,192,91254,1,0,0:0:0:0:
252,192,91454,1,6,0:0:0:0:
248,192,91654,1,0,0:0:0:0:
248,192,91754,1,0,0:0:0:0:
248,192,91854,1,2,0:0:0:0:
248,192,91954,1,0,0:0:0:0:
248,192,92054,1,0,0:0:0:0:
248,192,92154,1,0,0:0:0:0:
248,192,92254,1,2,0:0:0:0:
248,192,92454,1,0,0:0:0:0:
248,192,92554,1,0,0:0:0:0:
248,192,92654,1,2,0:0:0:0:
248,192,92754,1,2,0:0:0:0:
248,192,92854,1,2,0:0:0:0:
248,192,92954,1,0,0:0:0:0:
248,192,93054,1,2,0:0:0:0:
248,192,93254,1,2,0:0:0:0:
248,192,93354,1,0,0:0:0:0:
248,192,93454,1,2,0:0:0:0:
248,192,93554,1,0,0:0:0:0:
248,192,93654,1,0,0:0:0:0:
248,192,93754,1,0,0:0:0:0:
248,192,93854,1,2,0:0:0:0:
248,192,94054,1,2,0:0:0:0:
248,192,94154,1,0,0:0:0:0:
248,192,94254,1,2,0:0:0:0:
248,192,94354,1,2,0:0:0:0:
248,192,94454,1,2,0:0:0:0:
248,192,94554,1,0,0:0:0:0:
248,192,94654,1,2,0:0:0:0:
248,192,94854,1,2,0:0:0:0:
248,192,94954,1,2,0:0:0:0:
248,192,95054,1,0,0:0:0:0:
248,192,95154,1,2,0:0:0:0:
248,192,95254,1,0,0:0:0:0:
248,192,95354,1,0,0:0:0:0:
248,192,95454,1,2,0:0:0:0:
248,192,95654,1,2,0:0:0:0:
248,192,95754,1,2,0:0:0:0:
248,192,95854,1,0,0:0:0:0:
248,192,95954,1,2,0:0:0:0:
248,192,96054,1,2,0:0:0:0:
248,192,96154,1,0,0:0:0:0:
248,192,96254,1,2,0:0:0:0:
248,192,96454,1,0,0:0:0:0:
248,192,96554,1,0,0:0:0:0:
248,192,96654,1,2,0:0:0:0:
252,196,96754,1,2,0:0:0:0:
248,192,96854,1,0,0:0:0:0:
248,192,96954,1,0,0:0:0:0:
248,192,97054,1,2,0:0:0:0:
248,192,97254,1,2,0:0:0:0:
248,192,97354,1,2,0:0:0:0:
248,192,97454,1,0,0:0:0:0:
248,192,97554,1,0,0:0:0:0:
248,192,97654,1,0,0:0:0:0:
252,196,97754,1,0,0:0:0:0:
248,192,97854,1,2,0:0:0:0:
248,192,98054,1,0,0:0:0:0:
248,192,98154,1,0,0:0:0:0:
248,192,98254,1,2,0:0:0:0:
248,192,98354,1,2,0:0:0:0:
248,192,98454,1,0,0:0:0:0:
248,192,98554,1,0,0:0:0:0:
248,192,98654,1,2,0:0:0:0:
252,196,98754,1,2,0:0:0:0:
248,192,98854,1,0,0:0:0:0:
248,192,98954,1,0,0:0:0:0:
244,188,99054,1,2,0:0:0:0:
244,188,99154,1,2,0:0:0:0:
244,188,99254,1,0,0:0:0:0:
244,188,99354,1,0,0:0:0:0:
244,184,99454,1,2,0:0:0:0:
244,184,99554,1,2,0:0:0:0:
244,184,99654,1,0,0:0:0:0:
244,184,99754,1,2,0:0:0:0:
244,184,99854,1,0,0:0:0:0:
244,184,99954,1,0,0:0:0:0:
244,188,100054,1,2,0:0:0:0:
244,188,100154,1,0,0:0:0:0:
244,188,100254,1,2,0:0:0:0:
244,188,100354,1,2,0:0:0:0:
248,188,100454,1,0,0:0:0:0:
248,188,100554,1,2,0:0:0:0:
264,180,100654,1,0,0:0:0:0:
260,184,100754,1,0,0:0:0:0:
260,184,100854,1,2,0:0:0:0:
260,184,100954,1,0,0:0:0:0:
260,184,101054,1,2,0:0:0:0:
260,184,101154,1,2,0:0:0:0:
260,184,101254,1,0,0:0:0:0:
260,184,101354,1,2,0:0:0:0:
264,184,101454,1,0,0:0:0:0:
264,184,101554,1,0,0:0:0:0:
264,184,101654,1,2,0:0:0:0:
260,184,101754,1,2,0:0:0:0:
260,184,101854,1,0,0:0:0:0:
260,184,101954,1,0,0:0:0:0:
260,184,102054,1,2,0:0:0:0:
260,184,102154,1,2,0:0:0:0:
260,184,102254,1,0,0:0:0:0:
260,184,102354,1,0,0:0:0:0:
264,184,102454,1,2,0:0:0:0:
264,184,102554,1,2,0:0:0:0:
264,184,102654,1,0,0:0:0:0:
260,184,102720,1,0,0:0:0:0:
260,184,102787,1,0,0:0:0:0:
260,184,102854,1,0,0:0:0:0:
260,184,102954,1,2,0:0:0:0:
260,184,103054,1,0,0:0:0:0:
256,188,103120,1,0,0:0:0:0:
260,184,103187,1,0,0:0:0:0:
260,184,103254,1,2,0:0:0:0:
260,184,103354,1,2,0:0:0:0:
260,188,103454,1,0,0:0:0:0:
264,184,103520,1,0,0:0:0:0:
260,188,103587,1,2,0:0:0:0:
260,188,103654,1,2,0:0:0:0:
260,184,103754,1,8,0:0:0:0:
260,184,103854,1,0,0:0:0:0:
256,192,104254,1,6,0:0:0:0:
256,192,104454,1,0,0:0:0:0:
256,192,104554,1,0,0:0:0:0:
256,192,104654,1,2,0:0:0:0:
256,192,104854,1,0,0:0:0:0:
256,192,104954,1,0,0:0:0:0:
256,192,105054,1,2,0:0:0:0:
256,192,105154,1,2,0:0:0:0:
256,192,105254,1,2,0:0:0:0:
256,192,105354,1,2,0:0:0:0:
256,192,105454,1,0,0:0:0:0:
256,192,105654,1,2,0:0:0:0:
256,192,105754,1,2,0:0:0:0:
256,192,105854,1,0,0:0:0:0:
256,192,106054,1,2,0:0:0:0:
256,192,106154,1,0,0:0:0:0:
256,192,106254,1,2,0:0:0:0:
256,192,106454,1,2,0:0:0:0:
256,192,106554,1,2,0:0:0:0:
256,192,106654,1,0,0:0:0:0:
256,192,106754,1,2,0:0:0:0:
256,192,106854,1,2,0:0:0:0:
256,192,106954,1,2,0:0:0:0:
256,192,107054,1,0,0:0:0:0:
256,192,107254,1,2,0:0:0:0:
256,192,107354,1,2,0:0:0:0:
256,192,107454,1,0,0:0:0:0:
256,192,107654,1,0,0:0:0:0:
256,192,107754,1,0,0:0:0:0:
256,192,107854,1,2,0:0:0:0:
256,192,108054,1,2,0:0:0:0:
256,192,108154,1,2,0:0:0:0:
256,192,108254,1,0,0:0:0:0:
256,192,108354,1,0,0:0:0:0:
256,188,108454,1,0,0:0:0:0:
256,188,108554,1,2,0:0:0:0:
256,188,108654,1,0,0:0:0:0:
256,188,108854,1,0,0:0:0:0:
256,188,108954,1,0,0:0:0:0:
256,188,109054,1,2,0:0:0:0:
256,188,109154,1,0,0:0:0:0:
256,188,109354,1,0,0:0:0:0:
256,188,109454,1,2,0:0:0:0:
256,188,109654,1,2,0:0:0:0:
256,188,109754,1,2,0:0:0:0:
256,188,109854,1,0,0:0:0:0:
256,188,109920,1,2,0:0:0:0:
256,188,109987,1,2,0:0:0:0:
256,188,110054,1,0,0:0:0:0:
256,188,110254,1,6,0:0:0:0:
256,188,110454,1,6,0:0:0:0:
256,188,110654,1,4,0:0:0:0:
256,188,110854,1,0,0:0:0:0:
256,188,111054,1,2,0:0:0:0:
256,188,111254,1,0,0:0:0:0:
256,188,111354,1,0,0:0:0:0:
256,188,111454,1,2,0:0:0:0:
256,188,111554,1,2,0:0:0:0:
256,188,111654,1,0,0:0:0:0:
256,188,111754,1,0,0:0:0:0:
256,188,111854,1,2,0:0:0:0:
256,188,112054,1,2,0:0:0:0:
256,188,112154,1,2,0:0:0:0:
256,188,112254,1,0,0:0:0:0:
256,188,112454,1,2,0:0:0:0:
256,188,112554,1,0,0:0:0:0:
256,188,112654,1,2,0:0:0:0:
256,188,112854,1,2,0:0:0:0:
256,188,112954,1,2,0:0:0:0:
256,188,113054,1,0,0:0:0:0:
256,188,113154,1,2,0:0:0:0:
256,188,113254,1,2,0:0:0:0:
256,188,113354,1,0,0:0:0:0:
256,188,113454,1,2,0:0:0:0:
256,188,113654,1,2,0:0:0:0:
256,188,113754,1,2,0:0:0:0:
256,188,113854,1,0,0:0:0:0:
256,188,114054,1,2,0:0:0:0:
256,188,114154,1,0,0:0:0:0:
256,188,114254,1,2,0:0:0:0:
256,188,114454,1,2,0:0:0:0:
256,188,114554,1,2,0:0:0:0:
256,188,114654,1,0,0:0:0:0:
256,188,114754,1,2,0:0:0:0:
256,188,114854,1,0,0:0:0:0:
256,188,114954,1,0,0:0:0:0:
256,188,115054,1,2,0:0:0:0:
256,192,115254,1,0,0:0:0:0:
256,192,115354,1,0,0:0:0:0:
256,192,115454,1,2,0:0:0:0:
256,188,115554,1,2,0:0:0:0:
252,192,115654,1,2,0:0:0:0:
252,192,115754,1,0,0:0:0:0:
252,192,115854,1,2,0:0:0:0:
252,192,115954,1,0,0:0:0:0:
252,192,116054,1,2,0:0:0:0:
256,192,116154,1,0,0:0:0:0:
256,192,116254,1,2,0:0:0:0:
256,192,116320,1,2,0:0:0:0:
256,192,116387,1,2,0:0:0:0:
256,192,116454,1,0,0:0:0:0:
252,192,116654,1,4,0:0:0:0:
252,192,116854,1,6,0:0:0:0:
252,192,117054,1,4,0:0:0:0:
248,192,117254,1,0,0:0:0:0:
248,192,117354,1,0,0:0:0:0:
248,192,117454,1,2,0:0:0:0:
248,192,117554,1,0,0:0:0:0:
248,192,117654,1,0,0:0:0:0:
248,192,117754,1,0,0:0:0:0:
248,192,117854,1,2,0:0:0:0:
248,192,118054,1,0,0:0:0:0:
248,192,118154,1,0,0:0:0:0:
248,192,118254,1,2,0:0:0:0:
248,192,118354,1,2,0:0:0:0:
248,192,118454,1,2,0:0:0:0:
248,192,118554,1,0,0:0:0:0:
248,192,118654,1,2,0:0:0:0:
248,192,118854,1,2,0:0:0:0:
248,192,118954,1,0,0:0:0:0:
248,192,119054,1,2,0:0:0:0:
248,192,119154,1,0,0:0:0:0:
248,192,119254,1,0,0:0:0:0:
248,192,119354,1,0,0:0:0:0:
248,192,119454,1,2,0:0:0:0:
248,192,119654,1,2,0:0:0:0:
248,192,119754,1,0,0:0:0:0:
260,196,119854,1,2,0:0:0:0:
260,196,119954,1,0,0:0:0:0:
260,196,120054,1,2,0:0:0:0:
260,196,120154,1,2,0:0:0:0:
248,192,120254,1,0,0:0:0:0:
248,192,120454,1,2,0:0:0:0:
248,192,120554,1,0,0:0:0:0:
248,192,120654,1,2,0:0:0:0:
248,192,120754,1,0,0:0:0:0:
248,192,120854,1,0,0:0:0:0:
248,192,120954,1,0,0:0:0:0:
248,192,121054,1,2,0:0:0:0:
248,192,121254,1,2,0:0:0:0:
248,192,121354,1,0,0:0:0:0:
248,192,121454,1,2,0:0:0:0:
248,192,121554,1,2,0:0:0:0:
248,192,121654,1,2,0:0:0:0:
248,192,121754,1,0,0:0:0:0:
248,192,121854,1,2,0:0:0:0:
248,192,122054,1,0,0:0:0:0:
248,192,122154,1,2,0:0:0:0:
248,192,122354,1,0,0:0:0:0:
248,192,122454,1,2,0:0:0:0:
248,192,122654,1,0,0:0:0:0:
248,192,122720,1,0,0:0:0:0:
248,192,122787,1,2,0:0:0:0:
248,192,122954,1,2,0:0:0:0:
248,192,123054,1,0,0:0:0:0:
248,192,123254,1,2,0:0:0:0:
248,192,123354,1,0,0:0:0:0:
248,192,123454,1,0,0:0:0:0:
248,192,123654,1,2,0:0:0:0:
248,192,123854,1,0,0:0:0:0:
248,192,123954,1,0,0:0:0:0:
252,196,124054,1,2,0:0:0:0:
248,192,124154,1,2,0:0:0:0:
248,192,124254,1,0,0:0:0:0:
248,192,124354,1,0,0:0:0:0:
248,192,124454,1,2,0:0:0:0:
248,192,124554,1,2,0:0:0:0:
248,192,124654,1,0,0:0:0:0:
248,192,124754,1,0,0:0:0:0:
248,192,124854,1,2,0:0:0:0:
252,196,124954,1,2,0:0:0:0:
248,192,125054,1,0,0:0:0:0:
248,192,125154,1,0,0:0:0:0:
248,192,125254,1,2,0:0:0:0:
248,192,125354,1,2,0:0:0:0:
248,192,125454,1,0,0:0:0:0:
248,192,125554,1,2,0:0:0:0:
248,192,125654,1,2,0:0:0:0:
248,192,125754,1,2,0:0:0:0:
248,192,125854,1,0,0:0:0:0:
252,196,125954,1,2,0:0:0:0:
248,192,126054,1,2,0:0:0:0:
248,192,126154,1,2,0:0:0:0:
244,188,126254,1,0,0:0:0:0:
244,188,126354,1,2,0:0:0:0:
244,188,126454,1,2,0:0:0:0:
244,188,126554,1,2,0:0:0:0:
244,184,126654,1,0,0:0:0:0:
244,184,126754,1,2,0:0:0:0:
244,184,126854,1,2,0:0:0:0:
244,184,126954,1,2,0:0:0:0:
244,184,127054,1,0,0:0:0:0:
244,184,127154,1,0,0:0:0:0:
244,188,127254,1,2,0:0:0:0:
244,188,127354,1,0,0:0:0:0:
244,188,127454,1,2,0:0:0:0:
244,188,127554,1,2,0:0:0:0:
248,188,127654,1,0,0:0:0:0:
248,188,127754,1,0,0:0:0:0:
264,180,127854,1,2,0:0:0:0:
260,184,127954,1,0,0:0:0:0:
260,184,128054,1,2,0:0:0:0:
260,184,128154,1,2,0:0:0:0:
264,188,128254,1,0,0:0:0:0:
264,188,129454,1,4,0:0:0:0:
264,188,129654,1,6,0:0:0:0:
264,188,129854,1,4,0:0:0:0:
264,188,130054,1,0,0:0:0:0:
264,188,130154,1,0,0:0:0:0:
264,188,130254,1,2,0:0:0:0:
264,188,130454,1,0,0:0:0:0:
264,188,130554,1,0,0:0:0:0:
264,188,130654,1,2,0:0:0:0:
264,188,130754,1,2,0:0:0:0:
264,188,130854,1,0,0:0:0:0:
264,188,130954,1,0,0:0:0:0:
264,188,131054,1,2,0:0:0:0:
264,188,131254,1,0,0:0:0:0:
264,188,131354,1,0,0:0:0:0:
256,192,131454,1,2,0:0:0:0:
256,192,131654,1,2,0:0:0:0:
256,192,131754,1,0,0:0:0:0:
256,192,131854,1,2,0:0:0:0:
256,192,132054,1,2,0:0:0:0:
256,192,132154,1,0,0:0:0:0:
256,192,132254,1,2,0:0:0:0:
256,192,132354,1,2,0:0:0:0:
256,192,132454,1,2,0:0:0:0:
256,192,132554,1,2,0:0:0:0:
256,192,132654,1,0,0:0:0:0:
256,192,132854,1,2,0:0:0:0:
256,192,132954,1,2,0:0:0:0:
256,192,133054,1,0,0:0:0:0:
256,192,133254,1,2,0:0:0:0:
256,192,133354,1,0,0:0:0:0:
256,192,133454,1,2,0:0:0:0:
256,192,133654,1,2,0:0:0:0:
256,192,133754,1,2,0:0:0:0:
256,192,133854,1,0,0:0:0:0:
256,192,133954,1,2,0:0:0:0:
256,192,134054,1,0,0:0:0:0:
256,192,134154,1,2,0:0:0:0:
256,192,134254,1,0,0:0:0:0:
256,192,134454,1,0,0:0:0:0:
256,192,134554,1,0,0:0:0:0:
256,192,134654,1,2,0:0:0:0:
256,192,134854,1,0,0:0:0:0:
256,192,134954,1,0,0:0:0:0:
256,192,135054,1,2,0:0:0:0:
256,192,135254,1,0,0:0:0:0:
256,192,135354,1,0,0:0:0:0:
256,192,135454,1,2,0:0:0:0:
256,192,135520,1,0,0:0:0:0:
256,188,135587,1,0,0:0:0:0:
256,192,135654,1,2,0:0:0:0:
256,188,135854,1,6,0:0:0:0:
256,188,136054,1,6,0:0:0:0:
256,188,136254,1,4,0:0:0:0:
256,192,136454,1,2,0:0:0:0:
256,192,136554,1,2,0:0:0:0:
260,188,136654,1,0,0:0:0:0:
256,188,136754,1,0,0:0:0:0:
260,188,136854,1,2,0:0:0:0:
260,192,136954,1,2,0:0:0:0:
260,192,137054,1,0,0:0:0:0:
260,192,137254,1,0,0:0:0:0:
256,192,137354,1,0,0:0:0:0:
256,192,137454,1,2,0:0:0:0:
256,192,137554,1,2,0:0:0:0:
260,188,137654,1,0,0:0:0:0:
260,192,137754,1,2,0:0:0:0:
260,188,137854,1,0,0:0:0:0:
260,192,138054,1,2,0:0:0:0:
260,192,138154,1,2,0:0:0:0:
260,192,138254,1,0,0:0:0:0:
256,192,138354,1,0,0:0:0:0:
256,192,138454,1,0,0:0:0:0:
256,192,138554,1,2,0:0:0:0:
260,188,138654,1,0,0:0:0:0:
260,188,138854,1,0,0:0:0:0:
260,192,138954,1,2,0:0:0:0:
260,192,139054,1,0,0:0:0:0:
260,192,139154,1,2,0:0:0:0:
260,192,139254,1,2,0:0:0:0:
256,192,139354,1,2,0:0:0:0:
256,192,139454,1,0,0:0:0:0:
256,192,139654,1,0,0:0:0:0:
256,192,139754,1,0,0:0:0:0:
256,192,139854,1,2,0:0:0:0:
260,192,139954,1,0,0:0:0:0:
260,192,140054,1,0,0:0:0:0:
260,192,140154,1,2,0:0:0:0:
260,192,140254,1,0,0:0:0:0:
256,192,140454,1,4,0:0:0:0:
256,192,140654,1,6,0:0:0:0:
256,192,140854,1,2,0:0:0:0:
252,192,140920,1,0,0:0:0:0:
252,192,140987,1,0,0:0:0:0:
252,192,141054,1,2,0:0:0:0:
248,192,141254,1,0,0:0:0:0:
248,192,141354,1,6,0:0:0:0:
248,192,141554,1,2,0:0:0:0:
252,188,141654,1,4,0:0:0:0:
248,192,141854,1,0,0:0:0:0:
248,192,141954,1,6,0:0:0:0:
248,192,142154,1,2,0:0:0:0:
252,188,142254,1,0,0:0:0:0:
248,192,142354,1,0,0:0:0:0:
248,192,142454,1,2,0:0:0:0:
248,192,142554,1,2,0:0:0:0:
252,188,142654,1,0,0:0:0:0:
252,192,142854,1,0,0:0:0:0:
252,192,142954,1,0,0:0:0:0:
252,192,143054,1,2,0:0:0:0:
252,188,143254,1,0,0:0:0:0:
252,192,143354,1,0,0:0:0:0:
252,192,143454,1,2,0:0:0:0:
252,192,143554,1,2,0:0:0:0:
252,188,143654,1,2,0:0:0:0:
252,192,143754,1,2,0:0:0:0:
252,192,143854,1,0,0:0:0:0:
252,192,143954,1,0,0:0:0:0:
252,192,144054,1,0,0:0:0:0:
252,188,144154,1,0,0:0:0:0:
256,192,144254,1,2,0:0:0:0:
252,192,144454,1,0,0:0:0:0:
252,192,144554,1,2,0:0:0:0:
256,192,144654,1,0,0:0:0:0:
252,192,144854,1,2,0:0:0:0:
252,192,144954,1,2,0:0:0:0:
252,192,145054,1,0,0:0:0:0:
256,192,145154,1,0,0:0:0:0:
256,192,145254,1,0,0:0:0:0:
252,192,145354,1,0,0:0:0:0:
252,192,145454,1,2,0:0:0:0:
252,192,145554,1,0,0:0:0:0:
256,192,145654,1,2,0:0:0:0:
252,192,145754,1,2,0:0:0:0:
252,192,145854,1,0,0:0:0:0:
252,192,146054,1,0,0:0:0:0:
256,192,146154,1,0,0:0:0:0:
256,192,146254,1,2,0:0:0:0:
252,192,146454,1,0,0:0:0:0:
252,192,146554,1,0,0:0:0:0:
256,192,146654,1,2,0:0:0:0:
252,192,146754,1,2,0:0:0:0:
252,192,146854,1,2,0:0:0:0:
252,192,146954,1,2,0:0:0:0:
252,192,147054,1,0,0:0:0:0:
256,192,147154,1,0,0:0:0:0:
256,192,147254,1,2,0:0:0:0:
252,192,147354,1,0,0:0:0:0:
252,192,147454,1,2,0:0:0:0:
252,192,147587,1,2,0:0:0:0:
252,192,147720,1,2,0:0:0:0:
252,192,147854,1,2,0:0:0:0:
252,192,147987,1,2,0:0:0:0:
256,192,148120,1,2,0:0:0:0:
256,192,148254,1,2,0:0:0:0:
252,192,148387,1,2,0:0:0:0:
252,192,148520,1,2,0:0:0:0:
252,192,148654,1,0,0:0:0:0:
252,192,148754,1,0,0:0:0:0:
252,192,148854,1,2,0:0:0:0:
252,192,148920,1,0,0:0:0:0:
252,192,148987,1,0,0:0:0:0:
256,192,149054,1,2,0:0:0:0:
256,192,149254,1,2,0:0:0:0:
256,188,149454,1,2,0:0:0:0:
256,188,149654,1,2,0:0:0:0:
256,188,149854,1,0,0:0:0:0:
256,184,150054,1,0,0:0:0:0:
256,184,150254,1,0,0:0:0:0:
256,188,150454,1,0,0:0:0:0:
256,188,150654,1,2,0:0:0:0:
256,188,150854,1,2,0:0:0:0:
256,184,151054,1,2,0:0:0:0:
256,184,151254,1,2,0:0:0:0:
256,188,151454,1,0,0:0:0:0:
256,188,151654,1,2,0:0:0:0:
256,188,151720,1,2,0:0:0:0:
256,188,151787,1,2,0:0:0:0:
256,188,151854,1,0,0:0:0:0:
256,184,152054,1,0,0:0:0:0:
260,188,152254,1,2,0:0:0:0:
256,188,152354,1,0,0:0:0:0:
256,188,152454,1,0,0:0:0:0:
256,188,152554,1,2,0:0:0:0:
256,188,152654,1,0,0:0:0:0:
256,188,152754,1,2,0:0:0:0:
256,188,152854,1,2,0:0:0:0:
256,184,152954,1,0,0:0:0:0:
256,184,153054,1,0,0:0:0:0:
260,188,153187,1,2,0:0:0:0:
256,188,153320,1,0,0:0:0:0:
256,188,153454,1,2,0:0:0:0:
256,188,153587,1,2,0:0:0:0:
256,188,153720,1,0,0:0:0:0:
256,188,153854,1,0,0:0:0:0:
256,192,155454,1,6,0:0:0:0:
256,192,155654,1,0,0:0:0:0:
256,192,155754,1,0,0:0:0:0:
256,192,155854,1,2,0:0:0:0:
256,192,156054,1,0,0:0:0:0:
256,192,156154,1,0,0:0:0:0:
256,192,156254,1,2,0:0:0:0:
256,192,156354,1,2,0:0:0:0:
256,192,156454,1,2,0:0:0:0:
256,192,156554,1,2,0:0:0:0:
256,192,156654,1,0,0:0:0:0:
256,192,156854,1,0,0:0:0:0:
256,192,156954,1,0,0:0:0:0:
256,192,157054,1,2,0:0:0:0:
256,192,157254,1,2,0:0:0:0:
256,192,157354,1,0,0:0:0:0:
256,192,157454,1,2,0:0:0:0:
256,192,157654,1,2,0:0:0:0:
256,192,157754,1,0,0:0:0:0:
256,192,157854,1,2,0:0:0:0:
256,192,157954,1,2,0:0:0:0:
256,192,158054,1,2,0:0:0:0:
256,192,158154,1,2,0:0:0:0:
256,192,158254,1,0,0:0:0:0:
256,192,158454,1,0,0:0:0:0:
256,192,158554,1,0,0:0:0:0:
256,192,158654,1,2,0:0:0:0:
256,192,158854,1,2,0:0:0:0:
256,192,158954,1,0,0:0:0:0:
256,192,159054,1,2,0:0:0:0:
256,192,159254,1,0,0:0:0:0:
256,192,159354,1,0,0:0:0:0:
256,192,159454,1,2,0:0:0:0:
256,192,159554,1,0,0:0:0:0:
256,188,159654,1,0,0:0:0:0:
256,188,159754,1,2,0:0:0:0:
256,188,159854,1,0,0:0:0:0:
256,188,160054,1,0,0:0:0:0:
256,188,160154,1,0,0:0:0:0:
256,188,160254,1,2,0:0:0:0:
256,188,160354,1,2,0:0:0:0:
256,188,160554,1,0,0:0:0:0:
256,188,160654,1,2,0:0:0:0:
256,188,160854,1,0,0:0:0:0:
256,188,160954,1,0,0:0:0:0:
256,188,161054,1,2,0:0:0:0:
256,188,161120,1,2,0:0:0:0:
256,188,161187,1,2,0:0:0:0:
256,188,161254,1,0,0:0:0:0:
256,188,161454,1,6,0:0:0:0:
256,188,161654,1,6,0:0:0:0:
256,188,161854,1,4,0:0:0:0:
256,188,162054,1,0,0:0:0:0:
256,188,162254,1,2,0:0:0:0:
256,188,162454,1,0,0:0:0:0:
256,188,162554,1,0,0:0:0:0:
256,188,162654,1,2,0:0:0:0:
256,188,162754,1,2,0:0:0:0:
256,188,162854,1,2,0:0:0:0:
256,188,162954,1,2,0:0:0:0:
256,188,163054,1,0,0:0:0:0:
256,188,163254,1,0,0:0:0:0:
256,188,163354,1,0,0:0:0:0:
256,188,163454,1,2,0:0:0:0:
256,188,163654,1,0,0:0:0:0:
256,188,163754,1,0,0:0:0:0:
256,188,163854,1,2,0:0:0:0:
256,188,164054,1,2,0:0:0:0:
256,188,164154,1,0,0:0:0:0:
256,188,164254,1,2,0:0:0:0:
256,188,164354,1,2,0:0:0:0:
256,188,164454,1,2,0:0:0:0:
256,188,164554,1,0,0:0:0:0:
256,188,164654,1,2,0:0:0:0:
256,188,164854,1,2,0:0:0:0:
256,188,164954,1,0,0:0:0:0:
256,188,165054,1,2,0:0:0:0:
256,188,165254,1,0,0:0:0:0:
256,188,165354,1,0,0:0:0:0:
256,188,165454,1,2,0:0:0:0:
256,188,165654,1,2,0:0:0:0:
256,188,165754,1,0,0:0:0:0:
256,188,165854,1,2,0:0:0:0:
256,188,165954,1,2,0:0:0:0:
256,188,166054,1,0,0:0:0:0:
256,188,166154,1,0,0:0:0:0:
256,188,166254,1,2,0:0:0:0:
256,192,166454,1,0,0:0:0:0:
256,192,166554,1,2,0:0:0:0:
256,192,166654,1,2,0:0:0:0:
252,192,166854,1,2,0:0:0:0:
252,192,166954,1,0,0:0:0:0:
252,192,167054,1,2,0:0:0:0:
252,192,167154,1,0,0:0:0:0:
252,192,167254,1,2,0:0:0:0:
256,192,167354,1,0,0:0:0:0:
256,192,167454,1,2,0:0:0:0:
256,192,167520,1,2,0:0:0:0:
256,192,167587,1,2,0:0:0:0:
256,192,167654,1,0,0:0:0:0:
252,192,167854,1,0,0:0:0:0:
252,192,168054,1,0,0:0:0:0:
252,192,168154,1,2,0:0:0:0:
252,192,168254,1,4,0:0:0:0:
248,192,168454,1,0,0:0:0:0:
256,192,168554,1,0,0:0:0:0:
248,192,168654,1,2,0:0:0:0:
248,192,168854,1,0,0:0:0:0:
248,192,169054,1,2,0:0:0:0:
248,192,169254,1,0,0:0:0:0:
248,192,169354,1,0,0:0:0:0:
248,192,169454,1,2,0:0:0:0:
248,192,169654,1,0,0:0:0:0:
248,192,169854,1,2,0:0:0:0:
248,192,170054,1,2,0:0:0:0:
248,192,170154,1,0,0:0:0:0:
248,192,170254,1,2,0:0:0:0:
248,192,170454,1,0,0:0:0:0:
248,192,170654,1,2,0:0:0:0:
248,192,170854,1,2,0:0:0:0:
248,192,170954,1,0,0:0:0:0:
260,196,171054,1,0,0:0:0:0:
260,196,171254,1,0,0:0:0:0:
248,192,171454,1,2,0:0:0:0:
248,192,171654,1,2,0:0:0:0:
248,192,171754,1,2,0:0:0:0:
248,192,171854,1,0,0:0:0:0:
248,192,172054,1,0,0:0:0:0:
248,192,172254,1,2,0:0:0:0:
248,192,172454,1,2,0:0:0:0:
248,192,172554,1,0,0:0:0:0:
248,192,172654,1,2,0:0:0:0:
248,192,172854,1,0,0:0:0:0:
248,192,173054,1,2,0:0:0:0:
248,192,173254,1,0,0:0:0:0:
248,192,173354,1,2,0:0:0:0:
248,192,173554,1,2,0:0:0:0:
248,192,173654,1,0,0:0:0:0:
248,192,173854,1,0,0:0:0:0:
248,192,173954,1,2,0:0:0:0:
248,192,174154,1,2,0:0:0:0:
248,192,174254,1,0,0:0:0:0:
248,192,174454,1,2,0:0:0:0:
248,192,174554,1,0,0:0:0:0:
248,192,174654,1,0,0:0:0:0:
248,192,174754,1,0,0:0:0:0:
248,192,174854,1,2,0:0:0:0:
248,192,174954,1,2,0:0:0:0:
248,192,175054,1,0,0:0:0:0:
248,192,175154,1,0,0:0:0:0:
252,196,175254,1,2,0:0:0:0:
248,192,175354,1,2,0:0:0:0:
248,192,175454,1,0,0:0:0:0:
248,192,175554,1,0,0:0:0:0:
248,192,175654,1,2,0:0:0:0:
248,192,175754,1,2,0:0:0:0:
248,192,175854,1,0,0:0:0:0:
248,192,175954,1,0,0:0:0:0:
248,192,176054,1,2,0:0:0:0:
252,196,176154,1,2,0:0:0:0:
248,192,176254,1,0,0:0:0:0:
248,192,176354,1,2,0:0:0:0:
248,192,176454,1,0,0:0:0:0:
248,192,176554,1,2,0:0:0:0:
248,192,176654,1,0,0:0:0:0:
248,192,176754,1,2,0:0:0:0:
248,192,176854,1,0,0:0:0:0:
248,192,176954,1,2,0:0:0:0:
248,192,177054,1,2,0:0:0:0:
252,196,177154,1,0,0:0:0:0:
248,192,177254,1,0,0:0:0:0:
248,192,177354,1,2,0:0:0:0:
244,188,177454,1,2,0:0:0:0:
244,188,177554,1,0,0:0:0:0:
244,188,177654,1,2,0:0:0:0:
244,188,177754,1,2,0:0:0:0:
244,184,177854,1,0,0:0:0:0:
244,184,177954,1,2,0:0:0:0:
244,184,178054,1,0,0:0:0:0:
244,184,178154,1,2,0:0:0:0:
244,184,178254,1,0,0:0:0:0:
244,184,178354,1,0,0:0:0:0:
244,188,178454,1,2,0:0:0:0:
244,188,178554,1,0,0:0:0:0:
244,188,178654,1,0,0:0:0:0:
244,188,178754,1,2,0:0:0:0:
248,188,178854,1,0,0:0:0:0:
248,188,178954,1,2,0:0:0:0:
264,180,179054,1,0,0:0:0:0:
260,184,179154,1,0,0:0:0:0:
260,184,179254,1,2,0:0:0:0:
260,184,179354,1,2,0:0:0:0:
264,188,179454,1,0,0:0:0:0:
256,192,179554,8,2,181054,0:0:0:0:
256,192,182654,5,2,0:0:0:0:
256,192,183454,1,2,0:0:0:0:
256,192,184254,1,0,0:0:0:0:
256,192,185054,1,0,0:0:0:0:
256,192,185854,1,2,0:0:0:0:
256,192,186654,1,2,0:0:0:0:
256,192,187454,1,0,0:0:0:0:
256,192,188254,1,0,0:0:0:0:
256,192,189054,1,2,0:0:0:0:
256,192,189854,1,2,0:0:0:0:
256,192,190654,1,2,0:0:0:0:
256,192,191454,1,0,0:0:0:0:
256,196,192254,1,2,0:0:0:0:
256,196,193854,1,2,0:0:0:0:
256,196,194654,1,0,0:0:0:0:
256,196,195454,1,2,0:0:0:0:
256,196,196254,1,2,0:0:0:0:
256,196,197054,1,0,0:0:0:0:
256,196,197854,1,0,0:0:0:0:
256,196,198654,1,2,0:0:0:0:
256,196,199454,1,2,0:0:0:0:
256,196,200254,1,0,0:0:0:0:
256,196,201054,1,0,0:0:0:0:
256,196,201454,1,2,0:0:0:0:
256,196,201854,1,0,0:0:0:0:
256,196,202654,1,0,0:0:0:0:
256,196,203054,1,2,0:0:0:0:
256,196,203454,1,2,0:0:0:0:
256,196,204254,1,0,0:0:0:0:
256,196,204654,1,2,0:0:0:0:
256,196,205054,1,2,0:0:0:0:
256,192,205154,8,2,206254,0:0:0:0:
252,188,206354,5,2,0:0:0:0:
252,188,206504,1,2,0:0:0:0:
252,188,206654,1,0,0:0:0:0:
252,188,207054,1,0,0:0:0:0:
252,188,207454,1,2,0:0:0:0:
252,188,207854,1,0,0:0:0:0:
252,188,208254,1,2,0:0:0:0:
252,188,208854,1,0,0:0:0:0:
252,188,209054,1,0,0:0:0:0:
252,188,209254,1,2,0:0:0:0:
252,188,209654,1,2,0:0:0:0:
252,188,210054,1,0,0:0:0:0:
252,188,210254,1,2,0:0:0:0:
252,188,210654,1,0,0:0:0:0:
252,188,210754,1,2,0:0:0:0:
252,188,210854,1,0,0:0:0:0:
252,188,211254,1,2,0:0:0:0:
252,188,211354,1,0,0:0:0:0:
252,188,211454,1,2,0:0:0:0:
252,188,211854,1,2,0:0:0:0:
252,188,212254,1,2,0:0:0:0:
252,188,212354,1,0,0:0:0:0:
252,188,212454,1,2,0:0:0:0:
252,188,212654,1,2,0:0:0:0:
252,188,212854,1,0,0:0:0:0:
252,188,213454,1,2,0:0:0:0:
252,188,213554,1,0,0:0:0:0:
252,188,213654,1,2,0:0:0:0:
252,188,214054,1,0,0:0:0:0:
252,188,214154,1,2,0:0:0:0:
252,188,214254,1,2,0:0:0:0:
252,188,214354,1,0,0:0:0:0:
252,188,214454,1,0,0:0:0:0:
252,188,214554,1,2,0:0:0:0:
252,188,214654,1,2,0:0:0:0:
252,188,214854,1,0,0:0:0:0:
252,188,215254,1,0,0:0:0:0:
252,188,215854,1,0,0:0:0:0:
252,188,216254,1,0,0:0:0:0:
252,188,216454,1,0,0:0:0:0:
252,188,216654,1,2,0:0:0:0:
252,188,216854,1,2,0:0:0:0:
252,188,217254,1,0,0:0:0:0:
252,188,217654,1,2,0:0:0:0:
252,188,217754,1,0,0:0:0:0:
252,188,217854,1,2,0:0:0:0:
252,188,218054,1,0,0:0:0:0:
252,188,218254,1,0,0:0:0:0:
252,188,218454,1,0,0:0:0:0:
252,188,218554,1,0,0:0:0:0:
252,188,218654,1,2,0:0:0:0:
252,188,219254,1,0,0:0:0:0:
252,188,219354,1,2,0:0:0:0:
252,188,219454,1,0,0:0:0:0:
252,188,219654,1,0,0:0:0:0:
252,188,219854,1,2,0:0:0:0:
252,188,220254,1,2,0:0:0:0:
252,188,220354,1,2,0:0:0:0:
252,188,220454,1,0,0:0:0:0:
252,188,220554,1,0,0:0:0:0:
252,188,220654,1,0,0:0:0:0:
252,188,221054,1,0,0:0:0:0:
252,188,221454,1,0,0:0:0:0:
252,188,221654,1,0,0:0:0:0:
252,188,221854,1,2,0:0:0:0:
252,188,222054,1,2,0:0:0:0:
252,188,222454,1,2,0:0:0:0:
252,188,222854,1,0,0:0:0:0:
252,188,223054,1,2,0:0:0:0:
252,188,223254,1,0,0:0:0:0:
252,188,223454,1,0,0:0:0:0:
252,188,223554,1,2,0:0:0:0:
252,188,223654,1,0,0:0:0:0:
252,188,224054,1,2,0:0:0:0:
252,188,224154,1,0,0:0:0:0:
252,188,224254,1,2,0:0:0:0:
252,188,224454,1,0,0:0:0:0:
252,188,224654,1,2,0:0:0:0:
252,188,224854,1,0,0:0:0:0:
252,188,224920,1,2,0:0:0:0:
256,184,224987,1,2,0:0:0:0:
256,184,225054,1,0,0:0:0:0:
252,188,225254,1,2,0:0:0:0:
252,188,225454,1,2,0:0:0:0:
252,188,225654,1,0,0:0:0:0:
252,188,225854,1,0,0:0:0:0:
252,188,226254,1,2,0:0:0:0:
252,188,226654,1,2,0:0:0:0:
252,188,226754,1,2,0:0:0:0:
252,188,226854,1,0,0:0:0:0:
252,188,227254,1,0,0:0:0:0:
252,188,227454,1,0,0:0:0:0:
252,188,227654,1,2,0:0:0:0:
252,188,228054,1,2,0:0:0:0:
252,188,228454,1,2,0:0:0:0:
252,188,228654,1,2,0:0:0:0:
252,188,228854,1,2,0:0:0:0:
252,188,229054,1,2,0:0:0:0:
252,188,229254,1,0,0:0:0:0:
252,188,229320,1,2,0:0:0:0:
252,188,229387,1,2,0:0:0:0:
252,188,229454,1,0,0:0:0:0:
252,188,229654,1,0,0:0:0:0:
252,188,230254,1,0,0:0:0:0:
252,188,230454,1,2,0:0:0:0:
252,188,230854,1,2,0:0:0:0:
252,188,231254,1,2,0:0:0:0:
252,188,231654,1,2,0:0:0:0:
252,188,231754,1,0,0:0:0:0:
252,188,231854,1,2,0:0:0:0:
252,188,231954,1,0,0:0:0:0:
252,188,232054,1,0,0:0:0:0:
252,188,232154,1,2,0:0:0:0:
252,188,232254,1,0,0:0:0:0:
256,192,232354,8,0,237054,0:0:0:0:
256,192,238654,5,0,0:0:0:0:
256,192,239454,1,2,0:0:0:0:
256,192,240254,1,0,0:0:0:0:
256,192,240654,1,2,0:0:0:0:
256,192,241054,1,2,0:0:0:0:
256,192,241454,1,2,0:0:0:0:
256,192,241854,1,0,0:0:0:0:
256,192,242054,1,2,0:0:0:0:
256,192,242254,1,2,0:0:0:0:
256,192,242454,1,2,0:0:0:0:
256,192,242654,1,2,0:0:0:0:
256,192,242854,1,2,0:0:0:0:
256,192,243054,1,2,0:0:0:0:
256,192,243154,1,2,0:0:0:0:
256,192,243254,1,2,0:0:0:0:
256,192,243354,1,2,0:0:0:0:
256,192,243454,1,0,0:0:0:0:
256,192,243854,1,2,0:0:0:0:
256,192,243954,1,0,0:0:0:0:
256,192,244054,1,2,0:0:0:0:
256,192,244120,1,2,0:0:0:0:
256,192,244187,1,2,0:0:0:0:
256,192,244254,1,2,0:0:0:0:
256,192,244354,1,4,0:0:0:0:
256,192,244554,1,2,0:0:0:0:
256,192,244654,1,4,0:0:0:0:
256,192,244854,1,0,0:0:0:0:
256,192,244954,1,0,0:0:0:0:
256,192,245054,1,2,0:0:0:0:
256,192,245154,1,0,0:0:0:0:
256,192,245254,1,0,0:0:0:0:
256,192,245354,1,2,0:0:0:0:
256,192,245454,1,0,0:0:0:0:
256,192,245554,1,0,0:0:0:0:
256,192,245654,1,2,0:0:0:0:
256,192,245754,1,0,0:0:0:0:
256,192,245854,1,2,0:0:0:0:
256,192,245954,1,0,0:0:0:0:
256,192,246054,1,0,0:0:0:0:
256,192,246154,1,2,0:0:0:0:
256,192,246254,1,0,0:0:0:0:
256,192,246354,1,0,0:0:0:0:
256,192,246454,1,2,0:0:0:0:
256,192,246554,1,0,0:0:0:0:
256,192,246654,1,0,0:0:0:0:
256,192,246754,1,2,0:0:0:0:
256,192,246854,1,2,0:0:0:0:
256,192,246954,1,0,0:0:0:0:
256,192,247054,1,2,0:0:0:0:
256,192,247154,1,2,0:0:0:0:
256,192,247254,1,0,0:0:0:0:
256,192,247354,1,2,0:0:0:0:
256,192,247454,1,0,0:0:0:0:
256,192,247554,1,2,0:0:0:0:
256,192,247654,1,2,0:0:0:0:
256,192,247754,1,0,0:0:0:0:
256,192,247854,1,2,0:0:0:0:
256,192,247954,1,2,0:0:0:0:
256,192,248054,1,0,0:0:0:0:
256,192,248154,1,2,0:0:0:0:
256,192,248254,1,2,0:0:0:0:
256,192,248354,1,0,0:0:0:0:
256,192,248454,1,0,0:0:0:0:
256,192,248554,1,2,0:0:0:0:
256,192,248654,1,0,0:0:0:0:
256,192,248754,1,0,0:0:0:0:
256,192,248854,1,2,0:0:0:0:
256,192,248954,1,0,0:0:0:0:
256,192,249054,1,2,0:0:0:0:
256,192,249154,1,0,0:0:0:0:
256,192,249254,1,0,0:0:0:0:
256,192,249354,1,2,0:0:0:0:
256,192,249454,1,0,0:0:0:0:
256,192,249554,1,0,0:0:0:0:
256,192,249654,1,2,0:0:0:0:
256,192,249754,1,0,0:0:0:0:
256,192,249854,1,0,0:0:0:0:
256,192,249954,1,2,0:0:0:0:
256,192,250054,1,2,0:0:0:0:
256,192,250154,1,0,0:0:0:0:
256,192,250254,1,2,0:0:0:0:
256,192,250354,1,2,0:0:0:0:
256,192,250454,1,0,0:0:0:0:
256,192,250554,1,2,0:0:0:0:
256,192,250654,1,0,0:0:0:0:
256,192,250754,1,2,0:0:0:0:
256,192,250854,1,2,0:0:0:0:
256,192,250954,1,0,0:0:0:0:
256,192,251454,1,2,0:0:0:0:
256,192,251554,1,0,0:0:0:0:
256,192,251654,1,0,0:0:0:0:
256,192,251754,1,2,0:0:0:0:
256,192,251854,1,0,0:0:0:0:
256,192,251954,1,0,0:0:0:0:
256,192,252054,1,2,0:0:0:0:
256,192,252154,1,0,0:0:0:0:
256,192,252254,1,2,0:0:0:0:
256,192,252354,1,0,0:0:0:0:
256,192,252454,1,0,0:0:0:0:
256,192,252554,1,2,0:0:0:0:
256,192,252654,1,0,0:0:0:0:
256,192,252754,1,0,0:0:0:0:
256,192,252854,1,2,0:0:0:0:
256,192,252954,1,0,0:0:0:0:
256,192,253054,1,0,0:0:0:0:
256,192,253154,1,2,0:0:0:0:
256,192,253254,1,2,0:0:0:0:
256,192,253354,1,0,0:0:0:0:
256,192,253454,1,2,0:0:0:0:
256,192,253554,1,2,0:0:0:0:
256,192,253654,1,0,0:0:0:0:
256,192,253754,1,2,0:0:0:0:
256,192,253854,1,0,0:0:0:0:
256,192,253954,1,2,0:0:0:0:
256,192,254054,1,2,0:0:0:0:
256,192,254154,1,0,0:0:0:0:
256,192,254254,1,2,0:0:0:0:
256,192,254354,1,2,0:0:0:0:
256,192,254454,1,0,0:0:0:0:
256,192,254554,1,2,0:0:0:0:
256,192,254654,1,2,0:0:0:0:
256,192,254754,1,0,0:0:0:0:
256,192,254854,1,0,0:0:0:0:
256,192,254954,1,2,0:0:0:0:
256,192,255054,1,0,0:0:0:0:
256,192,255154,1,0,0:0:0:0:
256,192,255254,1,2,0:0:0:0:
256,192,255354,1,0,0:0:0:0:
256,192,255454,1,2,0:0:0:0:
256,192,255554,1,0,0:0:0:0:
256,192,255654,1,0,0:0:0:0:
256,192,255754,1,2,0:0:0:0:
256,192,255854,1,0,0:0:0:0:
256,192,255954,1,0,0:0:0:0:
256,192,256054,1,2,0:0:0:0:
256,192,256154,1,0,0:0:0:0:
256,192,256254,1,0,0:0:0:0:
256,192,256354,1,2,0:0:0:0:
256,192,256454,1,2,0:0:0:0:
256,192,256554,1,0,0:0:0:0:
256,192,256654,1,2,0:0:0:0:
256,192,256754,1,2,0:0:0:0:
256,192,256854,1,0,0:0:0:0:
256,192,256954,1,2,0:0:0:0:
256,192,257054,1,0,0:0:0:0:
256,192,257154,1,2,0:0:0:0:
256,192,257254,1,2,0:0:0:0:
256,192,257354,1,0,0:0:0:0:
256,192,257854,5,2,0:0:0:0:
256,192,257920,1,2,0:0:0:0:
256,192,257987,1,2,0:0:0:0:
256,192,258054,1,2,0:0:0:0:
256,192,258154,1,0,0:0:0:0:
256,192,258254,1,2,0:0:0:0:
256,192,258320,1,2,0:0:0:0:
256,192,258387,1,2,0:0:0:0:
256,192,258454,1,2,0:0:0:0:
256,192,258554,1,0,0:0:0:0:
256,192,258654,1,2,0:0:0:0:
256,192,258720,1,2,0:0:0:0:
260,192,258787,1,2,0:0:0:0:
256,192,258854,1,2,0:0:0:0:
256,192,258954,1,0,0:0:0:0:
256,192,259054,1,2,0:0:0:0:
256,192,259454,1,0,0:0:0:0:
256,192,259520,1,0,0:0:0:0:
256,192,259587,1,0,0:0:0:0:
256,192,259654,1,0,0:0:0:0:
256,192,259754,1,2,0:0:0:0:
256,192,259854,1,0,0:0:0:0:
256,192,259920,1,0,0:0:0:0:
256,192,259987,1,0,0:0:0:0:
256,192,260054,1,0,0:0:0:0:
256,192,260154,1,2,0:0:0:0:
256,192,260254,1,0,0:0:0:0:
256,192,260320,1,0,0:0:0:0:
256,192,260387,1,0,0:0:0:0:
256,192,260454,1,0,0:0:0:0:
256,192,260554,1,2,0:0:0:0:
256,192,260654,1,0,0:0:0:0:
256,192,261054,1,2,0:0:0:0:
256,192,261120,1,2,0:0:0:0:
256,192,261187,1,2,0:0:0:0:
256,192,261254,1,0,0:0:0:0:
256,192,261354,1,0,0:0:0:0:
256,192,261454,1,2,0:0:0:0:
256,192,261520,1,2,0:0:0:0:
256,192,261587,1,2,0:0:0:0:
256,192,261654,1,0,0:0:0:0:
256,192,261754,1,0,0:0:0:0:
256,192,261854,1,2,0:0:0:0:
256,192,261920,1,2,0:0:0:0:
260,192,261987,1,2,0:0:0:0:
256,192,262054,1,0,0:0:0:0:
256,192,262154,1,0,0:0:0:0:
256,192,262254,1,2,0:0:0:0:
256,192,262654,1,0,0:0:0:0:
256,192,262720,1,0,0:0:0:0:
256,192,262787,1,0,0:0:0:0:
256,192,262854,1,2,0:0:0:0:
256,192,262954,1,2,0:0:0:0:
256,192,263054,1,0,0:0:0:0:
256,192,263120,1,0,0:0:0:0:
256,192,263187,1,0,0:0:0:0:
256,192,263254,1,2,0:0:0:0:
256,192,263354,1,2,0:0:0:0:
256,192,263454,1,0,0:0:0:0:
256,192,263520,1,0,0:0:0:0:
256,192,263587,1,0,0:0:0:0:
256,192,263654,1,2,0:0:0:0:
256,192,263754,1,2,0:0:0:0:
256,192,263854,1,0,0:0:0:0:
256,192,264254,1,2,0:0:0:0:
256,192,264320,1,2,0:0:0:0:
256,192,264387,1,2,0:0:0:0:
256,192,264454,1,0,0:0:0:0:
256,192,264554,1,0,0:0:0:0:
256,192,264654,1,2,0:0:0:0:
256,192,264720,1,2,0:0:0:0:
256,192,264787,1,2,0:0:0:0:
256,192,264854,1,0,0:0:0:0:
256,192,264954,1,0,0:0:0:0:
256,192,265054,1,2,0:0:0:0:
256,192,265120,1,2,0:0:0:0:
260,192,265187,1,2,0:0:0:0:
256,192,265254,1,0,0:0:0:0:
256,192,265354,1,0,0:0:0:0:
256,192,265454,1,2,0:0:0:0:
256,192,265554,1,2,0:0:0:0:
256,192,265654,1,0,0:0:0:0:
256,192,265754,1,2,0:0:0:0:
256,192,265854,1,0,0:0:0:0:
256,192,265920,1,0,0:0:0:0:
256,192,265987,1,0,0:0:0:0:
256,192,266054,1,2,0:0:0:0:
256,192,266154,1,2,0:0:0:0:
256,192,266254,1,0,0:0:0:0:
256,192,266320,1,0,0:0:0:0:
256,192,266387,1,0,0:0:0:0:
256,192,266454,1,2,0:0:0:0:
256,192,266554,1,2,0:0:0:0:
256,192,266654,1,0,0:0:0:0:
256,192,266720,1,0,0:0:0:0:
260,192,266787,1,0,0:0:0:0:
256,192,266854,1,2,0:0:0:0:
256,192,266954,1,2,0:0:0:0:
256,192,267054,1,0,0:0:0:0:
256,192,267154,1,0,0:0:0:0:
256,192,267254,1,2,0:0:0:0:
256,192,267354,1,2,0:0:0:0:
256,192,267454,1,0,0:0:0:0:
256,192,267520,1,0,0:0:0:0:
256,192,267587,1,0,0:0:0:0:
256,192,267654,1,2,0:0:0:0:
256,192,267754,1,0,0:0:0:0:
256,192,267854,1,2,0:0:0:0:
256,192,267920,1,2,0:0:0:0:
256,192,267987,1,2,0:0:0:0:
256,192,268054,1,0,0:0:0:0:
256,192,268154,1,2,0:0:0:0:
256,192,268254,1,0,0:0:0:0:
256,192,268320,1,0,0:0:0:0:
256,192,268387,1,0,0:0:0:0:
256,192,268454,1,2,0:0:0:0:
256,192,268554,1,0,0:0:0:0:
256,192,268654,1,2,0:0:0:0:
256,192,268720,1,0,0:0:0:0:
256,192,268787,1,0,0:0:0:0:
256,192,268854,1,2,0:0:0:0:
256,192,268954,1,2,0:0:0:0:
256,192,269054,1,0,0:0:0:0:
256,192,270254,1,6,0:0:0:0:
256,192,270454,1,4,0:0:0:0:
256,192,270654,1,0,0:0:0:0:
256,192,270754,1,0,0:0:0:0:
256,192,270854,1,0,0:0:0:0:
256,192,270954,1,2,0:0:0:0:
256,192,271154,1,2,0:0:0:0:
256,192,271254,1,2,0:0:0:0:
256,192,271354,1,0,0:0:0:0:
256,192,271554,1,0,0:0:0:0:
256,192,271654,1,0,0:0:0:0:
256,192,271754,1,2,0:0:0:0:
256,192,271854,1,0,0:0:0:0:
256,192,271954,1,0,0:0:0:0:
256,192,272054,1,0,0:0:0:0:
256,192,272154,1,2,0:0:0:0:
256,192,272254,1,0,0:0:0:0:
256,192,272354,1,0,0:0:0:0:
256,192,272454,1,2,0:0:0:0:
256,192,272554,1,2,0:0:0:0:
256,192,272654,1,0,0:0:0:0:
256,192,272720,1,0,0:0:0:0:
256,192,272787,1,0,0:0:0:0:
256,192,272854,1,2,0:0:0:0:
256,192,272954,1,2,0:0:0:0:
256,192,273154,1,0,0:0:0:0:
256,192,273254,1,0,0:0:0:0:
256,192,273354,1,2,0:0:0:0:
256,192,273454,1,0,0:0:0:0:
256,192,273554,1,0,0:0:0:0:
256,192,273654,1,2,0:0:0:0:
256,192,273754,1,0,0:0:0:0:
256,192,273854,1,2,0:0:0:0:
256,192,273954,1,0,0:0:0:0:
256,192,274054,1,0,0:0:0:0:
256,192,274154,1,2,0:0:0:0:
256,192,274354,1,2,0:0:0:0:
256,192,274454,1,0,0:0:0:0:
256,192,274554,1,2,0:0:0:0:
256,192,274754,1,2,0:0:0:0:
256,192,274854,1,0,0:0:0:0:
256,192,274954,1,2,0:0:0:0:
256,192,275054,1,0,0:0:0:0:
256,192,275154,1,0,0:0:0:0:
256,192,275254,1,2,0:0:0:0:
256,192,275354,1,2,0:0:0:0:
256,192,275454,1,0,0:0:0:0:
256,192,275554,1,0,0:0:0:0:
256,192,275654,1,2,0:0:0:0:
256,192,275754,1,2,0:0:0:0:
256,192,275854,1,0,0:0:0:0:
256,192,275954,1,0,0:0:0:0:
256,192,276054,1,2,0:0:0:0:
256,192,276154,1,2,0:0:0:0:
256,192,276254,1,0,0:0:0:0:
256,192,276321,1,0,0:0:0:0:
256,192,276387,1,0,0:0:0:0:
256,192,276454,1,2,0:0:0:0:
256,192,276654,1,2,0:0:0:0:
256,192,276754,1,0,0:0:0:0:
256,192,276854,1,0,0:0:0:0:
256,192,276954,1,0,0:0:0:0:
256,192,277054,1,2,0:0:0:0:
256,192,277154,1,0,0:0:0:0:
256,192,277254,1,2,0:0:0:0:
256,192,277354,1,2,0:0:0:0:
256,192,277554,1,2,0:0:0:0:
256,192,277654,1,0,0:0:0:0:
256,192,277754,1,0,0:0:0:0:
256,192,277954,1,0,0:0:0:0:
256,192,278054,1,2,0:0:0:0:
256,192,278154,1,2,0:0:0:0:
256,192,278254,1,0,0:0:0:0:
256,192,278354,1,2,0:0:0:0:
256,192,278454,1,0,0:0:0:0:
256,192,278554,1,0,0:0:0:0:
256,192,278654,1,2,0:0:0:0:
256,192,278754,1,0,0:0:0:0:
256,192,278854,1,0,0:0:0:0:
256,192,278954,1,2,0:0:0:0:
256,192,279154,1,2,0:0:0:0:
256,192,279254,1,0,0:0:0:0:
256,192,279354,1,2,0:0:0:0:
256,192,279554,1,0,0:0:0:0:
256,192,279654,1,0,0:0:0:0:
256,192,279754,1,2,0:0:0:0:
256,192,279854,1,0,0:0:0:0:
256,192,279954,1,2,0:0:0:0:
256,192,280054,1,2,0:0:0:0:
256,192,280154,1,0,0:0:0:0:
256,192,280254,1,2,0:0:0:0:
256,192,280354,1,0,0:0:0:0:
256,192,280454,1,0,0:0:0:0:
256,192,280554,1,2,0:0:0:0:
256,192,280754,1,0,0:0:0:0:
256,192,280854,1,2,0:0:0:0:
256,192,280954,1,2,0:0:0:0:
256,192,281054,1,0,0:0:0:0:
256,192,281154,1,0,0:0:0:0:
256,192,281254,1,2,0:0:0:0:
256,192,281320,1,2,0:0:0:0:
256,192,281387,1,2,0:0:0:0:
256,192,281454,1,0,0:0:0:0:
256,192,281554,1,0,0:0:0:0:
256,192,281654,1,0,0:0:0:0:
256,192,281754,1,0,0:0:0:0:
256,192,281854,1,2,0:0:0:0:
256,192,282154,1,6,0:0:0:0:
256,192,282454,1,6,0:0:0:0:
256,192,282654,1,6,0:0:0:0:
256,192,282854,1,0,0:0:0:0:
256,192,282954,1,0,0:0:0:0:
256,192,283054,1,2,0:0:0:0:
256,192,283154,1,0,0:0:0:0:
256,192,283254,1,2,0:0:0:0:
256,192,283454,1,2,0:0:0:0:
256,192,283554,1,0,0:0:0:0:
256,192,283654,1,0,0:0:0:0:
256,192,283754,1,2,0:0:0:0:
256,192,283954,1,0,0:0:0:0:
256,192,284054,1,0,0:0:0:0:
256,192,284154,1,2,0:0:0:0:
256,192,284354,1,0,0:0:0:0:
256,192,284454,1,0,0:0:0:0:
256,192,284554,1,2,0:0:0:0:
256,192,284654,1,0,0:0:0:0:
256,192,284754,1,0,0:0:0:0:
256,192,284854,1,0,0:0:0:0:
256,192,284954,1,2,0:0:0:0:
256,192,285054,1,0,0:0:0:0:
256,192,285154,1,0,0:0:0:0:
256,192,285254,1,2,0:0:0:0:
256,192,285354,1,2,0:0:0:0:
256,192,285454,1,0,0:0:0:0:
256,192,285520,1,0,0:0:0:0:
256,192,285587,1,0,0:0:0:0:
256,192,285654,1,2,0:0:0:0:
256,192,285754,1,2,0:0:0:0:
256,192,285954,1,0,0:0:0:0:
256,192,286054,1,0,0:0:0:0:
256,192,286154,1,2,0:0:0:0:
256,192,286254,1,0,0:0:0:0:
256,192,286354,1,0,0:0:0:0:
256,192,286454,1,2,0:0:0:0:
256,192,286654,1,4,0:0:0:0:
256,192,286954,1,6,0:0:0:0:
256,192,287154,1,2,0:0:0:0:
256,192,287254,1,0,0:0:0:0:
256,192,287354,1,2,0:0:0:0:
256,192,287554,1,2,0:0:0:0:
256,192,287654,1,0,0:0:0:0:
256,192,287754,1,0,0:0:0:0:
256,192,287854,1,2,0:0:0:0:
256,192,287920,1,0,0:0:0:0:
256,192,287987,1,0,0:0:0:0:
256,192,288054,1,2,0:0:0:0:
256,192,288120,1,0,0:0:0:0:
256,192,288187,1,0,0:0:0:0:
256,192,288254,1,2,0:0:0:0:
256,192,288354,1,0,0:0:0:0:
256,192,288454,1,2,0:0:0:0:
256,192,288554,1,2,0:0:0:0:
256,192,288654,1,0,0:0:0:0:
256,192,288754,1,0,0:0:0:0:
256,192,288854,1,2,0:0:0:0:
256,192,288954,1,2,0:0:0:0:
256,192,289054,1,0,0:0:0:0:
256,192,289154,1,0,0:0:0:0:
256,192,289254,1,2,0:0:0:0:
256,192,289454,1,2,0:0:0:0:
256,192,289520,1,2,0:0:0:0:
256,192,289587,1,0,0:0:0:0:
256,192,289654,1,0,0:0:0:0:
256,192,289754,1,0,0:0:0:0:
256,192,289854,1,2,0:0:0:0:
256,192,289954,1,0,0:0:0:0:
256,192,290054,1,2,0:0:0:0:
256,192,290154,1,2,0:0:0:0:
256,192,290254,1,2,0:0:0:0:
256,192,290354,1,0,0:0:0:0:
256,192,290454,1,2,0:0:0:0:
256,192,290554,1,2,0:0:0:0:
256,192,290654,1,0,0:0:0:0:
256,192,290754,1,0,0:0:0:0:
256,192,290854,1,2,0:0:0:0:
256,192,290954,1,2,0:0:0:0:
256,192,291054,1,0,0:0:0:0:
256,192,291154,1,2,0:0:0:0:
256,192,291254,1,0,0:0:0:0:
256,192,291354,1,0,0:0:0:0:
256,192,291454,1,2,0:0:0:0:
256,192,291520,1,2,0:0:0:0:
256,192,291587,1,2,0:0:0:0:
256,192,291654,1,0,0:0:0:0:
256,192,291754,1,0,0:0:0:0:
256,192,291854,1,2,0:0:0:0:
256,192,291954,1,2,0:0:0:0:
256,192,292054,1,0,0:0:0:0:
256,192,292154,1,0,0:0:0:0:
256,192,292254,1,2,0:0:0:0:
256,192,292320,1,2,0:0:0:0:
256,192,292387,1,2,0:0:0:0:
256,192,292454,1,0,0:0:0:0:
256,192,292554,1,0,0:0:0:0:
256,192,292654,1,2,0:0:0:0:
256,192,292754,1,2,0:0:0:0:
256,192,292854,1,0,0:0:0:0:
256,192,292954,1,2,0:0:0:0:
256,192,293054,1,0,0:0:0:0:
256,192,293254,1,2,0:0:0:0:
256,192,293354,1,2,0:0:0:0:
256,192,293454,1,2,0:0:0:0:
256,192,293554,1,0,0:0:0:0:
256,192,293654,1,2,0:0:0:0:
256,192,293754,1,2,0:0:0:0:
256,192,293854,1,0,0:0:0:0:
256,192,293954,1,0,0:0:0:0:
256,192,294054,1,2,0:0:0:0:
256,192,294154,1,2,0:0:0:0:
256,192,294254,1,0,0:0:0:0:
256,192,294354,1,0,0:0:0:0:
256,192,294454,1,2,0:0:0:0:
256,192,294554,1,0,0:0:0:0:
256,192,294654,1,2,0:0:0:0:
256,192,294954,1,6,0:0:0:0:
256,192,295254,1,4,0:0:0:0:
256,192,295454,1,6,0:0:0:0:
256,192,295654,1,0,0:0:0:0:
256,192,295754,1,2,0:0:0:0:
256,192,295854,1,2,0:0:0:0:
256,192,295954,1,0,0:0:0:0:
256,192,296054,1,2,0:0:0:0:
256,192,296154,1,2,0:0:0:0:
256,192,296254,1,0,0:0:0:0:
256,192,296354,1,0,0:0:0:0:
256,192,296454,1,0,0:0:0:0:
256,192,296554,1,2,0:0:0:0:
256,192,296754,1,2,0:0:0:0:
256,192,296820,1,0,0:0:0:0:
256,192,296887,1,0,0:0:0:0:
256,192,296954,1,2,0:0:0:0:
256,192,297154,1,0,0:0:0:0:
256,192,297254,1,0,0:0:0:0:
256,192,297354,1,2,0:0:0:0:
256,192,297454,1,0,0:0:0:0:
256,192,297554,1,0,0:0:0:0:
256,192,297654,1,0,0:0:0:0:
256,192,297754,1,2,0:0:0:0:
256,192,297854,1,0,0:0:0:0:
256,192,297954,1,0,0:0:0:0:
256,192,298054,1,2,0:0:0:0:
256,192,298154,1,2,0:0:0:0:
256,192,298254,1,0,0:0:0:0:
256,192,298320,1,0,0:0:0:0:
256,192,298387,1,0,0:0:0:0:
256,192,298454,1,2,0:0:0:0:
256,192,298554,1,2,0:0:0:0:
256,192,298754,1,0,0:0:0:0:
256,192,298854,1,0,0:0:0:0:
256,192,298954,1,2,0:0:0:0:
256,192,299054,1,0,0:0:0:0:
256,192,299154,1,0,0:0:0:0:
256,192,299254,1,2,0:0:0:0:
256,192,299354,1,0,0:0:0:0:
256,192,299454,1,2,0:0:0:0:
256,192,299554,1,0,0:0:0:0:
256,192,299654,1,0,0:0:0:0:
256,192,299754,1,2,0:0:0:0:
256,192,299954,1,2,0:0:0:0:
256,192,300020,1,0,0:0:0:0:
256,192,300087,1,0,0:0:0:0:
256,192,300154,1,2,0:0:0:0:
256,192,300354,1,2,0:0:0:0:
256,192,300454,1,0,0:0:0:0:
256,192,300554,1,2,0:0:0:0:
256,192,300654,1,0,0:0:0:0:
256,192,300754,1,0,0:0:0:0:
256,192,300854,1,2,0:0:0:0:
256,192,300954,1,2,0:0:0:0:
256,192,301054,1,0,0:0:0:0:
256,192,301154,1,0,0:0:0:0:
256,192,301254,1,2,0:0:0:0:
256,192,301354,1,2,0:0:0:0:
256,192,301454,1,0,0:0:0:0:
256,192,301554,1,0,0:0:0:0:
256,192,301654,1,2,0:0:0:0:
256,192,301754,1,2,0:0:0:0:
256,192,301854,1,0,0:0:0:0:
256,192,301921,1,0,0:0:0:0:
256,192,301987,1,0,0:0:0:0:
256,192,302054,1,2,0:0:0:0:
256,192,302154,1,2,0:0:0:0:
256,192,302254,1,0,0:0:0:0:
256,192,302354,1,0,0:0:0:0:
256,192,302454,1,2,0:0:0:0:
256,192,302654,1,2,0:0:0:0:
256,192,302754,1,0,0:0:0:0:
256,192,302854,1,0,0:0:0:0:
256,192,302954,1,2,0:0:0:0:
256,192,303154,1,2,0:0:0:0:
256,192,303220,1,0,0:0:0:0:
256,192,303287,1,0,0:0:0:0:
256,192,303354,1,2,0:0:0:0:
256,192,303554,1,0,0:0:0:0:
256,192,303654,1,2,0:0:0:0:
256,192,303754,1,2,0:0:0:0:
256,192,303854,1,0,0:0:0:0:
256,192,303954,1,2,0:0:0:0:
256,192,304054,1,0,0:0:0:0:
256,192,304154,1,0,0:0:0:0:
256,192,304254,1,2,0:0:0:0:
256,192,304354,1,0,0:0:0:0:
256,192,304454,1,0,0:0:0:0:
256,192,304554,1,2,0:0:0:0:
256,192,304754,1,2,0:0:0:0:
256,192,304820,1,0,0:0:0:0:
256,192,304887,1,0,0:0:0:0:
256,192,304954,1,2,0:0:0:0:
256,192,305154,1,0,0:0:0:0:
256,192,305254,1,0,0:0:0:0:
256,192,305354,1,2,0:0:0:0:
256,192,305454,1,0,0:0:0:0:
256,192,305554,1,2,0:0:0:0:
256,192,305654,1,2,0:0:0:0:
256,192,305754,1,0,0:0:0:0:
256,192,305854,1,2,0:0:0:0:
256,192,306054,1,0,0:0:0:0:
256,192,306154,1,2,0:0:0:0:
256,192,306254,1,0,0:0:0:0:
256,192,306320,1,0,0:0:0:0:
256,192,306387,1,0,0:0:0:0:
256,196,306454,1,2,0:0:0:0:
256,192,306554,1,0,0:0:0:0:
256,192,306654,1,2,0:0:0:0:
256,192,306854,1,2,0:0:0:0:
256,192,306920,1,2,0:0:0:0:
256,192,306987,1,2,0:0:0:0:
256,192,307054,1,0,0:0:0:0:
256,192,307154,1,2,0:0:0:0:
256,192,307254,1,0,0:0:0:0:
256,192,307354,1,0,0:0:0:0:
256,192,307454,1,2,0:0:0:0:
256,192,307554,1,2,0:0:0:0:
256,192,307754,1,6,0:0:0:0:
256,192,307954,1,6,0:0:0:0:
256,192,308154,1,6,0:0:0:0:
256,192,308354,1,0,0:0:0:0:
256,192,308454,1,0,0:0:0:0:
256,192,308554,1,2,0:0:0:0:
256,192,308654,1,0,0:0:0:0:
256,192,308754,1,2,0:0:0:0:
252,192,308854,1,2,0:0:0:0:
256,192,308954,1,2,0:0:0:0:
256,192,309054,1,0,0:0:0:0:
256,192,309154,1,0,0:0:0:0:
256,192,309254,1,0,0:0:0:0:
256,192,309354,1,2,0:0:0:0:
256,192,309554,1,0,0:0:0:0:
256,192,309620,1,0,0:0:0:0:
256,192,309687,1,0,0:0:0:0:
256,192,309754,1,2,0:0:0:0:
256,192,309954,1,0,0:0:0:0:
256,192,310054,1,0,0:0:0:0:
256,192,310154,1,2,0:0:0:0:
256,192,310254,1,0,0:0:0:0:
256,192,310354,1,0,0:0:0:0:
256,192,310454,1,0,0:0:0:0:
256,192,310554,1,2,0:0:0:0:
256,192,310654,1,0,0:0:0:0:
256,192,310754,1,0,0:0:0:0:
256,192,310854,1,2,0:0:0:0:
256,192,310954,1,2,0:0:0:0:
256,192,311054,1,0,0:0:0:0:
256,192,311154,1,0,0:0:0:0:
256,192,311254,1,2,0:0:0:0:
256,192,311354,1,2,0:0:0:0:
256,192,311554,1,0,0:0:0:0:
256,192,311654,1,0,0:0:0:0:
256,192,311754,1,2,0:0:0:0:
256,192,311854,1,0,0:0:0:0:
256,192,311954,1,0,0:0:0:0:
256,192,312054,1,2,0:0:0:0:
256,192,312254,1,0,0:0:0:0:
256,192,312304,1,0,0:0:0:0:
256,192,312554,1,2,0:0:0:0:
256,196,312604,1,2,0:0:0:0:
256,192,312754,1,0,0:0:0:0:
256,192,312854,1,0,0:0:0:0:
256,192,312954,1,2,0:0:0:0:
256,192,313054,1,2,0:0:0:0:
256,192,313154,1,0,0:0:0:0:
256,192,313254,1,2,0:0:0:0:
256,192,313354,1,2,0:0:0:0:
256,192,313454,1,0,0:0:0:0:
256,192,313520,1,0,0:0:0:0:
256,192,313587,1,0,0:0:0:0:
256,192,313654,1,2,0:0:0:0:
256,192,313754,1,2,0:0:0:0:
256,192,313854,1,0,0:0:0:0:
256,192,313954,1,2,0:0:0:0:
256,192,314054,1,2,0:0:0:0:
256,192,314154,1,0,0:0:0:0:
256,192,314254,1,2,0:0:0:0:
256,192,314354,1,0,0:0:0:0:
256,192,314454,1,2,0:0:0:0:
256,192,314554,1,2,0:0:0:0:
256,192,314654,1,0,0:0:0:0:
256,192,314720,1,0,0:0:0:0:
256,192,314787,1,2,0:0:0:0:
256,192,314854,1,2,0:0:0:0:
256,192,315054,1,2,0:0:0:0:
256,192,315120,1,2,0:0:0:0:
256,192,315187,1,0,0:0:0:0:
256,192,315254,1,0,0:0:0:0:
256,192,315354,1,0,0:0:0:0:
256,192,315454,1,2,0:0:0:0:
256,192,315554,1,0,0:0:0:0:
256,192,315654,1,2,0:0:0:0:
256,192,315754,1,2,0:0:0:0:
256,192,315854,1,0,0:0:0:0:
256,192,315954,1,0,0:0:0:0:
256,192,316054,1,2,0:0:0:0:
256,192,316154,1,2,0:0:0:0:
256,192,316354,1,0,0:0:0:0:
256,192,316454,1,2,0:0:0:0:
256,192,316554,1,2,0:0:0:0:
256,192,316654,1,0,0:0:0:0:
256,192,316754,1,2,0:0:0:0:
256,192,316854,1,0,0:0:0:0:
256,192,316954,1,0,0:0:0:0:
256,192,317054,1,2,0:0:0:0:
256,192,317154,1,0,0:0:0:0:
256,192,317254,1,0,0:0:0:0:
256,192,317354,1,2,0:0:0:0:
256,192,317554,1,2,0:0:0:0:
256,192,317620,1,2,0:0:0:0:
256,192,317687,1,2,0:0:0:0:
256,192,317754,1,0,0:0:0:0:
256,192,317954,1,0,0:0:0:0:
256,192,318054,1,0,0:0:0:0:
256,192,318154,1,2,0:0:0:0:
256,192,318254,1,0,0:0:0:0:
256,192,318354,1,2,0:0:0:0:
256,192,318454,1,2,0:0:0:0:
256,192,318654,1,0,0:0:0:0:
256,192,318754,1,0,0:0:0:0:
256,192,318854,1,0,0:0:0:0:
256,192,318954,1,0,0:0:0:0:
256,192,319054,1,2,0:0:0:0:
256,192,319154,1,2,0:0:0:0:
256,192,319254,1,2,0:0:0:0:
256,192,319354,1,2,0:0:0:0:
256,192,319454,1,0,0:0:0:0:
256,192,319554,1,0,0:0:0:0:
256,192,319654,1,2,0:0:0:0:
256,192,319754,1,2,0:0:0:0:
256,192,319854,1,0,0:0:0:0:
256,192,319920,1,0,0:0:0:0:
256,192,319987,1,2,0:0:0:0:
256,192,320054,1,2,0:0:0:0:
256,192,320154,1,0,0:0:0:0:
256,192,320254,1,2,0:0:0:0:
256,192,320554,1,6,0:0:0:0:
256,192,320854,1,4,0:0:0:0:
256,192,321054,1,6,0:0:0:0:
256,192,321254,1,0,0:0:0:0:
256,192,321354,1,2,0:0:0:0:
256,192,321454,1,2,0:0:0:0:
256,192,321554,1,0,0:0:0:0:
256,192,321654,1,2,0:0:0:0:
256,192,321754,1,0,0:0:0:0:
256,192,321854,1,6,0:0:0:0:
256,192,322054,1,0,0:0:0:0:
256,192,322154,1,0,0:0:0:0:
256,192,322254,1,2,0:0:0:0:
256,192,322354,1,2,0:0:0:0:
256,192,322454,1,2,0:0:0:0:
256,192,322554,1,0,0:0:0:0:
256,192,322654,1,2,0:0:0:0:
256,192,322854,1,0,0:0:0:0:
256,192,322954,1,0,0:0:0:0:
256,192,323054,1,2,0:0:0:0:
256,192,323154,1,2,0:0:0:0:
256,192,323254,1,2,0:0:0:0:
256,192,323354,1,0,0:0:0:0:
256,192,323454,1,2,0:0:0:0:
256,192,323654,1,0,0:0:0:0:
256,192,323754,1,0,0:0:0:0:
256,192,323854,1,2,0:0:0:0:
256,192,323954,1,2,0:0:0:0:
256,192,324054,1,2,0:0:0:0:
256,192,324154,1,2,0:0:0:0:
256,192,324254,1,0,0:0:0:0:
256,192,324354,1,2,0:0:0:0:
256,192,324454,1,0,0:0:0:0:
256,192,324554,1,2,0:0:0:0:
256,192,324654,1,2,0:0:0:0:
256,192,324754,1,0,0:0:0:0:
256,192,324854,1,2,0:0:0:0:
256,192,324954,1,2,0:0:0:0:
256,192,325054,1,0,0:0:0:0:
256,192,325254,1,0,0:0:0:0:
256,192,325354,1,0,0:0:0:0:
256,192,325454,1,2,0:0:0:0:
256,192,325554,1,0,0:0:0:0:
256,192,325654,1,2,0:0:0:0:
256,192,325754,1,2,0:0:0:0:
256,192,325854,1,2,0:0:0:0:
256,192,326054,1,0,0:0:0:0:
256,192,326154,1,0,0:0:0:0:
256,192,326254,1,2,0:0:0:0:
256,192,326354,1,0,0:0:0:0:
256,192,326454,1,2,0:0:0:0:
256,192,326554,1,2,0:0:0:0:
256,192,326654,1,2,0:0:0:0:
256,192,326854,1,0,0:0:0:0:
256,192,326954,1,0,0:0:0:0:
256,192,327054,1,2,0:0:0:0:
256,192,327154,1,0,0:0:0:0:
256,192,327254,1,2,0:0:0:0:
256,192,327354,1,2,0:0:0:0:
256,192,327454,1,2,0:0:0:0:
260,192,327554,1,0,0:0:0:0:
256,192,327654,1,0,0:0:0:0:
256,192,327754,1,0,0:0:0:0:
256,192,327854,1,2,0:0:0:0:
256,192,327954,1,2,0:0:0:0:
256,192,328054,1,0,0:0:0:0:
256,192,328154,1,2,0:0:0:0:
256,192,328254,1,0,0:0:0:0:
256,192,328454,1,0,0:0:0:0:
256,192,328554,1,2,0:0:0:0:
256,192,328654,1,0,0:0:0:0:
256,192,328754,1,0,0:0:0:0:
256,192,328854,1,2,0:0:0:0:
256,192,328954,1,0,0:0:0:0:
256,192,329054,1,2,0:0:0:0:
256,192,329254,1,0,0:0:0:0:
256,192,329354,1,2,0:0:0:0:
256,192,329454,1,0,0:0:0:0:
256,192,329554,1,0,0:0:0:0:
256,192,329654,1,2,0:0:0:0:
256,192,329754,1,0,0:0:0:0:
256,192,329854,1,2,0:0:0:0:
256,192,330054,1,0,0:0:0:0:
256,192,330154,1,2,0:0:0:0:
256,192,330254,1,0,0:0:0:0:
256,192,330354,1,0,0:0:0:0:
256,192,330454,1,2,0:0:0:0:
256,192,330554,1,0,0:0:0:0:
256,192,330654,1,2,0:0:0:0:
256,192,330754,1,0,0:0:0:0:
256,192,330854,1,0,0:0:0:0:
256,192,330954,1,2,0:0:0:0:
256,192,331054,1,2,0:0:0:0:
256,192,331154,1,0,0:0:0:0:
256,192,331254,1,2,0:0:0:0:
256,192,331354,1,2,0:0:0:0:
256,192,331454,1,0,0:0:0:0:
256,192,331654,1,0,0:0:0:0:
256,192,331754,1,0,0:0:0:0:
256,192,331854,1,2,0:0:0:0:
256,192,331920,1,2,0:0:0:0:
256,192,331987,1,2,0:0:0:0:
256,192,332054,1,2,0:0:0:0:
256,192,332154,1,2,0:0:0:0:
256,192,332254,1,0,0:0:0:0:
256,192,332454,1,0,0:0:0:0:
256,192,332554,1,0,0:0:0:0:
256,192,332654,1,2,0:0:0:0:
256,192,332720,1,2,0:0:0:0:
256,192,332787,1,2,0:0:0:0:
256,192,332854,1,2,0:0:0:0:
256,192,332954,1,2,0:0:0:0:
256,192,333054,1,0,0:0:0:0:
256,192,333254,1,0,0:0:0:0:
256,192,333354,1,0,0:0:0:0:
256,192,333454,1,2,0:0:0:0:
256,192,333520,1,2,0:0:0:0:
256,192,333587,1,2,0:0:0:0:
256,192,333654,1,2,0:0:0:0:
256,192,333754,1,2,0:0:0:0:
256,192,333854,1,0,0:0:0:0:
256,192,333920,1,0,0:0:0:0:
256,192,333987,1,0,0:0:0:0:
256,192,334054,1,2,0:0:0:0:
256,192,334154,1,2,0:0:0:0:
256,192,334254,1,0,0:0:0:0:
256,192,334454,1,0,0:0:0:0:
256,192,334554,1,0,0:0:0:0:
256,192,334654,1,6,0:0:0:0:
256,192,334854,1,0,0:0:0:0:
256,192,334954,1,0,0:0:0:0:
256,192,335054,1,2,0:0:0:0:
256,192,335154,1,2,0:0:0:0:
256,192,335254,1,0,0:0:0:0:
256,192,335454,1,2,0:0:0:0:
256,192,335654,1,0,0:0:0:0:
256,192,335754,1,0,0:0:0:0:
256,192,335854,1,2,0:0:0:0:
256,192,335954,1,2,0:0:0:0:
256,192,336054,1,0,0:0:0:0:
256,192,336254,1,2,0:0:0:0:
256,192,336454,1,0,0:0:0:0:
256,192,336554,1,0,0:0:0:0:
256,192,336654,1,2,0:0:0:0:
256,192,336754,1,2,0:0:0:0:
256,192,336854,1,0,0:0:0:0:
256,192,337054,1,2,0:0:0:0:
256,192,337254,1,0,0:0:0:0:
256,192,337354,1,2,0:0:0:0:
256,192,337454,1,2,0:0:0:0:
256,192,337554,1,0,0:0:0:0:
256,192,337654,1,0,0:0:0:0:
256,192,337754,1,2,0:0:0:0:
256,192,337854,1,0,0:0:0:0:
256,192,338054,1,2,0:0:0:0:
256,192,338154,1,2,0:0:0:0:
256,192,338254,1,0,0:0:0:0:
256,192,338354,1,0,0:0:0:0:
256,192,338454,1,2,0:0:0:0:
256,192,338654,1,0,0:0:0:0:
256,192,338854,1,2,0:0:0:0:
256,192,338954,1,2,0:0:0:0:
256,192,339054,1,0,0:0:0:0:
256,192,339154,1,0,0:0:0:0:
256,192,339254,1,2,0:0:0:0:
256,192,339454,1,0,0:0:0:0:
256,192,339654,1,2,0:0:0:0:
256,192,339754,1,2,0:0:0:0:
256,192,339854,1,0,0:0:0:0:
256,192,339954,1,0,0:0:0:0:
256,192,340054,1,2,0:0:0:0:
256,192,340254,1,0,0:0:0:0:
256,192,340454,1,0,0:0:0:0:
256,192,340554,1,2,0:0:0:0:
256,192,340654,1,0,0:0:0:0:
256,192,340754,1,0,0:0:0:0:
256,192,340854,1,2,0:0:0:0:
256,192,340954,1,2,0:0:0:0:
256,192,341054,1,0,0:0:0:0:
256,192,341254,1,2,0:0:0:0:
256,192,341354,1,2,0:0:0:0:
256,192,341454,1,2,0:0:0:0:
256,192,341554,1,2,0:0:0:0:
256,192,341654,1,2,0:0:0:0:
256,192,341854,1,0,0:0:0:0:
256,192,342054,1,2,0:0:0:0:
256,192,342154,1,2,0:0:0:0:
256,192,342254,1,2,0:0:0:0:
256,192,342354,1,2,0:0:0:0:
256,192,342454,1,2,0:0:0:0:
256,192,342654,1,0,0:0:0:0:
256,192,342854,1,2,0:0:0:0:
256,192,342954,1,2,0:0:0:0:
256,192,343054,1,2,0:0:0:0:
256,192,343154,1,2,0:0:0:0:
256,192,343254,1,2,0:0:0:0:
256,192,343454,1,0,0:0:0:0:
256,192,343654,1,2,0:0:0:0:
256,192,343754,1,2,0:0:0:0:
256,192,343854,1,2,0:0:0:0:
256,192,343954,1,2,0:0:0:0:
256,192,344054,1,2,0:0:0:0:
252,196,344154,1,2,0:0:0:0:
256,192,344254,1,2,0:0:0:0:
256,192,344454,1,0,0:0:0:0:
256,192,344554,1,0,0:0:0:0:
256,192,344654,1,0,0:0:0:0:
256,192,344754,1,0,0:0:0:0:
256,192,344854,1,0,0:0:0:0:
256,192,344954,1,0,0:0:0:0:
256,192,345054,1,0,0:0:0:0:
256,192,345254,1,2,0:0:0:0:
256,192,345354,1,2,0:0:0:0:
256,192,345454,1,2,0:0:0:0:
256,192,345554,1,2,0:0:0:0:
256,192,345654,1,2,0:0:0:0:
256,192,345754,1,2,0:0:0:0:
256,192,345854,1,2,0:0:0:0:
256,192,346054,1,0,0:0:0:0:
256,192,346154,1,0,0:0:0:0:
256,192,346254,1,0,0:0:0:0:
256,192,346354,1,0,0:0:0:0:
256,188,346454,1,0,0:0:0:0:
256,192,346554,1,0,0:0:0:0:
256,192,346654,1,0,0:0:0:0:
256,192,346854,1,2,0:0:0:0:
256,192,346954,1,2,0:0:0:0:
256,192,347054,1,2,0:0:0:0:
256,192,347154,1,2,0:0:0:0:
260,192,347254,1,2,0:0:0:0:
260,192,347354,1,2,0:0:0:0:
256,188,347454,1,2,0:0:0:0:
256,192,347554,8,0,353254,0:0:0:0:
252,192,353854,5,2,0:0:0:0:
252,192,354154,1,2,0:0:0:0:
252,192,354654,1,0,0:0:0:0:
252,192,354954,1,2,0:0:0:0:
248,192,355454,1,0,0:0:0:0:
248,192,355754,1,2,0:0:0:0:
248,196,356254,1,2,0:0:0:0:
248,196,356554,1,2,0:0:0:0:
252,192,357054,1,0,0:0:0:0:
252,192,357354,1,2,0:0:0:0:
248,192,357854,1,0,0:0:0:0:
248,192,358154,1,2,0:0:0:0:
248,196,358654,1,2,0:0:0:0:
248,196,358954,1,2,0:0:0:0:
252,192,359454,1,0,0:0:0:0:
252,192,359754,1,2,0:0:0:0:
248,192,360254,1,0,0:0:0:0:
248,192,360554,1,2,0:0:0:0:
248,196,361054,1,2,0:0:0:0:
248,196,361354,1,2,0:0:0:0:
252,192,361854,1,0,0:0:0:0:
252,192,362154,1,2,0:0:0:0:
248,192,362654,1,0,0:0:0:0:
248,192,362954,1,2,0:0:0:0:
256,192,363454,8,0,370254,0:0:0:0:
256,192,370654,8,0,377854,0:0:0:0:
