osu file format v14

[General]
AudioFilename: audio.mp3
AudioLeadIn: 0
PreviewTime: 241602
Countdown: 0
SampleSet: None
StackLeniency: 0.2
Mode: 3
LetterboxInBreaks: 0
SpecialStyle: 0
WidescreenStoryboard: 0

[Editor]
DistanceSpacing: 0.5
BeatDivisor: 4
GridSize: 4
TimelineZoom: 2.599999

[Metadata]
Title:Enantiomorphs
TitleUnicode:Enantiomorphs
Artist:Camellia
ArtistUnicode:かめりあ
Creator:dionzz99
Version:Re:fle-cti:oN
Source:
Tags:
BeatmapID:1319636
BeatmapSetID:626026

[Difficulty]
HPDrainRate:6
CircleSize:4
OverallDifficulty:6
ApproachRate:5
SliderMultiplier:1.4
SliderTickRate:1

[Events]
//Background and Video events
0,0,"60017778_p0totype.jpg",0,0
//Break Periods
2,10817,13998
2,20275,22865
2,119437,136954
2,195102,203161
2,209437,212619
2,218895,221486
//Storyboard Layer 0 (Background)
//Storyboard Layer 1 (Fail)
//Storyboard Layer 2 (Pass)
//Storyboard Layer 3 (Foreground)
//Storyboard Sound Samples

[TimingPoints]
-171,295.566502463054,4,1,0,25,1,0
5740,-200,4,1,0,25,0,0
22883,-200,4,1,0,25,0,0
22930,-185.185185185185,4,1,0,25,0,0
22978,-172.413793103448,4,1,0,25,0,0
23025,-161.290322580645,4,1,0,25,0,0
23072,-151.515151515152,4,1,0,25,0,0
23119,-142.857142857143,4,1,0,25,0,0
23167,-135.135135135135,4,1,0,25,0,0
23214,-128.205128205128,4,1,0,25,0,0
23261,-121.951219512195,4,1,0,25,0,0
23309,-116.279069767442,4,1,0,25,0,0
23356,-111.111111111111,4,1,0,25,0,0
23403,-106.382978723404,4,1,0,25,0,0
23450,-102.040816326531,4,1,0,25,0,0
23498,-98.0392156862745,4,1,0,25,0,0
23545,-94.3396226415094,4,1,0,25,0,0
23592,-90.9090909090909,4,1,0,25,0,0
23639,-87.719298245614,4,1,0,25,0,0
23687,-84.7457627118644,4,1,0,25,0,0
23734,-81.9672131147541,4,1,0,25,0,0
23781,-79.3650793650794,4,1,0,25,0,0
23829,-76.9230769230769,4,1,0,25,0,0
23876,-74.6268656716418,4,1,0,25,0,0
23923,-72.463768115942,4,1,0,25,0,0
23970,-70.4225352112676,4,1,0,25,0,0
24018,-68.4931506849315,4,1,0,25,0,0
24065,-100,4,1,0,25,0,0
24656,-33.3333333333333,4,1,0,25,0,0
24730,-200,4,1,0,25,0,0
25026,-50,4,1,0,25,0,0
25099,-40,4,1,0,25,0,0
25173,-200,4,1,0,25,0,0
25321,-50,4,1,0,25,0,0
25395,-40,4,1,0,25,0,0
25469,-200,4,1,0,25,0,0
25617,-50,4,1,0,25,0,0
25691,-40,4,1,0,25,0,0
25764,-200,4,1,0,25,0,0
26503,-50,4,1,0,25,0,0
26577,-40,4,1,0,25,0,0
26651,-200,4,1,0,25,0,0
26947,-50,4,1,0,25,0,0
27021,-40,4,1,0,25,0,0
27095,-200,4,1,0,25,0,0
27390,-50,4,1,0,25,0,0
27464,-40,4,1,0,25,0,0
27538,-200,4,1,0,25,0,0
27612,-50,4,1,0,25,0,0
27686,-40,4,1,0,25,0,0
27760,-200,4,1,0,25,0,0
27833,-50,4,1,0,25,0,0
27907,-40,4,1,0,25,0,0
27981,-200,4,1,0,25,0,0
28794,-25,4,1,0,25,0,0
28831,-1000,4,1,0,25,0,0
28905,-50,4,1,0,25,0,0
28942,-25,4,1,0,25,0,0
28979,-1000,4,1,0,25,0,0
29090,-66.6666666666667,4,1,0,25,0,0
29385,-33.3333333333333,4,1,0,25,0,0
29459,-200,4,1,0,25,0,0
29755,-50,4,1,0,25,0,0
29828,-40,4,1,0,25,0,0
29902,-200,4,1,0,25,0,0
30050,-50,4,1,0,25,0,0
30124,-40,4,1,0,25,0,0
30198,-200,4,1,0,25,0,0
30346,-50,4,1,0,25,0,0
30420,-40,4,1,0,25,0,0
30493,-200,4,1,0,25,0,0
31232,-50,4,1,0,25,0,0
31306,-40,4,1,0,25,0,0
31380,-200,4,1,0,25,0,0
31676,-50,4,1,0,25,0,0
31750,-40,4,1,0,25,0,0
31824,-200,4,1,0,25,0,0
32119,-50,4,1,0,25,0,0
32193,-40,4,1,0,25,0,0
32267,-200,4,1,0,25,0,0
32341,-50,4,1,0,25,0,0
32415,-40,4,1,0,25,0,0
32489,-200,4,1,0,25,0,0
32562,-50,4,1,0,25,0,0
32636,-40,4,1,0,25,0,0
32710,-200,4,1,0,25,0,0
33375,-25,4,1,0,25,0,0
33412,-1000,4,1,0,25,0,0
33523,-25,4,1,0,25,0,0
33560,-1000,4,1,0,25,0,0
33671,-25,4,1,0,25,0,0
33708,-1000,4,1,0,25,0,0
33819,-25,4,1,0,25,0,0
33856,-1000,4,1,0,25,0,0
34040,-66.6666666666667,4,1,0,25,0,0
34077,-40,4,1,0,25,0,0
34114,-133.333333333333,4,1,0,25,0,0
34303,-131.578947368421,4,1,0,25,0,0
34492,-129.87012987013,4,1,0,25,0,0
34681,-128.205128205128,4,1,0,25,0,0
34871,-126.582278481013,4,1,0,25,0,0
35060,-125,4,1,0,25,0,0
35249,-123.456790123457,4,1,0,25,0,0
35438,-121.951219512195,4,1,0,25,0,0
35627,-120.481927710843,4,1,0,25,0,0
35816,-119.047619047619,4,1,0,25,0,0
36006,-117.647058823529,4,1,0,25,0,0
36195,-116.279069767442,4,1,0,25,0,0
36384,-114.942528735632,4,1,0,25,0,0
36573,-113.636363636364,4,1,0,25,0,0
36762,-112.359550561798,4,1,0,25,0,0
36951,-111.111111111111,4,1,0,25,0,0
37141,-109.89010989011,4,1,0,25,0,0
37330,-108.695652173913,4,1,0,25,0,0
37519,-107.52688172043,4,1,0,25,0,0
37708,-106.382978723404,4,1,0,25,0,0
37897,-105.263157894737,4,1,0,25,0,0
38086,-104.166666666667,4,1,0,25,0,0
38276,-103.092783505155,4,1,0,25,0,0
38465,-102.040816326531,4,1,0,25,0,0
38654,-101.010101010101,4,1,0,25,0,0
38843,-100,4,1,0,25,0,0
38893,-100,4,1,0,25,0,0
38942,-96.1538461538462,4,1,0,25,0,0
38992,-104.166666666667,4,1,0,25,0,0
39040,-91.743119266055,4,1,0,25,0,0
39090,-108.695652173913,4,1,0,25,0,0
39139,-88.495575221239,4,1,0,25,0,0
39189,-113.636363636364,4,1,0,25,0,0
39237,-85.4700854700855,4,1,0,25,0,0
39287,-119.047619047619,4,1,0,25,0,0
39336,-81.9672131147541,4,1,0,25,0,0
39386,-125,4,1,0,25,0,0
39434,-79.3650793650794,4,1,0,25,0,0
39484,-129.87012987013,4,1,0,25,0,0
39533,-76.9230769230769,4,1,0,25,0,0
39583,-136.986301369863,4,1,0,25,0,0
39631,-74.0740740740741,4,1,0,25,0,0
39681,-144.927536231884,4,1,0,25,0,0
39730,-71.9424460431655,4,1,0,25,0,0
39780,-153.846153846154,4,1,0,25,0,0
39828,-69.9300699300699,4,1,0,25,0,0
39878,-163.934426229508,4,1,0,25,0,0
39927,-67.5675675675676,4,1,0,25,0,0
39977,-175.438596491228,4,1,0,25,0,0
40025,-65.7894736842105,4,1,0,25,0,0
40075,-188.679245283019,4,1,0,25,0,0
40124,-63.6942675159236,4,1,0,25,0,0
40174,-204.081632653061,4,1,0,25,0,0
40222,-62.111801242236,4,1,0,25,0,0
40272,-222.222222222222,4,1,0,25,0,0
40321,-60.6060606060606,4,1,0,25,0,0
40371,-243.90243902439,4,1,0,25,0,0
40419,-58.8235294117647,4,1,0,25,0,0
40469,-270.27027027027,4,1,0,25,0,0
40518,-57.4712643678161,4,1,0,25,0,0
40568,-303.030303030303,4,1,0,25,0,0
40616,-56.1797752808989,4,1,0,25,0,0
40666,-333.333333333333,4,1,0,25,0,0
40715,-54.6448087431694,4,1,0,25,0,0
40765,-384.615384615385,4,1,0,25,0,0
40813,-53.475935828877,4,1,0,25,0,0
40863,-454.545454545455,4,1,0,25,0,0
40912,-52.3560209424084,4,1,0,25,0,0
40962,-555.555555555556,4,1,0,25,0,0
41010,-51.0204081632653,4,1,0,25,0,0
41060,-714.285714285714,4,1,0,25,0,0
41109,-50,4,1,0,25,0,0
41159,-1000,4,1,0,25,0,0
41208,-10,4,1,0,25,0,0
42981,-1000,4,1,0,25,0,0
43277,-25,4,1,0,25,0,0
43286,-1000,4,1,0,25,0,0
43314,-23.8095238095238,4,1,0,25,0,0
43323,-1000,4,1,0,25,0,0
43351,-22.7272727272727,4,1,0,25,0,0
43360,-1000,4,1,0,25,0,0
43388,-21.7391304347826,4,1,0,25,0,0
43397,-1000,4,1,0,25,0,0
43425,-20.8333333333333,4,1,0,25,0,0
43434,-1000,4,1,0,25,0,0
43462,-20,4,1,0,25,0,0
43471,-1000,4,1,0,25,0,0
43499,-19.2307692307692,4,1,0,25,0,0
43508,-1000,4,1,0,25,0,0
43536,-18.5185185185185,4,1,0,25,0,0
43545,-1000,4,1,0,25,0,0
43572,-33.3333333333333,4,1,0,25,0,0
43646,-66.6666666666667,4,1,0,25,0,0
43720,-1000,4,1,0,25,0,0
43794,-50,4,1,0,25,0,0
43868,-1000,4,1,0,25,0,0
43942,-50,4,1,0,25,0,0
44016,-1000,4,1,0,25,0,0
44090,-50,4,1,0,25,0,0
44163,-33.3333333333333,4,1,0,25,0,0
44237,-66.6666666666667,4,1,0,25,0,0
44311,-1000,4,1,0,25,0,0
44459,-25,4,1,0,25,0,0
44478,-1000,4,1,0,25,0,0
44533,-25,4,1,0,25,0,0
44552,-1000,4,1,0,25,0,0
44607,-25,4,1,0,25,0,0
44626,-1000,4,1,0,25,0,0
44681,-25,4,1,0,25,0,0
44700,-1000,4,1,0,25,0,0
44755,-25,4,1,0,25,0,0
44774,-1000,4,1,0,25,0,0
44828,-25,4,1,0,25,0,0
44847,-1000,4,1,0,25,0,0
44902,-25,4,1,0,25,0,0
44921,-1000,4,1,0,25,0,0
44976,-25,4,1,0,25,0,0
44995,-1000,4,1,0,25,0,0
45050,-25,4,1,0,25,0,0
45069,-1000,4,1,0,25,0,0
45124,-25,4,1,0,25,0,0
45143,-1000,4,1,0,25,0,0
45198,-25,4,1,0,25,0,0
45217,-1000,4,1,0,25,0,0
45272,-25,4,1,0,25,0,0
45291,-1000,4,1,0,25,0,0
45346,-200,4,1,0,25,0,0
45420,-66.6666666666667,4,1,0,25,0,0
45567,-200,4,1,0,25,0,0
45641,-66.6666666666667,4,1,0,25,0,0
45789,-200,4,1,0,25,0,0
45863,-66.6666666666667,4,1,0,25,0,0
45937,-200,4,1,0,25,0,0
46085,-50,4,1,0,25,0,0
46232,-200,4,1,0,25,0,0
46380,-50,4,1,0,25,0,0
46528,-1000,4,1,0,25,0,0
46602,-50,4,1,0,25,0,0
46676,-1000,4,1,0,25,0,0
46750,-50,4,1,0,25,0,0
46824,-1000,4,1,0,25,0,0
46897,-50,4,1,0,25,0,0
46971,-100,4,1,0,25,0,0
47119,-1000,4,1,0,25,0,0
47193,-50,4,1,0,25,0,0
47267,-1000,4,1,0,25,0,0
47341,-50,4,1,0,25,0,0
47415,-100,4,1,0,25,0,0
47562,-1000,4,1,0,25,0,0
47636,-50,4,1,0,25,0,0
47710,-1000,4,1,0,25,0,0
47784,-50,4,1,0,25,0,0
47858,-100,4,1,0,25,0,0
48449,-57.1428571428571,4,1,0,25,0,0
48486,-66.6666666666667,4,1,0,25,0,0
48523,-80,4,1,0,25,0,0
48560,-100,4,1,0,25,0,0
48597,-133.333333333333,4,1,0,25,0,0
48745,-57.1428571428571,4,1,0,25,0,0
48782,-66.6666666666667,4,1,0,25,0,0
48819,-80,4,1,0,25,0,0
48856,-100,4,1,0,25,0,0
48893,-133.333333333333,4,1,0,25,0,0
49040,-57.1428571428571,4,1,0,25,0,0
49078,-66.6666666666667,4,1,0,25,0,0
49115,-80,4,1,0,25,0,0
49152,-100,4,1,0,25,0,0
49189,-133.333333333333,4,1,0,25,0,0
49336,-57.1428571428571,4,1,0,25,0,0
49373,-66.6666666666667,4,1,0,25,0,0
49410,-80,4,1,0,25,0,0
49447,-100,4,1,0,25,0,0
49484,-133.333333333333,4,1,0,25,0,0
49631,-57.1428571428571,4,1,0,25,0,0
49669,-66.6666666666667,4,1,0,25,0,0
49706,-80,4,1,0,25,0,0
49743,-100,4,1,0,25,0,0
49780,-133.333333333333,4,1,0,25,0,0
49927,-57.1428571428571,4,1,0,25,0,0
49964,-66.6666666666667,4,1,0,25,0,0
50001,-80,4,1,0,25,0,0
50038,-100,4,1,0,25,0,0
50075,-133.333333333333,4,1,0,25,0,0
50222,-57.1428571428571,4,1,0,25,0,0
50260,-66.6666666666667,4,1,0,25,0,0
50297,-80,4,1,0,25,0,0
50334,-100,4,1,0,25,0,0
50371,-133.333333333333,4,1,0,25,0,0
50518,-57.1428571428571,4,1,0,25,0,0
50555,-66.6666666666667,4,1,0,25,0,0
50592,-80,4,1,0,25,0,0
50629,-100,4,1,0,25,0,0
50666,-133.333333333333,4,1,0,25,0,0
50814,-57.1428571428571,4,1,0,25,0,0
50851,-66.6666666666667,4,1,0,25,0,0
50888,-80,4,1,0,25,0,0
50925,-100,4,1,0,25,0,0
50962,-133.333333333333,4,1,0,25,0,0
51109,-57.1428571428571,4,1,0,25,0,0
51147,-66.6666666666667,4,1,0,25,0,0
51184,-80,4,1,0,25,0,0
51221,-100,4,1,0,25,0,0
51258,-133.333333333333,4,1,0,25,0,0
51405,-57.1428571428571,4,1,0,25,0,0
51442,-66.6666666666667,4,1,0,25,0,0
51479,-80,4,1,0,25,0,0
51516,-100,4,1,0,25,0,0
51553,-133.333333333333,4,1,0,25,0,0
51700,-57.1428571428571,4,1,0,25,0,0
51738,-66.6666666666667,4,1,0,25,0,0
51775,-80,4,1,0,25,0,0
51812,-100,4,1,0,25,0,0
51849,-133.333333333333,4,1,0,25,0,0
51996,-57.1428571428571,4,1,0,25,0,0
52033,-66.6666666666667,4,1,0,25,0,0
52070,-80,4,1,0,25,0,0
52107,-100,4,1,0,25,0,0
52144,-133.333333333333,4,1,0,25,0,0
52291,-57.1428571428571,4,1,0,25,0,0
52329,-66.6666666666667,4,1,0,25,0,0
52366,-80,4,1,0,25,0,0
52403,-100,4,1,0,25,0,0
52440,-133.333333333333,4,1,0,25,0,0
53030,-10,4,1,0,25,0,0
53622,-1000,4,1,0,25,0,0
53843,-50,4,1,0,25,0,0
53917,-33.3333333333333,4,1,0,25,0,0
53991,-66.6666666666667,4,1,0,25,0,0
54065,-1000,4,1,0,25,0,0
54213,-25,4,1,0,25,0,0
54231,-1000,4,1,0,25,0,0
54287,-25,4,1,0,25,0,0
54305,-1000,4,1,0,25,0,0
54361,-25,4,1,0,25,0,0
54379,-1000,4,1,0,25,0,0
54435,-25,4,1,0,25,0,0
54453,-1000,4,1,0,25,0,0
54509,-25,4,1,0,25,0,0
54527,-1000,4,1,0,25,0,0
54582,-25,4,1,0,25,0,0
54600,-1000,4,1,0,25,0,0
54656,-25,4,1,0,25,0,0
54674,-1000,4,1,0,25,0,0
54730,-25,4,1,0,25,0,0
54748,-1000,4,1,0,25,0,0
54804,-200,4,1,0,25,0,0
54878,-66.6666666666667,4,1,0,25,0,0
55025,-200,4,1,0,25,0,0
55099,-66.6666666666667,4,1,0,25,0,0
55247,-200,4,1,0,25,0,0
55321,-66.6666666666667,4,1,0,25,0,0
55395,-200,4,1,0,25,0,0
55543,-50,4,1,0,25,0,0
55690,-200,4,1,0,25,0,0
55838,-50,4,1,0,25,0,0
55986,-1000,4,1,0,25,0,0
56060,-50,4,1,0,25,0,0
56134,-1000,4,1,0,25,0,0
56208,-50,4,1,0,25,0,0
56282,-1000,4,1,0,25,0,0
56355,-50,4,1,0,25,0,0
56429,-100,4,1,0,25,0,0
56577,-1000,4,1,0,25,0,0
56651,-50,4,1,0,25,0,0
56725,-1000,4,1,0,25,0,0
56799,-50,4,1,0,25,0,0
56873,-100,4,1,0,25,0,0
57020,-1000,4,1,0,25,0,0
57094,-50,4,1,0,25,0,0
57168,-1000,4,1,0,25,0,0
57242,-50,4,1,0,25,0,0
57316,-100,4,1,0,25,0,0
57833,-57.1428571428571,4,1,0,25,0,0
57870,-66.6666666666667,4,1,0,25,0,0
57907,-80,4,1,0,25,0,0
57944,-100,4,1,0,25,0,0
57981,-133.333333333333,4,1,0,25,0,0
58129,-57.1428571428571,4,1,0,25,0,0
58166,-66.6666666666667,4,1,0,25,0,0
58203,-80,4,1,0,25,0,0
58240,-100,4,1,0,25,0,0
58277,-133.333333333333,4,1,0,25,0,0
58424,-57.1428571428571,4,1,0,25,0,0
58462,-66.6666666666667,4,1,0,25,0,0
58499,-80,4,1,0,25,0,0
58536,-100,4,1,0,25,0,0
58573,-133.333333333333,4,1,0,25,0,0
58720,-57.1428571428571,4,1,0,25,0,0
58757,-66.6666666666667,4,1,0,25,0,0
58794,-80,4,1,0,25,0,0
58831,-100,4,1,0,25,0,0
58868,-133.333333333333,4,1,0,25,0,0
59015,-57.1428571428571,4,1,0,25,0,0
59053,-66.6666666666667,4,1,0,25,0,0
59090,-80,4,1,0,25,0,0
59127,-100,4,1,0,25,0,0
59164,-133.333333333333,4,1,0,25,0,0
59311,-57.1428571428571,4,1,0,25,0,0
59348,-66.6666666666667,4,1,0,25,0,0
59385,-80,4,1,0,25,0,0
59422,-100,4,1,0,25,0,0
59459,-133.333333333333,4,1,0,25,0,0
59606,-57.1428571428571,4,1,0,25,0,0
59644,-66.6666666666667,4,1,0,25,0,0
59681,-80,4,1,0,25,0,0
59718,-100,4,1,0,25,0,0
59755,-133.333333333333,4,1,0,25,0,0
59902,-57.1428571428571,4,1,0,25,0,0
59939,-66.6666666666667,4,1,0,25,0,0
59976,-80,4,1,0,25,0,0
60013,-100,4,1,0,25,0,0
60050,-133.333333333333,4,1,0,25,0,0
60198,-57.1428571428571,4,1,0,25,0,0
60235,-66.6666666666667,4,1,0,25,0,0
60272,-80,4,1,0,25,0,0
60309,-100,4,1,0,25,0,0
60346,-133.333333333333,4,1,0,25,0,0
60493,-57.1428571428571,4,1,0,25,0,0
60531,-66.6666666666667,4,1,0,25,0,0
60568,-80,4,1,0,25,0,0
60605,-100,4,1,0,25,0,0
60642,-133.333333333333,4,1,0,25,0,0
60789,-57.1428571428571,4,1,0,25,0,0
60826,-66.6666666666667,4,1,0,25,0,0
60863,-80,4,1,0,25,0,0
60900,-100,4,1,0,25,0,0
60937,-133.333333333333,4,1,0,25,0,0
61084,-57.1428571428571,4,1,0,25,0,0
61122,-66.6666666666667,4,1,0,25,0,0
61159,-80,4,1,0,25,0,0
61196,-100,4,1,0,25,0,0
61233,-133.333333333333,4,1,0,25,0,0
61307,-100,4,1,0,25,0,0
61380,-200,4,1,0,25,0,0
61454,-50,4,1,0,25,0,0
61528,-100,4,1,0,25,0,0
61602,-200,4,1,0,25,0,0
61676,-50,4,1,0,25,0,0
61750,-100,4,1,0,25,0,0
61824,-200,4,1,0,25,0,0
61897,-50,4,1,0,25,0,0
61971,-100,4,1,0,25,0,0
62489,-10,4,1,0,25,0,0
62784,-1000,4,1,0,25,0,0
63043,-25,4,1,0,25,0,0
63080,-1000,4,1,0,25,0,0
63154,-50,4,1,0,25,0,0
63228,-1000,4,1,0,25,0,0
63264,-50,4,1,0,25,0,0
63301,-1000,4,1,0,25,0,0
63338,-50,4,1,0,25,0,0
63375,-1000,4,1,0,25,0,0
63449,-50,4,1,0,25,0,0
63523,-1000,4,1,0,25,0,0
63597,-50,4,1,0,25,0,0
63671,-1000,4,1,0,25,0,0
63745,-50,4,1,0,25,0,0
63819,-1000,4,1,0,25,0,0
63893,-50,4,1,0,25,0,0
63966,-1000,4,1,0,25,0,0
64114,-200,4,1,0,25,0,0
64151,-100,4,1,0,25,0,0
64188,-66.6666666666667,4,1,0,25,0,0
64225,-50,4,1,0,25,0,0
64262,-1000,4,1,0,25,0,0
64391,-20,4,1,0,25,0,0
64410,-1000,4,1,0,25,0,0
64539,-20,4,1,0,25,0,0
64558,-1000,4,1,0,25,0,0
64687,-20,4,1,0,25,0,0
64705,-1000,4,1,0,25,0,0
64835,-20,4,1,0,25,0,0
64853,-1000,4,1,0,25,0,0
64927,-50,4,1,0,25,0,0
65001,-1000,4,1,0,25,0,0
65038,-50,4,1,0,25,0,0
65075,-1000,4,1,0,25,0,0
65149,-50,4,1,0,25,0,0
65223,-1000,4,1,0,25,0,0
65260,-50,4,1,0,25,0,0
65296,-1000,4,1,0,25,0,0
65370,-50,4,1,0,25,0,0
65444,-1000,4,1,0,25,0,0
65518,-50,4,1,0,25,0,0
65592,-1000,4,1,0,25,0,0
65629,-50,4,1,0,25,0,0
65666,-1000,4,1,0,25,0,0
65703,-50,4,1,0,25,0,0
65740,-1000,4,1,0,25,0,0
65814,-50,4,1,0,25,0,0
65888,-1000,4,1,0,25,0,0
65925,-50,4,1,0,25,0,0
65962,-1000,4,1,0,25,0,0
66035,-50,4,1,0,25,0,0
66109,-1000,4,1,0,25,0,0
66146,-50,4,1,0,25,0,0
66183,-1000,4,1,0,25,0,0
66257,-50,4,1,0,25,0,0
66331,-1000,4,1,0,25,0,0
66368,-50,4,1,0,25,0,0
66405,-1000,4,1,0,25,0,0
66479,-50,4,1,0,25,0,0
66553,-1000,4,1,0,25,0,0
66590,-50,4,1,0,25,0,0
66700,-1000,4,1,0,25,0,0
66774,-50,4,1,0,25,0,0
66848,-1000,4,1,0,25,0,0
66922,-28.5714285714286,4,1,0,25,0,0
66959,-1000,4,1,0,25,0,0
67070,-28.5714285714286,4,1,0,25,0,0
67107,-1000,4,1,0,25,0,0
67218,-100,4,1,0,25,0,0
67292,-57.1428571428571,4,1,0,25,0,0
67329,-66.6666666666667,4,1,0,25,0,0
67366,-80,4,1,0,25,0,0
67403,-100,4,1,0,25,0,0
67440,-133.333333333333,4,1,0,25,0,0
67588,-57.1428571428571,4,1,0,25,0,0
67625,-66.6666666666667,4,1,0,25,0,0
67662,-80,4,1,0,25,0,0
67699,-100,4,1,0,25,0,0
67736,-133.333333333333,4,1,0,25,0,0
67883,-57.1428571428571,4,1,0,25,0,0
67921,-66.6666666666667,4,1,0,25,0,0
67958,-80,4,1,0,25,0,0
67995,-100,4,1,0,25,0,0
68032,-133.333333333333,4,1,0,25,0,0
68179,-57.1428571428571,4,1,0,25,0,0
68216,-66.6666666666667,4,1,0,25,0,0
68253,-80,4,1,0,25,0,0
68290,-100,4,1,0,25,0,0
68327,-133.333333333333,4,1,0,25,0,0
68474,-57.1428571428571,4,1,0,25,0,0
68512,-66.6666666666667,4,1,0,25,0,0
68549,-80,4,1,0,25,0,0
68586,-100,4,1,0,25,0,0
68623,-133.333333333333,4,1,0,25,0,0
68770,-57.1428571428571,4,1,0,25,0,0
68807,-66.6666666666667,4,1,0,25,0,0
68844,-80,4,1,0,25,0,0
68881,-100,4,1,0,25,0,0
68918,-133.333333333333,4,1,0,25,0,0
69065,-57.1428571428571,4,1,0,25,0,0
69103,-66.6666666666667,4,1,0,25,0,0
69140,-80,4,1,0,25,0,0
69177,-100,4,1,0,25,0,0
69214,-133.333333333333,4,1,0,25,0,0
69361,-57.1428571428571,4,1,0,25,0,0
69398,-66.6666666666667,4,1,0,25,0,0
69435,-80,4,1,0,25,0,0
69472,-100,4,1,0,25,0,0
69509,-133.333333333333,4,1,0,25,0,0
69582,-100,4,1,0,25,0,0
70764,-57.1428571428571,4,1,0,25,0,0
70801,-66.6666666666667,4,1,0,25,0,0
70838,-79.9999999999999,4,1,0,25,0,0
70875,-100,4,1,0,25,0,0
70912,-133.333333333333,4,1,0,25,0,0
70986,-57.1428571428571,4,1,0,25,0,0
71023,-66.6666666666667,4,1,0,25,0,0
71060,-79.9999999999999,4,1,0,25,0,0
71097,-100,4,1,0,25,0,0
71134,-133.333333333333,4,1,0,25,0,0
71208,-57.1428571428571,4,1,0,25,0,0
71245,-66.6666666666667,4,1,0,25,0,0
71282,-79.9999999999999,4,1,0,25,0,0
71319,-100,4,1,0,25,0,0
71356,-133.333333333333,4,1,0,25,0,0
71429,-57.1428571428571,4,1,0,25,0,0
71466,-66.6666666666667,4,1,0,25,0,0
71503,-79.9999999999999,4,1,0,25,0,0
71540,-100,4,1,0,25,0,0
71577,-133.333333333333,4,1,0,25,0,0
71651,-57.1428571428571,4,1,0,25,0,0
71688,-66.6666666666667,4,1,0,25,0,0
71725,-79.9999999999999,4,1,0,25,0,0
71762,-100,4,1,0,25,0,0
71799,-133.333333333333,4,1,0,25,0,0
71947,-200,4,1,0,25,0,0
72390,-20,4,1,0,25,0,0
72409,-1000,4,1,0,25,0,0
72538,-20,4,1,0,25,0,0
72556,-1000,4,1,0,25,0,0
72686,-20,4,1,0,25,0,0
72704,-1000,4,1,0,25,0,0
72833,-20,4,1,0,25,0,0
72852,-1000,4,1,0,25,0,0
72981,-200,4,1,0,25,0,0
73018,-100,4,1,0,25,0,0
73055,-66.6666666666667,4,1,0,25,0,0
73092,-50,4,1,0,25,0,0
73129,-66.6666666666667,4,1,0,25,0,0
73425,-100,4,1,0,25,0,0
73462,-200,4,1,0,25,0,0
73498,-1000,4,1,0,25,0,0
73572,-200,4,1,0,25,0,0
73609,-100,4,1,0,25,0,0
73646,-66.6666666666667,4,1,0,25,0,0
73683,-50,4,1,0,25,0,0
73720,-1000,4,1,0,25,0,0
73849,-20,4,1,0,25,0,0
73868,-1000,4,1,0,25,0,0
73997,-20,4,1,0,25,0,0
74016,-1000,4,1,0,25,0,0
74145,-20,4,1,0,25,0,0
74163,-1000,4,1,0,25,0,0
74293,-20,4,1,0,25,0,0
74311,-200,4,1,0,25,0,0
74385,-66.6666666666667,4,1,0,25,0,0
74533,-200,4,1,0,25,0,0
74607,-66.6666666666667,4,1,0,25,0,0
74755,-200,4,1,0,25,0,0
74828,-66.6666666666667,4,1,0,25,0,0
74902,-33.3333333333333,4,1,0,25,0,0
74976,-66.6666666666667,4,1,0,25,0,0
75050,-1000,4,1,0,25,0,0
75198,-1000,4,1,0,25,0,0
75272,-50,4,1,0,25,0,0
75346,-1000,4,1,0,25,0,0
75383,-50,4,1,0,25,0,0
75420,-1000,4,1,0,25,0,0
75494,-50,4,1,0,25,0,0
75567,-1000,4,1,0,25,0,0
75604,-50,4,1,0,25,0,0
75641,-1000,4,1,0,25,0,0
75715,-50,4,1,0,25,0,0
75789,-1000,4,1,0,25,0,0
75826,-50,4,1,0,25,0,0
75863,-1000,4,1,0,25,0,0
75900,-50,4,1,0,25,0,0
75937,-1000,4,1,0,25,0,0
75974,-50,4,1,0,25,0,0
76011,-1000,4,1,0,25,0,0
76048,-50,4,1,0,25,0,0
76085,-66.6666666666667,4,1,0,25,0,0
76380,-133.333333333333,4,1,0,25,0,0
76528,-1000,4,1,0,25,0,0
76639,-25,4,1,0,25,0,0
76676,-133.333333333333,4,1,0,25,0,0
76750,-57.1428571428571,4,1,0,25,0,0
76787,-66.6666666666667,4,1,0,25,0,0
76824,-80,4,1,0,25,0,0
76861,-100,4,1,0,25,0,0
76898,-133.333333333333,4,1,0,25,0,0
77046,-57.1428571428571,4,1,0,25,0,0
77083,-66.6666666666667,4,1,0,25,0,0
77120,-80,4,1,0,25,0,0
77157,-100,4,1,0,25,0,0
77194,-133.333333333333,4,1,0,25,0,0
77341,-57.1428571428571,4,1,0,25,0,0
77379,-66.6666666666667,4,1,0,25,0,0
77416,-80,4,1,0,25,0,0
77453,-100,4,1,0,25,0,0
77490,-133.333333333333,4,1,0,25,0,0
77637,-57.1428571428571,4,1,0,25,0,0
77674,-66.6666666666667,4,1,0,25,0,0
77711,-80,4,1,0,25,0,0
77748,-100,4,1,0,25,0,0
77785,-133.333333333333,4,1,0,25,0,0
77932,-57.1428571428571,4,1,0,25,0,0
77970,-66.6666666666667,4,1,0,25,0,0
78007,-80,4,1,0,25,0,0
78044,-100,4,1,0,25,0,0
78081,-133.333333333333,4,1,0,25,0,0
78228,-57.1428571428571,4,1,0,25,0,0
78265,-66.6666666666667,4,1,0,25,0,0
78302,-80,4,1,0,25,0,0
78339,-100,4,1,0,25,0,0
78376,-133.333333333333,4,1,0,25,0,0
78523,-57.1428571428571,4,1,0,25,0,0
78561,-66.6666666666667,4,1,0,25,0,0
78598,-80,4,1,0,25,0,0
78635,-100,4,1,0,25,0,0
78672,-133.333333333333,4,1,0,25,0,0
78819,-57.1428571428571,4,1,0,25,0,0
78856,-66.6666666666667,4,1,0,25,0,0
78893,-80,4,1,0,25,0,0
78930,-100,4,1,0,25,0,0
78967,-133.333333333333,4,1,0,25,0,0
79115,-57.1428571428571,4,1,0,25,0,0
79152,-66.6666666666667,4,1,0,25,0,0
79189,-80,4,1,0,25,0,0
79226,-100,4,1,0,25,0,0
79263,-133.333333333333,4,1,0,25,0,0
79410,-57.1428571428571,4,1,0,25,0,0
79448,-66.6666666666667,4,1,0,25,0,0
79485,-80,4,1,0,25,0,0
79522,-100,4,1,0,25,0,0
79559,-133.333333333333,4,1,0,25,0,0
79706,-57.1428571428571,4,1,0,25,0,0
79743,-66.6666666666667,4,1,0,25,0,0
79780,-80,4,1,0,25,0,0
79817,-100,4,1,0,25,0,0
79854,-133.333333333333,4,1,0,25,0,0
80001,-57.1428571428571,4,1,0,25,0,0
80039,-66.6666666666667,4,1,0,25,0,0
80076,-80,4,1,0,25,0,0
80113,-100,4,1,0,25,0,0
80150,-133.333333333333,4,1,0,25,0,0
80223,-200,4,1,0,25,0,0
80296,-66.6666666666667,4,1,0,25,0,0
80444,-200,4,1,0,25,0,0
80518,-66.6666666666667,4,1,0,25,0,0
80666,-200,4,1,0,25,0,0
80740,-66.6666666666667,4,1,0,25,0,0
80888,-200,4,1,0,25,0,0
80962,-66.6666666666667,4,1,0,25,0,0
81109,-14.2857142857143,4,1,0,25,0,0
81119,-1000,4,1,0,25,0,0
81183,-14.2857142857143,4,1,0,25,0,0
81193,-1000,4,1,0,25,0,0
81220,-14.2857142857143,4,1,0,25,0,0
81230,-1000,4,1,0,25,0,0
81331,-14.2857142857143,4,1,0,25,0,0
81341,-1000,4,1,0,25,0,0
81405,-100,4,1,0,25,0,0
81996,-66.6666666666667,4,1,0,25,0,0
82070,-79.9999999999999,4,1,0,25,0,0
82144,-100,4,1,0,25,0,0
82218,-133.333333333333,4,1,0,25,0,0
82439,-66.6666666666667,4,1,0,25,0,0
82513,-79.9999999999999,4,1,0,25,0,0
82587,-100,4,1,0,25,0,0
82661,-133.333333333333,4,1,0,25,0,0
82883,-66.6666666666667,4,1,0,25,0,0
82957,-79.9999999999999,4,1,0,25,0,0
83031,-100,4,1,0,25,0,0
83105,-133.333333333333,4,1,0,25,0,0
83326,-66.6666666666667,4,1,0,25,0,0
83400,-79.9999999999999,4,1,0,25,0,0
83474,-100,4,1,0,25,0,0
83548,-133.333333333333,4,1,0,25,0,0
83769,-100,4,1,0,25,0,0
84361,-66.6666666666667,4,1,0,25,0,0
84435,-79.9999999999999,4,1,0,25,0,0
84509,-100,4,1,0,25,0,0
84583,-133.333333333333,4,1,0,25,0,0
84804,-66.6666666666667,4,1,0,25,0,0
84878,-79.9999999999999,4,1,0,25,0,0
84952,-100,4,1,0,25,0,0
85026,-133.333333333333,4,1,0,25,0,0
85248,-66.6666666666667,4,1,0,25,0,0
85322,-79.9999999999999,4,1,0,25,0,0
85396,-100,4,1,0,25,0,0
85470,-133.333333333333,4,1,0,25,0,0
85691,-66.6666666666667,4,1,0,25,0,0
85765,-79.9999999999999,4,1,0,25,0,0
85839,-100,4,1,0,25,0,0
85913,-133.333333333333,4,1,0,25,0,0
86134,-100,4,1,0,25,0,0
86725,-66.6666666666667,4,1,0,25,0,0
86799,-79.9999999999999,4,1,0,25,0,0
86873,-100,4,1,0,25,0,0
86947,-133.333333333333,4,1,0,25,0,0
87168,-66.6666666666667,4,1,0,25,0,0
87242,-79.9999999999999,4,1,0,25,0,0
87316,-100,4,1,0,25,0,0
87390,-133.333333333333,4,1,0,25,0,0
87612,-66.6666666666667,4,1,0,25,0,0
87686,-79.9999999999999,4,1,0,25,0,0
87760,-100,4,1,0,25,0,0
87834,-133.333333333333,4,1,0,25,0,0
88055,-66.6666666666667,4,1,0,25,0,0
88129,-79.9999999999999,4,1,0,25,0,0
88203,-100,4,1,0,25,0,0
88277,-133.333333333333,4,1,0,25,0,0
88498,-100,4,1,0,25,0,0
89090,-66.6666666666667,4,1,0,25,0,0
89164,-79.9999999999999,4,1,0,25,0,0
89238,-100,4,1,0,25,0,0
89312,-133.333333333333,4,1,0,25,0,0
89533,-66.6666666666667,4,1,0,25,0,0
89607,-79.9999999999999,4,1,0,25,0,0
89681,-100,4,1,0,25,0,0
89755,-133.333333333333,4,1,0,25,0,0
89977,-66.6666666666667,4,1,0,25,0,0
90051,-79.9999999999999,4,1,0,25,0,0
90125,-100,4,1,0,25,0,0
90199,-133.333333333333,4,1,0,25,0,0
90420,-66.6666666666667,4,1,0,25,0,0
90494,-79.9999999999999,4,1,0,25,0,0
90568,-100,4,1,0,25,0,0
90642,-133.333333333333,4,1,0,25,0,0
90863,-100,4,1,0,25,0,0
91454,-66.6666666666667,4,1,0,25,0,0
91528,-79.9999999999999,4,1,0,25,0,0
91602,-100,4,1,0,25,0,0
91676,-133.333333333333,4,1,0,25,0,0
91897,-66.6666666666667,4,1,0,25,0,0
91971,-79.9999999999999,4,1,0,25,0,0
92045,-100,4,1,0,25,0,0
92119,-133.333333333333,4,1,0,25,0,0
92341,-66.6666666666667,4,1,0,25,0,0
92415,-79.9999999999999,4,1,0,25,0,0
92489,-100,4,1,0,25,0,0
92563,-133.333333333333,4,1,0,25,0,0
92784,-66.6666666666667,4,1,0,25,0,0
92858,-79.9999999999999,4,1,0,25,0,0
92932,-100,4,1,0,25,0,0
93006,-133.333333333333,4,1,0,25,0,0
93227,-100,4,1,0,25,0,0
93819,-66.6666666666667,4,1,0,25,0,0
93893,-79.9999999999999,4,1,0,25,0,0
93967,-100,4,1,0,25,0,0
94041,-133.333333333333,4,1,0,25,0,0
94262,-66.6666666666667,4,1,0,25,0,0
94336,-79.9999999999999,4,1,0,25,0,0
94410,-100,4,1,0,25,0,0
94484,-133.333333333333,4,1,0,25,0,0
94706,-66.6666666666667,4,1,0,25,0,0
94780,-79.9999999999999,4,1,0,25,0,0
94854,-100,4,1,0,25,0,0
94928,-133.333333333333,4,1,0,25,0,0
95149,-66.6666666666667,4,1,0,25,0,0
95223,-79.9999999999999,4,1,0,25,0,0
95297,-100,4,1,0,25,0,0
95371,-133.333333333333,4,1,0,25,0,0
95592,-50,4,1,0,25,0,0
95666,-1000,4,1,0,25,0,0
95740,-50,4,1,0,25,0,0
95777,-1000,4,1,0,25,0,0
95814,-50,4,1,0,25,0,0
95851,-1000,4,1,0,25,0,0
95888,-50,4,1,0,25,0,0
95962,-1000,4,1,0,25,0,0
96035,-50,4,1,0,25,0,0
96072,-1000,4,1,0,25,0,0
96109,-50,4,1,0,25,0,0
96146,-1000,4,1,0,25,0,0
96183,-50,4,1,0,25,0,0
96257,-1000,4,1,0,25,0,0
96331,-50,4,1,0,25,0,0
96368,-1000,4,1,0,25,0,0
96405,-50,4,1,0,25,0,0
96442,-1000,4,1,0,25,0,0
96479,-50,4,1,0,25,0,0
96553,-1000,4,1,0,25,0,0
96627,-50,4,1,0,25,0,0
96663,-1000,4,1,0,25,0,0
96700,-50,4,1,0,25,0,0
96737,-1000,4,1,0,25,0,0
96774,-50,4,1,0,25,0,0
96848,-1000,4,1,0,25,0,0
96922,-50,4,1,0,25,0,0
96959,-1000,4,1,0,25,0,0
96996,-50,4,1,0,25,0,0
97033,-1000,4,1,0,25,0,0
97070,-50,4,1,0,25,0,0
97144,-1000,4,1,0,25,0,0
97218,-50,4,1,0,25,0,0
97255,-1000,4,1,0,25,0,0
97292,-50,4,1,0,25,0,0
97328,-1000,4,1,0,25,0,0
97365,-50,4,1,0,25,0,0
97439,-1000,4,1,0,25,0,0
97513,-50,4,1,0,25,0,0
97550,-1000,4,1,0,25,0,0
97587,-50,4,1,0,25,0,0
97624,-1000,4,1,0,25,0,0
97661,-50,4,1,0,25,0,0
97735,-1000,4,1,0,25,0,0
97809,-50,4,1,0,25,0,0
97846,-1000,4,1,0,25,0,0
97883,-50,4,1,0,25,0,0
97920,-1000,4,1,0,25,0,0
97957,-50,4,1,0,25,0,0
97994,-1000,4,1,0,25,0,0
98031,-50,4,1,0,25,0,0
98068,-1000,4,1,0,25,0,0
98105,-50,4,1,0,25,0,0
98142,-1000,4,1,0,25,0,0
98178,-50,4,1,0,25,0,0
98215,-1000,4,1,0,25,0,0
98252,-50,4,1,0,25,0,0
98289,-1000,4,1,0,25,0,0
98326,-50,4,1,0,25,0,0
98363,-1000,4,1,0,25,0,0
98400,-50,4,1,0,25,0,0
98437,-1000,4,1,0,25,0,0
98474,-50,4,1,0,25,0,0
98511,-1000,4,1,0,25,0,0
98548,-50,4,1,0,25,0,0
98585,-1000,4,1,0,25,0,0
98622,-50,4,1,0,25,0,0
98659,-1000,4,1,0,25,0,0
98696,-50,4,1,0,25,0,0
98733,-1000,4,1,0,25,0,0
98770,-50,4,1,0,25,0,0
98807,-1000,4,1,0,25,0,0
98843,-50,4,1,0,25,0,0
98880,-1000,4,1,0,25,0,0
98917,-50,4,1,0,25,0,0
98954,-1000,4,1,0,25,0,0
98991,-50,4,1,0,25,0,0
99028,-1000,4,1,0,25,0,0
99065,-50,4,1,0,25,0,0
99102,-1000,4,1,0,25,0,0
99139,-10,4,1,0,25,0,0
99878,-1000,4,1,0,25,0,0
100026,-16.6666666666667,4,1,0,25,0,0
100035,-1000,4,1,0,25,0,0
100100,-15.625,4,1,0,25,0,0
100109,-1000,4,1,0,25,0,0
100174,-14.7058823529412,4,1,0,25,0,0
100183,-1000,4,1,0,25,0,0
100248,-13.8888888888889,4,1,0,25,0,0
100257,-1000,4,1,0,25,0,0
100321,-100,4,1,0,25,0,0
100469,-57.1428571428571,4,1,0,25,0,0
100506,-66.6666666666667,4,1,0,25,0,0
100543,-80,4,1,0,25,0,0
100580,-100,4,1,0,25,0,0
100617,-133.333333333333,4,1,0,25,0,0
100765,-57.1428571428571,4,1,0,25,0,0
100802,-66.6666666666667,4,1,0,25,0,0
100839,-80,4,1,0,25,0,0
100876,-100,4,1,0,25,0,0
100913,-133.333333333333,4,1,0,25,0,0
101060,-57.1428571428571,4,1,0,25,0,0
101098,-66.6666666666667,4,1,0,25,0,0
101135,-80,4,1,0,25,0,0
101172,-100,4,1,0,25,0,0
101209,-133.333333333333,4,1,0,25,0,0
101356,-57.1428571428571,4,1,0,25,0,0
101393,-66.6666666666667,4,1,0,25,0,0
101430,-80,4,1,0,25,0,0
101467,-100,4,1,0,25,0,0
101504,-133.333333333333,4,1,0,25,0,0
101651,-57.1428571428571,4,1,0,25,0,0
101689,-66.6666666666667,4,1,0,25,0,0
101726,-80,4,1,0,25,0,0
101763,-100,4,1,0,25,0,0
101800,-133.333333333333,4,1,0,25,0,0
101947,-57.1428571428571,4,1,0,25,0,0
101984,-66.6666666666667,4,1,0,25,0,0
102021,-80,4,1,0,25,0,0
102058,-100,4,1,0,25,0,0
102095,-133.333333333333,4,1,0,25,0,0
102242,-57.1428571428571,4,1,0,25,0,0
102280,-66.6666666666667,4,1,0,25,0,0
102317,-80,4,1,0,25,0,0
102354,-100,4,1,0,25,0,0
102391,-133.333333333333,4,1,0,25,0,0
102538,-57.1428571428571,4,1,0,25,0,0
102575,-66.6666666666667,4,1,0,25,0,0
102612,-80,4,1,0,25,0,0
102649,-100,4,1,0,25,0,0
102686,-133.333333333333,4,1,0,25,0,0
102834,-57.1428571428571,4,1,0,25,0,0
102871,-66.6666666666667,4,1,0,25,0,0
102908,-80,4,1,0,25,0,0
102945,-100,4,1,0,25,0,0
102982,-133.333333333333,4,1,0,25,0,0
103129,-57.1428571428571,4,1,0,25,0,0
103167,-66.6666666666667,4,1,0,25,0,0
103204,-80,4,1,0,25,0,0
103241,-100,4,1,0,25,0,0
103278,-133.333333333333,4,1,0,25,0,0
103425,-57.1428571428571,4,1,0,25,0,0
103462,-66.6666666666667,4,1,0,25,0,0
103499,-80,4,1,0,25,0,0
103536,-100,4,1,0,25,0,0
103573,-133.333333333333,4,1,0,25,0,0
103720,-57.1428571428571,4,1,0,25,0,0
103758,-66.6666666666667,4,1,0,25,0,0
103795,-80,4,1,0,25,0,0
103832,-100,4,1,0,25,0,0
103869,-133.333333333333,4,1,0,25,0,0
104016,-57.1428571428571,4,1,0,25,0,0
104053,-66.6666666666667,4,1,0,25,0,0
104090,-80,4,1,0,25,0,0
104127,-100,4,1,0,25,0,0
104164,-133.333333333333,4,1,0,25,0,0
104311,-57.1428571428571,4,1,0,25,0,0
104349,-66.6666666666667,4,1,0,25,0,0
104386,-80,4,1,0,25,0,0
104423,-100,4,1,0,25,0,0
104460,-133.333333333333,4,1,0,25,0,0
104607,-57.1428571428571,4,1,0,25,0,0
104644,-66.6666666666667,4,1,0,25,0,0
104681,-79.9999999999999,4,1,0,25,0,0
104718,-100,4,1,0,25,0,0
104755,-50,4,1,0,25,0,0
104828,-100,4,1,0,25,0,0
104902,-200,4,1,0,25,0,0
105050,-50,4,1,0,25,0,0
105124,-100,4,1,0,25,0,0
105198,-200,4,1,0,25,0,0
105346,-100,4,1,0,25,0,0
105494,-57.1428571428571,4,1,0,25,0,0
105531,-66.6666666666667,4,1,0,25,0,0
105568,-80,4,1,0,25,0,0
105605,-100,4,1,0,25,0,0
105642,-133.333333333333,4,1,0,25,0,0
105790,-57.1428571428571,4,1,0,25,0,0
105827,-66.6666666666667,4,1,0,25,0,0
105864,-80,4,1,0,25,0,0
105901,-100,4,1,0,25,0,0
105938,-133.333333333333,4,1,0,25,0,0
106085,-57.1428571428571,4,1,0,25,0,0
106123,-66.6666666666667,4,1,0,25,0,0
106160,-80,4,1,0,25,0,0
106197,-100,4,1,0,25,0,0
106234,-133.333333333333,4,1,0,25,0,0
106381,-57.1428571428571,4,1,0,25,0,0
106418,-66.6666666666667,4,1,0,25,0,0
106455,-80,4,1,0,25,0,0
106492,-100,4,1,0,25,0,0
106529,-133.333333333333,4,1,0,25,0,0
106676,-57.1428571428571,4,1,0,25,0,0
106714,-66.6666666666667,4,1,0,25,0,0
106751,-80,4,1,0,25,0,0
106788,-100,4,1,0,25,0,0
106825,-133.333333333333,4,1,0,25,0,0
106972,-57.1428571428571,4,1,0,25,0,0
107009,-66.6666666666667,4,1,0,25,0,0
107046,-80,4,1,0,25,0,0
107083,-100,4,1,0,25,0,0
107120,-133.333333333333,4,1,0,25,0,0
107267,-57.1428571428571,4,1,0,25,0,0
107305,-66.6666666666667,4,1,0,25,0,0
107342,-80,4,1,0,25,0,0
107379,-100,4,1,0,25,0,0
107416,-133.333333333333,4,1,0,25,0,0
107563,-57.1428571428571,4,1,0,25,0,0
107600,-66.6666666666667,4,1,0,25,0,0
107637,-80,4,1,0,25,0,0
107674,-100,4,1,0,25,0,0
107711,-133.333333333333,4,1,0,25,0,0
107859,-57.1428571428571,4,1,0,25,0,0
107896,-66.6666666666667,4,1,0,25,0,0
107933,-80,4,1,0,25,0,0
107970,-100,4,1,0,25,0,0
108007,-133.333333333333,4,1,0,25,0,0
108154,-57.1428571428571,4,1,0,25,0,0
108192,-66.6666666666667,4,1,0,25,0,0
108229,-80,4,1,0,25,0,0
108266,-100,4,1,0,25,0,0
108303,-133.333333333333,4,1,0,25,0,0
108450,-57.1428571428571,4,1,0,25,0,0
108487,-66.6666666666667,4,1,0,25,0,0
108524,-80,4,1,0,25,0,0
108561,-100,4,1,0,25,0,0
108598,-133.333333333333,4,1,0,25,0,0
108745,-57.1428571428571,4,1,0,25,0,0
108783,-66.6666666666667,4,1,0,25,0,0
108820,-80,4,1,0,25,0,0
108857,-100,4,1,0,25,0,0
108894,-133.333333333333,4,1,0,25,0,0
109041,-57.1428571428571,4,1,0,25,0,0
109078,-66.6666666666667,4,1,0,25,0,0
109115,-80,4,1,0,25,0,0
109152,-100,4,1,0,25,0,0
109189,-133.333333333333,4,1,0,25,0,0
109336,-57.1428571428571,4,1,0,25,0,0
109374,-66.6666666666667,4,1,0,25,0,0
109411,-80,4,1,0,25,0,0
109448,-100,4,1,0,25,0,0
109485,-133.333333333333,4,1,0,25,0,0
109779,-10,4,1,0,25,0,0
111700,-1000,4,1,0,25,0,0
111838,-14.2857142857143,4,1,0,25,0,0
111848,-1000,4,1,0,25,0,0
111937,-14.2857142857143,4,1,0,25,0,0
111947,-1000,4,1,0,25,0,0
112011,-14.2857142857143,4,1,0,25,0,0
112021,-1000,4,1,0,25,0,0
112134,-14.2857142857143,4,1,0,25,0,0
112144,-100,4,1,0,25,0,0
112292,-57.1428571428571,4,1,0,25,0,0
112329,-66.6666666666667,4,1,0,25,0,0
112366,-80,4,1,0,25,0,0
112403,-100,4,1,0,25,0,0
112440,-133.333333333333,4,1,0,25,0,0
112588,-57.1428571428571,4,1,0,25,0,0
112625,-66.6666666666667,4,1,0,25,0,0
112662,-80,4,1,0,25,0,0
112699,-100,4,1,0,25,0,0
112736,-133.333333333333,4,1,0,25,0,0
112883,-57.1428571428571,4,1,0,25,0,0
112921,-66.6666666666667,4,1,0,25,0,0
112958,-80,4,1,0,25,0,0
112995,-100,4,1,0,25,0,0
113032,-133.333333333333,4,1,0,25,0,0
113179,-57.1428571428571,4,1,0,25,0,0
113216,-66.6666666666667,4,1,0,25,0,0
113253,-80,4,1,0,25,0,0
113290,-100,4,1,0,25,0,0
113327,-133.333333333333,4,1,0,25,0,0
113474,-57.1428571428571,4,1,0,25,0,0
113512,-66.6666666666667,4,1,0,25,0,0
113549,-80,4,1,0,25,0,0
113586,-100,4,1,0,25,0,0
113623,-133.333333333333,4,1,0,25,0,0
113770,-57.1428571428571,4,1,0,25,0,0
113807,-66.6666666666667,4,1,0,25,0,0
113844,-80,4,1,0,25,0,0
113881,-100,4,1,0,25,0,0
113918,-133.333333333333,4,1,0,25,0,0
114065,-57.1428571428571,4,1,0,25,0,0
114103,-66.6666666666667,4,1,0,25,0,0
114140,-80,4,1,0,25,0,0
114177,-100,4,1,0,25,0,0
114214,-133.333333333333,4,1,0,25,0,0
114361,-57.1428571428571,4,1,0,25,0,0
114398,-66.6666666666667,4,1,0,25,0,0
114435,-80,4,1,0,25,0,0
114472,-100,4,1,0,25,0,0
114509,-133.333333333333,4,1,0,25,0,0
114582,-57.1428571428571,4,1,0,25,0,0
114619,-66.6666666666667,4,1,0,25,0,0
114656,-80,4,1,0,25,0,0
114693,-100,4,1,0,25,0,0
114730,-133.333333333333,4,1,0,25,0,0
114877,-57.1428571428571,4,1,0,25,0,0
114915,-66.6666666666667,4,1,0,25,0,0
114952,-80,4,1,0,25,0,0
114989,-100,4,1,0,25,0,0
115026,-133.333333333333,4,1,0,25,0,0
115173,-57.1428571428571,4,1,0,25,0,0
115210,-66.6666666666667,4,1,0,25,0,0
115247,-80,4,1,0,25,0,0
115284,-100,4,1,0,25,0,0
115321,-133.333333333333,4,1,0,25,0,0
115468,-57.1428571428571,4,1,0,25,0,0
115506,-66.6666666666667,4,1,0,25,0,0
115543,-80,4,1,0,25,0,0
115580,-100,4,1,0,25,0,0
115617,-133.333333333333,4,1,0,25,0,0
115764,-57.1428571428571,4,1,0,25,0,0
115801,-66.6666666666667,4,1,0,25,0,0
115838,-80,4,1,0,25,0,0
115875,-100,4,1,0,25,0,0
115912,-133.333333333333,4,1,0,25,0,0
116059,-57.1428571428571,4,1,0,25,0,0
116097,-66.6666666666667,4,1,0,25,0,0
116134,-80,4,1,0,25,0,0
116171,-100,4,1,0,25,0,0
116208,-133.333333333333,4,1,0,25,0,0
116356,-57.1428571428571,4,1,0,25,0,0
116393,-66.6666666666667,4,1,0,25,0,0
116430,-80,4,1,0,25,0,0
116467,-100,4,1,0,25,0,0
116504,-133.333333333333,4,1,0,25,0,0
116652,-57.1428571428571,4,1,0,25,0,0
116689,-66.6666666666667,4,1,0,25,0,0
116726,-80,4,1,0,25,0,0
116763,-100,4,1,0,25,0,0
116800,-133.333333333333,4,1,0,25,0,0
116947,-57.1428571428571,4,1,0,25,0,0
116985,-66.6666666666667,4,1,0,25,0,0
117022,-80,4,1,0,25,0,0
117059,-100,4,1,0,25,0,0
117096,-133.333333333333,4,1,0,25,0,0
117243,-57.1428571428571,4,1,0,25,0,0
117280,-66.6666666666667,4,1,0,25,0,0
117317,-80,4,1,0,25,0,0
117354,-100,4,1,0,25,0,0
117391,-133.333333333333,4,1,0,25,0,0
117538,-57.1428571428571,4,1,0,25,0,0
117576,-66.6666666666667,4,1,0,25,0,0
117613,-80,4,1,0,25,0,0
117650,-100,4,1,0,25,0,0
117687,-133.333333333333,4,1,0,25,0,0
117834,-57.1428571428571,4,1,0,25,0,0
117871,-66.6666666666667,4,1,0,25,0,0
117908,-80,4,1,0,25,0,0
117945,-100,4,1,0,25,0,0
117982,-133.333333333333,4,1,0,25,0,0
118055,-100,4,1,0,25,0,0
118129,-200,4,1,0,25,0,0
118203,-50,4,1,0,25,0,0
118277,-100,4,1,0,25,0,0
118351,-200,4,1,0,25,0,0
118425,-50,4,1,0,25,0,0
118498,-100,4,1,0,25,0,0
118572,-200,4,1,0,25,0,0
118646,-50,4,1,0,25,0,0
118720,-80,4,1,0,25,0,0
119237,-200,4,1,0,25,0,0
138154,-33.3333333333333,4,1,0,25,0,0
138191,-1000,4,1,0,25,0,0
138301,-200,4,1,0,25,0,0
138745,-33.3333333333333,4,1,0,25,0,0
138782,-1000,4,1,0,25,0,0
138892,-200,4,1,0,25,0,0
139336,-33.3333333333333,4,1,0,25,0,0
139373,-1000,4,1,0,25,0,0
139483,-200,4,1,0,25,0,0
139927,-33.3333333333333,4,1,0,25,0,0
139964,-1000,4,1,0,25,0,0
140074,-200,4,1,0,25,0,0
140519,-33.3333333333333,4,1,0,25,0,0
140556,-1000,4,1,0,25,0,0
140666,-200,4,1,0,25,0,0
141110,-33.3333333333333,4,1,0,25,0,0
141147,-1000,4,1,0,25,0,0
141257,-200,4,1,0,25,0,0
141701,-33.3333333333333,4,1,0,25,0,0
141738,-1000,4,1,0,25,0,0
141848,-200,4,1,0,25,0,0
142292,-33.3333333333333,4,1,0,25,0,0
142329,-1000,4,1,0,25,0,0
142439,-200,4,1,0,25,0,0
142883,-33.3333333333333,4,1,0,25,0,0
142920,-1000,4,1,0,25,0,0
143030,-200,4,1,0,25,0,0
143474,-33.3333333333333,4,1,0,25,0,0
143511,-1000,4,1,0,25,0,0
143621,-200,4,1,0,25,0,0
144065,-33.3333333333333,4,1,0,25,0,0
144102,-1000,4,1,0,25,0,0
144212,-200,4,1,0,25,0,0
144656,-33.3333333333333,4,1,0,25,0,0
144693,-1000,4,1,0,25,0,0
144803,-200,4,1,0,25,0,0
145248,-33.3333333333333,4,1,0,25,0,0
145285,-1000,4,1,0,25,0,0
145395,-200,4,1,0,25,0,0
145839,-33.3333333333333,4,1,0,25,0,0
145876,-1000,4,1,0,25,0,0
145986,-200,4,1,0,25,0,0
146430,-33.3333333333333,4,1,0,25,0,0
146467,-1000,4,1,0,25,0,0
146577,-200,4,1,0,25,0,0
147021,-33.3333333333333,4,1,0,25,0,0
147058,-1000,4,1,0,25,0,0
147168,-200,4,1,0,25,0,0
147612,-33.3333333333333,4,1,0,25,0,0
147649,-1000,4,1,0,25,0,0
147760,-200,4,1,0,25,0,0
147908,-33.3333333333333,4,1,0,25,0,0
147945,-1000,4,1,0,25,0,0
148056,-200,4,1,0,25,0,0
148203,-33.3333333333333,4,1,0,25,0,0
148240,-1000,4,1,0,25,0,0
148351,-200,4,1,0,25,0,0
148499,-33.3333333333333,4,1,0,25,0,0
148536,-1000,4,1,0,25,0,0
148647,-200,4,1,0,25,0,0
148794,-33.3333333333333,4,1,0,25,0,0
148831,-1000,4,1,0,25,0,0
148942,-200,4,1,0,25,0,0
149090,-33.3333333333333,4,1,0,25,0,0
149127,-1000,4,1,0,25,0,0
149238,-200,4,1,0,25,0,0
149385,-33.3333333333333,4,1,0,25,0,0
149422,-1000,4,1,0,25,0,0
149533,-200,4,1,0,25,0,0
149681,-33.3333333333333,4,1,0,25,0,0
149718,-1000,4,1,0,25,0,0
149829,-200,4,1,0,25,0,0
149976,-33.3333333333333,4,1,0,25,0,0
150013,-1000,4,1,0,25,0,0
150124,-33.3333333333333,4,1,0,25,0,0
150161,-1000,4,1,0,25,0,0
150272,-33.3333333333333,4,1,0,25,0,0
150309,-1000,4,1,0,25,0,0
150419,-33.3333333333333,4,1,0,25,0,0
150456,-1000,4,1,0,25,0,0
150567,-33.3333333333333,4,1,0,25,0,0
150604,-1000,4,1,0,25,0,0
150715,-33.3333333333333,4,1,0,25,0,0
150752,-1000,4,1,0,25,0,0
150863,-33.3333333333333,4,1,0,25,0,0
150900,-1000,4,1,0,25,0,0
151010,-33.3333333333333,4,1,0,25,0,0
151047,-1000,4,1,0,25,0,0
151158,-33.3333333333333,4,1,0,25,0,0
151195,-1000,4,1,0,25,0,0
151306,-33.3333333333333,4,1,0,25,0,0
151343,-1000,4,1,0,25,0,0
151454,-33.3333333333333,4,1,0,25,0,0
151491,-1000,4,1,0,25,0,0
151602,-33.3333333333333,4,1,0,25,0,0
151639,-1000,4,1,0,25,0,0
151749,-33.3333333333333,4,1,0,25,0,0
151786,-1000,4,1,0,25,0,0
151897,-33.3333333333333,4,1,0,25,0,0
151934,-1000,4,1,0,25,0,0
152045,-33.3333333333333,4,1,0,25,0,0
152082,-1000,4,1,0,25,0,0
152193,-33.3333333333333,4,1,0,25,0,0
152230,-1000,4,1,0,25,0,0
152341,-25,4,1,0,25,0,0
152359,-1000,4,1,0,25,0,0
152415,-25,4,1,0,25,0,0
152433,-1000,4,1,0,25,0,0
152489,-25,4,1,0,25,0,0
152507,-1000,4,1,0,25,0,0
152563,-25,4,1,0,25,0,0
152581,-1000,4,1,0,25,0,0
152637,-25,4,1,0,25,0,0
152655,-1000,4,1,0,25,0,0
152710,-25,4,1,0,25,0,0
152728,-1000,4,1,0,25,0,0
152784,-25,4,1,0,25,0,0
152802,-1000,4,1,0,25,0,0
152858,-25,4,1,0,25,0,0
152876,-1000,4,1,0,25,0,0
152932,-25,4,1,0,25,0,0
152950,-1000,4,1,0,25,0,0
153006,-25,4,1,0,25,0,0
153024,-1000,4,1,0,25,0,0
153080,-25,4,1,0,25,0,0
153098,-1000,4,1,0,25,0,0
153154,-25,4,1,0,25,0,0
153172,-1000,4,1,0,25,0,0
153228,-25,4,1,0,25,0,0
153246,-1000,4,1,0,25,0,0
153302,-25,4,1,0,25,0,0
153320,-1000,4,1,0,25,0,0
153375,-25,4,1,0,25,0,0
153393,-1000,4,1,0,25,0,0
153449,-25,4,1,0,25,0,0
153467,-1000,4,1,0,25,0,0
153523,-25,4,1,0,25,0,0
153541,-1000,4,1,0,25,0,0
153597,-25,4,1,0,25,0,0
153615,-1000,4,1,0,25,0,0
153671,-25,4,1,0,25,0,0
153689,-1000,4,1,0,25,0,0
153745,-25,4,1,0,25,0,0
153763,-1000,4,1,0,25,0,0
153819,-25,4,1,0,25,0,0
153837,-1000,4,1,0,25,0,0
153893,-25,4,1,0,25,0,0
153911,-1000,4,1,0,25,0,0
153967,-25,4,1,0,25,0,0
153985,-1000,4,1,0,25,0,0
154041,-25,4,1,0,25,0,0
154059,-1000,4,1,0,25,0,0
154114,-25,4,1,0,25,0,0
154132,-1000,4,1,0,25,0,0
154188,-25,4,1,0,25,0,0
154206,-1000,4,1,0,25,0,0
154262,-25,4,1,0,25,0,0
154280,-1000,4,1,0,25,0,0
154336,-25,4,1,0,25,0,0
154354,-1000,4,1,0,25,0,0
154410,-25,4,1,0,25,0,0
154428,-1000,4,1,0,25,0,0
154484,-25,4,1,0,25,0,0
154502,-1000,4,1,0,25,0,0
154558,-25,4,1,0,25,0,0
154576,-1000,4,1,0,25,0,0
154632,-25,4,1,0,25,0,0
154650,-1000,4,1,0,25,0,0
154705,-50,4,1,0,25,0,0
154724,-1000,4,1,0,25,0,0
154742,-50,4,1,0,25,0,0
154761,-1000,4,1,0,25,0,0
154779,-50,4,1,0,25,0,0
154798,-1000,4,1,0,25,0,0
154816,-50,4,1,0,25,0,0
154835,-1000,4,1,0,25,0,0
154853,-50,4,1,0,25,0,0
154872,-1000,4,1,0,25,0,0
154890,-50,4,1,0,25,0,0
154909,-1000,4,1,0,25,0,0
154927,-50,4,1,0,25,0,0
154946,-1000,4,1,0,25,0,0
154964,-50,4,1,0,25,0,0
154983,-1000,4,1,0,25,0,0
155001,-50,4,1,0,25,0,0
155020,-1000,4,1,0,25,0,0
155038,-50,4,1,0,25,0,0
155057,-1000,4,1,0,25,0,0
155074,-50,4,1,0,25,0,0
155093,-1000,4,1,0,25,0,0
155111,-50,4,1,0,25,0,0
155130,-1000,4,1,0,25,0,0
155148,-50,4,1,0,25,0,0
155167,-1000,4,1,0,25,0,0
155185,-50,4,1,0,25,0,0
155204,-1000,4,1,0,25,0,0
155222,-50,4,1,0,25,0,0
155241,-1000,4,1,0,25,0,0
155259,-50,4,1,0,25,0,0
155278,-1000,4,1,0,25,0,0
155296,-50,4,1,0,25,0,0
155315,-1000,4,1,0,25,0,0
155333,-50,4,1,0,25,0,0
155352,-1000,4,1,0,25,0,0
155370,-50,4,1,0,25,0,0
155389,-1000,4,1,0,25,0,0
155407,-50,4,1,0,25,0,0
155426,-1000,4,1,0,25,0,0
155444,-50,4,1,0,25,0,0
155463,-1000,4,1,0,25,0,0
155481,-50,4,1,0,25,0,0
155500,-1000,4,1,0,25,0,0
155518,-50,4,1,0,25,0,0
155537,-1000,4,1,0,25,0,0
155555,-50,4,1,0,25,0,0
155574,-1000,4,1,0,25,0,0
155592,-200,4,1,0,25,0,0
156774,-133.333333333333,4,1,0,25,0,0
156922,-100,4,1,0,25,0,0
157070,-10,4,1,0,25,0,0
157088,-1000,4,1,0,25,0,0
157218,-200,4,1,0,25,0,0
157292,-133.333333333333,4,1,0,25,0,0
157365,-100,4,1,0,25,0,0
157661,-10,4,1,0,25,0,0
157679,-1000,4,1,0,25,0,0
157735,-200,4,1,0,25,0,0
157809,-100,4,1,0,25,0,0
157957,-10,4,1,0,25,0,0
157975,-1000,4,1,0,25,0,0
158104,-200,4,1,0,25,0,0
158178,-133.333333333333,4,1,0,25,0,0
158252,-1000,4,1,0,25,0,0
158326,-250,4,1,0,25,0,0
158400,-142.857142857143,4,1,0,25,0,0
158474,-90.9090909090909,4,1,0,25,0,0
158548,-71.4285714285714,4,1,0,25,0,0
158695,-100,4,1,0,25,0,0
158843,-10,4,1,0,25,0,0
158862,-200,4,1,0,25,0,0
159878,-100,4,1,0,25,0,0
160026,-10,4,1,0,25,0,0
160044,-1000,4,1,0,25,0,0
160099,-200,4,1,0,25,0,0
160173,-100,4,1,0,25,0,0
160321,-10,4,1,0,25,0,0
160340,-1000,4,1,0,25,0,0
160469,-333.333333333333,4,1,0,25,0,0
160543,-166.666666666667,4,1,0,25,0,0
160617,-111.111111111111,4,1,0,25,0,0
160691,-83.3333333333333,4,1,0,25,0,0
160764,-66.6666666666667,4,1,0,25,0,0
160912,-100,4,1,0,25,0,0
161799,-10,4,1,0,25,0,0
161817,-1000,4,1,0,25,0,0
161947,-200,4,1,0,25,0,0
162021,-133.333333333333,4,1,0,25,0,0
162095,-100,4,1,0,25,0,0
162390,-10,4,1,0,25,0,0
162409,-1000,4,1,0,25,0,0
162464,-200,4,1,0,25,0,0
162538,-100,4,1,0,25,0,0
162686,-10,4,1,0,25,0,0
162704,-1000,4,1,0,25,0,0
162833,-200,4,1,0,25,0,0
162907,-133.333333333333,4,1,0,25,0,0
162981,-100,4,1,0,25,0,0
163572,-10,4,1,0,25,0,0
163591,-200,4,1,0,25,0,0
164607,-100,4,1,0,25,0,0
164755,-10,4,1,0,25,0,0
164773,-1000,4,1,0,25,0,0
164828,-200,4,1,0,25,0,0
164902,-100,4,1,0,25,0,0
165050,-10,4,1,0,25,0,0
165069,-1000,4,1,0,25,0,0
165198,-333.333333333333,4,1,0,25,0,0
165272,-166.666666666667,4,1,0,25,0,0
165346,-111.111111111111,4,1,0,25,0,0
165420,-83.3333333333333,4,1,0,25,0,0
165494,-66.6666666666667,4,1,0,25,0,0
165641,-100,4,1,0,25,0,0
166528,-10,4,1,0,25,0,0
166546,-1000,4,1,0,25,0,0
166676,-200,4,1,0,25,0,0
166750,-133.333333333333,4,1,0,25,0,0
166823,-100,4,1,0,25,0,0
167119,-10,4,1,0,25,0,0
167137,-1000,4,1,0,25,0,0
167193,-200,4,1,0,25,0,0
167267,-100,4,1,0,25,0,0
167415,-10,4,1,0,25,0,0
167433,-1000,4,1,0,25,0,0
167562,-200,4,1,0,25,0,0
167636,-133.333333333333,4,1,0,25,0,0
167710,-1000,4,1,0,25,0,0
167784,-250,4,1,0,25,0,0
167858,-142.857142857143,4,1,0,25,0,0
167932,-90.9090909090909,4,1,0,25,0,0
168006,-71.4285714285714,4,1,0,25,0,0
168153,-100,4,1,0,25,0,0
168301,-10,4,1,0,25,0,0
168320,-200,4,1,0,25,0,0
169336,-100,4,1,0,25,0,0
169484,-10,4,1,0,25,0,0
169502,-1000,4,1,0,25,0,0
169557,-200,4,1,0,25,0,0
169631,-100,4,1,0,25,0,0
169779,-10,4,1,0,25,0,0
169798,-1000,4,1,0,25,0,0
169927,-333.333333333333,4,1,0,25,0,0
170001,-166.666666666667,4,1,0,25,0,0
170075,-111.111111111111,4,1,0,25,0,0
170149,-83.3333333333333,4,1,0,25,0,0
170222,-66.6666666666667,4,1,0,25,0,0
170370,-100,4,1,0,25,0,0
171257,-10,4,1,0,25,0,0
171275,-1000,4,1,0,25,0,0
171405,-200,4,1,0,25,0,0
171479,-133.333333333333,4,1,0,25,0,0
171553,-100,4,1,0,25,0,0
171848,-10,4,1,0,25,0,0
171867,-1000,4,1,0,25,0,0
171922,-200,4,1,0,25,0,0
171996,-100,4,1,0,25,0,0
172144,-10,4,1,0,25,0,0
172162,-1000,4,1,0,25,0,0
172291,-200,4,1,0,25,0,0
172365,-133.333333333333,4,1,0,25,0,0
172439,-100,4,1,0,25,0,0
173030,-10,4,1,0,25,0,0
173049,-200,4,1,0,25,0,0
175986,-66.6666666666667,4,1,0,25,0,0
176282,-200,4,1,0,25,0,0
177612,-196.078431372549,4,1,0,25,0,0
177646,-192.307692307692,4,1,0,25,0,0
177680,-188.679245283019,4,1,0,25,0,0
177714,-185.185185185185,4,1,0,25,0,0
177748,-181.818181818182,4,1,0,25,0,0
177782,-178.571428571429,4,1,0,25,0,0
177816,-175.438596491228,4,1,0,25,0,0
177850,-172.413793103448,4,1,0,25,0,0
177884,-169.491525423729,4,1,0,25,0,0
177918,-166.666666666667,4,1,0,25,0,0
177951,-163.934426229508,4,1,0,25,0,0
177985,-161.290322580645,4,1,0,25,0,0
178019,-158.730158730159,4,1,0,25,0,0
178053,-156.25,4,1,0,25,0,0
178087,-153.846153846154,4,1,0,25,0,0
178121,-151.515151515152,4,1,0,25,0,0
178155,-149.253731343284,4,1,0,25,0,0
178189,-147.058823529412,4,1,0,25,0,0
178223,-144.927536231884,4,1,0,25,0,0
178257,-142.857142857143,4,1,0,25,0,0
178291,-140.845070422535,4,1,0,25,0,0
178325,-138.888888888889,4,1,0,25,0,0
178359,-136.986301369863,4,1,0,25,0,0
178393,-135.135135135135,4,1,0,25,0,0
178427,-133.333333333333,4,1,0,25,0,0
178461,-131.578947368421,4,1,0,25,0,0
178495,-129.87012987013,4,1,0,25,0,0
178529,-128.205128205128,4,1,0,25,0,0
178562,-126.582278481013,4,1,0,25,0,0
178596,-125,4,1,0,25,0,0
178630,-123.456790123457,4,1,0,25,0,0
178664,-121.951219512195,4,1,0,25,0,0
178698,-120.481927710843,4,1,0,25,0,0
178732,-119.047619047619,4,1,0,25,0,0
178766,-117.647058823529,4,1,0,25,0,0
178800,-116.279069767442,4,1,0,25,0,0
178834,-114.942528735632,4,1,0,25,0,0
178868,-113.636363636364,4,1,0,25,0,0
178902,-112.359550561798,4,1,0,25,0,0
178936,-111.111111111111,4,1,0,25,0,0
178970,-109.89010989011,4,1,0,25,0,0
179004,-108.695652173913,4,1,0,25,0,0
179038,-107.52688172043,4,1,0,25,0,0
179072,-106.382978723404,4,1,0,25,0,0
179106,-105.263157894737,4,1,0,25,0,0
179140,-104.166666666667,4,1,0,25,0,0
179174,-103.092783505155,4,1,0,25,0,0
179207,-102.040816326531,4,1,0,25,0,0
179241,-101.010101010101,4,1,0,25,0,0
179275,-100,4,1,0,25,0,0
179309,-99.009900990099,4,1,0,25,0,0
179343,-98.0392156862745,4,1,0,25,0,0
179377,-97.0873786407767,4,1,0,25,0,0
179411,-96.1538461538462,4,1,0,25,0,0
179445,-95.2380952380952,4,1,0,25,0,0
179479,-94.3396226415094,4,1,0,25,0,0
179513,-93.4579439252336,4,1,0,25,0,0
179547,-92.5925925925926,4,1,0,25,0,0
179581,-91.743119266055,4,1,0,25,0,0
179615,-90.9090909090909,4,1,0,25,0,0
179649,-90.0900900900901,4,1,0,25,0,0
179683,-89.2857142857143,4,1,0,25,0,0
179717,-88.495575221239,4,1,0,25,0,0
179751,-87.719298245614,4,1,0,25,0,0
179785,-86.9565217391304,4,1,0,25,0,0
179818,-86.2068965517241,4,1,0,25,0,0
179852,-85.4700854700855,4,1,0,25,0,0
179886,-84.7457627118644,4,1,0,25,0,0
179920,-84.0336134453782,4,1,0,25,0,0
179954,-83.3333333333333,4,1,0,25,0,0
179988,-82.6446280991736,4,1,0,25,0,0
180022,-81.9672131147541,4,1,0,25,0,0
180056,-81.3008130081301,4,1,0,25,0,0
180090,-80.6451612903226,4,1,0,25,0,0
180124,-10,4,1,0,25,0,0
180143,-200,4,1,0,25,0,0
180715,-10,4,1,0,25,0,0
180733,-1000,4,1,0,25,0,0
180863,-200,4,1,0,25,0,0
180937,-133.333333333333,4,1,0,25,0,0
181011,-100,4,1,0,25,0,0
181306,-10,4,1,0,25,0,0
181325,-1000,4,1,0,25,0,0
181380,-200,4,1,0,25,0,0
181454,-100,4,1,0,25,0,0
181602,-10,4,1,0,25,0,0
181620,-1000,4,1,0,25,0,0
181749,-200,4,1,0,25,0,0
181823,-133.333333333333,4,1,0,25,0,0
181897,-100,4,1,0,25,0,0
182488,-10,4,1,0,25,0,0
182507,-200,4,1,0,25,0,0
183523,-100,4,1,0,25,0,0
183671,-10,4,1,0,25,0,0
183689,-1000,4,1,0,25,0,0
183744,-200,4,1,0,25,0,0
183818,-100,4,1,0,25,0,0
183966,-10,4,1,0,25,0,0
183985,-1000,4,1,0,25,0,0
184114,-333.333333333333,4,1,0,25,0,0
184188,-166.666666666667,4,1,0,25,0,0
184262,-111.111111111111,4,1,0,25,0,0
184336,-83.3333333333333,4,1,0,25,0,0
184410,-66.6666666666667,4,1,0,25,0,0
184557,-100,4,1,0,25,0,0
185444,-10,4,1,0,25,0,0
185462,-1000,4,1,0,25,0,0
185592,-200,4,1,0,25,0,0
185666,-133.333333333333,4,1,0,25,0,0
185739,-100,4,1,0,25,0,0
186035,-10,4,1,0,25,0,0
186053,-1000,4,1,0,25,0,0
186109,-200,4,1,0,25,0,0
186183,-100,4,1,0,25,0,0
186331,-10,4,1,0,25,0,0
186349,-1000,4,1,0,25,0,0
186478,-200,4,1,0,25,0,0
186552,-133.333333333333,4,1,0,25,0,0
186626,-1000,4,1,0,25,0,0
186700,-250,4,1,0,25,0,0
186774,-142.857142857143,4,1,0,25,0,0
186848,-90.9090909090909,4,1,0,25,0,0
186922,-71.4285714285714,4,1,0,25,0,0
187069,-100,4,1,0,25,0,0
187217,-10,4,1,0,25,0,0
187236,-200,4,1,0,25,0,0
188252,-100,4,1,0,25,0,0
188400,-10,4,1,0,25,0,0
188418,-1000,4,1,0,25,0,0
188473,-200,4,1,0,25,0,0
188547,-100,4,1,0,25,0,0
188695,-10,4,1,0,25,0,0
188714,-1000,4,1,0,25,0,0
188843,-333.333333333333,4,1,0,25,0,0
188917,-166.666666666667,4,1,0,25,0,0
188991,-111.111111111111,4,1,0,25,0,0
189065,-83.3333333333333,4,1,0,25,0,0
189138,-66.6666666666667,4,1,0,25,0,0
189286,-100,4,1,0,25,0,0
190173,-10,4,1,0,25,0,0
190191,-200,4,1,0,25,0,0
190321,-100,4,1,0,25,0,0
190395,-66.6666666666667,4,1,0,25,0,0
190469,-200,4,1,0,25,0,0
191060,-10,4,1,0,25,0,0
191078,-200,4,1,0,25,0,0
191208,-100,4,1,0,25,0,0
191282,-66.6666666666667,4,1,0,25,0,0
191356,-200,4,1,0,25,0,0
191946,-10,4,1,0,25,0,0
191965,-200,4,1,0,25,0,0
201996,-200,4,1,0,25,0,0
202091,-178.571428571429,4,1,0,25,0,0
202185,-161.290322580645,4,1,0,25,0,0
202280,-147.058823529412,4,1,0,25,0,0
202374,-135.135135135135,4,1,0,25,0,0
202469,-125,4,1,0,25,0,0
202564,-116.279069767442,4,1,0,25,0,0
202658,-108.695652173913,4,1,0,25,0,0
202753,-102.040816326531,4,1,0,25,0,0
202847,-96.1538461538462,4,1,0,25,0,0
202942,-90.9090909090909,4,1,0,25,0,0
203037,-86.2068965517241,4,1,0,25,0,0
203131,-81.9672131147541,4,1,0,25,0,0
203226,-78.125,4,1,0,25,0,0
203320,-74.6268656716418,4,1,0,25,0,0
203415,-71.4285714285714,4,1,0,25,0,0
203510,-68.4931506849315,4,1,0,25,0,0
203604,-65.7894736842105,4,1,0,25,0,0
203699,-63.2911392405063,4,1,0,25,0,0
203793,-60.9756097560976,4,1,0,25,0,0
203888,-58.8235294117647,4,1,0,25,0,0
203983,-56.8181818181818,4,1,0,25,0,0
204077,-54.9450549450549,4,1,0,25,0,0
204172,-53.1914893617021,4,1,0,25,0,0
204266,-51.5463917525773,4,1,0,25,0,0
204361,-200,4,1,0,25,0,0
221503,-200,4,1,0,25,0,0
221550,-185.185185185185,4,1,0,25,0,0
221598,-172.413793103448,4,1,0,25,0,0
221645,-161.290322580645,4,1,0,25,0,0
221692,-151.515151515152,4,1,0,25,0,0
221739,-142.857142857143,4,1,0,25,0,0
221787,-135.135135135135,4,1,0,25,0,0
221834,-128.205128205128,4,1,0,25,0,0
221881,-121.951219512195,4,1,0,25,0,0
221929,-116.279069767442,4,1,0,25,0,0
221976,-111.111111111111,4,1,0,25,0,0
222023,-106.382978723404,4,1,0,25,0,0
222070,-102.040816326531,4,1,0,25,0,0
222118,-98.0392156862745,4,1,0,25,0,0
222165,-94.3396226415094,4,1,0,25,0,0
222212,-90.9090909090909,4,1,0,25,0,0
222259,-87.719298245614,4,1,0,25,0,0
222307,-84.7457627118644,4,1,0,25,0,0
222354,-81.9672131147541,4,1,0,25,0,0
222401,-79.3650793650794,4,1,0,25,0,0
222449,-76.9230769230769,4,1,0,25,0,0
222496,-74.6268656716418,4,1,0,25,0,0
222543,-72.463768115942,4,1,0,25,0,0
222590,-70.4225352112676,4,1,0,25,0,0
222638,-68.4931506849315,4,1,0,25,0,0
222685,-100,4,1,0,25,0,0
223276,-33.3333333333333,4,1,0,25,0,0
223350,-200,4,1,0,25,0,0
223646,-50,4,1,0,25,0,0
223719,-40,4,1,0,25,0,0
223793,-200,4,1,0,25,0,0
223941,-50,4,1,0,25,0,0
224015,-40,4,1,0,25,0,0
224089,-200,4,1,0,25,0,0
224237,-50,4,1,0,25,0,0
224311,-40,4,1,0,25,0,0
224384,-200,4,1,0,25,0,0
225123,-50,4,1,0,25,0,0
225197,-40,4,1,0,25,0,0
225271,-200,4,1,0,25,0,0
225567,-50,4,1,0,25,0,0
225641,-40,4,1,0,25,0,0
225715,-200,4,1,0,25,0,0
226010,-50,4,1,0,25,0,0
226084,-40,4,1,0,25,0,0
226158,-200,4,1,0,25,0,0
226232,-50,4,1,0,25,0,0
226306,-40,4,1,0,25,0,0
226380,-200,4,1,0,25,0,0
226453,-50,4,1,0,25,0,0
226527,-40,4,1,0,25,0,0
226601,-200,4,1,0,25,0,0
227414,-25,4,1,0,25,0,0
227451,-1000,4,1,0,25,0,0
227525,-50,4,1,0,25,0,0
227562,-25,4,1,0,25,0,0
227599,-1000,4,1,0,25,0,0
227710,-66.6666666666667,4,1,0,25,0,0
228005,-33.3333333333333,4,1,0,25,0,0
228079,-200,4,1,0,25,0,0
228375,-50,4,1,0,25,0,0
228448,-40,4,1,0,25,0,0
228522,-200,4,1,0,25,0,0
228670,-50,4,1,0,25,0,0
228744,-40,4,1,0,25,0,0
228818,-200,4,1,0,25,0,0
228966,-50,4,1,0,25,0,0
229040,-40,4,1,0,25,0,0
229113,-200,4,1,0,25,0,0
229852,-50,4,1,0,25,0,0
229926,-40,4,1,0,25,0,0
230000,-200,4,1,0,25,0,0
230296,-50,4,1,0,25,0,0
230370,-40,4,1,0,25,0,0
230444,-200,4,1,0,25,0,0
230739,-50,4,1,0,25,0,0
230813,-40,4,1,0,25,0,0
230887,-200,4,1,0,25,0,0
230961,-50,4,1,0,25,0,0
231035,-40,4,1,0,25,0,0
231109,-200,4,1,0,25,0,0
231182,-50,4,1,0,25,0,0
231256,-40,4,1,0,25,0,0
231330,-200,4,1,0,25,0,0
231995,-25,4,1,0,25,0,0
232032,-1000,4,1,0,25,0,0
232143,-25,4,1,0,25,0,0
232180,-1000,4,1,0,25,0,0
232291,-25,4,1,0,25,0,0
232328,-1000,4,1,0,25,0,0
232439,-25,4,1,0,25,0,0
232476,-1000,4,1,0,25,0,0
232660,-66.6666666666667,4,1,0,25,0,0
232697,-40,4,1,0,25,0,0
232734,-133.333333333333,4,1,0,25,0,0
232923,-131.578947368421,4,1,0,25,0,0
233112,-129.87012987013,4,1,0,25,0,0
233302,-128.205128205128,4,1,0,25,0,0
233491,-126.582278481013,4,1,0,25,0,0
233680,-125,4,1,0,25,0,0
233869,-123.456790123457,4,1,0,25,0,0
234058,-121.951219512195,4,1,0,25,0,0
234248,-120.481927710843,4,1,0,25,0,0
234437,-119.047619047619,4,1,0,25,0,0
234626,-117.647058823529,4,1,0,25,0,0
234815,-116.279069767442,4,1,0,25,0,0
235004,-114.942528735632,4,1,0,25,0,0
235194,-113.636363636364,4,1,0,25,0,0
235383,-112.359550561798,4,1,0,25,0,0
235572,-111.111111111111,4,1,0,25,0,0
235761,-109.89010989011,4,1,0,25,0,0
235950,-108.695652173913,4,1,0,25,0,0
236140,-107.52688172043,4,1,0,25,0,0
236329,-106.382978723404,4,1,0,25,0,0
236518,-105.263157894737,4,1,0,25,0,0
236707,-104.166666666667,4,1,0,25,0,0
236896,-103.092783505155,4,1,0,25,0,0
237086,-102.040816326531,4,1,0,25,0,0
237275,-101.010101010101,4,1,0,25,0,0
237464,-100,4,1,0,25,0,0
237538,-200,4,1,0,25,0,0
237612,-50,4,1,0,25,0,0
237686,-100,4,1,0,25,0,0
237760,-200,4,1,0,25,0,0
237833,-50,4,1,0,25,0,0
237907,-200,4,1,0,25,0,0
237981,-50,4,1,0,25,0,0
238055,-100,4,1,0,25,0,0
238129,-200,4,1,0,25,0,0
238203,-50,4,1,0,25,0,0
238277,-100,4,1,0,25,0,0
238351,-200,4,1,0,25,0,0
238425,-50,4,1,0,25,0,0
238498,-200,4,1,0,25,0,0
238572,-50,4,1,0,25,0,0
238646,-100,4,1,0,25,0,0
238720,-200,4,1,0,25,0,0
238794,-50,4,1,0,25,0,0
238868,-100,4,1,0,25,0,0
238942,-200,4,1,0,25,0,0
239016,-50,4,1,0,25,0,0
239090,-200,4,1,0,25,0,0
239164,-50,4,1,0,25,0,0
239237,-100,4,1,0,25,0,0
239311,-50,4,1,0,25,0,0
239385,-200,4,1,0,25,0,0
239459,-100,4,1,0,25,0,0
239828,-10,4,1,0,25,0,0
241602,-80,4,1,0,25,0,0
242193,-100,4,1,0,25,0,1
253425,-1000,4,1,0,25,0,1
253554,-16.6666666666667,4,1,0,25,0,1
253572,-1000,4,1,0,25,0,1
253702,-16.6666666666667,4,1,0,25,0,1
253720,-1000,4,1,0,25,0,1
253849,-16.6666666666667,4,1,0,25,0,1
253868,-1000,4,1,0,25,0,1
253997,-16.6666666666667,4,1,0,25,0,1
254016,-100,4,1,0,25,0,1
256380,-200,4,1,0,25,0,0
256427,-196.078431372549,4,1,0,25,0,0
256475,-192.307692307692,4,1,0,25,0,0
256522,-188.679245283019,4,1,0,25,0,0
256569,-185.185185185185,4,1,0,25,0,0
256616,-181.818181818182,4,1,0,25,0,0
256664,-178.571428571429,4,1,0,25,0,0
256711,-175.438596491228,4,1,0,25,0,0
256758,-172.413793103448,4,1,0,25,0,0
256806,-169.491525423729,4,1,0,25,0,0
256853,-166.666666666667,4,1,0,25,0,0
256900,-163.934426229508,4,1,0,25,0,0
256948,-161.290322580645,4,1,0,25,0,0
256995,-158.730158730159,4,1,0,25,0,0
257042,-156.25,4,1,0,25,0,0
257089,-153.846153846154,4,1,0,25,0,0
257137,-151.515151515152,4,1,0,25,0,0
257184,-149.253731343284,4,1,0,25,0,0
257231,-147.058823529412,4,1,0,25,0,0
257279,-144.927536231884,4,1,0,25,0,0
257326,-142.857142857143,4,1,0,25,0,0
257373,-140.845070422535,4,1,0,25,0,0
257420,-138.888888888889,4,1,0,25,0,0
257468,-136.986301369863,4,1,0,25,0,0
257515,-135.135135135135,4,1,0,25,0,0
257562,-133.333333333333,4,1,0,25,0,0
257610,-131.578947368421,4,1,0,25,0,0
257657,-129.87012987013,4,1,0,25,0,0
257704,-128.205128205128,4,1,0,25,0,0
257752,-126.582278481013,4,1,0,25,0,0
257799,-125,4,1,0,25,0,0
257846,-123.456790123457,4,1,0,25,0,0
257893,-121.951219512195,4,1,0,25,0,0
257941,-120.481927710843,4,1,0,25,0,0
257988,-119.047619047619,4,1,0,25,0,0
258035,-117.647058823529,4,1,0,25,0,0
258083,-116.279069767442,4,1,0,25,0,0
258130,-114.942528735632,4,1,0,25,0,0
258177,-113.636363636364,4,1,0,25,0,0
258224,-112.359550561798,4,1,0,25,0,0
258272,-111.111111111111,4,1,0,25,0,0
258319,-109.89010989011,4,1,0,25,0,0
258366,-108.695652173913,4,1,0,25,0,0
258414,-107.52688172043,4,1,0,25,0,0
258461,-106.382978723404,4,1,0,25,0,0
258508,-105.263157894737,4,1,0,25,0,0
258555,-104.166666666667,4,1,0,25,0,0
258603,-103.092783505155,4,1,0,25,0,0
258650,-102.040816326531,4,1,0,25,0,0
258697,-101.010101010101,4,1,0,25,0,0
258745,-100,4,1,0,25,0,0
258792,-99.009900990099,4,1,0,25,0,0
258839,-98.0392156862745,4,1,0,25,0,0
258887,-97.0873786407767,4,1,0,25,0,0
258934,-96.1538461538462,4,1,0,25,0,0
258981,-95.2380952380952,4,1,0,25,0,0
259028,-94.3396226415094,4,1,0,25,0,0
259076,-93.4579439252336,4,1,0,25,0,0
259123,-92.5925925925926,4,1,0,25,0,0
259170,-91.743119266055,4,1,0,25,0,0
259218,-90.9090909090909,4,1,0,25,0,0
259265,-90.0900900900901,4,1,0,25,0,0
259312,-89.2857142857143,4,1,0,25,0,0
259359,-88.495575221239,4,1,0,25,0,0
259407,-87.719298245614,4,1,0,25,0,0
259454,-86.9565217391304,4,1,0,25,0,0
259501,-86.2068965517241,4,1,0,25,0,0
259549,-85.4700854700855,4,1,0,25,0,0
259596,-84.7457627118644,4,1,0,25,0,0
259643,-84.0336134453782,4,1,0,25,0,0
259691,-83.3333333333333,4,1,0,25,0,0
259738,-82.6446280991736,4,1,0,25,0,0
259785,-81.9672131147541,4,1,0,25,0,0
259832,-81.3008130081301,4,1,0,25,0,0
259880,-80.6451612903226,4,1,0,25,0,0
259927,-14.2857142857143,4,1,0,25,0,0
259945,-1000,4,1,0,25,0,0
260149,-14.2857142857143,4,1,0,25,0,0
260167,-1000,4,1,0,25,0,0
260370,-14.2857142857143,4,1,0,25,0,0
260389,-1000,4,1,0,25,0,0
260592,-14.2857142857143,4,1,0,25,0,0
260611,-1000,4,1,0,25,0,0
260814,-14.2857142857143,4,1,0,25,0,0
260832,-1000,4,1,0,25,0,0
260962,-14.2857142857143,4,1,0,25,0,0
260980,-1000,4,1,0,25,0,0
261109,-100,4,1,0,25,0,1
270567,-1000,4,1,0,25,0,1
270697,-14.2857142857143,4,1,0,25,0,1
270715,-1000,4,1,0,25,0,1
270845,-14.2857142857143,4,1,0,25,0,1
270863,-10,4,1,0,25,0,0
270881,-133.333333333333,4,1,0,25,0,0
272636,-50,4,1,0,25,0,0
272673,-1000,4,1,0,25,0,0
272710,-50,4,1,0,25,0,0
272747,-1000,4,1,0,25,0,0
272784,-50,4,1,0,25,0,0
272821,-1000,4,1,0,25,0,0
272858,-50,4,1,0,25,0,0
272895,-1000,4,1,0,25,0,0
272932,-133.333333333333,4,1,0,25,0,0
275001,-50,4,1,0,25,0,0
275038,-1000,4,1,0,25,0,0
275075,-50,4,1,0,25,0,0
275112,-1000,4,1,0,25,0,0
275149,-50,4,1,0,25,0,0
275186,-1000,4,1,0,25,0,0
275223,-50,4,1,0,25,0,0
275260,-1000,4,1,0,25,0,0
275296,-100,4,1,0,25,0,0
278843,-100,4,1,0,25,0,0
278917,-200,4,1,0,25,0,0
278991,-50,4,1,0,25,0,0
279065,-100,4,1,0,25,0,0
279139,-200,4,1,0,25,0,0
279213,-50,4,1,0,25,0,0
279287,-200,4,1,0,25,0,0
279361,-50,4,1,0,25,0,0
279434,-100,4,1,0,25,0,0
279508,-200,4,1,0,25,0,0
279582,-50,4,1,0,25,0,0
279656,-100,4,1,0,25,0,0
279730,-200,4,1,0,25,0,0
279804,-50,4,1,0,25,0,0
279878,-200,4,1,0,25,0,0
279952,-50,4,1,0,25,0,0
280026,-100,4,1,0,25,0,0
280121,-101.010101010101,4,1,0,25,0,0
280215,-102.040816326531,4,1,0,25,0,0
280310,-103.092783505155,4,1,0,25,0,0
280404,-104.166666666667,4,1,0,25,0,0
280499,-105.263157894737,4,1,0,25,0,0
280593,-106.382978723404,4,1,0,25,0,0
280688,-107.52688172043,4,1,0,25,0,0
280783,-108.695652173913,4,1,0,25,0,0
280877,-109.89010989011,4,1,0,25,0,0
280972,-111.111111111111,4,1,0,25,0,0
281066,-112.359550561798,4,1,0,25,0,0
281161,-113.636363636364,4,1,0,25,0,0
281256,-114.942528735632,4,1,0,25,0,0
281350,-116.279069767442,4,1,0,25,0,0
281445,-117.647058823529,4,1,0,25,0,0
281539,-119.047619047619,4,1,0,25,0,0
281634,-120.481927710843,4,1,0,25,0,0
281728,-121.951219512195,4,1,0,25,0,0
281823,-123.456790123457,4,1,0,25,0,0
281918,-125,4,1,0,25,0,0
282012,-126.582278481013,4,1,0,25,0,0
282107,-128.205128205128,4,1,0,25,0,0
282201,-129.87012987013,4,1,0,25,0,0
282296,-131.578947368421,4,1,0,25,0,0
282391,-133.333333333333,4,1,0,25,0,0
282485,-135.135135135135,4,1,0,25,0,0
282580,-136.986301369863,4,1,0,25,0,0
282674,-138.888888888889,4,1,0,25,0,0
282769,-140.845070422535,4,1,0,25,0,0
282863,-142.857142857143,4,1,0,25,0,0
282958,-144.927536231884,4,1,0,25,0,0
283053,-147.058823529412,4,1,0,25,0,0
283147,-149.253731343284,4,1,0,25,0,0
283242,-151.515151515152,4,1,0,25,0,0
283336,-153.846153846154,4,1,0,25,0,0
283431,-156.25,4,1,0,25,0,0
283525,-158.730158730159,4,1,0,25,0,0
283620,-161.290322580645,4,1,0,25,0,0
283715,-163.934426229508,4,1,0,25,0,0
283809,-166.666666666667,4,1,0,25,0,0
283904,-169.491525423729,4,1,0,25,0,0
283998,-172.413793103448,4,1,0,25,0,0
284093,-175.438596491228,4,1,0,25,0,0
284188,-178.571428571429,4,1,0,25,0,0
284282,-181.818181818182,4,1,0,25,0,0
284377,-185.185185185185,4,1,0,25,0,0
284471,-188.679245283019,4,1,0,25,0,0
284566,-192.307692307692,4,1,0,25,0,0
284660,-196.078431372549,4,1,0,25,0,0
284755,-200,4,1,0,25,0,0

[HitObjects]
64,192,5740,128,0,5888:0:0:0:0:
448,192,6479,128,0,6627:0:0:0:0:
320,192,6922,128,0,7070:0:0:0:0:
192,192,7661,128,0,7809:0:0:0:0:
64,192,8104,128,0,8252:0:0:0:0:
192,192,8843,128,0,8991:0:0:0:0:
320,192,9287,128,0,9434:0:0:0:0:
448,192,9730,128,0,9878:0:0:0:0:
192,192,10469,128,0,10617:0:0:0:0:
64,192,15198,132,0,15346:0:0:0:0:
448,192,15937,128,0,16085:0:0:0:0:
320,192,16380,128,0,16528:0:0:0:0:
192,192,17119,128,0,17267:0:0:0:0:
64,192,17562,128,0,17710:0:0:0:0:
192,192,18301,128,0,18449:0:0:0:0:
320,192,18745,128,0,18893:0:0:0:0:
448,192,19188,128,0,19336:0:0:0:0:
192,192,19927,128,0,20075:0:0:0:0:
448,192,24065,132,0,24213:0:0:0:0:
320,192,24213,128,0,24361:0:0:0:0:
64,192,24361,128,0,24508:0:0:0:0:
192,192,24508,128,0,24656:0:0:0:0:
448,192,24656,128,0,24952:0:0:0:0:
320,192,24656,128,0,24952:0:0:0:0:
64,192,24656,128,0,24952:0:0:0:0:
448,192,25099,128,0,25247:0:0:0:0:
320,192,25099,128,0,25247:0:0:0:0:
64,192,25099,128,0,25247:0:0:0:0:
448,192,25395,128,0,25543:0:0:0:0:
320,192,25395,128,0,25543:0:0:0:0:
64,192,25395,128,0,25543:0:0:0:0:
448,192,25691,128,0,25838:0:0:0:0:
320,192,25691,128,0,25838:0:0:0:0:
64,192,25691,128,0,25838:0:0:0:0:
448,192,26577,128,0,26947:0:0:0:0:
320,192,26577,128,0,26947:0:0:0:0:
64,192,26577,128,0,26947:0:0:0:0:
320,192,27021,128,0,27316:0:0:0:0:
192,192,27021,128,0,27316:0:0:0:0:
64,192,27021,128,0,27316:0:0:0:0:
320,192,27464,128,0,27612:0:0:0:0:
192,192,27464,128,0,27612:0:0:0:0:
64,192,27464,128,0,27612:0:0:0:0:
320,192,27686,128,0,27833:0:0:0:0:
192,192,27686,128,0,27833:0:0:0:0:
64,192,27686,128,0,27833:0:0:0:0:
320,192,27907,128,0,28129:0:0:0:0:
192,192,27907,128,0,28129:0:0:0:0:
64,192,27907,128,0,28129:0:0:0:0:
192,192,28794,128,0,28868:0:0:0:0:
320,192,28794,128,0,28868:0:0:0:0:
192,192,28942,128,0,29090:0:0:0:0:
320,192,28942,128,0,29090:0:0:0:0:
64,192,29090,128,0,29385:0:0:0:0:
448,192,29090,128,0,29311:0:0:0:0:
192,192,29385,128,0,29681:0:0:0:0:
448,192,29385,128,0,29681:0:0:0:0:
320,192,29385,128,0,29681:0:0:0:0:
192,192,29828,128,0,29976:0:0:0:0:
320,192,29828,128,0,29976:0:0:0:0:
448,192,29828,128,0,29976:0:0:0:0:
448,192,30124,128,0,30272:0:0:0:0:
320,192,30124,128,0,30272:0:0:0:0:
192,192,30124,128,0,30272:0:0:0:0:
192,192,30420,128,0,30567:0:0:0:0:
320,192,30420,128,0,30567:0:0:0:0:
448,192,30420,128,0,30567:0:0:0:0:
448,192,31306,128,0,31676:0:0:0:0:
192,192,31306,128,0,31676:0:0:0:0:
320,192,31306,128,0,31676:0:0:0:0:
448,192,31750,128,0,32045:0:0:0:0:
192,192,31750,128,0,32045:0:0:0:0:
64,192,31750,128,0,32045:0:0:0:0:
448,192,32193,128,0,32341:0:0:0:0:
192,192,32193,128,0,32341:0:0:0:0:
64,192,32193,128,0,32341:0:0:0:0:
448,192,32415,128,0,32562:0:0:0:0:
192,192,32415,128,0,32562:0:0:0:0:
64,192,32415,128,0,32562:0:0:0:0:
64,192,32636,128,0,32932:0:0:0:0:
192,192,32636,128,0,32932:0:0:0:0:
448,192,32636,128,0,32932:0:0:0:0:
320,192,33375,128,0,33523:0:0:0:0:
192,192,33523,128,0,33671:0:0:0:0:
448,192,33671,128,0,33819:0:0:0:0:
64,192,33671,128,0,33819:0:0:0:0:
320,192,33819,128,0,34114:0:0:0:0:
192,192,33819,128,0,34114:0:0:0:0:
448,192,34114,1,0,0:0:0:0:
64,192,34114,1,0,0:0:0:0:
192,192,34262,1,0,0:0:0:0:
64,192,34410,1,0,0:0:0:0:
320,192,34410,1,0,0:0:0:0:
448,192,34558,1,0,0:0:0:0:
320,192,34705,1,0,0:0:0:0:
192,192,34705,1,0,0:0:0:0:
64,192,34853,1,0,0:0:0:0:
192,192,35001,1,0,0:0:0:0:
448,192,35001,1,0,0:0:0:0:
320,192,35149,1,0,0:0:0:0:
448,192,35296,1,0,0:0:0:0:
64,192,35296,1,0,0:0:0:0:
192,192,35444,1,0,0:0:0:0:
320,192,35592,1,0,0:0:0:0:
448,192,35592,1,0,0:0:0:0:
64,192,35592,1,0,0:0:0:0:
192,192,35740,1,0,0:0:0:0:
320,192,35888,1,0,0:0:0:0:
64,192,35888,1,0,0:0:0:0:
448,192,36035,1,0,0:0:0:0:
192,192,36183,1,0,0:0:0:0:
64,192,36183,1,0,0:0:0:0:
320,192,36183,1,0,0:0:0:0:
448,192,36331,1,0,0:0:0:0:
320,192,36479,1,0,0:0:0:0:
64,192,36479,1,0,0:0:0:0:
192,192,36627,1,0,0:0:0:0:
64,192,36774,1,0,0:0:0:0:
448,192,36774,1,0,0:0:0:0:
320,192,36774,1,0,0:0:0:0:
192,192,36922,1,0,0:0:0:0:
320,192,37070,1,0,0:0:0:0:
448,192,37070,1,0,0:0:0:0:
64,192,37218,1,0,0:0:0:0:
192,192,37365,1,0,0:0:0:0:
320,192,37365,1,0,0:0:0:0:
448,192,37365,1,0,0:0:0:0:
64,192,37513,1,0,0:0:0:0:
192,192,37661,1,0,0:0:0:0:
320,192,37661,1,0,0:0:0:0:
448,192,37809,1,0,0:0:0:0:
320,192,37957,1,0,0:0:0:0:
192,192,37957,1,0,0:0:0:0:
64,192,37957,1,0,0:0:0:0:
448,192,38104,1,0,0:0:0:0:
320,192,38252,1,0,0:0:0:0:
64,192,38252,1,0,0:0:0:0:
192,192,38400,1,0,0:0:0:0:
64,192,38548,1,0,0:0:0:0:
320,192,38548,1,0,0:0:0:0:
448,192,38548,1,0,0:0:0:0:
192,192,38695,1,0,0:0:0:0:
64,192,38843,1,0,0:0:0:0:
448,192,38843,1,0,0:0:0:0:
320,192,38942,1,0,0:0:0:0:
192,192,39040,1,0,0:0:0:0:
64,192,39040,1,0,0:0:0:0:
320,192,39139,1,0,0:0:0:0:
448,192,39139,1,0,0:0:0:0:
64,192,39237,1,0,0:0:0:0:
192,192,39336,1,0,0:0:0:0:
320,192,39434,1,0,0:0:0:0:
448,192,39434,1,0,0:0:0:0:
64,192,39533,1,0,0:0:0:0:
192,192,39631,1,0,0:0:0:0:
320,192,39631,1,0,0:0:0:0:
448,192,39730,1,0,0:0:0:0:
64,192,39730,1,0,0:0:0:0:
320,192,39828,1,0,0:0:0:0:
192,192,39927,1,0,0:0:0:0:
64,192,40026,1,0,0:0:0:0:
448,192,40026,1,0,0:0:0:0:
320,192,40124,1,0,0:0:0:0:
192,192,40223,1,0,0:0:0:0:
64,192,40223,1,0,0:0:0:0:
320,192,40321,1,0,0:0:0:0:
448,192,40321,1,0,0:0:0:0:
64,192,40420,1,0,0:0:0:0:
192,192,40518,1,0,0:0:0:0:
448,192,40617,1,0,0:0:0:0:
320,192,40617,1,0,0:0:0:0:
64,192,40715,1,0,0:0:0:0:
320,192,40715,1,0,0:0:0:0:
192,192,40814,1,0,0:0:0:0:
448,192,40814,1,0,0:0:0:0:
192,192,40912,1,0,0:0:0:0:
64,192,40912,1,0,0:0:0:0:
448,192,41011,1,0,0:0:0:0:
320,192,41011,1,0,0:0:0:0:
448,192,41109,1,0,0:0:0:0:
192,192,41109,1,0,0:0:0:0:
64,192,41208,1,0,0:0:0:0:
320,192,41208,1,0,0:0:0:0:
320,192,43572,1,0,0:0:0:0:
192,192,43572,1,0,0:0:0:0:
448,192,43572,128,0,43868:0:0:0:0:
64,192,43572,128,0,43868:0:0:0:0:
192,192,43868,128,0,43979:0:0:0:0:
192,192,44016,128,0,44163:0:0:0:0:
448,192,44163,128,0,44459:0:0:0:0:
64,192,44163,1,0,0:0:0:0:
320,192,44163,128,0,44459:0:0:0:0:
64,192,44459,1,0,0:0:0:0:
192,192,44459,1,0,0:0:0:0:
320,192,44533,1,0,0:0:0:0:
448,192,44533,1,0,0:0:0:0:
192,192,44607,1,0,0:0:0:0:
64,192,44607,1,0,0:0:0:0:
320,192,44681,1,0,0:0:0:0:
448,192,44681,1,0,0:0:0:0:
192,192,44755,1,0,0:0:0:0:
64,192,44755,1,0,0:0:0:0:
320,192,44828,1,0,0:0:0:0:
448,192,44828,1,0,0:0:0:0:
192,192,44902,1,0,0:0:0:0:
64,192,44902,1,0,0:0:0:0:
320,192,44976,1,0,0:0:0:0:
448,192,44976,1,0,0:0:0:0:
192,192,45050,1,0,0:0:0:0:
64,192,45050,1,0,0:0:0:0:
320,192,45124,1,0,0:0:0:0:
448,192,45124,1,0,0:0:0:0:
192,192,45198,1,0,0:0:0:0:
64,192,45198,1,0,0:0:0:0:
320,192,45272,1,0,0:0:0:0:
448,192,45272,1,0,0:0:0:0:
64,192,45346,128,0,45494:0:0:0:0:
192,192,45346,128,0,45494:0:0:0:0:
192,192,45567,128,0,45715:0:0:0:0:
64,192,45567,128,0,45715:0:0:0:0:
192,192,45789,128,0,45937:0:0:0:0:
64,192,45789,128,0,45937:0:0:0:0:
448,192,45937,128,0,46159:0:0:0:0:
320,192,45937,128,0,46159:0:0:0:0:
448,192,46232,128,0,46454:0:0:0:0:
320,192,46232,128,0,46454:0:0:0:0:
448,192,46528,128,0,46676:0:0:0:0:
320,192,46528,128,0,46676:0:0:0:0:
64,192,46528,1,0,0:0:0:0:
192,192,46676,128,0,46824:0:0:0:0:
64,192,46676,128,0,46824:0:0:0:0:
448,192,46824,1,0,0:0:0:0:
320,192,46824,1,0,0:0:0:0:
448,192,46971,1,0,0:0:0:0:
192,192,46971,1,0,0:0:0:0:
64,192,46971,1,0,0:0:0:0:
320,192,47045,1,0,0:0:0:0:
192,192,47119,1,0,0:0:0:0:
448,192,47267,1,0,0:0:0:0:
64,192,47267,1,0,0:0:0:0:
320,192,47415,1,0,0:0:0:0:
448,192,47415,1,0,0:0:0:0:
64,192,47415,1,0,0:0:0:0:
192,192,47489,1,0,0:0:0:0:
320,192,47562,1,0,0:0:0:0:
64,192,47710,1,0,0:0:0:0:
448,192,47710,1,0,0:0:0:0:
192,192,47858,1,0,0:0:0:0:
64,192,47858,1,0,0:0:0:0:
448,192,47858,1,0,0:0:0:0:
320,192,47932,1,0,0:0:0:0:
192,192,48006,1,0,0:0:0:0:
64,192,48006,128,0,48301:0:0:0:0:
320,192,48080,1,0,0:0:0:0:
448,192,48154,1,0,0:0:0:0:
320,192,48228,1,0,0:0:0:0:
448,192,48301,128,0,48597:0:0:0:0:
192,192,48301,128,0,48597:0:0:0:0:
320,192,48597,1,0,0:0:0:0:
64,192,48597,1,0,0:0:0:0:
192,192,48745,128,0,48893:0:0:0:0:
320,192,48745,128,0,48893:0:0:0:0:
64,192,48893,1,0,0:0:0:0:
448,192,48893,1,0,0:0:0:0:
64,192,49040,128,0,49188:0:0:0:0:
448,192,49040,128,0,49188:0:0:0:0:
192,192,49188,1,0,0:0:0:0:
320,192,49188,1,0,0:0:0:0:
448,192,49336,1,0,0:0:0:0:
64,192,49336,1,0,0:0:0:0:
320,192,49410,1,0,0:0:0:0:
64,192,49484,1,0,0:0:0:0:
192,192,49484,1,0,0:0:0:0:
192,192,49631,1,0,0:0:0:0:
448,192,49631,1,0,0:0:0:0:
320,192,49705,1,0,0:0:0:0:
448,192,49779,1,0,0:0:0:0:
192,192,49779,1,0,0:0:0:0:
64,192,49779,1,0,0:0:0:0:
320,192,49927,1,0,0:0:0:0:
64,192,49927,1,0,0:0:0:0:
192,192,50001,1,0,0:0:0:0:
448,192,50075,1,0,0:0:0:0:
320,192,50075,1,0,0:0:0:0:
64,192,50223,1,0,0:0:0:0:
448,192,50223,1,0,0:0:0:0:
192,192,50296,1,0,0:0:0:0:
64,192,50370,1,0,0:0:0:0:
320,192,50370,1,0,0:0:0:0:
448,192,50370,1,0,0:0:0:0:
192,192,50518,128,0,50666:0:0:0:0:
64,192,50518,128,0,50666:0:0:0:0:
320,192,50666,1,0,0:0:0:0:
448,192,50666,1,0,0:0:0:0:
320,192,50814,128,0,50962:0:0:0:0:
192,192,50814,128,0,50962:0:0:0:0:
64,192,50962,1,0,0:0:0:0:
448,192,50962,1,0,0:0:0:0:
448,192,51109,128,0,51257:0:0:0:0:
320,192,51109,128,0,51257:0:0:0:0:
192,192,51257,1,0,0:0:0:0:
64,192,51257,1,0,0:0:0:0:
64,192,51405,128,0,51553:0:0:0:0:
320,192,51405,128,0,51553:0:0:0:0:
192,192,51553,1,0,0:0:0:0:
448,192,51553,1,0,0:0:0:0:
448,192,51700,128,0,51848:0:0:0:0:
64,192,51700,128,0,51848:0:0:0:0:
192,192,51848,1,0,0:0:0:0:
320,192,51848,1,0,0:0:0:0:
448,192,51996,1,0,0:0:0:0:
320,192,51996,1,0,0:0:0:0:
192,192,52070,1,0,0:0:0:0:
64,192,52144,1,0,0:0:0:0:
320,192,52144,1,0,0:0:0:0:
448,192,52144,1,0,0:0:0:0:
192,192,52292,128,0,52439:0:0:0:0:
64,192,52292,128,0,52439:0:0:0:0:
320,192,52439,1,0,0:0:0:0:
448,192,52439,1,0,0:0:0:0:
448,192,52587,128,0,53030:0:0:0:0:
64,192,52587,128,0,53030:0:0:0:0:
320,192,53030,1,0,0:0:0:0:
192,192,53030,1,0,0:0:0:0:
192,192,53917,128,0,54213:0:0:0:0:
64,192,53917,128,0,54213:0:0:0:0:
320,192,53917,1,0,0:0:0:0:
448,192,53917,1,0,0:0:0:0:
448,192,54213,1,0,0:0:0:0:
320,192,54213,1,0,0:0:0:0:
192,192,54287,1,0,0:0:0:0:
64,192,54287,1,0,0:0:0:0:
320,192,54361,1,0,0:0:0:0:
448,192,54361,1,0,0:0:0:0:
192,192,54434,1,0,0:0:0:0:
64,192,54434,1,0,0:0:0:0:
448,192,54508,1,0,0:0:0:0:
320,192,54508,1,0,0:0:0:0:
64,192,54582,1,0,0:0:0:0:
192,192,54582,1,0,0:0:0:0:
448,192,54656,1,0,0:0:0:0:
320,192,54656,1,0,0:0:0:0:
64,192,54730,1,0,0:0:0:0:
192,192,54730,1,0,0:0:0:0:
320,192,54804,128,0,54952:0:0:0:0:
448,192,54804,128,0,54952:0:0:0:0:
320,192,55026,128,0,55173:0:0:0:0:
448,192,55026,128,0,55173:0:0:0:0:
448,192,55247,128,0,55395:0:0:0:0:
320,192,55247,128,0,55395:0:0:0:0:
192,192,55395,128,0,55617:0:0:0:0:
64,192,55395,128,0,55617:0:0:0:0:
192,192,55691,128,0,55912:0:0:0:0:
64,192,55691,128,0,55912:0:0:0:0:
192,192,55986,128,0,56134:0:0:0:0:
64,192,55986,128,0,56134:0:0:0:0:
448,192,55986,1,0,0:0:0:0:
320,192,56134,128,0,56282:0:0:0:0:
448,192,56134,128,0,56282:0:0:0:0:
192,192,56282,1,0,0:0:0:0:
64,192,56282,1,0,0:0:0:0:
64,192,56429,1,0,0:0:0:0:
320,192,56429,1,0,0:0:0:0:
448,192,56429,1,0,0:0:0:0:
192,192,56503,1,0,0:0:0:0:
448,192,56577,1,0,0:0:0:0:
320,192,56577,1,0,0:0:0:0:
192,192,56725,1,0,0:0:0:0:
64,192,56725,1,0,0:0:0:0:
448,192,56873,1,0,0:0:0:0:
192,192,56873,1,0,0:0:0:0:
64,192,56873,1,0,0:0:0:0:
320,192,56947,1,0,0:0:0:0:
192,192,57021,1,0,0:0:0:0:
320,192,57168,1,0,0:0:0:0:
448,192,57168,1,0,0:0:0:0:
448,192,57316,1,0,0:0:0:0:
320,192,57316,1,0,0:0:0:0:
64,192,57316,1,0,0:0:0:0:
192,192,57390,1,0,0:0:0:0:
320,192,57464,1,0,0:0:0:0:
448,192,57538,1,0,0:0:0:0:
64,192,57612,1,0,0:0:0:0:
192,192,57686,1,0,0:0:0:0:
448,192,57760,1,0,0:0:0:0:
320,192,57760,1,0,0:0:0:0:
64,192,57760,1,0,0:0:0:0:
192,192,57907,1,0,0:0:0:0:
320,192,57907,1,0,0:0:0:0:
448,192,58055,1,0,0:0:0:0:
320,192,58055,1,0,0:0:0:0:
192,192,58055,1,0,0:0:0:0:
448,192,58203,1,0,0:0:0:0:
64,192,58203,1,0,0:0:0:0:
64,192,58351,1,0,0:0:0:0:
192,192,58351,1,0,0:0:0:0:
320,192,58351,1,0,0:0:0:0:
448,192,58498,1,0,0:0:0:0:
192,192,58498,1,0,0:0:0:0:
192,192,58646,1,0,0:0:0:0:
64,192,58646,1,0,0:0:0:0:
320,192,58646,1,0,0:0:0:0:
448,192,58794,1,0,0:0:0:0:
64,192,58794,1,0,0:0:0:0:
192,192,58942,1,0,0:0:0:0:
320,192,58942,1,0,0:0:0:0:
448,192,58942,1,0,0:0:0:0:
192,192,59090,1,0,0:0:0:0:
64,192,59090,1,0,0:0:0:0:
64,192,59237,1,0,0:0:0:0:
320,192,59237,1,0,0:0:0:0:
448,192,59237,1,0,0:0:0:0:
192,192,59385,1,0,0:0:0:0:
320,192,59385,1,0,0:0:0:0:
192,192,59533,1,0,0:0:0:0:
64,192,59533,1,0,0:0:0:0:
448,192,59533,1,0,0:0:0:0:
320,192,59681,1,0,0:0:0:0:
64,192,59681,1,0,0:0:0:0:
320,192,59828,1,0,0:0:0:0:
448,192,59828,1,0,0:0:0:0:
192,192,59828,1,0,0:0:0:0:
64,192,59976,1,0,0:0:0:0:
448,192,59976,1,0,0:0:0:0:
320,192,60124,1,0,0:0:0:0:
192,192,60124,1,0,0:0:0:0:
64,192,60124,1,0,0:0:0:0:
448,192,60272,1,0,0:0:0:0:
192,192,60272,1,0,0:0:0:0:
64,192,60420,1,0,0:0:0:0:
320,192,60420,1,0,0:0:0:0:
448,192,60420,1,0,0:0:0:0:
192,192,60567,1,0,0:0:0:0:
448,192,60567,1,0,0:0:0:0:
320,192,60715,1,0,0:0:0:0:
192,192,60715,1,0,0:0:0:0:
64,192,60715,1,0,0:0:0:0:
448,192,60863,1,0,0:0:0:0:
64,192,60863,1,0,0:0:0:0:
192,192,61011,1,0,0:0:0:0:
320,192,61011,1,0,0:0:0:0:
448,192,61011,1,0,0:0:0:0:
64,192,61159,1,0,0:0:0:0:
320,192,61159,1,0,0:0:0:0:
192,192,61306,1,0,0:0:0:0:
64,192,61306,1,0,0:0:0:0:
448,192,61306,1,0,0:0:0:0:
448,192,61528,1,0,0:0:0:0:
320,192,61528,1,0,0:0:0:0:
64,192,61528,1,0,0:0:0:0:
448,192,61750,1,0,0:0:0:0:
320,192,61750,1,0,0:0:0:0:
192,192,61750,1,0,0:0:0:0:
320,192,61971,1,0,0:0:0:0:
192,192,61971,1,0,0:0:0:0:
64,192,61971,1,0,0:0:0:0:
448,192,62045,1,0,0:0:0:0:
64,192,62119,128,0,62341:0:0:0:0:
320,192,62341,1,0,0:0:0:0:
448,192,62341,1,0,0:0:0:0:
448,192,62489,1,0,0:0:0:0:
320,192,62489,1,0,0:0:0:0:
64,192,63080,1,0,0:0:0:0:
192,192,63080,1,0,0:0:0:0:
320,192,63080,1,0,0:0:0:0:
448,192,63080,1,0,0:0:0:0:
192,192,63228,1,0,0:0:0:0:
64,192,63228,1,0,0:0:0:0:
320,192,63301,1,0,0:0:0:0:
448,192,63301,1,0,0:0:0:0:
192,192,63375,1,0,0:0:0:0:
64,192,63375,1,0,0:0:0:0:
320,192,63523,1,0,0:0:0:0:
64,192,63523,1,0,0:0:0:0:
192,192,63671,1,0,0:0:0:0:
448,192,63671,1,0,0:0:0:0:
448,192,63819,1,0,0:0:0:0:
320,192,63819,1,0,0:0:0:0:
192,192,63966,1,0,0:0:0:0:
64,192,63966,1,0,0:0:0:0:
448,192,64262,1,0,0:0:0:0:
320,192,64262,1,0,0:0:0:0:
64,192,64262,128,0,64410:0:0:0:0:
192,192,64410,128,0,64558:0:0:0:0:
64,192,64558,128,0,64705:0:0:0:0:
192,192,64705,128,0,64853:0:0:0:0:
448,192,64853,1,0,0:0:0:0:
320,192,64853,1,0,0:0:0:0:
192,192,65001,1,0,0:0:0:0:
64,192,65001,1,0,0:0:0:0:
320,192,65075,1,0,0:0:0:0:
448,192,65075,1,0,0:0:0:0:
320,192,65223,1,0,0:0:0:0:
192,192,65223,1,0,0:0:0:0:
64,192,65296,1,0,0:0:0:0:
448,192,65296,1,0,0:0:0:0:
320,192,65444,1,0,0:0:0:0:
192,192,65444,1,0,0:0:0:0:
64,192,65444,1,0,0:0:0:0:
448,192,65592,1,0,0:0:0:0:
320,192,65592,1,0,0:0:0:0:
192,192,65666,1,0,0:0:0:0:
64,192,65666,1,0,0:0:0:0:
448,192,65740,1,0,0:0:0:0:
320,192,65740,1,0,0:0:0:0:
448,192,65888,1,0,0:0:0:0:
64,192,65888,1,0,0:0:0:0:
192,192,65962,1,0,0:0:0:0:
320,192,65962,1,0,0:0:0:0:
192,192,66109,1,0,0:0:0:0:
64,192,66109,1,0,0:0:0:0:
320,192,66183,1,0,0:0:0:0:
448,192,66183,1,0,0:0:0:0:
320,192,66331,1,0,0:0:0:0:
64,192,66331,1,0,0:0:0:0:
192,192,66405,1,0,0:0:0:0:
448,192,66405,1,0,0:0:0:0:
320,192,66553,1,0,0:0:0:0:
192,192,66553,1,0,0:0:0:0:
64,192,66627,1,0,0:0:0:0:
448,192,66627,1,0,0:0:0:0:
320,192,66774,1,0,0:0:0:0:
192,192,66774,1,0,0:0:0:0:
64,192,66922,1,0,0:0:0:0:
448,192,66922,1,0,0:0:0:0:
448,192,67070,1,0,0:0:0:0:
64,192,67070,1,0,0:0:0:0:
192,192,67218,1,0,0:0:0:0:
320,192,67218,1,0,0:0:0:0:
448,192,67218,128,0,67365:0:0:0:0:
320,192,67365,1,0,0:0:0:0:
64,192,67365,1,0,0:0:0:0:
192,192,67513,1,0,0:0:0:0:
448,192,67513,1,0,0:0:0:0:
64,192,67513,128,0,67661:0:0:0:0:
192,192,67661,1,0,0:0:0:0:
320,192,67661,1,0,0:0:0:0:
64,192,67809,1,0,0:0:0:0:
448,192,67809,1,0,0:0:0:0:
320,192,67809,128,0,67957:0:0:0:0:
192,192,67957,1,0,0:0:0:0:
64,192,67957,1,0,0:0:0:0:
448,192,68030,1,0,0:0:0:0:
320,192,68104,1,0,0:0:0:0:
192,192,68104,1,0,0:0:0:0:
64,192,68104,1,0,0:0:0:0:
448,192,68252,1,0,0:0:0:0:
192,192,68252,128,0,68400:0:0:0:0:
64,192,68400,1,0,0:0:0:0:
320,192,68400,1,0,0:0:0:0:
448,192,68400,1,0,0:0:0:0:
320,192,68548,1,0,0:0:0:0:
192,192,68548,1,0,0:0:0:0:
448,192,68695,128,0,68843:0:0:0:0:
192,192,68695,128,0,68843:0:0:0:0:
64,192,68695,128,0,68843:0:0:0:0:
192,192,68991,1,0,0:0:0:0:
320,192,68991,1,0,0:0:0:0:
448,192,68991,1,0,0:0:0:0:
64,192,69139,1,0,0:0:0:0:
448,192,69139,1,0,0:0:0:0:
320,192,69213,1,0,0:0:0:0:
64,192,69287,1,0,0:0:0:0:
192,192,69287,1,0,0:0:0:0:
448,192,69287,1,0,0:0:0:0:
320,192,69434,1,0,0:0:0:0:
192,192,69434,1,0,0:0:0:0:
64,192,69582,1,0,0:0:0:0:
320,192,69582,1,0,0:0:0:0:
448,192,69582,1,0,0:0:0:0:
320,192,69804,1,0,0:0:0:0:
448,192,69804,1,0,0:0:0:0:
192,192,69878,1,0,0:0:0:0:
64,192,69878,1,0,0:0:0:0:
64,192,70026,128,0,70099:0:0:0:0:
448,192,70026,128,0,70099:0:0:0:0:
320,192,70173,1,0,0:0:0:0:
192,192,70173,1,0,0:0:0:0:
192,192,70395,1,0,0:0:0:0:
64,192,70395,1,0,0:0:0:0:
448,192,70469,128,0,70764:0:0:0:0:
320,192,70469,128,0,70764:0:0:0:0:
64,192,70764,128,0,70986:0:0:0:0:
192,192,70764,1,0,0:0:0:0:
448,192,70986,128,0,71208:0:0:0:0:
320,192,70986,1,0,0:0:0:0:
192,192,71060,1,0,0:0:0:0:
64,192,71060,1,0,0:0:0:0:
192,192,71208,128,0,71429:0:0:0:0:
320,192,71208,1,0,0:0:0:0:
320,192,71429,128,0,71651:0:0:0:0:
64,192,71429,1,0,0:0:0:0:
448,192,71651,128,0,71799:0:0:0:0:
192,192,71799,1,0,0:0:0:0:
64,192,71799,1,0,0:0:0:0:
320,192,71947,1,0,0:0:0:0:
448,192,71947,1,0,0:0:0:0:
64,192,71947,1,0,0:0:0:0:
64,192,73129,1,0,0:0:0:0:
320,192,73129,1,0,0:0:0:0:
448,192,73129,1,0,0:0:0:0:
192,192,73277,128,0,73646:0:0:0:0:
320,192,73425,128,0,73720:0:0:0:0:
64,192,73720,1,0,0:0:0:0:
448,192,73720,128,0,73868:0:0:0:0:
192,192,73720,1,0,0:0:0:0:
320,192,73868,128,0,74016:0:0:0:0:
448,192,74016,128,0,74163:0:0:0:0:
320,192,74163,128,0,74311:0:0:0:0:
64,192,74311,128,0,74459:0:0:0:0:
192,192,74311,1,0,0:0:0:0:
64,192,74533,128,0,74681:0:0:0:0:
64,192,74755,128,0,74902:0:0:0:0:
192,192,74902,1,0,0:0:0:0:
320,192,74902,1,0,0:0:0:0:
448,192,74902,128,0,75198:0:0:0:0:
64,192,75198,128,0,75346:0:0:0:0:
320,192,75346,1,0,0:0:0:0:
448,192,75346,1,0,0:0:0:0:
192,192,75420,1,0,0:0:0:0:
64,192,75420,1,0,0:0:0:0:
320,192,75567,1,0,0:0:0:0:
192,192,75567,1,0,0:0:0:0:
64,192,75641,1,0,0:0:0:0:
448,192,75641,1,0,0:0:0:0:
448,192,75789,1,0,0:0:0:0:
320,192,75789,1,0,0:0:0:0:
192,192,75863,1,0,0:0:0:0:
64,192,75863,1,0,0:0:0:0:
320,192,75937,1,0,0:0:0:0:
448,192,75937,1,0,0:0:0:0:
192,192,76011,1,0,0:0:0:0:
64,192,76011,1,0,0:0:0:0:
64,192,76085,1,0,0:0:0:0:
192,192,76085,1,0,0:0:0:0:
448,192,76085,128,0,76380:0:0:0:0:
320,192,76380,128,0,76528:0:0:0:0:
192,192,76676,1,0,0:0:0:0:
64,192,76676,1,0,0:0:0:0:
448,192,76676,1,0,0:0:0:0:
320,192,76824,1,0,0:0:0:0:
192,192,76824,1,0,0:0:0:0:
320,192,76971,1,0,0:0:0:0:
448,192,76971,1,0,0:0:0:0:
64,192,76971,1,0,0:0:0:0:
448,192,77119,1,0,0:0:0:0:
64,192,77119,1,0,0:0:0:0:
192,192,77267,1,0,0:0:0:0:
64,192,77267,1,0,0:0:0:0:
320,192,77267,1,0,0:0:0:0:
192,192,77415,1,0,0:0:0:0:
448,192,77415,1,0,0:0:0:0:
64,192,77489,1,0,0:0:0:0:
192,192,77562,1,0,0:0:0:0:
320,192,77562,1,0,0:0:0:0:
448,192,77562,1,0,0:0:0:0:
64,192,77710,1,0,0:0:0:0:
320,192,77710,128,0,77858:0:0:0:0:
64,192,77858,1,0,0:0:0:0:
192,192,77858,1,0,0:0:0:0:
448,192,77858,1,0,0:0:0:0:
320,192,78006,1,0,0:0:0:0:
192,192,78006,128,0,78154:0:0:0:0:
64,192,78154,1,0,0:0:0:0:
320,192,78154,1,0,0:0:0:0:
448,192,78154,1,0,0:0:0:0:
192,192,78301,1,0,0:0:0:0:
448,192,78301,1,0,0:0:0:0:
320,192,78449,1,0,0:0:0:0:
192,192,78449,1,0,0:0:0:0:
64,192,78449,1,0,0:0:0:0:
448,192,78597,1,0,0:0:0:0:
64,192,78597,1,0,0:0:0:0:
192,192,78745,1,0,0:0:0:0:
320,192,78745,1,0,0:0:0:0:
448,192,78745,1,0,0:0:0:0:
320,192,78893,1,0,0:0:0:0:
64,192,78893,1,0,0:0:0:0:
192,192,79040,1,0,0:0:0:0:
64,192,79040,1,0,0:0:0:0:
448,192,79040,1,0,0:0:0:0:
320,192,79188,1,0,0:0:0:0:
448,192,79188,1,0,0:0:0:0:
320,192,79336,1,0,0:0:0:0:
192,192,79336,1,0,0:0:0:0:
64,192,79336,1,0,0:0:0:0:
448,192,79484,1,0,0:0:0:0:
192,192,79484,1,0,0:0:0:0:
64,192,79631,1,0,0:0:0:0:
320,192,79631,1,0,0:0:0:0:
448,192,79631,1,0,0:0:0:0:
320,192,79779,1,0,0:0:0:0:
192,192,79779,1,0,0:0:0:0:
448,192,79927,1,0,0:0:0:0:
192,192,79927,1,0,0:0:0:0:
64,192,79927,1,0,0:0:0:0:
320,192,80075,1,0,0:0:0:0:
64,192,80075,1,0,0:0:0:0:
448,192,80223,128,0,80370:0:0:0:0:
448,192,80444,128,0,80592:0:0:0:0:
448,192,80666,128,0,80814:0:0:0:0:
448,192,80888,128,0,81035:0:0:0:0:
448,192,81405,128,0,81996:0:0:0:0:
192,192,81405,1,0,0:0:0:0:
64,192,81405,1,0,0:0:0:0:
320,192,81553,1,0,0:0:0:0:
64,192,81700,1,0,0:0:0:0:
192,192,81848,1,0,0:0:0:0:
64,192,81996,128,0,82292:0:0:0:0:
320,192,81996,1,0,0:0:0:0:
192,192,81996,1,0,0:0:0:0:
448,192,82144,1,0,0:0:0:0:
320,192,82292,1,0,0:0:0:0:
192,192,82439,128,0,82735:0:0:0:0:
448,192,82587,1,0,0:0:0:0:
64,192,82735,1,0,0:0:0:0:
320,192,82883,128,0,83178:0:0:0:0:
192,192,82883,1,0,0:0:0:0:
64,192,83030,1,0,0:0:0:0:
64,192,83178,1,0,0:0:0:0:
192,192,83178,1,0,0:0:0:0:
448,192,83178,1,0,0:0:0:0:
448,192,83326,128,0,83622:0:0:0:0:
192,192,83474,1,0,0:0:0:0:
64,192,83622,1,0,0:0:0:0:
320,192,83769,1,0,0:0:0:0:
192,192,83769,1,0,0:0:0:0:
448,192,83917,1,0,0:0:0:0:
320,192,84065,1,0,0:0:0:0:
192,192,84065,1,0,0:0:0:0:
64,192,84213,1,0,0:0:0:0:
448,192,84361,128,0,84656:0:0:0:0:
320,192,84361,1,0,0:0:0:0:
192,192,84361,1,0,0:0:0:0:
64,192,84508,1,0,0:0:0:0:
192,192,84656,1,0,0:0:0:0:
320,192,84656,1,0,0:0:0:0:
320,192,84804,128,0,85099:0:0:0:0:
192,192,84952,1,0,0:0:0:0:
64,192,85099,1,0,0:0:0:0:
192,192,85247,128,0,85543:0:0:0:0:
448,192,85247,1,0,0:0:0:0:
320,192,85395,1,0,0:0:0:0:
320,192,85543,1,0,0:0:0:0:
448,192,85543,1,0,0:0:0:0:
64,192,85543,1,0,0:0:0:0:
64,192,85691,128,0,85986:0:0:0:0:
320,192,85838,1,0,0:0:0:0:
192,192,85986,1,0,0:0:0:0:
448,192,86134,128,0,86725:0:0:0:0:
320,192,86134,1,0,0:0:0:0:
192,192,86282,1,0,0:0:0:0:
64,192,86429,1,0,0:0:0:0:
320,192,86577,1,0,0:0:0:0:
64,192,86725,128,0,87021:0:0:0:0:
320,192,86725,1,0,0:0:0:0:
192,192,86725,1,0,0:0:0:0:
448,192,86873,1,0,0:0:0:0:
320,192,87021,1,0,0:0:0:0:
192,192,87168,128,0,87464:0:0:0:0:
448,192,87316,1,0,0:0:0:0:
64,192,87464,1,0,0:0:0:0:
320,192,87612,128,0,87907:0:0:0:0:
448,192,87612,1,0,0:0:0:0:
192,192,87760,1,0,0:0:0:0:
192,192,87907,1,0,0:0:0:0:
448,192,87907,1,0,0:0:0:0:
64,192,87907,1,0,0:0:0:0:
448,192,88055,128,0,88351:0:0:0:0:
320,192,88203,1,0,0:0:0:0:
192,192,88351,1,0,0:0:0:0:
320,192,88498,1,0,0:0:0:0:
64,192,88498,1,0,0:0:0:0:
192,192,88646,1,0,0:0:0:0:
448,192,88794,1,0,0:0:0:0:
64,192,88794,1,0,0:0:0:0:
192,192,88942,1,0,0:0:0:0:
448,192,89090,128,0,89385:0:0:0:0:
320,192,89090,1,0,0:0:0:0:
64,192,89090,1,0,0:0:0:0:
192,192,89237,1,0,0:0:0:0:
192,192,89385,1,0,0:0:0:0:
64,192,89385,1,0,0:0:0:0:
320,192,89533,128,0,89828:0:0:0:0:
64,192,89533,1,0,0:0:0:0:
448,192,89533,1,0,0:0:0:0:
192,192,89681,1,0,0:0:0:0:
448,192,89828,1,0,0:0:0:0:
192,192,89976,128,0,90272:0:0:0:0:
448,192,89976,1,0,0:0:0:0:
64,192,89976,1,0,0:0:0:0:
64,192,90124,1,0,0:0:0:0:
320,192,90272,1,0,0:0:0:0:
448,192,90272,1,0,0:0:0:0:
64,192,90420,128,0,90715:0:0:0:0:
320,192,90420,1,0,0:0:0:0:
448,192,90420,1,0,0:0:0:0:
192,192,90567,1,0,0:0:0:0:
320,192,90715,1,0,0:0:0:0:
448,192,90863,128,0,91454:0:0:0:0:
320,192,90863,1,0,0:0:0:0:
192,192,90863,1,0,0:0:0:0:
64,192,91011,1,0,0:0:0:0:
192,192,91159,1,0,0:0:0:0:
320,192,91306,1,0,0:0:0:0:
64,192,91454,128,0,91750:0:0:0:0:
320,192,91454,1,0,0:0:0:0:
192,192,91454,1,0,0:0:0:0:
448,192,91602,1,0,0:0:0:0:
320,192,91750,1,0,0:0:0:0:
192,192,91897,128,0,92193:0:0:0:0:
448,192,92045,1,0,0:0:0:0:
64,192,92193,1,0,0:0:0:0:
320,192,92341,128,0,92636:0:0:0:0:
448,192,92341,1,0,0:0:0:0:
192,192,92489,1,0,0:0:0:0:
64,192,92636,1,0,0:0:0:0:
192,192,92636,1,0,0:0:0:0:
448,192,92636,1,0,0:0:0:0:
448,192,92784,128,0,93080:0:0:0:0:
192,192,92932,1,0,0:0:0:0:
320,192,93080,1,0,0:0:0:0:
448,192,93228,1,0,0:0:0:0:
64,192,93228,1,0,0:0:0:0:
320,192,93375,1,0,0:0:0:0:
64,192,93523,1,0,0:0:0:0:
192,192,93523,1,0,0:0:0:0:
320,192,93671,1,0,0:0:0:0:
448,192,93819,128,0,94114:0:0:0:0:
192,192,93819,1,0,0:0:0:0:
64,192,93819,1,0,0:0:0:0:
320,192,93966,1,0,0:0:0:0:
192,192,94114,1,0,0:0:0:0:
64,192,94114,1,0,0:0:0:0:
320,192,94262,128,0,94558:0:0:0:0:
64,192,94410,1,0,0:0:0:0:
448,192,94558,1,0,0:0:0:0:
192,192,94705,128,0,95001:0:0:0:0:
64,192,94705,1,0,0:0:0:0:
320,192,94853,1,0,0:0:0:0:
320,192,95001,1,0,0:0:0:0:
448,192,95001,1,0,0:0:0:0:
64,192,95001,1,0,0:0:0:0:
64,192,95149,128,0,95444:0:0:0:0:
320,192,95296,1,0,0:0:0:0:
448,192,95444,1,0,0:0:0:0:
64,192,95592,1,0,0:0:0:0:
192,192,95592,1,0,0:0:0:0:
320,192,95592,1,0,0:0:0:0:
448,192,95740,1,0,0:0:0:0:
320,192,95740,1,0,0:0:0:0:
192,192,95814,1,0,0:0:0:0:
64,192,95814,1,0,0:0:0:0:
448,192,95888,1,0,0:0:0:0:
320,192,95888,1,0,0:0:0:0:
448,192,96035,1,0,0:0:0:0:
64,192,96035,1,0,0:0:0:0:
192,192,96109,1,0,0:0:0:0:
320,192,96109,1,0,0:0:0:0:
448,192,96183,1,0,0:0:0:0:
64,192,96183,1,0,0:0:0:0:
64,192,96331,1,0,0:0:0:0:
192,192,96331,1,0,0:0:0:0:
320,192,96405,1,0,0:0:0:0:
448,192,96405,1,0,0:0:0:0:
192,192,96479,1,0,0:0:0:0:
64,192,96479,1,0,0:0:0:0:
320,192,96627,1,0,0:0:0:0:
192,192,96627,1,0,0:0:0:0:
64,192,96700,1,0,0:0:0:0:
448,192,96700,1,0,0:0:0:0:
192,192,96774,1,0,0:0:0:0:
320,192,96774,1,0,0:0:0:0:
448,192,96922,1,0,0:0:0:0:
320,192,96922,1,0,0:0:0:0:
192,192,96996,1,0,0:0:0:0:
64,192,96996,1,0,0:0:0:0:
320,192,97070,1,0,0:0:0:0:
448,192,97070,1,0,0:0:0:0:
320,192,97218,1,0,0:0:0:0:
192,192,97218,1,0,0:0:0:0:
64,192,97292,1,0,0:0:0:0:
448,192,97292,1,0,0:0:0:0:
192,192,97365,1,0,0:0:0:0:
320,192,97365,1,0,0:0:0:0:
64,192,97513,1,0,0:0:0:0:
448,192,97513,1,0,0:0:0:0:
320,192,97587,1,0,0:0:0:0:
192,192,97587,1,0,0:0:0:0:
64,192,97661,1,0,0:0:0:0:
448,192,97661,1,0,0:0:0:0:
192,192,97809,1,0,0:0:0:0:
64,192,97809,1,0,0:0:0:0:
320,192,97883,1,0,0:0:0:0:
448,192,97883,1,0,0:0:0:0:
192,192,97957,1,0,0:0:0:0:
64,192,97957,1,0,0:0:0:0:
320,192,98030,1,0,0:0:0:0:
448,192,98030,1,0,0:0:0:0:
192,192,98104,1,0,0:0:0:0:
64,192,98104,1,0,0:0:0:0:
320,192,98178,1,0,0:0:0:0:
448,192,98178,1,0,0:0:0:0:
192,192,98252,1,0,0:0:0:0:
64,192,98252,1,0,0:0:0:0:
448,192,98326,1,0,0:0:0:0:
320,192,98326,1,0,0:0:0:0:
192,192,98400,1,0,0:0:0:0:
64,192,98400,1,0,0:0:0:0:
320,192,98474,1,0,0:0:0:0:
448,192,98474,1,0,0:0:0:0:
64,192,98548,1,0,0:0:0:0:
192,192,98548,1,0,0:0:0:0:
448,192,98622,1,0,0:0:0:0:
320,192,98622,1,0,0:0:0:0:
64,192,98695,1,0,0:0:0:0:
192,192,98695,1,0,0:0:0:0:
320,192,98769,1,0,0:0:0:0:
448,192,98769,1,0,0:0:0:0:
64,192,98843,1,0,0:0:0:0:
192,192,98843,1,0,0:0:0:0:
448,192,98917,1,0,0:0:0:0:
320,192,98917,1,0,0:0:0:0:
192,192,98991,1,0,0:0:0:0:
64,192,98991,1,0,0:0:0:0:
320,192,99065,1,0,0:0:0:0:
448,192,99065,1,0,0:0:0:0:
192,192,99139,1,0,0:0:0:0:
64,192,99139,1,0,0:0:0:0:
448,192,100321,128,0,100617:0:0:0:0:
320,192,100321,128,0,100543:0:0:0:0:
64,192,100321,128,0,100395:0:0:0:0:
192,192,100321,128,0,100469:0:0:0:0:
320,192,100617,1,0,0:0:0:0:
192,192,100617,1,0,0:0:0:0:
64,192,100617,1,0,0:0:0:0:
448,192,100764,1,0,0:0:0:0:
192,192,100838,1,0,0:0:0:0:
64,192,100912,1,0,0:0:0:0:
320,192,100912,1,0,0:0:0:0:
448,192,101060,1,0,0:0:0:0:
320,192,101134,1,0,0:0:0:0:
448,192,101208,1,0,0:0:0:0:
192,192,101208,1,0,0:0:0:0:
64,192,101208,1,0,0:0:0:0:
320,192,101356,1,0,0:0:0:0:
448,192,101429,1,0,0:0:0:0:
320,192,101503,1,0,0:0:0:0:
192,192,101503,1,0,0:0:0:0:
64,192,101651,1,0,0:0:0:0:
192,192,101725,1,0,0:0:0:0:
320,192,101799,1,0,0:0:0:0:
448,192,101799,1,0,0:0:0:0:
64,192,101799,1,0,0:0:0:0:
320,192,101947,1,0,0:0:0:0:
448,192,102021,1,0,0:0:0:0:
192,192,102095,1,0,0:0:0:0:
64,192,102095,1,0,0:0:0:0:
320,192,102242,1,0,0:0:0:0:
64,192,102316,1,0,0:0:0:0:
320,192,102390,1,0,0:0:0:0:
448,192,102390,1,0,0:0:0:0:
192,192,102390,1,0,0:0:0:0:
192,192,102538,128,0,102686:0:0:0:0:
448,192,102686,1,0,0:0:0:0:
64,192,102686,1,0,0:0:0:0:
448,192,102833,128,0,102981:0:0:0:0:
320,192,102981,1,0,0:0:0:0:
192,192,102981,1,0,0:0:0:0:
64,192,102981,1,0,0:0:0:0:
64,192,103129,128,0,103277:0:0:0:0:
448,192,103277,1,0,0:0:0:0:
320,192,103277,1,0,0:0:0:0:
192,192,103425,1,0,0:0:0:0:
320,192,103425,128,0,103498:0:0:0:0:
192,192,103572,1,0,0:0:0:0:
64,192,103572,1,0,0:0:0:0:
448,192,103572,1,0,0:0:0:0:
448,192,103720,128,0,103868:0:0:0:0:
320,192,103868,1,0,0:0:0:0:
192,192,103868,1,0,0:0:0:0:
192,192,104016,128,0,104163:0:0:0:0:
64,192,104163,1,0,0:0:0:0:
320,192,104163,1,0,0:0:0:0:
448,192,104163,1,0,0:0:0:0:
448,192,104311,128,0,104459:0:0:0:0:
192,192,104459,1,0,0:0:0:0:
64,192,104459,1,0,0:0:0:0:
64,192,104607,128,0,104755:0:0:0:0:
192,192,104755,1,0,0:0:0:0:
320,192,104755,1,0,0:0:0:0:
448,192,104755,128,0,105050:0:0:0:0:
64,192,105050,1,0,0:0:0:0:
320,192,105050,128,0,105346:0:0:0:0:
64,192,105346,1,0,0:0:0:0:
192,192,105346,1,0,0:0:0:0:
448,192,105346,1,0,0:0:0:0:
320,192,105494,1,0,0:0:0:0:
64,192,105567,1,0,0:0:0:0:
448,192,105641,1,0,0:0:0:0:
320,192,105641,1,0,0:0:0:0:
192,192,105789,1,0,0:0:0:0:
448,192,105863,1,0,0:0:0:0:
320,192,105937,1,0,0:0:0:0:
192,192,105937,1,0,0:0:0:0:
64,192,105937,1,0,0:0:0:0:
448,192,106085,1,0,0:0:0:0:
320,192,106159,1,0,0:0:0:0:
448,192,106232,1,0,0:0:0:0:
192,192,106232,1,0,0:0:0:0:
64,192,106380,1,0,0:0:0:0:
192,192,106454,1,0,0:0:0:0:
64,192,106528,1,0,0:0:0:0:
320,192,106528,1,0,0:0:0:0:
448,192,106528,1,0,0:0:0:0:
192,192,106676,1,0,0:0:0:0:
448,192,106750,1,0,0:0:0:0:
192,192,106824,1,0,0:0:0:0:
64,192,106824,1,0,0:0:0:0:
320,192,106971,1,0,0:0:0:0:
64,192,107045,1,0,0:0:0:0:
192,192,107119,1,0,0:0:0:0:
320,192,107119,1,0,0:0:0:0:
448,192,107119,1,0,0:0:0:0:
64,192,107267,128,0,107415:0:0:0:0:
448,192,107415,1,0,0:0:0:0:
320,192,107415,1,0,0:0:0:0:
320,192,107562,128,0,107710:0:0:0:0:
192,192,107710,1,0,0:0:0:0:
448,192,107710,1,0,0:0:0:0:
64,192,107710,1,0,0:0:0:0:
448,192,107858,128,0,108006:0:0:0:0:
320,192,108006,1,0,0:0:0:0:
192,192,108006,1,0,0:0:0:0:
192,192,108154,128,0,108301:0:0:0:0:
64,192,108301,1,0,0:0:0:0:
320,192,108301,1,0,0:0:0:0:
448,192,108301,1,0,0:0:0:0:
64,192,108449,128,0,108597:0:0:0:0:
448,192,108597,1,0,0:0:0:0:
192,192,108597,1,0,0:0:0:0:
448,192,108794,1,0,0:0:0:0:
192,192,108794,1,0,0:0:0:0:
320,192,108893,1,0,0:0:0:0:
192,192,108893,1,0,0:0:0:0:
64,192,108893,1,0,0:0:0:0:
64,192,109040,1,0,0:0:0:0:
448,192,109040,1,0,0:0:0:0:
64,192,109262,128,0,109742:0:0:0:0:
448,192,109262,128,0,109742:0:0:0:0:
320,192,109484,128,0,109742:0:0:0:0:
192,192,109631,128,0,109742:0:0:0:0:
64,192,109779,1,0,0:0:0:0:
192,192,109779,1,0,0:0:0:0:
320,192,109779,1,0,0:0:0:0:
448,192,109779,1,0,0:0:0:0:
320,192,112144,128,0,112292:0:0:0:0:
448,192,112144,128,0,112218:0:0:0:0:
192,192,112144,128,0,112365:0:0:0:0:
64,192,112144,128,0,112439:0:0:0:0:
320,192,112439,1,0,0:0:0:0:
448,192,112439,1,0,0:0:0:0:
192,192,112439,1,0,0:0:0:0:
320,192,112587,128,0,112735:0:0:0:0:
448,192,112735,1,0,0:0:0:0:
192,192,112735,1,0,0:0:0:0:
64,192,112883,128,0,113030:0:0:0:0:
192,192,113030,1,0,0:0:0:0:
320,192,113030,1,0,0:0:0:0:
448,192,113030,1,0,0:0:0:0:
448,192,113178,128,0,113326:0:0:0:0:
320,192,113326,1,0,0:0:0:0:
64,192,113326,1,0,0:0:0:0:
448,192,113548,1,0,0:0:0:0:
64,192,113548,1,0,0:0:0:0:
192,192,113622,1,0,0:0:0:0:
320,192,113622,1,0,0:0:0:0:
448,192,113769,1,0,0:0:0:0:
320,192,113769,1,0,0:0:0:0:
192,192,113917,1,0,0:0:0:0:
64,192,113917,1,0,0:0:0:0:
320,192,113991,1,0,0:0:0:0:
448,192,113991,1,0,0:0:0:0:
192,192,114065,1,0,0:0:0:0:
64,192,114139,1,0,0:0:0:0:
448,192,114213,1,0,0:0:0:0:
320,192,114213,1,0,0:0:0:0:
192,192,114287,1,0,0:0:0:0:
448,192,114361,1,0,0:0:0:0:
64,192,114361,1,0,0:0:0:0:
320,192,114434,1,0,0:0:0:0:
192,192,114508,1,0,0:0:0:0:
64,192,114508,1,0,0:0:0:0:
448,192,114656,1,0,0:0:0:0:
192,192,114656,1,0,0:0:0:0:
64,192,114804,1,0,0:0:0:0:
320,192,114804,1,0,0:0:0:0:
448,192,114804,1,0,0:0:0:0:
192,192,114952,1,0,0:0:0:0:
64,192,114952,1,0,0:0:0:0:
320,192,115099,1,0,0:0:0:0:
192,192,115099,1,0,0:0:0:0:
448,192,115247,1,0,0:0:0:0:
320,192,115247,1,0,0:0:0:0:
448,192,115395,1,0,0:0:0:0:
192,192,115395,1,0,0:0:0:0:
64,192,115395,1,0,0:0:0:0:
320,192,115543,1,0,0:0:0:0:
64,192,115543,1,0,0:0:0:0:
448,192,115691,1,0,0:0:0:0:
320,192,115691,1,0,0:0:0:0:
192,192,115838,1,0,0:0:0:0:
448,192,115838,1,0,0:0:0:0:
192,192,115986,1,0,0:0:0:0:
64,192,115986,1,0,0:0:0:0:
320,192,115986,1,0,0:0:0:0:
448,192,116134,1,0,0:0:0:0:
320,192,116134,1,0,0:0:0:0:
448,192,116282,1,0,0:0:0:0:
64,192,116282,1,0,0:0:0:0:
192,192,116429,1,0,0:0:0:0:
64,192,116429,1,0,0:0:0:0:
192,192,116577,1,0,0:0:0:0:
320,192,116577,1,0,0:0:0:0:
448,192,116577,1,0,0:0:0:0:
192,192,116725,1,0,0:0:0:0:
448,192,116725,1,0,0:0:0:0:
320,192,116873,1,0,0:0:0:0:
64,192,116873,1,0,0:0:0:0:
320,192,117021,1,0,0:0:0:0:
192,192,117021,1,0,0:0:0:0:
192,192,117168,1,0,0:0:0:0:
64,192,117168,1,0,0:0:0:0:
448,192,117168,1,0,0:0:0:0:
320,192,117316,1,0,0:0:0:0:
64,192,117316,1,0,0:0:0:0:
320,192,117464,1,0,0:0:0:0:
192,192,117464,1,0,0:0:0:0:
192,192,117612,1,0,0:0:0:0:
448,192,117612,1,0,0:0:0:0:
320,192,117760,1,0,0:0:0:0:
448,192,117760,1,0,0:0:0:0:
64,192,117760,1,0,0:0:0:0:
448,192,117907,1,0,0:0:0:0:
192,192,117907,1,0,0:0:0:0:
320,192,118055,1,0,0:0:0:0:
192,192,118055,1,0,0:0:0:0:
64,192,118055,1,0,0:0:0:0:
64,192,118277,1,0,0:0:0:0:
192,192,118277,1,0,0:0:0:0:
448,192,118277,1,0,0:0:0:0:
64,192,118498,1,0,0:0:0:0:
320,192,118498,1,0,0:0:0:0:
448,192,118498,1,0,0:0:0:0:
192,192,118720,1,0,0:0:0:0:
320,192,118720,1,0,0:0:0:0:
448,192,118720,1,0,0:0:0:0:
64,192,118794,1,0,0:0:0:0:
192,192,118868,1,0,0:0:0:0:
320,192,118942,1,0,0:0:0:0:
448,192,119016,1,0,0:0:0:0:
192,192,119090,1,0,0:0:0:0:
64,192,119090,1,0,0:0:0:0:
448,192,119237,1,0,0:0:0:0:
320,192,119237,1,0,0:0:0:0:
64,192,119237,1,0,0:0:0:0:
192,192,138154,5,0,0:0:0:0:
64,192,138154,1,0,0:0:0:0:
192,192,138745,1,0,0:0:0:0:
448,192,138745,1,0,0:0:0:0:
448,192,139336,1,0,0:0:0:0:
320,192,139336,1,0,0:0:0:0:
448,192,139927,1,0,0:0:0:0:
64,192,139927,1,0,0:0:0:0:
320,192,140518,1,0,0:0:0:0:
192,192,140518,1,0,0:0:0:0:
64,192,141109,1,0,0:0:0:0:
320,192,141109,1,0,0:0:0:0:
192,192,141700,1,0,0:0:0:0:
448,192,141700,1,0,0:0:0:0:
448,192,142292,1,0,0:0:0:0:
320,192,142292,1,0,0:0:0:0:
448,192,142883,1,0,0:0:0:0:
64,192,142883,1,0,0:0:0:0:
320,192,143474,1,0,0:0:0:0:
64,192,143474,1,0,0:0:0:0:
64,192,144065,1,0,0:0:0:0:
448,192,144065,1,0,0:0:0:0:
320,192,144656,1,0,0:0:0:0:
448,192,144656,1,0,0:0:0:0:
320,192,145247,1,0,0:0:0:0:
192,192,145247,1,0,0:0:0:0:
448,192,145838,1,0,0:0:0:0:
192,192,145838,1,0,0:0:0:0:
448,192,146429,1,0,0:0:0:0:
64,192,146429,1,0,0:0:0:0:
320,192,147021,1,0,0:0:0:0:
64,192,147021,1,0,0:0:0:0:
64,192,147612,1,0,0:0:0:0:
192,192,147612,1,0,0:0:0:0:
448,192,147907,1,0,0:0:0:0:
192,192,147907,1,0,0:0:0:0:
320,192,148203,1,0,0:0:0:0:
448,192,148203,1,0,0:0:0:0:
320,192,148498,1,0,0:0:0:0:
64,192,148498,1,0,0:0:0:0:
64,192,148794,1,0,0:0:0:0:
448,192,148794,1,0,0:0:0:0:
192,192,149090,1,0,0:0:0:0:
448,192,149090,1,0,0:0:0:0:
320,192,149385,1,0,0:0:0:0:
192,192,149385,1,0,0:0:0:0:
320,192,149681,1,0,0:0:0:0:
64,192,149681,1,0,0:0:0:0:
64,192,149976,1,0,0:0:0:0:
448,192,149976,1,0,0:0:0:0:
64,192,150124,1,0,0:0:0:0:
320,192,150124,1,0,0:0:0:0:
192,192,150272,1,0,0:0:0:0:
448,192,150272,1,0,0:0:0:0:
192,192,150420,1,0,0:0:0:0:
320,192,150420,1,0,0:0:0:0:
448,192,150567,1,0,0:0:0:0:
64,192,150567,1,0,0:0:0:0:
448,192,150715,1,0,0:0:0:0:
192,192,150715,1,0,0:0:0:0:
320,192,150863,1,0,0:0:0:0:
64,192,150863,1,0,0:0:0:0:
320,192,151011,1,0,0:0:0:0:
448,192,151011,1,0,0:0:0:0:
64,192,151159,1,0,0:0:0:0:
192,192,151159,1,0,0:0:0:0:
64,192,151306,1,0,0:0:0:0:
320,192,151306,1,0,0:0:0:0:
448,192,151454,1,0,0:0:0:0:
192,192,151454,1,0,0:0:0:0:
448,192,151602,1,0,0:0:0:0:
64,192,151602,1,0,0:0:0:0:
192,192,151750,1,0,0:0:0:0:
320,192,151750,1,0,0:0:0:0:
192,192,151897,1,0,0:0:0:0:
448,192,151897,1,0,0:0:0:0:
320,192,152045,1,0,0:0:0:0:
64,192,152045,1,0,0:0:0:0:
320,192,152193,1,0,0:0:0:0:
192,192,152193,1,0,0:0:0:0:
192,192,152341,1,0,0:0:0:0:
64,192,152341,1,0,0:0:0:0:
320,192,152415,1,0,0:0:0:0:
448,192,152415,1,0,0:0:0:0:
64,192,152489,1,0,0:0:0:0:
192,192,152489,1,0,0:0:0:0:
320,192,152562,1,0,0:0:0:0:
448,192,152562,1,0,0:0:0:0:
64,192,152636,1,0,0:0:0:0:
192,192,152636,1,0,0:0:0:0:
320,192,152710,1,0,0:0:0:0:
448,192,152710,1,0,0:0:0:0:
64,192,152784,1,0,0:0:0:0:
192,192,152784,1,0,0:0:0:0:
320,192,152858,1,0,0:0:0:0:
448,192,152858,1,0,0:0:0:0:
64,192,152932,1,0,0:0:0:0:
192,192,152932,1,0,0:0:0:0:
320,192,153006,1,0,0:0:0:0:
448,192,153006,1,0,0:0:0:0:
64,192,153080,1,0,0:0:0:0:
192,192,153080,1,0,0:0:0:0:
320,192,153154,1,0,0:0:0:0:
448,192,153154,1,0,0:0:0:0:
64,192,153228,1,0,0:0:0:0:
192,192,153228,1,0,0:0:0:0:
448,192,153301,1,0,0:0:0:0:
320,192,153301,1,0,0:0:0:0:
192,192,153375,1,0,0:0:0:0:
64,192,153375,1,0,0:0:0:0:
448,192,153449,1,0,0:0:0:0:
320,192,153449,1,0,0:0:0:0:
192,192,153523,1,0,0:0:0:0:
64,192,153523,1,0,0:0:0:0:
448,192,153597,1,0,0:0:0:0:
320,192,153597,1,0,0:0:0:0:
192,192,153671,1,0,0:0:0:0:
64,192,153671,1,0,0:0:0:0:
448,192,153745,1,0,0:0:0:0:
320,192,153745,1,0,0:0:0:0:
192,192,153819,1,0,0:0:0:0:
64,192,153819,1,0,0:0:0:0:
448,192,153893,1,0,0:0:0:0:
320,192,153893,1,0,0:0:0:0:
192,192,153966,1,0,0:0:0:0:
64,192,153966,1,0,0:0:0:0:
448,192,154040,1,0,0:0:0:0:
320,192,154040,1,0,0:0:0:0:
192,192,154114,1,0,0:0:0:0:
64,192,154114,1,0,0:0:0:0:
320,192,154188,1,0,0:0:0:0:
448,192,154188,1,0,0:0:0:0:
64,192,154262,1,0,0:0:0:0:
192,192,154262,1,0,0:0:0:0:
320,192,154336,1,0,0:0:0:0:
448,192,154336,1,0,0:0:0:0:
64,192,154410,1,0,0:0:0:0:
192,192,154410,1,0,0:0:0:0:
320,192,154484,1,0,0:0:0:0:
448,192,154484,1,0,0:0:0:0:
64,192,154558,1,0,0:0:0:0:
192,192,154558,1,0,0:0:0:0:
320,192,154631,1,0,0:0:0:0:
448,192,154631,1,0,0:0:0:0:
64,192,154705,1,0,0:0:0:0:
192,192,154705,1,0,0:0:0:0:
320,192,154742,1,0,0:0:0:0:
448,192,154742,1,0,0:0:0:0:
192,192,154779,1,0,0:0:0:0:
64,192,154779,1,0,0:0:0:0:
320,192,154816,1,0,0:0:0:0:
448,192,154816,1,0,0:0:0:0:
64,192,154853,1,0,0:0:0:0:
192,192,154853,1,0,0:0:0:0:
320,192,154890,1,0,0:0:0:0:
448,192,154890,1,0,0:0:0:0:
64,192,154927,1,0,0:0:0:0:
192,192,154927,1,0,0:0:0:0:
448,192,154964,1,0,0:0:0:0:
320,192,154964,1,0,0:0:0:0:
192,192,155001,1,0,0:0:0:0:
64,192,155001,1,0,0:0:0:0:
448,192,155038,1,0,0:0:0:0:
320,192,155038,1,0,0:0:0:0:
192,192,155075,1,0,0:0:0:0:
64,192,155075,1,0,0:0:0:0:
320,192,155112,1,0,0:0:0:0:
448,192,155112,1,0,0:0:0:0:
64,192,155149,1,0,0:0:0:0:
192,192,155149,1,0,0:0:0:0:
320,192,155186,1,0,0:0:0:0:
448,192,155186,1,0,0:0:0:0:
64,192,155223,1,0,0:0:0:0:
192,192,155223,1,0,0:0:0:0:
448,192,155260,1,0,0:0:0:0:
320,192,155260,1,0,0:0:0:0:
192,192,155296,1,0,0:0:0:0:
64,192,155296,1,0,0:0:0:0:
448,192,155333,1,0,0:0:0:0:
320,192,155333,1,0,0:0:0:0:
192,192,155370,1,0,0:0:0:0:
64,192,155370,1,0,0:0:0:0:
320,192,155407,1,0,0:0:0:0:
448,192,155407,1,0,0:0:0:0:
64,192,155444,1,0,0:0:0:0:
192,192,155444,1,0,0:0:0:0:
320,192,155481,1,0,0:0:0:0:
448,192,155481,1,0,0:0:0:0:
64,192,155518,1,0,0:0:0:0:
192,192,155518,1,0,0:0:0:0:
448,192,155555,1,0,0:0:0:0:
320,192,155555,1,0,0:0:0:0:
448,192,155888,1,0,0:0:0:0:
448,192,156331,1,0,0:0:0:0:
448,192,156774,1,0,0:0:0:0:
448,192,156922,1,0,0:0:0:0:
320,192,157070,128,0,157365:0:0:0:0:
192,192,157070,128,0,157365:0:0:0:0:
64,192,157070,128,0,157365:0:0:0:0:
448,192,157365,1,0,0:0:0:0:
320,192,157513,1,0,0:0:0:0:
448,192,157661,1,0,0:0:0:0:
192,192,157661,1,0,0:0:0:0:
64,192,157661,1,0,0:0:0:0:
192,192,157957,128,0,158252:0:0:0:0:
320,192,157957,128,0,158252:0:0:0:0:
448,192,157957,128,0,158252:0:0:0:0:
64,192,158252,128,0,158695:0:0:0:0:
192,192,158695,1,0,0:0:0:0:
320,192,158695,1,0,0:0:0:0:
64,192,158843,128,0,159878:0:0:0:0:
320,192,158843,128,0,159878:0:0:0:0:
448,192,158843,128,0,159878:0:0:0:0:
192,192,159878,1,0,0:0:0:0:
320,192,160026,1,0,0:0:0:0:
448,192,160026,1,0,0:0:0:0:
64,192,160026,1,0,0:0:0:0:
192,192,160321,128,0,160838:0:0:0:0:
320,192,160321,128,0,160912:0:0:0:0:
448,192,160321,128,0,160912:0:0:0:0:
192,192,160912,128,0,161208:0:0:0:0:
64,192,160912,128,0,161208:0:0:0:0:
320,192,161208,128,0,161503:0:0:0:0:
448,192,161208,128,0,161799:0:0:0:0:
64,192,161799,128,0,162095:0:0:0:0:
192,192,161799,128,0,162095:0:0:0:0:
320,192,161799,128,0,162095:0:0:0:0:
64,192,162390,1,0,0:0:0:0:
192,192,162390,1,0,0:0:0:0:
320,192,162390,1,0,0:0:0:0:
448,192,162390,1,0,0:0:0:0:
448,192,162686,128,0,162981:0:0:0:0:
192,192,162686,128,0,162981:0:0:0:0:
64,192,162686,128,0,162981:0:0:0:0:
320,192,162981,1,0,0:0:0:0:
192,192,163203,1,0,0:0:0:0:
448,192,163425,1,0,0:0:0:0:
320,192,163572,128,0,164607:0:0:0:0:
64,192,163572,128,0,164607:0:0:0:0:
192,192,163572,128,0,164607:0:0:0:0:
448,192,164607,1,0,0:0:0:0:
64,192,164755,1,0,0:0:0:0:
192,192,164755,1,0,0:0:0:0:
320,192,164755,1,0,0:0:0:0:
192,192,165050,128,0,165641:0:0:0:0:
64,192,165050,128,0,165641:0:0:0:0:
448,192,165050,128,0,165567:0:0:0:0:
448,192,165641,128,0,166232:0:0:0:0:
320,192,165641,128,0,165937:0:0:0:0:
192,192,165937,1,0,0:0:0:0:
64,192,165937,1,0,0:0:0:0:
320,192,166085,1,0,0:0:0:0:
192,192,166085,1,0,0:0:0:0:
192,192,166306,1,0,0:0:0:0:
64,192,166306,1,0,0:0:0:0:
320,192,166528,128,0,166824:0:0:0:0:
448,192,166528,128,0,166824:0:0:0:0:
64,192,166528,128,0,166824:0:0:0:0:
192,192,166824,1,0,0:0:0:0:
64,192,166971,1,0,0:0:0:0:
192,192,167119,1,0,0:0:0:0:
320,192,167119,1,0,0:0:0:0:
448,192,167119,1,0,0:0:0:0:
320,192,167415,128,0,167710:0:0:0:0:
448,192,167415,128,0,167710:0:0:0:0:
64,192,167415,128,0,167710:0:0:0:0:
192,192,167710,128,0,168301:0:0:0:0:
320,192,168154,1,0,0:0:0:0:
448,192,168154,1,0,0:0:0:0:
64,192,168301,128,0,169336:0:0:0:0:
448,192,168301,128,0,169336:0:0:0:0:
320,192,168301,128,0,169336:0:0:0:0:
192,192,169336,1,0,0:0:0:0:
64,192,169484,1,0,0:0:0:0:
320,192,169484,1,0,0:0:0:0:
448,192,169484,1,0,0:0:0:0:
192,192,169779,128,0,170296:0:0:0:0:
320,192,169779,128,0,170370:0:0:0:0:
448,192,169779,128,0,170370:0:0:0:0:
64,192,170370,128,0,170666:0:0:0:0:
192,192,170370,128,0,170518:0:0:0:0:
448,192,170666,128,0,171257:0:0:0:0:
320,192,170666,1,0,0:0:0:0:
192,192,170666,1,0,0:0:0:0:
64,192,171257,128,0,171553:0:0:0:0:
192,192,171257,128,0,171553:0:0:0:0:
320,192,171257,128,0,171553:0:0:0:0:
64,192,171848,1,0,0:0:0:0:
192,192,171848,1,0,0:0:0:0:
320,192,171848,1,0,0:0:0:0:
448,192,171848,1,0,0:0:0:0:
192,192,172144,128,0,172439:0:0:0:0:
64,192,172144,128,0,172439:0:0:0:0:
448,192,172144,128,0,172439:0:0:0:0:
192,192,172883,1,0,0:0:0:0:
320,192,172883,1,0,0:0:0:0:
192,192,173030,128,0,175986:0:0:0:0:
64,192,173030,128,0,175986:0:0:0:0:
448,192,173030,128,0,175986:0:0:0:0:
320,192,175986,128,0,176282:0:0:0:0:
64,192,177612,1,0,0:0:0:0:
64,192,177760,1,0,0:0:0:0:
64,192,177907,1,0,0:0:0:0:
64,192,178055,1,0,0:0:0:0:
64,192,178203,1,0,0:0:0:0:
64,192,178351,1,0,0:0:0:0:
64,192,178498,1,0,0:0:0:0:
64,192,178646,1,0,0:0:0:0:
64,192,178794,1,0,0:0:0:0:
64,192,178942,1,0,0:0:0:0:
64,192,179090,1,0,0:0:0:0:
64,192,179237,1,0,0:0:0:0:
64,192,179385,1,0,0:0:0:0:
64,192,179533,1,0,0:0:0:0:
448,192,179607,1,0,0:0:0:0:
192,192,179681,1,0,0:0:0:0:
320,192,179755,1,0,0:0:0:0:
64,192,179828,1,0,0:0:0:0:
448,192,179902,1,0,0:0:0:0:
192,192,179976,1,0,0:0:0:0:
320,192,180050,1,0,0:0:0:0:
64,192,180124,1,0,0:0:0:0:
448,192,180715,128,0,181011:0:0:0:0:
320,192,180715,128,0,181011:0:0:0:0:
192,192,180715,128,0,181011:0:0:0:0:
448,192,181306,1,0,0:0:0:0:
320,192,181306,1,0,0:0:0:0:
192,192,181306,1,0,0:0:0:0:
64,192,181306,1,0,0:0:0:0:
64,192,181602,128,0,181897:0:0:0:0:
320,192,181602,128,0,181897:0:0:0:0:
448,192,181602,128,0,181897:0:0:0:0:
192,192,181897,1,0,0:0:0:0:
320,192,182119,1,0,0:0:0:0:
64,192,182341,1,0,0:0:0:0:
192,192,182489,128,0,183523:0:0:0:0:
448,192,182489,128,0,183523:0:0:0:0:
320,192,182489,128,0,183523:0:0:0:0:
64,192,183523,1,0,0:0:0:0:
448,192,183671,1,0,0:0:0:0:
320,192,183671,1,0,0:0:0:0:
192,192,183671,1,0,0:0:0:0:
320,192,183966,128,0,184558:0:0:0:0:
448,192,183966,128,0,184558:0:0:0:0:
64,192,183966,128,0,184484:0:0:0:0:
64,192,184558,128,0,185149:0:0:0:0:
192,192,184558,128,0,184853:0:0:0:0:
320,192,184853,1,0,0:0:0:0:
448,192,184853,1,0,0:0:0:0:
192,192,185001,1,0,0:0:0:0:
320,192,185001,1,0,0:0:0:0:
320,192,185223,1,0,0:0:0:0:
448,192,185223,1,0,0:0:0:0:
192,192,185444,128,0,185740:0:0:0:0:
64,192,185444,128,0,185740:0:0:0:0:
448,192,185444,128,0,185740:0:0:0:0:
320,192,185740,1,0,0:0:0:0:
448,192,185888,1,0,0:0:0:0:
320,192,186035,1,0,0:0:0:0:
192,192,186035,1,0,0:0:0:0:
64,192,186035,1,0,0:0:0:0:
192,192,186331,128,0,186627:0:0:0:0:
64,192,186331,128,0,186627:0:0:0:0:
448,192,186331,128,0,186627:0:0:0:0:
320,192,186627,128,0,187218:0:0:0:0:
192,192,187070,1,0,0:0:0:0:
64,192,187070,1,0,0:0:0:0:
448,192,187218,128,0,188252:0:0:0:0:
64,192,187218,128,0,188252:0:0:0:0:
192,192,187218,128,0,188252:0:0:0:0:
320,192,188252,1,0,0:0:0:0:
448,192,188400,1,0,0:0:0:0:
192,192,188400,1,0,0:0:0:0:
64,192,188400,1,0,0:0:0:0:
320,192,188695,128,0,189213:0:0:0:0:
192,192,188695,128,0,189287:0:0:0:0:
64,192,188695,128,0,189287:0:0:0:0:
448,192,189287,128,0,189582:0:0:0:0:
320,192,189287,128,0,189434:0:0:0:0:
64,192,189582,128,0,190173:0:0:0:0:
192,192,189582,1,0,0:0:0:0:
320,192,189582,1,0,0:0:0:0:
448,192,190173,128,0,190469:0:0:0:0:
320,192,190173,128,0,190469:0:0:0:0:
192,192,190173,128,0,190469:0:0:0:0:
320,192,191060,128,0,191356:0:0:0:0:
448,192,191060,128,0,191356:0:0:0:0:
64,192,191060,128,0,191356:0:0:0:0:
320,192,191947,128,0,194902:0:0:0:0:
448,192,191947,128,0,194902:0:0:0:0:
64,192,191947,128,0,194902:0:0:0:0:
192,192,204361,5,0,0:0:0:0:
320,192,204361,1,0,0:0:0:0:
448,192,204361,1,0,0:0:0:0:
64,192,204361,128,0,204508:0:0:0:0:
448,192,205099,128,0,205247:0:0:0:0:
320,192,205543,128,0,205691:0:0:0:0:
192,192,206282,128,0,206429:0:0:0:0:
64,192,206725,128,0,206873:0:0:0:0:
192,192,207464,128,0,207612:0:0:0:0:
320,192,207907,128,0,208055:0:0:0:0:
448,192,208351,128,0,208498:0:0:0:0:
192,192,209090,128,0,209237:0:0:0:0:
64,192,213819,132,0,213966:0:0:0:0:
448,192,214558,128,0,214705:0:0:0:0:
320,192,215001,128,0,215149:0:0:0:0:
192,192,215740,128,0,215888:0:0:0:0:
64,192,216183,128,0,216331:0:0:0:0:
192,192,216922,128,0,217070:0:0:0:0:
320,192,217365,128,0,217513:0:0:0:0:
448,192,217809,128,0,217957:0:0:0:0:
192,192,218548,128,0,218695:0:0:0:0:
448,192,222686,132,0,222833:0:0:0:0:
320,192,222833,128,0,222981:0:0:0:0:
64,192,222981,128,0,223129:0:0:0:0:
192,192,223129,128,0,223277:0:0:0:0:
448,192,223277,128,0,223572:0:0:0:0:
320,192,223277,128,0,223572:0:0:0:0:
64,192,223277,128,0,223572:0:0:0:0:
448,192,223720,128,0,223868:0:0:0:0:
320,192,223720,128,0,223868:0:0:0:0:
64,192,223720,128,0,223868:0:0:0:0:
448,192,224016,128,0,224163:0:0:0:0:
320,192,224016,128,0,224163:0:0:0:0:
64,192,224016,128,0,224163:0:0:0:0:
448,192,224311,128,0,224459:0:0:0:0:
320,192,224311,128,0,224459:0:0:0:0:
64,192,224311,128,0,224459:0:0:0:0:
448,192,225198,128,0,225567:0:0:0:0:
320,192,225198,128,0,225567:0:0:0:0:
64,192,225198,128,0,225567:0:0:0:0:
320,192,225641,128,0,225937:0:0:0:0:
192,192,225641,128,0,225937:0:0:0:0:
64,192,225641,128,0,225937:0:0:0:0:
320,192,226085,128,0,226232:0:0:0:0:
192,192,226085,128,0,226232:0:0:0:0:
64,192,226085,128,0,226232:0:0:0:0:
320,192,226306,128,0,226454:0:0:0:0:
192,192,226306,128,0,226454:0:0:0:0:
64,192,226306,128,0,226454:0:0:0:0:
320,192,226528,128,0,226750:0:0:0:0:
192,192,226528,128,0,226750:0:0:0:0:
64,192,226528,128,0,226750:0:0:0:0:
192,192,227415,128,0,227489:0:0:0:0:
320,192,227415,128,0,227489:0:0:0:0:
192,192,227562,128,0,227710:0:0:0:0:
320,192,227562,128,0,227710:0:0:0:0:
64,192,227710,128,0,228006:0:0:0:0:
448,192,227710,128,0,227932:0:0:0:0:
192,192,228006,128,0,228301:0:0:0:0:
448,192,228006,128,0,228301:0:0:0:0:
320,192,228006,128,0,228301:0:0:0:0:
192,192,228449,128,0,228597:0:0:0:0:
320,192,228449,128,0,228597:0:0:0:0:
448,192,228449,128,0,228597:0:0:0:0:
448,192,228745,128,0,228893:0:0:0:0:
320,192,228745,128,0,228893:0:0:0:0:
192,192,228745,128,0,228893:0:0:0:0:
192,192,229040,128,0,229188:0:0:0:0:
320,192,229040,128,0,229188:0:0:0:0:
448,192,229040,128,0,229188:0:0:0:0:
448,192,229927,128,0,230296:0:0:0:0:
192,192,229927,128,0,230296:0:0:0:0:
320,192,229927,128,0,230296:0:0:0:0:
448,192,230370,128,0,230666:0:0:0:0:
192,192,230370,128,0,230666:0:0:0:0:
64,192,230370,128,0,230666:0:0:0:0:
448,192,230814,128,0,230962:0:0:0:0:
192,192,230814,128,0,230962:0:0:0:0:
64,192,230814,128,0,230962:0:0:0:0:
448,192,231035,128,0,231183:0:0:0:0:
192,192,231035,128,0,231183:0:0:0:0:
64,192,231035,128,0,231183:0:0:0:0:
64,192,231257,128,0,231553:0:0:0:0:
192,192,231257,128,0,231553:0:0:0:0:
448,192,231257,128,0,231553:0:0:0:0:
320,192,231996,128,0,232144:0:0:0:0:
192,192,232144,128,0,232292:0:0:0:0:
448,192,232292,128,0,232439:0:0:0:0:
64,192,232292,128,0,232439:0:0:0:0:
320,192,232439,128,0,232735:0:0:0:0:
192,192,232439,128,0,232735:0:0:0:0:
448,192,232735,1,0,0:0:0:0:
64,192,232735,1,0,0:0:0:0:
192,192,232883,1,0,0:0:0:0:
64,192,233030,1,0,0:0:0:0:
320,192,233030,1,0,0:0:0:0:
448,192,233178,1,0,0:0:0:0:
320,192,233326,1,0,0:0:0:0:
192,192,233326,1,0,0:0:0:0:
64,192,233474,1,0,0:0:0:0:
192,192,233622,1,0,0:0:0:0:
448,192,233622,1,0,0:0:0:0:
320,192,233769,1,0,0:0:0:0:
448,192,233917,1,0,0:0:0:0:
64,192,233917,1,0,0:0:0:0:
192,192,234065,1,0,0:0:0:0:
320,192,234213,1,0,0:0:0:0:
448,192,234213,1,0,0:0:0:0:
64,192,234213,1,0,0:0:0:0:
192,192,234361,1,0,0:0:0:0:
320,192,234508,1,0,0:0:0:0:
64,192,234508,1,0,0:0:0:0:
448,192,234656,1,0,0:0:0:0:
192,192,234804,1,0,0:0:0:0:
64,192,234804,1,0,0:0:0:0:
320,192,234804,1,0,0:0:0:0:
448,192,234952,1,0,0:0:0:0:
320,192,235099,1,0,0:0:0:0:
64,192,235099,1,0,0:0:0:0:
192,192,235247,1,0,0:0:0:0:
64,192,235395,1,0,0:0:0:0:
448,192,235395,1,0,0:0:0:0:
320,192,235395,1,0,0:0:0:0:
192,192,235543,1,0,0:0:0:0:
320,192,235691,1,0,0:0:0:0:
448,192,235691,1,0,0:0:0:0:
64,192,235838,1,0,0:0:0:0:
192,192,235986,1,0,0:0:0:0:
320,192,235986,1,0,0:0:0:0:
448,192,235986,1,0,0:0:0:0:
64,192,236134,1,0,0:0:0:0:
192,192,236282,1,0,0:0:0:0:
320,192,236282,1,0,0:0:0:0:
448,192,236429,1,0,0:0:0:0:
320,192,236577,1,0,0:0:0:0:
192,192,236577,1,0,0:0:0:0:
64,192,236577,1,0,0:0:0:0:
448,192,236725,1,0,0:0:0:0:
320,192,236873,1,0,0:0:0:0:
64,192,236873,1,0,0:0:0:0:
192,192,237021,1,0,0:0:0:0:
64,192,237168,1,0,0:0:0:0:
320,192,237168,1,0,0:0:0:0:
448,192,237168,1,0,0:0:0:0:
192,192,237316,1,0,0:0:0:0:
64,192,237464,1,0,0:0:0:0:
448,192,237464,1,0,0:0:0:0:
320,192,237464,1,0,0:0:0:0:
320,192,237686,1,0,0:0:0:0:
192,192,237686,1,0,0:0:0:0:
64,192,237686,1,0,0:0:0:0:
64,192,237907,1,0,0:0:0:0:
320,192,237907,1,0,0:0:0:0:
448,192,237907,1,0,0:0:0:0:
192,192,238055,1,0,0:0:0:0:
64,192,238055,1,0,0:0:0:0:
448,192,238055,1,0,0:0:0:0:
192,192,238277,1,0,0:0:0:0:
320,192,238277,1,0,0:0:0:0:
448,192,238277,1,0,0:0:0:0:
192,192,238498,1,0,0:0:0:0:
64,192,238498,1,0,0:0:0:0:
448,192,238498,1,0,0:0:0:0:
320,192,238646,1,0,0:0:0:0:
448,192,238646,1,0,0:0:0:0:
64,192,238646,1,0,0:0:0:0:
320,192,238868,1,0,0:0:0:0:
192,192,238868,1,0,0:0:0:0:
64,192,238868,1,0,0:0:0:0:
64,192,239090,1,0,0:0:0:0:
320,192,239090,1,0,0:0:0:0:
448,192,239090,1,0,0:0:0:0:
192,192,239237,1,0,0:0:0:0:
64,192,239237,1,0,0:0:0:0:
448,192,239237,1,0,0:0:0:0:
448,192,239311,1,0,0:0:0:0:
192,192,239311,1,0,0:0:0:0:
64,192,239311,1,0,0:0:0:0:
448,192,239459,1,0,0:0:0:0:
320,192,239459,1,0,0:0:0:0:
192,192,239533,1,0,0:0:0:0:
64,192,239533,1,0,0:0:0:0:
320,192,239607,1,0,0:0:0:0:
448,192,239607,1,0,0:0:0:0:
192,192,239681,1,0,0:0:0:0:
64,192,239681,1,0,0:0:0:0:
320,192,239755,1,0,0:0:0:0:
448,192,239755,1,0,0:0:0:0:
192,192,239828,1,0,0:0:0:0:
64,192,239828,1,0,0:0:0:0:
64,192,241602,128,0,241750:0:0:0:0:
320,192,241750,128,0,241897:0:0:0:0:
448,192,241897,128,0,241971:0:0:0:0:
320,192,241971,128,0,242045:0:0:0:0:
192,192,242045,128,0,242119:0:0:0:0:
64,192,242119,128,0,242193:0:0:0:0:
192,192,242193,1,0,0:0:0:0:
320,192,242193,1,0,0:0:0:0:
448,192,242193,1,0,0:0:0:0:
64,192,242267,1,0,0:0:0:0:
192,192,242341,1,0,0:0:0:0:
448,192,242341,1,0,0:0:0:0:
320,192,242415,1,0,0:0:0:0:
448,192,242489,1,0,0:0:0:0:
192,192,242489,1,0,0:0:0:0:
64,192,242489,1,0,0:0:0:0:
320,192,242562,1,0,0:0:0:0:
192,192,242636,1,0,0:0:0:0:
64,192,242636,1,0,0:0:0:0:
448,192,242710,1,0,0:0:0:0:
320,192,242784,1,0,0:0:0:0:
192,192,242784,1,0,0:0:0:0:
64,192,242784,1,0,0:0:0:0:
448,192,242858,1,0,0:0:0:0:
320,192,242932,1,0,0:0:0:0:
192,192,242932,1,0,0:0:0:0:
64,192,243006,1,0,0:0:0:0:
192,192,243080,1,0,0:0:0:0:
320,192,243080,1,0,0:0:0:0:
448,192,243080,1,0,0:0:0:0:
64,192,243154,1,0,0:0:0:0:
192,192,243228,1,0,0:0:0:0:
448,192,243228,1,0,0:0:0:0:
320,192,243301,1,0,0:0:0:0:
448,192,243375,1,0,0:0:0:0:
192,192,243375,1,0,0:0:0:0:
64,192,243375,1,0,0:0:0:0:
320,192,243449,1,0,0:0:0:0:
448,192,243523,1,0,0:0:0:0:
64,192,243523,1,0,0:0:0:0:
192,192,243597,1,0,0:0:0:0:
64,192,243671,1,0,0:0:0:0:
320,192,243671,1,0,0:0:0:0:
448,192,243671,1,0,0:0:0:0:
192,192,243745,1,0,0:0:0:0:
64,192,243819,1,0,0:0:0:0:
320,192,243819,1,0,0:0:0:0:
448,192,243893,1,0,0:0:0:0:
320,192,243966,1,0,0:0:0:0:
192,192,243966,1,0,0:0:0:0:
64,192,243966,1,0,0:0:0:0:
448,192,244040,1,0,0:0:0:0:
320,192,244114,1,0,0:0:0:0:
192,192,244114,1,0,0:0:0:0:
64,192,244188,1,0,0:0:0:0:
192,192,244262,1,0,0:0:0:0:
320,192,244262,1,0,0:0:0:0:
448,192,244262,1,0,0:0:0:0:
64,192,244336,1,0,0:0:0:0:
192,192,244410,1,0,0:0:0:0:
448,192,244410,1,0,0:0:0:0:
320,192,244484,1,0,0:0:0:0:
448,192,244558,1,0,0:0:0:0:
192,192,244558,1,0,0:0:0:0:
64,192,244558,1,0,0:0:0:0:
320,192,244631,1,0,0:0:0:0:
192,192,244705,1,0,0:0:0:0:
64,192,244705,1,0,0:0:0:0:
448,192,244779,1,0,0:0:0:0:
320,192,244853,1,0,0:0:0:0:
192,192,244853,1,0,0:0:0:0:
64,192,244853,1,0,0:0:0:0:
448,192,244927,1,0,0:0:0:0:
320,192,245001,1,0,0:0:0:0:
64,192,245001,1,0,0:0:0:0:
192,192,245075,1,0,0:0:0:0:
64,192,245149,1,0,0:0:0:0:
320,192,245149,1,0,0:0:0:0:
448,192,245149,1,0,0:0:0:0:
192,192,245223,1,0,0:0:0:0:
320,192,245296,1,0,0:0:0:0:
448,192,245296,1,0,0:0:0:0:
64,192,245370,1,0,0:0:0:0:
192,192,245444,1,0,0:0:0:0:
320,192,245444,1,0,0:0:0:0:
448,192,245444,1,0,0:0:0:0:
64,192,245518,1,0,0:0:0:0:
192,192,245592,1,0,0:0:0:0:
320,192,245592,1,0,0:0:0:0:
448,192,245666,1,0,0:0:0:0:
320,192,245740,1,0,0:0:0:0:
192,192,245740,1,0,0:0:0:0:
64,192,245740,1,0,0:0:0:0:
448,192,245814,1,0,0:0:0:0:
320,192,245888,1,0,0:0:0:0:
64,192,245888,1,0,0:0:0:0:
192,192,245962,1,0,0:0:0:0:
64,192,246035,1,0,0:0:0:0:
320,192,246035,1,0,0:0:0:0:
448,192,246035,1,0,0:0:0:0:
192,192,246109,1,0,0:0:0:0:
64,192,246183,1,0,0:0:0:0:
448,192,246183,1,0,0:0:0:0:
320,192,246257,1,0,0:0:0:0:
192,192,246331,1,0,0:0:0:0:
64,192,246331,1,0,0:0:0:0:
448,192,246331,1,0,0:0:0:0:
320,192,246405,1,0,0:0:0:0:
192,192,246479,1,0,0:0:0:0:
64,192,246479,1,0,0:0:0:0:
448,192,246553,1,0,0:0:0:0:
320,192,246627,1,0,0:0:0:0:
192,192,246627,1,0,0:0:0:0:
64,192,246627,1,0,0:0:0:0:
448,192,246700,1,0,0:0:0:0:
192,192,246774,1,0,0:0:0:0:
320,192,246774,1,0,0:0:0:0:
64,192,246848,1,0,0:0:0:0:
192,192,246922,1,0,0:0:0:0:
320,192,246922,1,0,0:0:0:0:
448,192,246922,1,0,0:0:0:0:
64,192,246996,1,0,0:0:0:0:
192,192,247070,1,0,0:0:0:0:
448,192,247070,1,0,0:0:0:0:
320,192,247144,1,0,0:0:0:0:
448,192,247218,1,0,0:0:0:0:
192,192,247218,1,0,0:0:0:0:
64,192,247218,1,0,0:0:0:0:
320,192,247292,1,0,0:0:0:0:
448,192,247365,1,0,0:0:0:0:
64,192,247365,1,0,0:0:0:0:
192,192,247439,1,0,0:0:0:0:
320,192,247513,1,0,0:0:0:0:
448,192,247513,1,0,0:0:0:0:
64,192,247513,1,0,0:0:0:0:
192,192,247587,1,0,0:0:0:0:
64,192,247661,1,0,0:0:0:0:
320,192,247661,1,0,0:0:0:0:
448,192,247735,1,0,0:0:0:0:
320,192,247809,1,0,0:0:0:0:
192,192,247809,1,0,0:0:0:0:
64,192,247809,1,0,0:0:0:0:
448,192,247883,1,0,0:0:0:0:
320,192,247957,1,0,0:0:0:0:
192,192,247957,1,0,0:0:0:0:
64,192,248030,1,0,0:0:0:0:
192,192,248104,1,0,0:0:0:0:
320,192,248104,1,0,0:0:0:0:
448,192,248104,1,0,0:0:0:0:
64,192,248178,1,0,0:0:0:0:
192,192,248252,1,0,0:0:0:0:
448,192,248252,1,0,0:0:0:0:
320,192,248326,1,0,0:0:0:0:
448,192,248400,1,0,0:0:0:0:
192,192,248400,1,0,0:0:0:0:
64,192,248400,1,0,0:0:0:0:
320,192,248474,1,0,0:0:0:0:
448,192,248548,1,0,0:0:0:0:
64,192,248548,1,0,0:0:0:0:
192,192,248622,1,0,0:0:0:0:
64,192,248695,1,0,0:0:0:0:
320,192,248695,1,0,0:0:0:0:
448,192,248695,1,0,0:0:0:0:
192,192,248769,1,0,0:0:0:0:
64,192,248843,1,0,0:0:0:0:
448,192,248843,1,0,0:0:0:0:
320,192,248917,1,0,0:0:0:0:
448,192,248991,1,0,0:0:0:0:
192,192,248991,1,0,0:0:0:0:
64,192,248991,1,0,0:0:0:0:
320,192,249065,1,0,0:0:0:0:
192,192,249139,1,0,0:0:0:0:
448,192,249139,1,0,0:0:0:0:
64,192,249213,1,0,0:0:0:0:
192,192,249287,1,0,0:0:0:0:
320,192,249287,1,0,0:0:0:0:
448,192,249287,1,0,0:0:0:0:
64,192,249361,1,0,0:0:0:0:
192,192,249434,1,0,0:0:0:0:
448,192,249434,1,0,0:0:0:0:
320,192,249508,1,0,0:0:0:0:
448,192,249582,1,0,0:0:0:0:
192,192,249582,1,0,0:0:0:0:
64,192,249582,1,0,0:0:0:0:
320,192,249656,1,0,0:0:0:0:
64,192,249730,1,0,0:0:0:0:
448,192,249730,1,0,0:0:0:0:
192,192,249804,1,0,0:0:0:0:
320,192,249878,1,0,0:0:0:0:
448,192,249878,1,0,0:0:0:0:
64,192,249878,1,0,0:0:0:0:
192,192,249952,1,0,0:0:0:0:
320,192,250026,1,0,0:0:0:0:
448,192,250026,1,0,0:0:0:0:
192,192,250099,1,0,0:0:0:0:
64,192,250173,1,0,0:0:0:0:
320,192,250173,1,0,0:0:0:0:
448,192,250173,1,0,0:0:0:0:
192,192,250247,1,0,0:0:0:0:
64,192,250321,1,0,0:0:0:0:
320,192,250321,1,0,0:0:0:0:
448,192,250395,1,0,0:0:0:0:
320,192,250469,1,0,0:0:0:0:
192,192,250469,1,0,0:0:0:0:
64,192,250469,1,0,0:0:0:0:
448,192,250543,1,0,0:0:0:0:
320,192,250617,1,0,0:0:0:0:
192,192,250691,1,0,0:0:0:0:
64,192,250691,1,0,0:0:0:0:
448,192,250691,1,0,0:0:0:0:
320,192,250764,1,0,0:0:0:0:
192,192,250838,1,0,0:0:0:0:
64,192,250912,1,0,0:0:0:0:
320,192,250912,1,0,0:0:0:0:
448,192,250912,1,0,0:0:0:0:
192,192,250986,1,0,0:0:0:0:
64,192,251060,1,0,0:0:0:0:
192,192,251134,1,0,0:0:0:0:
320,192,251134,1,0,0:0:0:0:
448,192,251134,1,0,0:0:0:0:
64,192,251208,1,0,0:0:0:0:
448,192,251282,1,0,0:0:0:0:
320,192,251356,1,0,0:0:0:0:
64,192,251356,1,0,0:0:0:0:
192,192,251356,1,0,0:0:0:0:
448,192,251429,1,0,0:0:0:0:
320,192,251503,1,0,0:0:0:0:
192,192,251577,1,0,0:0:0:0:
320,192,251651,1,0,0:0:0:0:
448,192,251651,1,0,0:0:0:0:
64,192,251651,1,0,0:0:0:0:
192,192,251725,1,0,0:0:0:0:
320,192,251799,1,0,0:0:0:0:
64,192,251799,1,0,0:0:0:0:
448,192,251873,1,0,0:0:0:0:
320,192,251947,1,0,0:0:0:0:
192,192,251947,1,0,0:0:0:0:
64,192,251947,1,0,0:0:0:0:
448,192,252021,1,0,0:0:0:0:
64,192,252095,1,0,0:0:0:0:
192,192,252095,1,0,0:0:0:0:
320,192,252168,1,0,0:0:0:0:
448,192,252242,1,0,0:0:0:0:
64,192,252242,1,0,0:0:0:0:
192,192,252242,1,0,0:0:0:0:
320,192,252316,1,0,0:0:0:0:
192,192,252390,1,0,0:0:0:0:
448,192,252390,1,0,0:0:0:0:
64,192,252464,1,0,0:0:0:0:
192,192,252538,1,0,0:0:0:0:
320,192,252538,1,0,0:0:0:0:
448,192,252538,1,0,0:0:0:0:
64,192,252612,1,0,0:0:0:0:
448,192,252686,1,0,0:0:0:0:
320,192,252686,1,0,0:0:0:0:
192,192,252760,1,0,0:0:0:0:
64,192,252833,1,0,0:0:0:0:
320,192,252833,1,0,0:0:0:0:
448,192,252833,1,0,0:0:0:0:
192,192,252907,1,0,0:0:0:0:
64,192,252981,1,0,0:0:0:0:
448,192,252981,1,0,0:0:0:0:
320,192,253055,1,0,0:0:0:0:
192,192,253129,1,0,0:0:0:0:
64,192,253129,1,0,0:0:0:0:
448,192,253129,1,0,0:0:0:0:
320,192,253203,1,0,0:0:0:0:
448,192,253277,1,0,0:0:0:0:
64,192,253277,1,0,0:0:0:0:
192,192,253351,1,0,0:0:0:0:
320,192,253425,1,0,0:0:0:0:
448,192,253425,1,0,0:0:0:0:
64,192,253425,1,0,0:0:0:0:
320,192,253572,1,0,0:0:0:0:
448,192,253572,1,0,0:0:0:0:
320,192,253720,1,0,0:0:0:0:
448,192,253720,1,0,0:0:0:0:
448,192,253868,1,0,0:0:0:0:
320,192,253868,1,0,0:0:0:0:
448,192,254016,1,0,0:0:0:0:
320,192,254016,1,0,0:0:0:0:
64,192,254016,1,0,0:0:0:0:
192,192,254090,1,0,0:0:0:0:
64,192,254163,1,0,0:0:0:0:
448,192,254163,1,0,0:0:0:0:
320,192,254237,1,0,0:0:0:0:
192,192,254311,1,0,0:0:0:0:
64,192,254311,1,0,0:0:0:0:
448,192,254311,1,0,0:0:0:0:
320,192,254385,1,0,0:0:0:0:
192,192,254459,1,0,0:0:0:0:
64,192,254459,1,0,0:0:0:0:
448,192,254533,1,0,0:0:0:0:
320,192,254607,1,0,0:0:0:0:
192,192,254607,1,0,0:0:0:0:
64,192,254607,1,0,0:0:0:0:
448,192,254681,1,0,0:0:0:0:
320,192,254755,1,0,0:0:0:0:
192,192,254755,1,0,0:0:0:0:
64,192,254828,1,0,0:0:0:0:
192,192,254902,1,0,0:0:0:0:
320,192,254902,1,0,0:0:0:0:
448,192,254902,1,0,0:0:0:0:
64,192,254976,1,0,0:0:0:0:
192,192,255050,1,0,0:0:0:0:
448,192,255050,1,0,0:0:0:0:
320,192,255124,1,0,0:0:0:0:
448,192,255198,1,0,0:0:0:0:
192,192,255198,1,0,0:0:0:0:
64,192,255198,1,0,0:0:0:0:
320,192,255272,1,0,0:0:0:0:
192,192,255346,1,0,0:0:0:0:
64,192,255346,1,0,0:0:0:0:
448,192,255420,1,0,0:0:0:0:
320,192,255494,1,0,0:0:0:0:
192,192,255494,1,0,0:0:0:0:
64,192,255494,1,0,0:0:0:0:
448,192,255567,1,0,0:0:0:0:
320,192,255641,1,0,0:0:0:0:
192,192,255641,1,0,0:0:0:0:
64,192,255715,1,0,0:0:0:0:
320,192,255789,1,0,0:0:0:0:
448,192,255789,1,0,0:0:0:0:
192,192,255789,1,0,0:0:0:0:
64,192,255863,1,0,0:0:0:0:
320,192,255937,1,0,0:0:0:0:
448,192,255937,1,0,0:0:0:0:
192,192,256011,1,0,0:0:0:0:
64,192,256085,1,0,0:0:0:0:
320,192,256085,1,0,0:0:0:0:
448,192,256085,1,0,0:0:0:0:
192,192,256159,1,0,0:0:0:0:
64,192,256232,1,0,0:0:0:0:
448,192,256232,1,0,0:0:0:0:
320,192,256306,1,0,0:0:0:0:
192,192,256380,1,0,0:0:0:0:
192,192,256602,1,0,0:0:0:0:
320,192,256824,1,0,0:0:0:0:
320,192,257045,1,0,0:0:0:0:
192,192,257267,1,0,0:0:0:0:
448,192,257415,1,0,0:0:0:0:
320,192,257562,1,0,0:0:0:0:
320,192,257784,1,0,0:0:0:0:
448,192,258006,1,0,0:0:0:0:
448,192,258228,1,0,0:0:0:0:
64,192,258449,1,0,0:0:0:0:
448,192,258597,1,0,0:0:0:0:
192,192,258745,1,0,0:0:0:0:
192,192,258966,1,0,0:0:0:0:
448,192,259188,1,0,0:0:0:0:
448,192,259410,1,0,0:0:0:0:
320,192,259484,1,0,0:0:0:0:
192,192,259558,1,0,0:0:0:0:
64,192,259631,1,0,0:0:0:0:
192,192,259705,1,0,0:0:0:0:
320,192,259779,1,0,0:0:0:0:
448,192,259853,1,0,0:0:0:0:
320,192,259927,1,0,0:0:0:0:
192,192,259927,1,0,0:0:0:0:
64,192,259927,1,0,0:0:0:0:
64,192,260149,1,0,0:0:0:0:
192,192,260149,1,0,0:0:0:0:
448,192,260149,1,0,0:0:0:0:
64,192,260370,1,0,0:0:0:0:
320,192,260370,1,0,0:0:0:0:
448,192,260370,1,0,0:0:0:0:
192,192,260592,1,0,0:0:0:0:
320,192,260592,1,0,0:0:0:0:
448,192,260592,1,0,0:0:0:0:
64,192,260814,1,0,0:0:0:0:
192,192,260814,1,0,0:0:0:0:
320,192,260814,1,0,0:0:0:0:
192,192,260962,1,0,0:0:0:0:
320,192,260962,1,0,0:0:0:0:
448,192,260962,1,0,0:0:0:0:
320,192,261109,1,0,0:0:0:0:
192,192,261109,1,0,0:0:0:0:
64,192,261109,1,0,0:0:0:0:
448,192,261183,1,0,0:0:0:0:
320,192,261257,1,0,0:0:0:0:
64,192,261257,1,0,0:0:0:0:
192,192,261331,1,0,0:0:0:0:
64,192,261405,1,0,0:0:0:0:
320,192,261405,1,0,0:0:0:0:
448,192,261405,1,0,0:0:0:0:
192,192,261479,1,0,0:0:0:0:
320,192,261553,1,0,0:0:0:0:
448,192,261553,1,0,0:0:0:0:
64,192,261627,1,0,0:0:0:0:
192,192,261700,1,0,0:0:0:0:
320,192,261700,1,0,0:0:0:0:
448,192,261700,1,0,0:0:0:0:
64,192,261774,1,0,0:0:0:0:
192,192,261848,1,0,0:0:0:0:
320,192,261848,1,0,0:0:0:0:
448,192,261922,1,0,0:0:0:0:
320,192,261996,1,0,0:0:0:0:
192,192,261996,1,0,0:0:0:0:
64,192,261996,1,0,0:0:0:0:
448,192,262070,1,0,0:0:0:0:
320,192,262144,1,0,0:0:0:0:
64,192,262144,1,0,0:0:0:0:
192,192,262218,1,0,0:0:0:0:
64,192,262292,1,0,0:0:0:0:
320,192,262292,1,0,0:0:0:0:
448,192,262292,1,0,0:0:0:0:
192,192,262365,1,0,0:0:0:0:
64,192,262439,1,0,0:0:0:0:
448,192,262439,1,0,0:0:0:0:
320,192,262513,1,0,0:0:0:0:
448,192,262587,1,0,0:0:0:0:
192,192,262587,1,0,0:0:0:0:
64,192,262587,1,0,0:0:0:0:
320,192,262661,1,0,0:0:0:0:
448,192,262735,1,0,0:0:0:0:
192,192,262735,1,0,0:0:0:0:
64,192,262809,1,0,0:0:0:0:
192,192,262883,1,0,0:0:0:0:
320,192,262883,1,0,0:0:0:0:
448,192,262883,1,0,0:0:0:0:
64,192,262957,1,0,0:0:0:0:
192,192,263030,1,0,0:0:0:0:
320,192,263030,1,0,0:0:0:0:
448,192,263104,1,0,0:0:0:0:
320,192,263178,1,0,0:0:0:0:
192,192,263178,1,0,0:0:0:0:
64,192,263178,1,0,0:0:0:0:
448,192,263252,1,0,0:0:0:0:
320,192,263326,1,0,0:0:0:0:
64,192,263326,1,0,0:0:0:0:
192,192,263400,1,0,0:0:0:0:
64,192,263474,1,0,0:0:0:0:
320,192,263474,1,0,0:0:0:0:
448,192,263474,1,0,0:0:0:0:
192,192,263548,1,0,0:0:0:0:
320,192,263622,1,0,0:0:0:0:
448,192,263622,1,0,0:0:0:0:
64,192,263695,1,0,0:0:0:0:
192,192,263769,1,0,0:0:0:0:
320,192,263769,1,0,0:0:0:0:
448,192,263769,1,0,0:0:0:0:
64,192,263843,1,0,0:0:0:0:
192,192,263917,1,0,0:0:0:0:
448,192,263917,1,0,0:0:0:0:
320,192,263991,1,0,0:0:0:0:
448,192,264065,1,0,0:0:0:0:
192,192,264065,1,0,0:0:0:0:
64,192,264065,1,0,0:0:0:0:
320,192,264139,1,0,0:0:0:0:
192,192,264213,1,0,0:0:0:0:
64,192,264213,1,0,0:0:0:0:
448,192,264287,1,0,0:0:0:0:
320,192,264361,1,0,0:0:0:0:
192,192,264361,1,0,0:0:0:0:
64,192,264361,1,0,0:0:0:0:
448,192,264434,1,0,0:0:0:0:
320,192,264508,1,0,0:0:0:0:
192,192,264508,1,0,0:0:0:0:
64,192,264582,1,0,0:0:0:0:
192,192,264656,1,0,0:0:0:0:
320,192,264656,1,0,0:0:0:0:
448,192,264656,1,0,0:0:0:0:
64,192,264730,1,0,0:0:0:0:
192,192,264804,1,0,0:0:0:0:
448,192,264804,1,0,0:0:0:0:
320,192,264878,1,0,0:0:0:0:
448,192,264952,1,0,0:0:0:0:
192,192,264952,1,0,0:0:0:0:
64,192,264952,1,0,0:0:0:0:
320,192,265026,1,0,0:0:0:0:
448,192,265099,1,0,0:0:0:0:
64,192,265099,1,0,0:0:0:0:
192,192,265173,1,0,0:0:0:0:
320,192,265247,1,0,0:0:0:0:
448,192,265247,1,0,0:0:0:0:
64,192,265247,1,0,0:0:0:0:
192,192,265321,1,0,0:0:0:0:
320,192,265395,1,0,0:0:0:0:
448,192,265395,1,0,0:0:0:0:
64,192,265469,1,0,0:0:0:0:
192,192,265543,1,0,0:0:0:0:
320,192,265543,1,0,0:0:0:0:
448,192,265543,1,0,0:0:0:0:
64,192,265617,1,0,0:0:0:0:
320,192,265691,1,0,0:0:0:0:
192,192,265691,1,0,0:0:0:0:
448,192,265764,1,0,0:0:0:0:
320,192,265838,1,0,0:0:0:0:
192,192,265838,1,0,0:0:0:0:
64,192,265838,1,0,0:0:0:0:
448,192,265912,1,0,0:0:0:0:
320,192,265986,1,0,0:0:0:0:
64,192,265986,1,0,0:0:0:0:
192,192,266060,1,0,0:0:0:0:
64,192,266134,1,0,0:0:0:0:
320,192,266134,1,0,0:0:0:0:
448,192,266134,1,0,0:0:0:0:
192,192,266208,1,0,0:0:0:0:
64,192,266282,1,0,0:0:0:0:
448,192,266282,1,0,0:0:0:0:
320,192,266356,1,0,0:0:0:0:
192,192,266429,1,0,0:0:0:0:
64,192,266429,1,0,0:0:0:0:
448,192,266429,1,0,0:0:0:0:
320,192,266503,1,0,0:0:0:0:
448,192,266577,1,0,0:0:0:0:
192,192,266577,1,0,0:0:0:0:
64,192,266651,1,0,0:0:0:0:
192,192,266725,1,0,0:0:0:0:
320,192,266725,1,0,0:0:0:0:
448,192,266725,1,0,0:0:0:0:
64,192,266799,1,0,0:0:0:0:
192,192,266873,1,0,0:0:0:0:
320,192,266873,1,0,0:0:0:0:
448,192,266947,1,0,0:0:0:0:
320,192,267021,1,0,0:0:0:0:
192,192,267021,1,0,0:0:0:0:
64,192,267021,1,0,0:0:0:0:
448,192,267095,1,0,0:0:0:0:
320,192,267168,1,0,0:0:0:0:
64,192,267168,1,0,0:0:0:0:
192,192,267242,1,0,0:0:0:0:
64,192,267316,1,0,0:0:0:0:
320,192,267316,1,0,0:0:0:0:
448,192,267316,1,0,0:0:0:0:
192,192,267390,1,0,0:0:0:0:
64,192,267464,1,0,0:0:0:0:
448,192,267464,1,0,0:0:0:0:
320,192,267538,1,0,0:0:0:0:
448,192,267612,1,0,0:0:0:0:
192,192,267612,1,0,0:0:0:0:
64,192,267612,1,0,0:0:0:0:
320,192,267686,1,0,0:0:0:0:
448,192,267760,1,0,0:0:0:0:
64,192,267760,1,0,0:0:0:0:
192,192,267833,1,0,0:0:0:0:
64,192,267907,1,0,0:0:0:0:
320,192,267907,1,0,0:0:0:0:
448,192,267907,1,0,0:0:0:0:
192,192,267981,1,0,0:0:0:0:
320,192,268055,1,0,0:0:0:0:
64,192,268055,1,0,0:0:0:0:
448,192,268129,1,0,0:0:0:0:
320,192,268203,1,0,0:0:0:0:
192,192,268203,1,0,0:0:0:0:
64,192,268203,1,0,0:0:0:0:
448,192,268277,1,0,0:0:0:0:
320,192,268351,1,0,0:0:0:0:
64,192,268351,1,0,0:0:0:0:
192,192,268425,1,0,0:0:0:0:
64,192,268498,1,0,0:0:0:0:
320,192,268498,1,0,0:0:0:0:
448,192,268498,1,0,0:0:0:0:
192,192,268572,1,0,0:0:0:0:
448,192,268646,1,0,0:0:0:0:
64,192,268646,1,0,0:0:0:0:
320,192,268720,1,0,0:0:0:0:
192,192,268794,1,0,0:0:0:0:
64,192,268794,1,0,0:0:0:0:
448,192,268794,1,0,0:0:0:0:
320,192,268868,1,0,0:0:0:0:
192,192,268942,1,0,0:0:0:0:
64,192,268942,1,0,0:0:0:0:
320,192,269016,1,0,0:0:0:0:
448,192,269090,1,0,0:0:0:0:
192,192,269090,1,0,0:0:0:0:
64,192,269090,1,0,0:0:0:0:
320,192,269163,1,0,0:0:0:0:
448,192,269237,1,0,0:0:0:0:
192,192,269237,1,0,0:0:0:0:
64,192,269311,1,0,0:0:0:0:
192,192,269385,1,0,0:0:0:0:
320,192,269385,1,0,0:0:0:0:
448,192,269385,1,0,0:0:0:0:
64,192,269459,1,0,0:0:0:0:
192,192,269533,1,0,0:0:0:0:
320,192,269607,1,0,0:0:0:0:
448,192,269607,1,0,0:0:0:0:
64,192,269607,1,0,0:0:0:0:
192,192,269681,1,0,0:0:0:0:
320,192,269755,1,0,0:0:0:0:
448,192,269828,1,0,0:0:0:0:
192,192,269828,1,0,0:0:0:0:
64,192,269828,1,0,0:0:0:0:
320,192,269902,1,0,0:0:0:0:
448,192,269976,1,0,0:0:0:0:
320,192,270050,1,0,0:0:0:0:
192,192,270050,1,0,0:0:0:0:
64,192,270050,1,0,0:0:0:0:
448,192,270124,1,0,0:0:0:0:
64,192,270198,1,0,0:0:0:0:
192,192,270272,1,0,0:0:0:0:
448,192,270272,1,0,0:0:0:0:
320,192,270272,1,0,0:0:0:0:
64,192,270346,1,0,0:0:0:0:
192,192,270420,1,0,0:0:0:0:
320,192,270494,1,0,0:0:0:0:
192,192,270567,1,0,0:0:0:0:
64,192,270567,1,0,0:0:0:0:
448,192,270567,1,0,0:0:0:0:
320,192,270715,128,0,270863:0:0:0:0:
192,192,270863,1,0,0:0:0:0:
64,192,270863,1,0,0:0:0:0:
448,192,270863,1,0,0:0:0:0:
320,192,271011,1,0,0:0:0:0:
192,192,271159,1,0,0:0:0:0:
64,192,271159,1,0,0:0:0:0:
448,192,271306,1,0,0:0:0:0:
320,192,271454,1,0,0:0:0:0:
64,192,271454,1,0,0:0:0:0:
192,192,271602,1,0,0:0:0:0:
64,192,271750,1,0,0:0:0:0:
448,192,271750,1,0,0:0:0:0:
320,192,271897,1,0,0:0:0:0:
448,192,272045,1,0,0:0:0:0:
192,192,272045,1,0,0:0:0:0:
64,192,272193,1,0,0:0:0:0:
192,192,272341,1,0,0:0:0:0:
320,192,272341,1,0,0:0:0:0:
448,192,272489,1,0,0:0:0:0:
64,192,272636,1,0,0:0:0:0:
192,192,272636,1,0,0:0:0:0:
320,192,272710,1,0,0:0:0:0:
448,192,272710,1,0,0:0:0:0:
192,192,272784,1,0,0:0:0:0:
64,192,272784,1,0,0:0:0:0:
320,192,272858,1,0,0:0:0:0:
448,192,272858,1,0,0:0:0:0:
192,192,272932,1,0,0:0:0:0:
64,192,272932,1,0,0:0:0:0:
448,192,273080,1,0,0:0:0:0:
320,192,273228,1,0,0:0:0:0:
64,192,273228,1,0,0:0:0:0:
192,192,273375,1,0,0:0:0:0:
64,192,273523,1,0,0:0:0:0:
448,192,273523,1,0,0:0:0:0:
320,192,273671,1,0,0:0:0:0:
448,192,273819,1,0,0:0:0:0:
192,192,273819,1,0,0:0:0:0:
64,192,273966,1,0,0:0:0:0:
320,192,274114,1,0,0:0:0:0:
448,192,274114,1,0,0:0:0:0:
192,192,274262,1,0,0:0:0:0:
64,192,274410,1,0,0:0:0:0:
448,192,274410,1,0,0:0:0:0:
320,192,274558,1,0,0:0:0:0:
192,192,274705,1,0,0:0:0:0:
64,192,274705,1,0,0:0:0:0:
320,192,274853,1,0,0:0:0:0:
448,192,275001,1,0,0:0:0:0:
64,192,275001,1,0,0:0:0:0:
320,192,275075,1,0,0:0:0:0:
192,192,275075,1,0,0:0:0:0:
448,192,275149,1,0,0:0:0:0:
64,192,275149,1,0,0:0:0:0:
192,192,275223,1,0,0:0:0:0:
320,192,275223,1,0,0:0:0:0:
448,192,275296,1,0,0:0:0:0:
64,192,275296,1,0,0:0:0:0:
320,192,275444,1,0,0:0:0:0:
448,192,275592,1,0,0:0:0:0:
64,192,275592,1,0,0:0:0:0:
192,192,275592,1,0,0:0:0:0:
320,192,275740,1,0,0:0:0:0:
192,192,275740,1,0,0:0:0:0:
64,192,275888,1,0,0:0:0:0:
320,192,276035,1,0,0:0:0:0:
448,192,276035,1,0,0:0:0:0:
192,192,276183,1,0,0:0:0:0:
64,192,276183,1,0,0:0:0:0:
448,192,276183,1,0,0:0:0:0:
320,192,276331,1,0,0:0:0:0:
448,192,276479,1,0,0:0:0:0:
64,192,276479,1,0,0:0:0:0:
192,192,276627,1,0,0:0:0:0:
320,192,276774,1,0,0:0:0:0:
448,192,276774,1,0,0:0:0:0:
64,192,276774,1,0,0:0:0:0:
192,192,276922,1,0,0:0:0:0:
320,192,276922,1,0,0:0:0:0:
448,192,277070,1,0,0:0:0:0:
64,192,277218,1,0,0:0:0:0:
320,192,277218,1,0,0:0:0:0:
192,192,277365,1,0,0:0:0:0:
448,192,277365,1,0,0:0:0:0:
64,192,277365,1,0,0:0:0:0:
320,192,277513,1,0,0:0:0:0:
192,192,277661,1,0,0:0:0:0:
64,192,277661,1,0,0:0:0:0:
448,192,277809,1,0,0:0:0:0:
320,192,277957,1,0,0:0:0:0:
192,192,277957,1,0,0:0:0:0:
64,192,277957,1,0,0:0:0:0:
320,192,278104,1,0,0:0:0:0:
448,192,278104,1,0,0:0:0:0:
64,192,278252,1,0,0:0:0:0:
192,192,278400,1,0,0:0:0:0:
320,192,278400,1,0,0:0:0:0:
192,192,278548,1,0,0:0:0:0:
64,192,278548,1,0,0:0:0:0:
448,192,278548,1,0,0:0:0:0:
320,192,278695,1,0,0:0:0:0:
448,192,278843,1,0,0:0:0:0:
192,192,278843,1,0,0:0:0:0:
64,192,278843,1,0,0:0:0:0:
320,192,279065,1,0,0:0:0:0:
448,192,279065,1,0,0:0:0:0:
192,192,279065,1,0,0:0:0:0:
320,192,279287,1,0,0:0:0:0:
192,192,279287,1,0,0:0:0:0:
64,192,279287,1,0,0:0:0:0:
64,192,279434,1,0,0:0:0:0:
320,192,279434,1,0,0:0:0:0:
448,192,279434,1,0,0:0:0:0:
192,192,279656,1,0,0:0:0:0:
64,192,279656,1,0,0:0:0:0:
448,192,279656,1,0,0:0:0:0:
192,192,279878,1,0,0:0:0:0:
320,192,279878,1,0,0:0:0:0:
448,192,279878,1,0,0:0:0:0:
320,192,280026,1,0,0:0:0:0:
192,192,280026,1,0,0:0:0:0:
64,192,280026,1,0,0:0:0:0:
448,192,280173,1,0,0:0:0:0:
64,192,280321,1,0,0:0:0:0:
320,192,280469,1,0,0:0:0:0:
192,192,280617,1,0,0:0:0:0:
448,192,280764,1,0,0:0:0:0:
64,192,280912,1,0,0:0:0:0:
448,192,281060,1,0,0:0:0:0:
192,192,281208,1,0,0:0:0:0:
320,192,281356,1,0,0:0:0:0:
448,192,281503,1,0,0:0:0:0:
64,192,281651,1,0,0:0:0:0:
320,192,281799,1,0,0:0:0:0:
192,192,281947,1,0,0:0:0:0:
448,192,282095,1,0,0:0:0:0:
64,192,282242,1,0,0:0:0:0:
448,192,282390,1,0,0:0:0:0:
192,192,282538,1,0,0:0:0:0:
448,192,282686,1,0,0:0:0:0:
64,192,282833,1,0,0:0:0:0:
320,192,282981,1,0,0:0:0:0:
192,192,283129,1,0,0:0:0:0:
448,192,283277,1,0,0:0:0:0:
192,192,283425,1,0,0:0:0:0:
320,192,283572,1,0,0:0:0:0:
448,192,283720,1,0,0:0:0:0:
64,192,283868,1,0,0:0:0:0:
320,192,284016,1,0,0:0:0:0:
448,192,284163,1,0,0:0:0:0:
192,192,284311,1,0,0:0:0:0:
64,192,284459,1,0,0:0:0:0:
448,192,284607,1,0,0:0:0:0:
192,192,284755,1,0,0:0:0:0:
320,192,284902,1,0,0:0:0:0:
64,192,285050,1,0,0:0:0:0:
448,192,285198,1,0,0:0:0:0:
192,192,285346,1,0,0:0:0:0:
64,192,285494,1,0,0:0:0:0:
320,192,285641,1,0,0:0:0:0:
448,192,285789,1,0,0:0:0:0:
64,192,285937,1,0,0:0:0:0:
320,192,286085,1,0,0:0:0:0:
192,192,286232,1,0,0:0:0:0:
448,192,286380,1,0,0:0:0:0:
64,192,286528,1,0,0:0:0:0:
320,192,286676,1,0,0:0:0:0:
192,192,286824,1,0,0:0:0:0:
448,192,286971,1,0,0:0:0:0:
64,192,287119,1,0,0:0:0:0:
448,192,287267,1,0,0:0:0:0:
192,192,287415,1,0,0:0:0:0:
320,192,287562,1,0,0:0:0:0:
192,192,287710,1,0,0:0:0:0:
448,192,287858,1,0,0:0:0:0:
64,192,288006,1,0,0:0:0:0:
320,192,288154,1,0,0:0:0:0:
192,192,288301,1,0,0:0:0:0:
448,192,288449,1,0,0:0:0:0:
64,192,288597,1,0,0:0:0:0:
320,192,288745,1,0,0:0:0:0:
192,192,288893,1,0,0:0:0:0:
448,192,289040,1,0,0:0:0:0:
64,192,289188,1,0,0:0:0:0:
448,192,289336,1,0,0:0:0:0:
192,192,289484,1,0,0:0:0:0:
320,192,289631,1,0,0:0:0:0:
64,192,289779,1,0,0:0:0:0:
448,192,289927,1,0,0:0:0:0:
192,192,290075,1,0,0:0:0:0:
320,192,290223,1,0,0:0:0:0:
448,192,290370,1,0,0:0:0:0:
192,192,290518,1,0,0:0:0:0:
64,192,290666,1,0,0:0:0:0:
320,192,290814,1,0,0:0:0:0:
192,192,290962,1,0,0:0:0:0:
448,192,291109,1,0,0:0:0:0:
192,192,291257,1,0,0:0:0:0:
448,192,291405,1,0,0:0:0:0:
192,192,291553,1,0,0:0:0:0:
320,192,291700,1,0,0:0:0:0:
64,192,291848,1,0,0:0:0:0:
192,192,291996,1,0,0:0:0:0:
448,192,292144,1,0,0:0:0:0:
64,192,292292,1,0,0:0:0:0:
320,192,292439,1,0,0:0:0:0:
192,192,292587,1,0,0:0:0:0:
448,192,292735,1,0,0:0:0:0:
64,192,292883,1,0,0:0:0:0:
320,192,293030,1,0,0:0:0:0:
448,192,293178,1,0,0:0:0:0:
64,192,293326,1,0,0:0:0:0:
320,192,293474,1,0,0:0:0:0:
192,192,293622,1,0,0:0:0:0:
320,192,293769,1,0,0:0:0:0:
448,192,293917,1,0,0:0:0:0:
64,192,294065,1,0,0:0:0:0:
320,192,294213,1,0,0:0:0:0:
192,192,294361,1,0,0:0:0:0:
64,192,294508,1,0,0:0:0:0:
448,192,294656,1,0,0:0:0:0:
192,192,294804,1,0,0:0:0:0:
448,192,294952,1,0,0:0:0:0:
64,192,295099,1,0,0:0:0:0:
320,192,295247,1,0,0:0:0:0:
64,192,295395,1,0,0:0:0:0:
192,192,295543,1,0,0:0:0:0:
320,192,295691,1,0,0:0:0:0:
192,192,295838,1,0,0:0:0:0:
448,192,295986,1,0,0:0:0:0:
64,192,296134,1,0,0:0:0:0:
448,192,296282,1,0,0:0:0:0:
192,192,296429,1,0,0:0:0:0:
320,192,296577,1,0,0:0:0:0:
64,192,296725,1,0,0:0:0:0:
192,192,296873,1,0,0:0:0:0:
448,192,297021,1,0,0:0:0:0:
320,192,297168,1,0,0:0:0:0:
64,192,297316,1,0,0:0:0:0:
448,192,297464,1,0,0:0:0:0:
192,192,297612,1,0,0:0:0:0:
448,192,297760,1,0,0:0:0:0:
64,192,297907,1,0,0:0:0:0:
320,192,298055,1,0,0:0:0:0:
192,192,298203,1,0,0:0:0:0:
448,192,298351,1,0,0:0:0:0:
320,192,298498,1,0,0:0:0:0:
64,192,298646,1,0,0:0:0:0:
448,192,298794,1,0,0:0:0:0:
192,192,298942,1,0,0:0:0:0:
320,192,299090,1,0,0:0:0:0:
192,192,299237,1,0,0:0:0:0:
448,192,299385,1,0,0:0:0:0:
64,192,299533,1,0,0:0:0:0:
320,192,299681,1,0,0:0:0:0:
192,192,299828,1,0,0:0:0:0:
320,192,299976,1,0,0:0:0:0:
192,192,300124,1,0,0:0:0:0:
448,192,300272,1,0,0:0:0:0:
320,192,300420,1,0,0:0:0:0:
64,192,300567,1,0,0:0:0:0:
320,192,300715,1,0,0:0:0:0:
192,192,300863,1,0,0:0:0:0:
448,192,301011,1,0,0:0:0:0:
192,192,301159,1,0,0:0:0:0:
320,192,301306,1,0,0:0:0:0:
64,192,301454,1,0,0:0:0:0:
448,192,301602,1,0,0:0:0:0:
320,192,301750,1,0,0:0:0:0:
64,192,301897,1,0,0:0:0:0:
320,192,302045,1,0,0:0:0:0:
192,192,302193,1,0,0:0:0:0:
448,192,302341,1,0,0:0:0:0:
192,192,302489,1,0,0:0:0:0:
320,192,302636,1,0,0:0:0:0:
64,192,302784,1,0,0:0:0:0:
448,192,302932,1,0,0:0:0:0:
320,192,303080,1,0,0:0:0:0:
64,192,303228,1,0,0:0:0:0:
192,192,303375,1,0,0:0:0:0:
320,192,303523,1,0,0:0:0:0:
