osu file format v14

[General]
AudioFilename: audio.mp3
AudioLeadIn: 0
PreviewTime: 43413
Countdown: 0
SampleSet: Soft
StackLeniency: 0.3
Mode: 0
LetterboxInBreaks: 0
WidescreenStoryboard: 0

[Editor]
Bookmarks: 100310,108807,108881,109103,109325,109768,259916,260137,260359,260581,260802,260950
DistanceSpacing: 0.5
BeatDivisor: 4
GridSize: 4
TimelineZoom: 2.6

[Metadata]
Title:Enantiomorphs
TitleUnicode:Enantiomorphs
Artist:Camellia
ArtistUnicode:かめりあ
Creator:Smoothie World
Version:Chirality
Source:
Tags:cametek kamelcamellia MEGANTO METEOR Exit Tunes Fort
BeatmapID:1022959
BeatmapSetID:479033

[Difficulty]
HPDrainRate:5.5
CircleSize:4.2
OverallDifficulty:9
ApproachRate:9.7
SliderMultiplier:2.1
SliderTickRate:1

[Events]
//Background and Video events
0,0,"45290593_p0.jpg",0,0
//Break Periods
2,176274,177353
//Storyboard Layer 0 (Background)
//Storyboard Layer 1 (Fail)
//Storyboard Layer 2 (Pass)
//Storyboard Layer 3 (Foreground)
//Storyboard Sound Samples

[TimingPoints]
1100,295.566502463054,4,2,1,10,1,0
2282,-100,4,2,1,20,0,0
3464,-100,4,2,1,30,0,0
4646,-100,4,2,1,40,0,0
5533,-100,4,2,1,5,0,0
5829,-333.333333333333,4,2,1,40,0,0
6420,-333.333333333333,4,2,1,5,0,0
6617,-333.333333333333,4,2,1,40,0,0
6814,-333.333333333333,4,2,1,5,0,0
7011,-333.333333333333,4,2,1,40,0,0
7602,-333.333333333333,4,2,1,5,0,0
7799,-333.333333333333,4,2,1,40,0,0
7996,-333.333333333333,4,2,1,5,0,0
8193,-333.333333333333,4,2,1,40,0,0
8784,-333.333333333333,4,2,1,5,0,0
8981,-333.333333333333,4,2,1,40,0,0
9178,-333.333333333333,4,2,1,5,0,0
9375,-333.333333333333,4,2,1,40,0,0
11444,-333.333333333333,4,2,1,50,0,0
11740,-333.333333333333,4,2,1,60,0,0
12035,-333.333333333333,4,2,1,54,0,0
15287,-333.333333333333,4,2,1,40,0,0
15878,-333.333333333333,4,2,1,5,0,0
16075,-333.333333333333,4,2,1,40,0,0
16272,-333.333333333333,4,2,1,5,0,0
16469,-333.333333333333,4,2,1,40,0,0
17060,-333.333333333333,4,2,1,5,0,0
17257,-333.333333333333,4,2,1,40,0,0
17454,-333.333333333333,4,2,1,5,0,0
17651,-333.333333333333,4,2,1,40,0,0
18242,-333.333333333333,4,2,1,5,0,0
18439,-333.333333333333,4,2,1,40,0,0
18636,-333.333333333333,4,2,1,5,0,0
18833,-333.333333333333,4,2,1,40,0,0
20607,-333.333333333333,4,2,1,45,0,0
20902,-333.333333333333,4,2,1,50,0,0
21198,-333.333333333333,4,2,1,55,0,0
22528,-333.333333333333,4,2,1,20,0,0
22676,-333.333333333333,4,2,1,55,0,0
22971,-333.333333333333,4,2,1,60,0,0
23267,-333.333333333333,4,2,1,65,0,0
23563,-333.333333333333,4,2,1,70,0,0
23858,-333.333333333333,4,2,1,5,0,0
24154,-66.6666666666667,4,2,2,70,0,0
24449,-100,4,2,2,70,0,0
24745,-125,4,2,2,60,0,0
26666,-333.333333333333,4,2,2,60,0,0
27035,-333.333333333333,4,2,2,5,0,0
27109,-125,4,2,2,60,0,0
28883,-100,4,2,2,70,0,0
29178,-333.333333333333,4,2,2,70,0,0
29400,-333.333333333333,4,2,2,5,0,0
29474,-125,4,2,2,60,0,0
31395,-333.333333333334,4,2,2,60,0,0
31765,-333.333333333334,4,2,2,5,0,0
31838,-125,4,2,2,60,0,0
33464,-100,4,2,2,70,0,0
34129,-100,4,2,2,5,0,0
34203,-200,4,2,2,45,0,0
34351,-200,4,2,2,5,0,0
34499,-125,4,2,2,45,0,0
34646,-125,4,2,2,5,0,0
34794,-200,4,2,2,45,0,0
34942,-200,4,2,2,5,0,0
35090,-125,4,2,2,45,0,0
35237,-125,4,2,2,5,0,0
35385,-200,4,2,2,50,0,0
35533,-200,4,2,2,5,0,0
35681,-125,4,2,2,50,0,0
35829,-125,4,2,2,5,0,0
35976,-200,4,2,2,50,0,0
36124,-200,4,2,2,5,0,0
36272,-125,4,2,2,50,0,0
36420,-125,4,2,2,5,0,0
36567,-200,4,2,2,55,0,0
36715,-200,4,2,2,5,0,0
36863,-125,4,2,2,55,0,0
37011,-125,4,2,2,5,0,0
37159,-200,4,2,2,55,0,0
37306,-200,4,2,2,5,0,0
37454,-125,4,2,2,55,0,0
37602,-125,4,2,2,5,0,0
37750,-200,4,2,2,60,0,0
37898,-200,4,2,2,5,0,0
38045,-125,4,2,2,60,0,0
38193,-125,4,2,2,5,0,0
38341,-200,4,2,2,60,0,0
38489,-200,4,2,2,5,0,0
38636,-125,4,2,2,60,0,0
38784,-125,4,2,2,5,0,0
38932,-125,4,2,2,65,0,0
39523,-111.111111111111,4,2,2,65,0,0
40114,-100,4,2,2,70,0,0
40705,-100,4,2,2,75,0,0
41297,-166.666666666667,4,2,2,40,0,0
43366,-166.666666666667,4,2,2,60,0,0
43513,-166.666666666667,4,2,2,55,0,0
43661,-83.3333333333333,4,1,3,70,0,1
43957,-66.6666666666667,4,1,3,70,0,1
44252,-83.3333333333333,4,1,3,70,0,1
45582,-83.3333333333333,4,1,3,5,0,1
45656,-83.3333333333333,4,1,3,70,0,1
45804,-83.3333333333333,4,1,3,5,0,1
45878,-83.3333333333333,4,1,3,70,0,1
45952,-83.3333333333333,4,1,3,5,0,1
46026,-200,4,1,3,70,0,1
46321,-142.857142857143,4,1,3,70,0,1
46617,-83.3333333333333,4,1,3,70,0,1
47060,-125,4,1,3,70,0,1
47503,-111.111111111111,4,1,3,70,0,1
47799,-100,4,1,3,70,0,1
48095,-66.6666666666667,4,1,3,70,0,1
48316,-66.6666666666667,4,1,3,5,0,1
48390,-100,4,1,3,70,0,1
52528,-200,4,1,3,70,0,1
53045,-200,4,1,3,5,0,1
53119,-100,4,1,3,70,0,1
53415,-100,4,1,3,70,0,1
53563,-66.6666666666667,4,1,3,70,0,1
53710,-66.6666666666667,4,1,3,70,0,0
54006,-83.3333333333333,4,1,3,70,0,1
54893,-83.3333333333333,4,1,3,70,0,1
55040,-83.3333333333333,4,1,3,5,0,1
55114,-83.3333333333333,4,1,3,70,0,1
55262,-83.3333333333333,4,1,3,5,0,1
55336,-83.3333333333333,4,1,3,70,0,1
55410,-83.3333333333333,4,1,3,5,0,1
55484,-200,4,1,3,70,0,1
55779,-142.857142857143,4,1,3,70,0,1
56075,-83.3333333333334,4,1,3,70,0,1
56518,-125,4,1,3,70,0,1
56962,-111.111111111111,4,1,3,70,0,1
57257,-100,4,1,3,70,0,1
57774,-100,4,1,3,5,0,1
57848,-100,4,1,3,70,0,1
58661,-100,4,1,3,5,0,1
58735,-100,4,1,3,70,0,1
59031,-90.9090909090909,4,1,3,70,0,1
59843,-90.9090909090909,4,1,3,5,0,1
59917,-90.9090909090909,4,1,3,70,0,1
60213,-83.3333333333333,4,1,3,70,0,1
61026,-83.3333333333333,4,1,3,5,0,1
61099,-83.3333333333333,4,1,3,70,0,1
61395,-66.6666666666667,4,1,3,70,0,1
61838,-66.6666666666667,4,1,3,70,0,1
62577,-200,4,2,2,60,0,0
63095,-200,4,2,2,5,0,0
63168,-83.3333333333333,4,1,3,60,0,1
64055,-100,4,1,3,60,0,1
64277,-100,4,1,3,5,0,1
64351,-83.3333333333333,4,1,3,60,0,1
64425,-83.3333333333333,4,1,3,5,0,1
64499,-83.3333333333333,4,1,3,60,0,1
64572,-83.3333333333333,4,1,3,5,0,1
64646,-76.9230769230769,4,1,3,60,0,1
64720,-76.9230769230769,4,1,3,5,0,1
64794,-76.9230769230769,4,1,3,60,0,1
64868,-76.9230769230769,4,1,3,5,0,1
64942,-100,4,1,3,60,0,1
69671,-125,4,1,3,60,0,1
69966,-83.3333333333333,4,1,3,60,0,1
70262,-111.111111111111,4,1,3,60,0,1
70558,-83.3333333333333,4,1,3,60,0,1
70779,-83.3333333333333,4,1,3,5,0,1
70853,-83.3333333333333,4,1,3,60,0,1
71297,-90.9090909090909,4,1,3,60,0,1
71444,-90.9090909090909,4,1,3,5,0,1
71518,-100,4,1,3,60,0,1
71666,-100,4,1,3,5,0,1
71740,-142.857142857143,4,1,3,60,0,1
71814,-142.857142857143,4,1,3,5,0,1
71888,-200,4,1,3,60,0,1
71962,-200,4,1,3,5,0,1
72035,-200,4,2,2,45,0,0
72627,-100,4,2,2,45,0,0
73218,-83.3333333333333,4,2,2,70,0,1
73513,-100,4,2,2,70,0,1
73735,-100,4,2,2,5,0,1
73809,-100,4,2,2,70,0,1
73883,-100,4,2,2,5,0,1
73957,-83.3333333333333,4,2,2,70,0,1
74031,-83.3333333333333,4,2,2,5,0,1
74104,-100,4,2,2,70,0,1
74178,-100,4,2,2,5,0,1
74252,-83.3333333333333,4,2,2,70,0,1
74326,-83.3333333333333,4,2,2,5,0,1
74400,-200,4,2,2,70,0,1
74548,-200,4,2,2,5,0,1
74622,-200,4,2,2,70,0,1
74769,-200,4,2,2,5,0,1
74843,-200,4,2,2,70,0,1
74917,-200,4,2,2,5,0,1
74991,-100,4,2,2,70,0,1
76173,-71.4285714285714,4,2,2,70,0,1
76395,-71.4285714285714,4,2,2,5,0,1
76469,-100,4,2,2,70,0,0
76617,-100,4,2,2,70,0,0
76765,-100,4,2,2,70,0,1
77947,-90.9090909090909,4,2,2,70,0,1
79129,-80,4,2,2,70,0,1
79720,-71.4285714285714,4,2,2,70,0,1
80311,-100,4,2,2,50,0,0
80459,-100,4,2,2,50,0,0
81494,-200,4,2,2,55,0,0
82085,-142.857142857143,4,2,2,55,0,0
86223,-200,4,2,2,55,0,0
86814,-142.857142857143,4,2,2,55,0,0
89178,-111.111111111111,4,2,2,55,0,0
90065,-90.909090909091,4,2,2,55,0,0
90952,-200,4,2,2,55,0,0
91543,-142.857142857143,4,2,2,55,0,0
95681,-142.857142857143,4,2,2,60,0,0
96863,-142.857142857143,4,2,2,65,0,0
97898,-83.3333333333334,4,2,2,65,0,0
98045,-83.3333333333334,4,2,2,70,0,0
98636,-83.3333333333334,4,2,2,75,0,0
99228,-83.3333333333334,4,2,2,55,0,0
100410,-90.9090909090909,4,1,3,60,0,0
104843,-76.9230769230769,4,2,2,60,0,0
105065,-76.9230769230769,4,2,2,5,0,0
105139,-90.9090909090909,4,2,2,60,0,0
108686,-83.3333333333333,4,2,2,60,0,0
111789,-83.3333333333333,4,2,2,50,0,0
111863,-200,4,2,2,50,0,0
112233,-90.9090909090909,4,2,2,60,0,0
114597,-99.9999999999999,4,2,2,60,0,0
115410,-99.9999999999999,4,2,2,5,0,0
115484,-99.9999999999999,4,2,2,60,0,0
115779,-90.9090909090909,4,2,2,65,0,0
116592,-90.9090909090909,4,2,2,5,0,0
116666,-90.9090909090909,4,2,2,65,0,0
116962,-83.3333333333333,4,2,2,70,0,0
117774,-83.3333333333333,4,2,2,5,0,0
117848,-83.3333333333333,4,2,2,70,0,0
118144,-66.6666666666667,4,2,2,75,0,0
119622,-66.6666666666667,4,2,1,40,0,0
120952,-500,4,2,1,55,0,0
137356,-500,4,2,1,60,0,0
137651,-500,4,2,1,65,0,0
137947,-500,4,2,1,70,0,0
138242,-500,4,2,1,75,0,0
138686,-500,4,2,2,40,0,0
147700,-500,4,2,2,50,0,0
150065,-500,4,2,2,55,0,0
151247,-500,4,2,2,60,0,0
152430,-200,4,2,2,65,0,0
153612,-200,4,2,2,70,0,0
154794,-200,4,2,2,75,0,0
155681,-200,4,2,2,50,0,0
157159,-83.3333333333333,4,1,3,60,0,0
158341,-200,4,1,3,60,0,0
158784,-83.3333333333333,4,1,3,60,0,0
158932,-200,4,1,3,60,0,0
159893,-200,4,1,3,5,0,0
159966,-83.3333333333333,4,1,3,60,0,0
160410,-200,4,1,3,60,0,0
161297,-333.333333333333,4,1,3,60,0,0
161888,-83.3333333333333,4,1,3,60,0,0
162183,-200,4,1,3,60,0,0
162774,-83.3333333333333,4,1,3,60,0,0
163070,-200,4,1,3,60,0,0
164622,-200,4,1,3,5,0,0
164696,-83.3333333333333,4,1,3,60,0,0
165139,-200,4,1,3,60,0,0
166026,-83.3333333333333,4,1,3,60,0,0
166173,-133.333333333333,4,1,3,60,0,0
166617,-83.3333333333333,4,1,3,60,0,0
167799,-200,4,1,3,60,0,0
168242,-83.3333333333333,4,1,3,60,0,0
168390,-200,4,1,3,60,0,0
169351,-200,4,1,3,5,0,0
169425,-83.3333333333333,4,1,3,60,0,0
169868,-200,4,1,3,60,0,0
170755,-333.333333333333,4,1,3,60,0,0
171346,-83.3333333333333,4,1,3,60,0,0
171641,-200,4,1,3,60,0,0
172233,-83.3333333333333,4,1,3,60,0,0
172528,-200,4,1,3,60,0,0
173119,-333.333333333333,4,1,3,60,0,0
177848,-333.333333333333,4,1,3,40,0,0
178439,-333.333333333333,4,1,3,50,0,0
179031,-333.333333333333,4,1,3,60,0,0
179622,-333.333333333333,4,1,3,70,0,0
180213,-333.333333333333,4,1,3,40,0,0
180804,-83.3333333333333,4,1,3,60,0,0
181099,-200,4,1,3,60,0,0
181691,-83.3333333333333,4,1,3,60,0,0
181986,-200,4,1,3,60,0,0
183538,-200,4,1,3,5,0,0
183612,-83.3333333333333,4,1,3,60,0,0
184055,-200,4,1,3,60,0,0
184942,-83.3333333333333,4,1,3,60,0,0
185090,-133.333333333333,4,1,3,60,0,0
185533,-83.3333333333333,4,1,3,60,0,0
186715,-200,4,1,3,60,0,0
187159,-83.3333333333333,4,1,3,60,0,0
187306,-200,4,1,3,60,0,0
188267,-200,4,1,3,5,0,0
188341,-83.3333333333333,4,1,3,60,0,0
188784,-200,4,1,3,60,0,0
189671,-333.333333333333,4,1,3,60,0,0
190262,-83.3333333333333,4,1,3,60,0,0
190410,-83.3333333333333,4,1,3,5,0,0
191149,-83.3333333333333,4,1,3,60,0,0
191297,-83.3333333333333,4,1,3,5,0,0
192035,-333.333333333333,4,1,3,50,0,0
194991,-333.333333333333,4,2,1,40,0,0
196617,-500,4,2,1,40,0,0
205237,-333.333333333333,4,2,1,40,0,0
205434,-333.333333333333,4,2,1,5,0,0
205632,-333.333333333333,4,2,1,40,0,0
206223,-333.333333333333,4,2,1,5,0,0
206420,-333.333333333333,4,2,1,40,0,0
206617,-333.333333333333,4,2,1,5,0,0
206814,-333.333333333333,4,2,1,40,0,0
207405,-333.333333333333,4,2,1,5,0,0
207602,-333.333333333333,4,2,1,40,0,0
207799,-333.333333333333,4,2,1,5,0,0
207996,-333.333333333333,4,2,1,40,0,0
210065,-333.333333333333,4,2,1,50,0,0
210361,-333.333333333333,4,2,1,60,0,0
210656,-333.333333333333,4,2,1,10,0,0
213907,-333.333333333333,4,2,1,40,0,0
214499,-333.333333333333,4,2,1,5,0,0
214696,-333.333333333333,4,2,1,40,0,0
214893,-333.333333333333,4,2,1,5,0,0
215090,-333.333333333333,4,2,1,40,0,0
215681,-333.333333333333,4,2,1,5,0,0
215878,-333.333333333333,4,2,1,40,0,0
216075,-333.333333333333,4,2,1,5,0,0
216272,-333.333333333333,4,2,1,40,0,0
216863,-333.333333333333,4,2,1,5,0,0
217060,-333.333333333333,4,2,1,40,0,0
217257,-333.333333333333,4,2,1,5,0,0
217454,-333.333333333333,4,2,1,40,0,0
222774,-66.6666666666667,4,2,2,70,0,0
223070,-100,4,2,2,70,0,0
223366,-125,4,2,2,60,0,0
225287,-333.333333333333,4,2,2,60,0,0
225656,-333.333333333333,4,2,2,5,0,0
225730,-125,4,2,2,60,0,0
227503,-100,4,2,2,60,0,0
227799,-333.333333333333,4,2,2,60,0,0
228021,-333.333333333333,4,2,2,5,0,0
228095,-125,4,2,2,60,0,0
230016,-333.333333333333,4,2,2,60,0,0
230385,-333.333333333333,4,2,2,5,0,0
230459,-125,4,2,2,60,0,0
231937,-100,4,2,2,60,0,0
232750,-100,4,2,2,5,0,0
232824,-200,4,2,2,50,0,0
233119,-125,4,2,2,50,0,0
233415,-200,4,2,2,50,0,0
233710,-125,4,2,2,50,0,0
234006,-200,4,2,2,55,0,0
234301,-125,4,2,2,55,0,0
234597,-200,4,2,2,55,0,0
234893,-125,4,2,2,55,0,0
235188,-200,4,2,2,60,0,0
235484,-125,4,2,2,60,0,0
235779,-200,4,2,2,60,0,0
236075,-125,4,2,2,60,0,0
236370,-200,4,2,2,65,0,0
236666,-125,4,2,2,65,0,0
236962,-200,4,2,2,65,0,0
237257,-125,4,2,2,65,0,0
237553,-111.111111111111,4,2,2,70,0,0
238144,-100,4,2,2,70,0,0
238735,-90.9090909090909,4,2,2,75,0,0
239326,-83.3333333333333,4,2,2,75,0,0
239917,-166.666666666667,4,2,2,55,0,0
239991,-166.666666666667,4,2,2,50,0,0
241395,-500.000000000003,4,2,2,45,0,0
241691,-100,4,2,2,50,0,0
242060,-100,4,2,2,55,0,0
242134,-100,4,2,2,60,0,0
242208,-100,4,2,2,65,0,0
242282,-71.4285714285714,4,1,3,70,0,1
253661,-142.857142857143,4,1,3,60,0,1
253735,-142.857142857143,4,1,3,5,0,1
253809,-142.857142857143,4,1,3,60,0,1
253883,-142.857142857143,4,1,3,5,0,1
253957,-142.857142857143,4,1,3,60,0,1
254031,-142.857142857143,4,1,3,5,0,1
254104,-71.4285714285715,4,1,3,70,0,1
255878,-111.111111111111,4,1,3,60,0,1
256099,-111.111111111111,4,1,3,5,0,1
256173,-200,4,1,3,50,0,1
256469,-100,4,2,2,20,0,0
257651,-100,4,2,2,30,0,0
258833,-125,4,2,2,50,0,0
258981,-125,4,2,2,5,0,0
259055,-125,4,2,2,60,0,0
259203,-125,4,2,2,5,0,0
259277,-90.9090909090909,4,2,2,70,0,0
259351,-90.9090909090909,4,2,2,5,0,0
259425,-90.9090909090909,4,2,2,20,0,0
259572,-90.9090909090909,4,2,2,35,0,0
259720,-76.9230769230769,4,2,2,50,0,0
259868,-76.9230769230769,4,2,2,65,0,0
260016,-66.6666666666667,4,2,2,80,0,0
260164,-66.6666666666667,4,2,2,5,0,0
260237,-200,4,2,2,65,0,0
260385,-200,4,2,2,5,0,0
260459,-66.6666666666667,4,2,2,80,0,0
260607,-66.6666666666667,4,2,2,5,0,0
260681,-200,4,2,2,65,0,0
260829,-200,4,2,2,5,0,0
260902,-66.6666666666667,4,2,2,80,0,0
260976,-66.6666666666667,4,2,2,5,0,0
261050,-58.8235294117647,4,2,2,80,0,0
261124,-58.8235294117647,4,2,2,5,0,0
261198,-71.4285714285714,4,1,3,75,0,1
270804,-71.4285714285714,4,1,3,50,0,1
270952,-200,4,2,2,55,0,0
271099,-200,4,2,2,5,0,0
271247,-200,4,2,2,55,0,0
271395,-200,4,2,2,5,0,0
271543,-200,4,2,2,55,0,0
271986,-200,4,2,2,5,0,0
272134,-200,4,2,2,55,0,0
272282,-200,4,2,2,5,0,0
272430,-200,4,2,2,55,0,0
272577,-200,4,2,2,5,0,0
272725,-200,4,2,2,65,0,0
273168,-200,4,2,2,5,0,0
273316,-200,4,2,2,55,0,0
273464,-200,4,2,2,5,0,0
273612,-200,4,2,2,55,0,0
273760,-200,4,2,2,5,0,0
273907,-200,4,2,2,55,0,0
274203,-200,4,2,2,55,0,0
274351,-200,4,2,2,5,0,0
274499,-200,4,2,2,55,0,0
274646,-200,4,2,2,5,0,0
274794,-200,4,2,2,55,0,0
274942,-200,4,2,2,5,0,0
275090,-125,4,2,2,65,0,0
275385,-90.9090909090909,4,1,3,50,0,1
276567,-83.3333333333333,4,1,3,60,0,1
277750,-76.9230769230769,4,1,3,70,0,1
278932,-71.4285714285714,4,1,3,80,0,1
279523,-66.6666666666667,4,1,3,85,0,1
280114,-500,4,2,2,60,0,0
284548,-500,4,2,1,10,0,0
284843,-500,4,2,1,40,0,0
299031,-500,4,2,1,30,0,0
303907,-500,4,2,1,20,0,0
309671,-500,4,2,1,5,0,0

[Colours]
Combo1 : 180,111,242
Combo2 : 0,128,192
Combo3 : 128,255,255
Combo4 : 128,128,192
SliderTrackOverride : 50,40,80
SliderBorder : 178,102,255

[HitObjects]
256,192,1100,12,0,5533,0:0:0:0:
156,304,5829,38,0,B|158:260|158:260|176:228|176:228|180:176,1,125.999996154785,2|0,0:0|0:0,0:0:0:0:
144,96,6617,2,0,P|177:108|196:108,1,41.9999987182618,0|0,0:0|0:0,0:0:0:0:
325,103,7011,6,0,B|357:147|324:190|324:190|305:150,1,125.999996154785,2|0,0:0|0:0,0:0:0:0:
280,37,7799,2,0,P|313:25|328:24,1,41.9999987182618,0|0,0:0|0:0,0:0:0:0:
442,133,8193,6,0,B|435:233|435:233|415:204,1,125.999996154785,2|0,0:0|0:0,0:0:0:0:
432,61,8981,2,0,L|428:108,1,41.9999987182618,0|0,0:0|0:0,0:0:0:0:
414,312,9375,5,2,0:0:0:0:
310,161,9819,1,0,0:0:0:0:
147,364,10558,6,0,P|133:323|136:292,1,62.9999980773926,2|0,0:0|0:0,0:0:0:0:
164,176,11050,1,0,0:0:0:0:
176,157,11149,2,0,L|212:164,2,20.9999993591309
69,163,11444,2,0,L|33:170,2,20.9999993591309
159,63,11740,2,0,L|195:70,2,20.9999993591309
256,192,12035,12,0,14991,0:0:0:0:
224,205,15287,6,0,B|262:185|304:202|304:202|318:181|306:150,1,125.999996154785,2|0,0:0|0:0,0:0:0:0:
266,274,16075,2,0,B|263:297|263:297|268:320,1,41.9999987182618,0|0,0:0|0:0,0:0:0:0:
464,299,16469,6,0,B|419:284|419:284|334:301,1,125.999996154785,2|0,0:0|0:0,0:0:0:0:
460,218,17257,2,0,P|460:187|456:168,1,41.9999987182618,0|0,0:0|0:0,0:0:0:0:
332,68,17651,6,0,B|376:100|423:72|423:72|391:54,1,125.999996154785,2|0,0:0|0:0,0:0:0:0:
237,101,18439,2,0,L|191:106,1,41.9999987182618,0|0,0:0|0:0,0:0:0:0:
338,166,18833,5,2,0:0:0:0:
119,55,19277,1,0,0:0:0:0:
189,318,20016,6,0,B|181:287|181:287|190:249,1,62.9999980773926,2|0,0:0|0:0,0:0:0:0:
264,170,20508,1,0,0:0:0:0:
288,160,20607,2,0,L|317:159,2,20.9999993591309
186,114,20902,2,0,L|149:112,2,20.9999993591309,0|0|0,0:0|0:0|0:0,0:0:0:0:
295,44,21198,2,0,L|324:43,2,20.9999993591309,2|0|0,0:0|0:0|0:0,0:0:0:0:
245,251,22380,6,0,L|250:285,1,31.4999990386963,4|0,0:0|0:0,0:0:0:0:
256,192,22676,12,0,23858,0:0:0:0:
124,241,24154,22,0,B|170:263|220:234|220:234|229:276|269:295,1,157.500006008148
334,297,24375,1,0,0:0:0:0:
334,297,24449,6,0,L|387:301,1,52.5
222,352,24597,2,0,L|170:356,1,52.5
292,221,24745,6,0,B|300:170|300:170|331:130|331:130|341:43,1,168,2|0,0:0|0:0,0:0:0:0:
212,210,25188,2,0,L|227:114,1,84,2|0,0:0|0:0,0:0:0:0:
415,160,25484,2,0,L|429:63,1,84,2|0,0:0|0:0,0:0:0:0:
279,303,25779,2,0,L|294:207,1,84,2|0,0:0|0:0,0:0:0:0:
291,220,26666,6,0,L|305:132,1,78.7499975967408,2|0,0:0|0:0,0:0:0:0:
167,303,27109,6,0,B|212:338|276:313|276:313|246:306|230:282,1,168,2|0,0:0|0:0,0:0:0:0:
302,61,27553,2,0,B|314:100|314:100|299:155,1,84,2|0,0:0|0:0,0:0:0:0:
105,194,27774,2,0,B|131:161|131:161|172:149,1,84,2|0,0:0|0:0,0:0:0:0:
368,352,27996,2,0,B|285:352|285:352|228:280,1,168,2|0,0:0|0:0,0:0:0:0:
232,285,28883,6,0,L|160:295,1,52.5
314,162,29031,2,0,L|242:152,1,52.5,0|0,0:0|0:0,0:0:0:0:
381,339,29178,6,0,L|322:348,1,47.2499985580445,0|0,0:0|0:0,0:0:0:0:
458,250,29474,6,0,B|468:131|468:131|428:201,1,168,2|0,0:0|0:0,0:0:0:0:
261,154,29917,2,0,B|249:114|249:114|269:56,1,84,2|0,0:0|0:0,0:0:0:0:
166,238,30213,2,0,B|178:198|178:198|158:140,1,84,2|0,0:0|0:0,0:0:0:0:
259,315,30508,2,0,B|247:275|247:275|267:217,1,84,2|0,0:0|0:0,0:0:0:0:
51,69,31395,6,0,L|138:75,1,78.7499975967408,2|0,0:0|0:0,0:0:0:0:
162,150,31838,6,0,P|156:102|276:95,1,168,2|0,0:0|0:0,0:0:0:0:
190,224,32282,2,0,P|204:178|263:169,1,84,2|0,0:0|0:0,0:0:0:0:
210,295,32503,2,0,P|224:249|283:240,1,84,2|0,0:0|0:0,0:0:0:0:
228,376,32725,2,0,P|234:328|114:321,1,168,2|0,0:0|0:0,0:0:0:0:
370,252,33464,6,0,P|378:205|370:184,1,52.5,2|0,0:0|0:0,0:0:0:0:
332,120,33612,1,0,0:0:0:0:
409,327,33760,1,0,0:0:0:0:
190,224,33907,2,0,B|225:193|293:213|293:213|265:220|249:244,1,157.5,0|0,0:0|0:0,0:0:0:0:
215,132,34203,6,0,L|221:65,1,52.5,2|0,0:0|0:0,0:0:0:0:
134,62,34499,2,0,P|188:72|242:44,1,84,2|0,0:0|0:0,0:0:0:0:
64,214,34794,6,0,L|58:147,1,52.5,2|0,0:0|0:0,0:0:0:0:
145,144,35090,2,0,P|91:154|37:126,1,84,2|0,0:0|0:0,0:0:0:0:
139,307,35385,6,0,L|210:305,1,52.5,2|0,0:0|0:0,0:0:0:0:
209,214,35681,2,0,L|205:323,1,84,2|0,0:0|0:0,0:0:0:0:
380,252,35976,6,0,L|309:250,1,52.5,2|0,0:0|0:0,0:0:0:0:
310,159,36272,2,0,L|314:268,1,84,2|0,0:0|0:0,0:0:0:0:
284,55,36567,6,0,P|318:50|346:56,1,52.5,2|0,0:0|0:0,0:0:0:0:
478,112,36863,2,0,B|438:121|438:121|391:110,1,84,10|0,0:0|0:0,0:0:0:0:
214,20,37159,6,0,P|180:15|152:21,1,52.5,2|0,0:0|0:0,0:0:0:0:
20,77,37455,2,0,B|60:86|60:86|107:75,1,84,10|0,0:0|0:0,0:0:0:0:
310,159,37750,6,0,L|305:219,1,52.5,2|0,0:0|0:0,0:0:0:0:
291,361,38045,2,0,L|271:252,1,84,10|0,0:0|0:0,0:0:0:0:
174,91,38341,6,0,L|179:151,1,52.5,2|0,0:0|0:0,0:0:0:0:
193,293,38636,2,0,L|213:184,1,84,10|0,0:0|0:0,0:0:0:0:
427,55,38932,6,0,P|372:89|310:73,1,112,2|0,0:0|0:0,0:0:0:0:
409,162,39228,2,0,L|412:234,1,56,8|0,0:0|0:0,0:0:0:0:
94,218,39523,6,0,P|155:236|215:200,1,125.999996154785,8|0,0:0|0:0,0:0:0:0:
139,316,39819,2,0,L|158:400,1,62.9999980773926,8|0,0:0|0:0,0:0:0:0:
126,60,40114,6,0,B|229:57|229:57|176:92,1,140,8|0,0:0|0:0,0:0:0:0:
94,218,40410,2,0,L|5:214,2,70,8|0|0,0:0|0:0|0:0,0:0:0:0:
263,141,40705,5,8,0:0:0:0:
311,135,40804,1,0,0:0:0:0:
359,130,40902,1,0,0:0:0:0:
406,126,41001,2,0,L|498:129,2,70,8|0|0,0:0|0:0|0:0,0:0:0:0:
326,330,41297,6,0,B|365:342|365:342|435:334,1,94.499997116089,4|0,0:0|0:0,0:0:0:0:
394,260,41592,1,0,0:0:0:0:
270,272,41740,1,0,0:0:0:0:
260,274,41814,1,0,0:0:0:0:
250,275,41888,1,0,0:0:0:0:
181,337,42035,1,0,0:0:0:0:
105,221,42183,5,0,0:0:0:0:
115,223,42257,1,0,0:0:0:0:
125,225,42331,1,0,0:0:0:0:
135,227,42405,1,0,0:0:0:0:
145,229,42479,1,0,0:0:0:0:
300,259,42627,1,0,0:0:0:0:
219,246,42774,6,0,L|216:186,1,31.4999990386963,0|0,0:0|0:0,0:0:0:0:
198,68,42922,2,0,B|189:130|189:130|210:202,1,125.999996154785,0|0,0:0|0:0,0:0:0:0:
433,199,43366,5,0,0:0:0:0:
431,214,43439,1,0,0:0:0:0:
430,229,43513,1,0,0:0:0:0:
430,244,43586,1,0,0:0:0:0:
471,335,43661,6,0,B|418:367|353:336|353:336|390:342|423:319,1,188.999994232178,6|0,0:0|0:0,0:0:0:0:
508,223,43957,6,0,B|468:227|468:227|414:208,1,78.7500030040742,0|0,0:0|0:0,0:0:0:0:
269,123,44104,2,0,B|308:118|308:118|345:131,1,78.7500030040742,0|0,0:0|0:0,0:0:0:0:
283,297,44252,6,0,P|208:304|282:280,1,188.999994232178,8|0,0:0|0:0,0:0:0:0:
142,326,44548,5,0,0:0:0:0:
137,307,44622,1,0,0:0:0:0:
137,288,44696,1,0,0:0:0:0:
138,269,44769,1,0,0:0:0:0:
142,250,44843,1,0,0:0:0:0:
151,233,44917,1,0,0:0:0:0:
161,217,44991,1,0,0:0:0:0:
175,204,45065,1,0,0:0:0:0:
222,186,45139,5,2,0:0:0:0:
265,140,45213,1,0,0:0:0:0:
271,77,45287,1,0,0:0:0:0:
229,29,45361,1,0,0:0:0:0:
167,40,45434,6,0,B|193:44|216:68|216:68|244:47|291:51,1,125.999996154785,8|0,0:0|0:0,0:0:0:0:
436,134,45656,2,0,P|383:165|327:142,1,125.999996154785,0|0,0:0|0:0,0:0:0:0:
378,25,45878,2,0,B|389:56|389:56|373:105,1,62.9999980773926,0|0,0:0|0:0,0:0:0:0:
362,256,46026,6,0,L|298:252,1,52.5,2|0,0:0|0:0,0:0:0:0:
512,234,46321,6,0,L|423:227,1,73.4999977569581,2|0,0:0|0:0,0:0:0:0:
108,82,46617,6,0,B|104:115|104:115|111:161,1,62.9999980773926,8|0,0:0|0:0,0:0:0:0:
206,338,46765,2,0,B|210:308|210:308|206:275,1,62.9999980773926,0|0,0:0|0:0,0:0:0:0:
152,214,46912,1,2,0:0:0:0:
35,333,47060,6,0,L|87:339,1,42,8|0,0:0|0:0,0:0:0:0:
206,338,47208,2,0,L|248:334,1,42
40,180,47356,1,0,0:0:0:0:
29,218,47430,1,0,0:0:0:0:
34,256,47503,6,0,L|92:262,1,47.2499985580445,8|0,0:0|0:0,0:0:0:0:
203,263,47651,2,0,L|251:259,1,47.2499985580445,0|0,0:0|0:0,0:0:0:0:
40,180,47799,6,0,L|118:187,1,52.5,2|0,0:0|0:0,0:0:0:0:
209,108,47947,2,0,L|261:102,1,52.5,8|0,0:0|0:0,0:0:0:0:
423,249,48095,6,0,B|251:259|251:259|368:196,1,236.250009012223
484,325,48390,6,0,P|437:347|352:316,1,105,2|0,0:0|0:0,0:0:0:0:
342,76,48686,2,0,L|354:126,1,52.5,2|0,0:0|0:0,0:0:0:0:
424,249,48833,2,0,L|439:189,1,52.5,0|0,0:0|0:0,0:0:0:0:
252,17,48981,2,0,B|240:77|240:77|270:182,1,157.5,2|0,0:0|0:0,0:0:0:0:
150,71,49277,1,2,0:0:0:0:
150,71,49351,1,0,0:0:0:0:
150,71,49425,2,0,L|76:78,1,52.5,0|0,0:0|0:0,0:0:0:0:
1,200,49572,5,2,0:0:0:0:
20,186,49646,1,0,0:0:0:0:
39,173,49720,2,0,L|113:180,1,52.5,0|0,0:0|0:0,0:0:0:0:
235,302,49868,1,2,0:0:0:0:
206,282,49942,1,0,0:0:0:0:
181,260,50016,2,0,L|107:267,1,52.5,0|0,0:0|0:0,0:0:0:0:
318,361,50164,6,0,B|339:311|339:311|315:239,1,105,2|0,0:0|0:0,0:0:0:0:
223,158,50385,1,0,0:0:0:0:
233,186,50459,2,0,P|265:194|310:194,1,52.5,2|0,0:0|0:0,0:0:0:0:
322,35,50607,2,0,P|290:27|245:27,1,52.5,0|0,0:0|0:0,0:0:0:0:
346,125,50755,6,0,B|458:152|458:152|410:120,1,157.5,2|0,0:0|0:0,0:0:0:0:
270,25,51050,2,0,L|218:36,1,52.5,2|0,0:0|0:0,0:0:0:0:
67,158,51198,2,0,L|118:169,1,52.5,0|0,0:0|0:0,0:0:0:0:
233,186,51346,1,2,0:0:0:0:
52,63,51494,1,0,0:0:0:0:
89,310,51641,5,2,0:0:0:0:
104,318,51715,1,0,0:0:0:0:
118,324,51789,2,0,P|123:282|116:246,1,52.5
67,158,51937,1,2,0:0:0:0:
255,338,52085,5,0,0:0:0:0:
270,346,52159,1,0,0:0:0:0:
284,352,52233,2,0,P|289:310|282:274,1,52.5,2|0,0:0|0:0,0:0:0:0:
233,186,52381,1,0,0:0:0:0:
435,289,52528,6,0,B|363:318|320:259|320:259|308:297|270:306,1,183.75,2|0,0:0|0:0,0:0:0:0:
392,213,53119,5,2,0:0:0:0:
392,213,53193,1,0,0:0:0:0:
392,213,53267,2,0,L|406:145,1,52.5,0|0,0:0|0:0,0:0:0:0:
252,63,53415,5,0,0:0:0:0:
234,85,53489,1,0,0:0:0:0:
215,109,53563,2,0,L|238:207,1,78.7500030040742,0|0,0:0|0:0,0:0:0:0:
293,376,53710,5,8,0:0:0:0:
293,376,54006,2,0,P|246:366|205:340,1,62.9999980773926,6|0,0:0|0:0,0:0:0:0:
117,161,54154,1,0,0:0:0:0:
118,169,54228,1,0,0:0:0:0:
121,177,54301,5,0,0:0:0:0:
158,180,54375,1,0,0:0:0:0:
195,182,54449,1,0,0:0:0:0:
232,185,54523,1,0,0:0:0:0:
300,192,54597,5,2,0:0:0:0:
232,207,54671,1,0,0:0:0:0:
166,228,54745,1,0,0:0:0:0:
97,240,54819,1,0,0:0:0:0:
29,257,54893,6,0,B|68:277|68:277|177:257,1,125.999996154785,8|0,0:0|0:0,0:0:0:0:
202,354,55114,2,0,P|158:369|195:338,1,125.999996154785,0|0,0:0|0:0,0:0:0:0:
267,315,55336,2,0,P|278:357|266:394,1,62.9999980773926,0|0,0:0|0:0,0:0:0:0:
235,217,55484,6,0,L|300:198,1,52.5,2|0,0:0|0:0,0:0:0:0:
117,119,55779,6,0,L|219:137,1,73.4999977569581,2|0,0:0|0:0,0:0:0:0:
419,354,56075,6,0,P|427:320|417:273,1,62.9999980773926,8|0,0:0|0:0,0:0:0:0:
350,85,56223,2,0,P|347:116|355:146,1,62.9999980773926,0|0,0:0|0:0,0:0:0:0:
392,219,56370,1,2,0:0:0:0:
235,54,56518,2,0,L|183:42,1,42,8|0,0:0|0:0,0:0:0:0:
111,22,56666,2,0,L|59:10,1,42,0|0,0:0|0:0,0:0:0:0:
223,207,56814,1,0,0:0:0:0:
243,180,56888,1,0,0:0:0:0:
235,143,56962,6,0,L|178:128,1,47.2499985580445,8|0,0:0|0:0,0:0:0:0:
111,111,57110,2,0,L|52:96,1,47.2499985580445,0|0,0:0|0:0,0:0:0:0:
166,317,57257,6,0,P|175:280|173:244,1,52.5,2|0,0:0|0:0,0:0:0:0:
5,333,57405,2,0,P|7:359|14:384,1,52.5,8|0,0:0|0:0,0:0:0:0:
93,223,57553,2,0,B|110:110|110:110|65:174,1,157.5,2|0,0:0|0:0,0:0:0:0:
189,130,57848,6,0,B|241:119|241:119|291:136,1,105,6|0,0:0|0:0,0:0:0:0:
353,228,58070,1,0,0:0:0:0:
353,228,58144,2,0,L|348:299,1,52.5,2|0,0:0|0:0,0:0:0:0:
432,166,58292,2,0,L|428:113,1,52.5,0|0,0:0|0:0,0:0:0:0:
345,61,58439,2,0,B|389:87|440:58|440:58|413:59|383:38,1,157.5,2|0,0:0|0:0,0:0:0:0:
290,135,58735,2,0,B|287:184|287:184|280:203|280:203|277:265,1,105,2|0,0:0|0:0,0:0:0:0:
0,265,59031,6,0,P|65:260|96:205,1,115.50000352478,2|0,0:0|0:0,0:0:0:0:
16,114,59252,1,0,0:0:0:0:
10,134,59326,2,0,L|28:219,1,57.7500017623902,2|0,0:0|0:0,0:0:0:0:
92,384,59474,2,0,L|103:327,1,57.7500017623902
211,212,59622,2,0,B|92:222|92:222|174:161,1,173.250005287171,2|0,0:0|0:0,0:0:0:0:
286,264,59917,2,0,B|252:295|252:295|145:311,1,115.50000352478,2|0,0:0|0:0,0:0:0:0:
138,35,60213,6,0,B|185:26|213:51|213:51|240:33|272:38,1,125.999996154785,2|0,0:0|0:0,0:0:0:0:
358,200,60434,1,0,0:0:0:0:
322,178,60508,2,0,P|311:136|314:107,1,62.9999980773926,2|0,0:0|0:0,0:0:0:0:
471,46,60656,2,0,P|482:88|479:117,1,62.9999980773926,0|0,0:0|0:0,0:0:0:0:
418,280,60804,2,0,B|374:228|408:156|408:156|455:185|427:241,1,188.999994232178,2|0,0:0|0:0,0:0:0:0:
480,359,61099,2,0,B|427:372|427:372|336:353,1,125.999996154785,2|0,0:0|0:0,0:0:0:0:
245,118,61395,6,0,B|230:231|230:231|195:168,1,157.500006008148,2|0,0:0|0:0,0:0:0:0:
40,58,61617,1,2,0:0:0:0:
17,102,61691,2,0,B|57:117|57:117|117:113,1,78.7500030040742,0|0,0:0|0:0,0:0:0:0:
306,234,61838,6,0,P|275:295|185:290,1,157.500006008148,2|0,0:0|0:0,0:0:0:0:
35,246,62060,2,0,B|77:280|126:258|126:258|103:312|145:377,1,157.500006008148,2|0,0:0|0:0,0:0:0:0:
88,191,62282,2,0,B|83:152|83:152|97:94,1,78.7500030040742,8|0,0:0|0:0,0:0:0:0:
316,10,62430,2,0,B|325:48|325:48|320:87,1,78.7500030040742,2|2,0:0|0:0,0:0:0:0:
208,192,62577,6,0,B|210:165|201:150|201:150|212:128|212:128|194:98|209:59|209:59|187:67|176:107,1,183.75,2|0,0:0|0:0,0:0:0:0:
285,178,63168,5,8,0:0:0:0:
321,183,63242,1,0,0:0:0:0:
357,187,63316,1,0,0:0:0:0:
393,192,63390,1,0,0:0:0:0:
429,197,63464,1,0,0:0:0:0:
342,291,63612,1,0,0:0:0:0:
319,87,63760,6,0,L|396:94,1,62.9999980773926,0|0,0:0|0:0,0:0:0:0:
270,186,63907,2,0,L|193:193,1,62.9999980773926,0|0,0:0|0:0,0:0:0:0:
352,352,64055,6,0,B|395:305|352:249|352:249|352:278|335:302,1,157.5,2|0,0:0|0:0,0:0:0:0:
439,268,64351,6,0,L|519:266,1,62.9999980773926,8|0,0:0|0:0,0:0:0:0:
284,333,64499,2,0,L|221:331,1,62.9999980773926,0|0,0:0|0:0,0:0:0:0:
443,189,64646,6,0,P|445:247|420:283,1,68.2499968757631,0|0,0:0|0:0,0:0:0:0:
202,326,64794,2,0,P|200:268|225:232,1,68.2499968757631,0|0,0:0|0:0,0:0:0:0:
245,112,64942,6,0,B|217:114|217:114|167:106,1,52.5,2|0,0:0|0:0,0:0:0:0:
33,145,65090,1,2,0:0:0:0:
33,145,65164,2,0,B|61:147|61:147|111:139,1,52.5,2|0,0:0|0:0,0:0:0:0:
203,259,65311,1,2,0:0:0:0:
203,259,65385,2,0,B|175:261|175:261|125:253,1,52.5,2|0,0:0|0:0,0:0:0:0:
219,29,65533,6,0,B|262:20|262:20|323:32,1,105,8|0,0:0|0:0,0:0:0:0:
380,205,65755,1,2,0:0:0:0:
380,205,65829,2,0,P|337:214|299:209,1,52.5,2|0,0:0|0:0,0:0:0:0:
192,110,65976,1,2,0:0:0:0:
192,110,66050,2,0,P|149:101|111:106,1,52.5,2|0,0:0|0:0,0:0:0:0:
289,300,66198,1,2,0:0:0:0:
289,300,66272,2,0,P|332:309|370:304,1,52.5,2|0,0:0|0:0,0:0:0:0:
497,167,66420,5,2,0:0:0:0:
497,167,66494,2,0,L|417:157,1,52.5,2|0,0:0|0:0,0:0:0:0:
244,181,66641,1,0,0:0:0:0:
211,187,66715,2,0,L|131:197,1,52.5,8|0,0:0|0:0,0:0:0:0:
149,329,66863,2,0,L|96:322,1,52.5,2|0,0:0|0:0,0:0:0:0:
279,282,67011,1,8,0:0:0:0:
386,373,67159,1,0,0:0:0:0:
269,99,67306,6,0,B|210:82|210:82|110:103,1,157.5,6|0,0:0|0:0,0:0:0:0:
155,246,67602,2,0,L|161:166,1,52.5,2|0,0:0|0:0,0:0:0:0:
168,55,67750,2,0,L|174:-25,1,52.5,0|0,0:0|0:0,0:0:0:0:
189,235,67898,2,0,B|187:279|187:279|181:298|181:298|179:349,1,105,2|0,0:0|0:0,0:0:0:0:
301,196,68119,1,0,0:0:0:0:
301,196,68193,2,0,P|253:182|235:185,1,52.5,2|0,0:0|0:0,0:0:0:0:
301,348,68341,2,0,P|326:345|350:334,1,52.5,0|0,0:0|0:0,0:0:0:0:
429,219,68489,5,2,0:0:0:0:
254,260,68636,1,0,0:0:0:0:
498,278,68784,2,0,B|518:230|518:230|499:169,1,105,2|0,0:0|0:0,0:0:0:0:
245,41,69080,2,0,L|379:48,1,105,2|0,0:0|0:0,0:0:0:0:
389,137,69301,1,0,0:0:0:0:
398,163,69375,2,0,L|415:113,1,52.5,2|0,0:0|0:0,0:0:0:0:
472,0,69523,2,0,L|489:49,1,52.5,0|0,0:0|0:0,0:0:0:0:
426,240,69671,6,0,P|382:244|346:225,1,84,2|0,0:0|0:0,0:0:0:0:
252,134,69893,1,2,0:0:0:0:
234,158,69966,6,0,B|224:191|224:191|231:226,1,62.9999980773926,2|0,0:0|0:0,0:0:0:0:
276,365,70114,2,0,B|281:337|281:337|271:304,1,62.9999980773926,0|0,0:0|0:0,0:0:0:0:
160,129,70262,6,0,L|122:247,1,94.499997116089,2|0,0:0|0:0,0:0:0:0:
111,331,70484,1,2,0:0:0:0:
141,314,70558,6,0,P|124:251|31:297,1,188.999994232178,8|0,0:0|0:0,0:0:0:0:
28,213,70853,6,0,B|48:168|48:168|71:143|71:143|96:77,1,125.999996154785,2|2,0:0|0:0,0:0:0:0:
193,7,71075,1,2,0:0:0:0:
174,43,71149,2,0,P|211:61|253:58,1,62.9999980773926,0|0,0:0|0:0,0:0:0:0:
376,71,71297,6,0,B|355:126|355:126|373:195,1,115.50000352478,2|2,0:0|0:0,0:0:0:0:
409,73,71518,6,0,B|388:128|388:128|403:188,1,105,2|0,0:0|0:0,0:0:0:0:
440,75,71740,6,0,L|427:120,1,36.749998878479,8|0,0:0|0:0,0:0:0:0:
473,81,71888,6,0,L|463:122,1,26.25,2|0,0:0|0:0,0:0:0:0:
417,322,72035,6,0,B|428:290|404:263|404:263|409:228|409:228|388:201|403:157,1,157.5,6|0,0:0|0:0,0:0:0:0:
326,246,72553,1,0,0:0:0:0:
323,264,72627,6,0,L|318:322,1,52.5,0|0,0:0|0:0,0:0:0:0:
192,242,72774,2,0,L|187:189,1,52.5,0|0,0:0|0:0,0:0:0:0:
27,237,72922,1,0,0:0:0:0:
28,248,72996,1,0,0:0:0:0:
29,259,73070,1,0,0:0:0:0:
30,270,73144,1,0,0:0:0:0:
50,296,73218,6,0,B|84:296|84:296|164:273,1,62.9999980773926,2|0,0:0|0:0,0:0:0:0:
155,101,73366,2,0,B|121:101|121:101|41:124,1,62.9999980773926,0|0,0:0|0:0,0:0:0:0:
88,200,73513,6,0,B|146:220|187:190|187:190|156:192|122:167,1,157.5,0|0,0:0|0:0,0:0:0:0:
162,25,73809,6,0,L|152:112,1,52.5,8|0,0:0|0:0,0:0:0:0:
256,72,73957,6,0,L|244:168,1,62.9999980773926,0|0,0:0|0:0,0:0:0:0:
353,43,74104,6,0,L|343:130,1,52.5,0|0,0:0|0:0,0:0:0:0:
447,90,74252,6,0,L|435:186,1,62.9999980773926,0|0,0:0|0:0,0:0:0:0:
298,291,74400,6,0,B|295:266|295:266|310:224,1,52.5,2|0,0:0|0:0,0:0:0:0:
423,253,74622,2,0,B|402:271|402:271|358:276,1,52.5,0|0,0:0|0:0,0:0:0:0:
367,175,74843,2,0,L|363:212,1,26.25,0|0,0:0|0:0,0:0:0:0:
347,354,74991,6,0,P|261:361|226:326,1,105,8|0,0:0|0:0,0:0:0:0:
178,312,75213,1,0,0:0:0:0:
178,312,75287,2,0,L|188:246,1,52.5,0|0,0:0|0:0,0:0:0:0:
183,68,75434,1,0,0:0:0:0:
183,68,75508,6,0,P|139:62|109:70,1,52.5,0|0,0:0|0:0,0:0:0:0:
68,220,75656,1,0,0:0:0:0:
68,220,75730,2,0,P|112:226|142:218,1,52.5,0|0,0:0|0:0,0:0:0:0:
296,47,75878,1,2,0:0:0:0:
296,47,75952,2,0,P|340:41|370:49,1,52.5
382,195,76099,1,2,0:0:0:0:
400,157,76173,6,0,P|357:118|315:237,1,220.499993270874,2|0,0:0|0:0,0:0:0:0:
292,219,76469,1,0,0:0:0:0:
199,149,76617,1,0,0:0:0:0:
179,311,76765,6,0,B|126:325|126:325|71:300,1,105,6|0,0:0|0:0,0:0:0:0:
98,203,76986,1,0,0:0:0:0:
104,174,77060,2,0,L|114:112,1,52.5,2|0,0:0|0:0,0:0:0:0:
14,11,77208,2,0,L|22:62,1,52.5,0|0,0:0|0:0,0:0:0:0:
195,231,77356,2,0,B|233:230|257:206|257:206|281:221|328:221,1,105,2|0,0:0|0:0,0:0:0:0:
407,150,77577,1,0,0:0:0:0:
426,123,77651,2,0,B|374:108|374:108|321:120,1,105,2|0,0:0|0:0,0:0:0:0:
260,307,77947,5,2,0:0:0:0:
192,124,78095,1,0,0:0:0:0:
395,245,78242,2,0,P|328:245|273:185,1,115.50000352478,2|0,0:0|0:0,0:0:0:0:
202,8,78538,2,0,L|191:133,1,115.50000352478,2|0,0:0|0:0,0:0:0:0:
104,233,78760,1,0,0:0:0:0:
130,210,78833,2,0,B|158:208|158:208|188:212,1,57.7500017623902,2|0,0:0|0:0,0:0:0:0:
181,377,78981,2,0,B|153:379|153:379|123:375,1,57.7500017623902,0|0,0:0|0:0,0:0:0:0:
65,154,79129,5,2,0:0:0:0:
156,299,79277,1,0,0:0:0:0:
266,128,79425,2,0,B|314:117|314:117|396:137,1,131.25,2|0,0:0|0:0,0:0:0:0:
263,334,79720,6,0,P|243:262|307:210,1,146.999995513916,2|0,0:0|0:0,0:0:0:0:
391,331,79942,1,0,0:0:0:0:
410,354,80016,2,0,B|445:365|445:365|483:357,1,73.4999977569581,2|0,0:0|0:0,0:0:0:0:
422,65,80164,2,0,B|385:57|385:57|350:68,1,73.4999977569581
318,281,80311,1,2,0:0:0:0:
256,192,80459,12,0,81198,0:0:0:0:
109,116,81420,21,0,0:0:0:0:
123,138,81494,2,0,B|181:171|232:128|232:128|191:132|182:114,1,157.5,6|0,0:0|0:0,0:0:0:0:
153,227,82085,6,0,B|145:263|145:263|156:297,1,73.4999977569581,8|0,0:0|0:0,0:0:0:0:
235,264,82380,1,0,0:0:0:0:
331,381,82528,2,0,B|341:338|341:338|334:304|334:304|348:220,1,146.999995513916,0|0,0:0|0:0,0:0:0:0:
283,90,82971,2,0,P|329:86|358:97,1,73.4999977569581,2|0,0:0|0:0,0:0:0:0:
315,162,83267,1,8,0:0:0:0:
206,38,83415,2,0,B|185:10|185:10|192:123,1,146.999995513916,0|0,0:0|0:0,0:0:0:0:
235,264,83858,5,2,0:0:0:0:
235,264,84154,1,2,0:0:0:0:
41,176,84449,2,0,P|83:170|127:184,1,73.4999977569581,8|0,0:0|0:0,0:0:0:0:
77,254,84745,1,2,0:0:0:0:
192,123,84893,2,0,B|188:172|188:172|202:196|202:196|199:271,1,146.999995513916,0|0,0:0|0:0,0:0:0:0:
264,384,85336,2,0,L|269:303,1,73.4999977569581,2|0,0:0|0:0,0:0:0:0:
331,167,85632,1,8,0:0:0:0:
296,234,85779,2,0,P|262:201|289:102,1,146.999995513916
497,300,86223,6,0,B|386:303|386:303|432:270,1,157.5,6|0,0:0|0:0,0:0:0:0:
464,124,86814,6,0,L|446:208,1,73.4999977569581,8|0,0:0|0:0,0:0:0:0:
424,276,87109,1,0,0:0:0:0:
347,104,87257,2,0,B|326:193|326:193|342:246,1,146.999995513916,0|0,0:0|0:0,0:0:0:0:
252,116,87700,2,0,P|209:107|177:116,1,73.4999977569581,2|0,0:0|0:0,0:0:0:0:
123,178,87996,1,8,0:0:0:0:
124,323,88144,2,0,B|127:274|127:274|118:251|118:251|123:166,1,146.999995513916,0|0,0:0|0:0,0:0:0:0:
130,50,88587,5,2,0:0:0:0:
130,50,88883,1,2,0:0:0:0:
254,253,89178,6,0,P|308:263|345:242,1,94.499997116089,8|0,0:0|0:0,0:0:0:0:
379,152,89474,1,2,0:0:0:0:
299,366,89622,2,0,B|277:308|277:308|292:175,1,188.999994232178,8|2,0:0|0:0,0:0:0:0:
481,129,90065,6,0,B|438:143|438:143|369:133,1,115.50000352478,8|0,0:0|0:0,0:0:0:0:
216,55,90361,1,2,0:0:0:0:
209,207,90508,2,0,B|243:125|215:54|215:54|222:92|194:127,1,231.000007049561,8|2,0:0|0:0,0:0:0:0:
24,24,90952,6,0,P|75:4|130:84,1,157.5,2|0,0:0|0:0,0:0:0:0:
34,165,91543,6,0,L|113:147,1,73.4999977569581,8|0,0:0|0:0,0:0:0:0:
196,123,91838,1,0,0:0:0:0:
230,280,91986,2,0,B|178:315|127:283|127:283|137:282|179:260,1,146.999995513916,0|0,0:0|0:0,0:0:0:0:
202,365,92430,2,0,P|147:365|104:345,1,73.4999977569581,2|0,0:0|0:0,0:0:0:0:
45,302,92725,1,8,0:0:0:0:
204,205,92873,2,0,B|252:194|281:222|281:222|293:190|326:172,1,146.999995513916
397,270,93316,5,2,0:0:0:0:
397,270,93612,1,2,0:0:0:0:
329,103,93907,2,0,P|318:156|337:201,1,73.4999977569581,8|0,0:0|0:0,0:0:0:0:
412,149,94203,1,2,0:0:0:0:
251,67,94351,2,0,B|191:50|151:68|151:68|178:82|188:106,1,146.999995513916,0|0,0:0|0:0,0:0:0:0:
121,280,94794,2,0,P|108:219|117:192,1,73.4999977569581,2|0,0:0|0:0,0:0:0:0:
124,138,95090,1,8,0:0:0:0:
193,305,95237,2,0,B|130:318|130:318|24:300,1,146.999995513916
194,188,95681,5,6,0:0:0:0:
262,245,95829,1,2,0:0:0:0:
264,259,95902,1,2,0:0:0:0:
267,273,95976,1,2,0:0:0:0:
355,230,96124,1,2,0:0:0:0:
357,244,96197,1,2,0:0:0:0:
360,258,96271,1,8,0:0:0:0:
456,219,96420,1,2,0:0:0:0:
458,233,96493,1,2,0:0:0:0:
461,247,96567,1,2,0:0:0:0:
333,78,96715,5,2,0:0:0:0:
326,114,96789,1,2,0:0:0:0:
335,149,96863,1,2,0:0:0:0:
487,108,97011,1,2,0:0:0:0:
496,73,97085,1,2,0:0:0:0:
489,37,97159,1,2,0:0:0:0:
250,69,97306,5,2,0:0:0:0:
235,118,97380,1,2,0:0:0:0:
249,167,97454,1,8,0:0:0:0:
405,118,97602,1,2,0:0:0:0:
419,69,97676,1,2,0:0:0:0:
404,20,97750,1,8,0:0:0:0:
125,13,97898,6,0,L|106:87,1,62.9999980773926
151,163,98045,5,8,0:0:0:0:
187,174,98119,1,8,0:0:0:0:
210,203,98193,1,8,0:0:0:0:
212,240,98267,1,8,0:0:0:0:
194,273,98341,1,2,0:0:0:0:
164,296,98415,1,8,0:0:0:0:
126,294,98489,1,8,0:0:0:0:
96,269,98563,1,8,0:0:0:0:
89,207,98636,5,8,0:0:0:0:
136,165,98710,1,8,0:0:0:0:
198,160,98784,1,8,0:0:0:0:
254,187,98858,1,8,0:0:0:0:
269,248,98932,1,2,0:0:0:0:
316,290,99006,1,0,0:0:0:0:
378,295,99080,1,8,0:0:0:0:
434,268,99154,1,2,0:0:0:0:
462,211,99228,5,2,0:0:0:0:
148,230,99671,1,0,0:0:0:0:
365,81,100114,1,0,0:0:0:0:
364,118,100188,1,0,0:0:0:0:
363,155,100262,1,0,0:0:0:0:
361,192,100336,1,0,0:0:0:0:
319,249,100410,6,0,P|362:200|473:222,1,173.250005287171,2|0,0:0|0:0,0:0:0:0:
310,181,100705,2,0,B|288:133|288:133|295:40,1,115.50000352478,10|0,0:0|0:0,0:0:0:0:
230,182,100927,1,0,0:0:0:0:
209,208,101001,2,0,P|167:216|118:199,2,77.0000023498536,2|0|0,0:0|0:0|0:0,0:0:0:0:
138,127,101297,2,0,B|102:126|76:149|76:149|43:128|5:139,1,115.50000352478,10|0,0:0|0:0,0:0:0:0:
22,302,101518,1,0,0:0:0:0:
34,323,101592,6,0,L|100:331,3,57.7500017623902,2|0|0|0,0:0|0:0|0:0|0:0,0:0:0:0:
166,304,101888,2,0,L|232:296,3,57.7500017623902,10|0|0|0,0:0|0:0|0:0|0:0,0:0:0:0:
283,363,102183,2,0,P|310:305|291:246,1,115.50000352478,2|0,0:0|0:0,0:0:0:0:
247,167,102405,1,0,0:0:0:0:
247,167,102479,2,0,L|322:174,1,57.7500017623902,10|0,0:0|0:0,0:0:0:0:
414,292,102626,2,0,L|339:299,1,57.7500017623902,0|0,0:0|0:0,0:0:0:0:
263,65,102774,6,0,B|320:42|365:77|365:77|371:33|418:20,1,173.250005287171,2|0,0:0|0:0,0:0:0:0:
493,164,103070,2,0,B|427:179|427:179|357:157,1,115.50000352478,10|0,0:0|0:0,0:0:0:0:
164,37,103366,1,2,0:0:0:0:
198,248,103513,1,0,0:0:0:0:
60,134,103661,2,0,L|142:127,1,57.7500017623902,10|0,0:0|0:0,0:0:0:0:
336,271,103809,2,0,L|254:264,1,57.7500017623902
164,37,103957,5,2,0:0:0:0:
124,224,104104,1,0,0:0:0:0:
255,36,104252,5,10,0:0:0:0:
123,207,104400,1,0,0:0:0:0:
350,38,104548,5,2,0:0:0:0:
123,190,104696,1,0,0:0:0:0:
337,303,104843,6,0,B|352:230|352:230|330:184|330:184|285:176|285:176|325:239,1,204.749990627289,10|0,0:0|0:0,0:0:0:0:
414,301,105139,6,0,B|497:309|497:309|451:183,1,173.250005287171,2|0,0:0|0:0,0:0:0:0:
403,171,105434,2,0,P|447:176|491:108,1,115.50000352478,10|0,0:0|0:0,0:0:0:0:
350,38,105656,1,0,0:0:0:0:
331,64,105730,2,0,L|324:142,2,77.0000023498536,2|0|0,0:0|0:0|0:0,0:0:0:0:
231,48,106026,2,0,B|145:39|145:39|173:92,1,115.50000352478,10|0,0:0|0:0,0:0:0:0:
208,156,106247,1,0,0:0:0:0:
222,190,106321,6,0,L|215:256,3,57.7500017623902,2|0|0|0,0:0|0:0|0:0|0:0,0:0:0:0:
108,250,106617,2,0,L|115:316,3,57.7500017623902,10|0|0|0,0:0|0:0|0:0|0:0,0:0:0:0:
202,364,106912,2,0,B|251:378|251:378|364:350,1,115.50000352478,2|0,0:0|0:0,0:0:0:0:
399,239,107134,1,0,0:0:0:0:
378,213,107208,2,0,L|367:309,1,57.7500017623902,10|0,0:0|0:0,0:0:0:0:
462,384,107356,2,0,L|455:326,1,57.7500017623902,0|0,0:0|0:0,0:0:0:0:
439,151,107503,6,0,B|379:190|323:147|323:147|356:156|379:135,1,173.250005287171,2|0,0:0|0:0,0:0:0:0:
295,240,107799,2,0,B|265:243|265:243|208:233,1,57.7500017623902,10|0,0:0|0:0,0:0:0:0:
284,67,107947,2,0,B|314:64|314:64|371:74,1,57.7500017623902,0|0,0:0|0:0,0:0:0:0:
477,221,108095,1,2,0:0:0:0:
433,57,108242,1,0,0:0:0:0:
244,146,108390,2,0,B|114:151|114:151|153:119,1,173.250005287171,10|0,0:0|0:0,0:0:0:0:
237,238,108686,6,0,B|257:289|219:333|219:333|197:290,1,125.999996154785,2|0,0:0|0:0,0:0:0:0:
316,207,108883,1,0,0:0:0:0:
316,207,108981,2,0,B|356:197|356:197|408:215,2,83.9999974365235,10|0|2,0:0|0:0|0:0,0:0:0:0:
142,365,109375,1,2,0:0:0:0:
45,182,109572,2,0,L|127:187,1,62.9999980773926,0|0,0:0|0:0,0:0:0:0:
251,40,109720,2,0,L|247:102,1,62.9999980773926,0|0,0:0|0:0,0:0:0:0:
237,238,109868,5,6,0:0:0:0:
256,192,110016,12,0,111641,0:0:0:0:
222,271,111937,38,0,L|225:216,1,35
228,145,112134,1,0,0:0:0:0:
158,273,112233,6,0,B|227:318|271:282|271:282|249:283|195:260,1,173.250005287171,2|0,0:0|0:0,0:0:0:0:
104,206,112528,2,0,P|76:256|100:334,1,115.50000352478,2|0,0:0|0:0,0:0:0:0:
45,142,112824,1,2,0:0:0:0:
158,273,112971,1,0,0:0:0:0:
231,87,113119,2,0,L|226:163,1,57.7500017623902,2|0,0:0|0:0,0:0:0:0:
268,340,113267,2,0,L|273:264,1,57.7500017623902,0|0,0:0|0:0,0:0:0:0:
303,159,113415,6,0,B|348:142|348:142|422:157,1,115.50000352478,2|0,0:0|0:0,0:0:0:0:
440,258,113636,1,0,0:0:0:0:
456,284,113710,2,0,L|462:208,1,57.7500017623902,2|0,0:0|0:0,0:0:0:0:
369,43,113858,2,0,L|364:100,1,57.7500017623902,0|0,0:0|0:0,0:0:0:0:
356,272,114006,5,2,0:0:0:0:
325,289,114080,1,2,0:0:0:0:
290,289,114154,1,2,0:0:0:0:
257,277,114228,1,2,0:0:0:0:
222,224,114301,5,2,0:0:0:0:
160,207,114375,1,0,0:0:0:0:
101,232,114449,1,2,0:0:0:0:
83,293,114523,1,0,0:0:0:0:
109,350,114597,6,0,B|150:360|150:360|235:348,1,105,2|0,0:0|0:0,0:0:0:0:
286,236,114819,1,0,0:0:0:0:
286,236,114893,2,0,L|290:302,1,52.5,2|0,0:0|0:0,0:0:0:0:
385,384,115040,2,0,L|381:318,1,52.5,0|0,0:0|0:0,0:0:0:0:
339,134,115188,2,0,P|314:195|383:256,1,157.5,2|0,0:0|0:0,0:0:0:0:
494,248,115484,2,0,L|382:240,1,105,2|0,0:0|0:0,0:0:0:0:
63,159,115779,6,0,B|118:109|195:156,1,115.50000352478,2|0,0:0|0:0,0:0:0:0:
153,284,116001,1,0,0:0:0:0:
132,267,116075,2,0,B|123:236|123:236|131:189,1,57.7500017623902,2|0,0:0|0:0,0:0:0:0:
277,129,116223,2,0,B|281:154|281:154|272:185,1,57.7500017623902,0|0,0:0|0:0,0:0:0:0:
106,45,116370,2,0,B|224:35|224:35|169:89,1,173.250005287171,2|0,0:0|0:0,0:0:0:0:
64,159,116666,2,0,B|119:109|196:156,1,115.50000352478,2|0,0:0|0:0,0:0:0:0:
315,351,116962,6,0,B|318:306|318:306|332:276|332:276|335:220,1,125.999996154785,2|0,0:0|0:0,0:0:0:0:
251,94,117183,1,0,0:0:0:0:
277,129,117257,2,0,P|323:143|365:137,1,62.9999980773926,2|0,0:0|0:0,0:0:0:0:
401,22,117405,2,0,P|355:8|313:14,1,62.9999980773926,0|0,0:0|0:0,0:0:0:0:
421,270,117553,2,0,B|463:218|429:143|429:143|429:177|383:226,1,188.999994232178,2|0,0:0|0:0,0:0:0:0:
292,284,117848,2,0,B|241:297|241:297|135:268,1,125.999996154785,2|0,0:0|0:0,0:0:0:0:
173,55,118144,6,0,B|287:74|287:74|213:114,1,157.500006008148,2|0,0:0|0:0,0:0:0:0:
121,153,118366,1,2,0:0:0:0:
86,120,118439,2,0,P|70:72|79:31,1,78.7500030040742,0|0,0:0|0:0,0:0:0:0:
34,197,118587,2,0,B|39:255|39:255|17:293|17:293|22:358,1,157.500006008148,2|0,0:0|0:0,0:0:0:0:
242,248,118809,2,0,P|161:198|88:273,1,157.500006008148,2|0,0:0|0:0,0:0:0:0:
199,351,119031,2,0,B|235:359|235:359|310:347,1,78.7500030040742,8|0,0:0|0:0,0:0:0:0:
327,165,119178,2,0,B|365:158|365:158|436:173,1,78.7500030040742,2|0,0:0|0:0,0:0:0:0:
503,322,119326,5,4,0:0:0:0:
503,322,120213,1,2,0:0:0:0:
503,322,120952,1,0,0:0:0:0:
501,306,121026,1,0,0:0:0:0:
500,290,121099,2,0,B|452:304|423:267|423:267|397:301|353:307|353:307|357:277|377:265,1,210,6|0,0:0|0:0,0:0:0:0:
214,303,123095,5,0,0:0:0:0:
217,286,123168,2,0,L|223:241,1,42,0|0,0:0|0:0,0:0:0:0:
240,129,123760,1,0,0:0:0:0:
72,191,124055,5,2,0:0:0:0:
72,191,124942,1,2,0:0:0:0:
72,191,125681,1,0,0:0:0:0:
74,173,125755,1,0,0:0:0:0:
76,154,125829,2,0,B|120:172|152:151|152:151|167:191|207:196|237:180|244:141|201:136|201:136,1,210,6|0,0:0|0:0,0:0:0:0:
184,280,127898,5,0,0:0:0:0:
260,288,128193,1,0,0:0:0:0:
335,295,128489,1,0,0:0:0:0:
406,116,128784,5,2,0:0:0:0:
406,116,129671,1,2,0:0:0:0:
406,116,130410,1,0,0:0:0:0:
390,117,130484,1,0,0:0:0:0:
374,117,130558,2,0,B|400:155|379:197|379:197|349:205|327:225|327:225|300:199|262:198,1,210,6|0,0:0|0:0,0:0:0:0:
172,84,132553,5,0,0:0:0:0:
170,104,132627,2,0,L|166:146,1,42,0|0,0:0|0:0,0:0:0:0:
161,241,133218,1,0,0:0:0:0:
271,334,133513,5,2,0:0:0:0:
271,334,134400,1,2,0:0:0:0:
271,334,135139,1,0,0:0:0:0:
291,331,135213,1,0,0:0:0:0:
310,329,135287,2,0,B|318:278|356:263|356:263|334:228|292:212|292:212|307:188|308:165,1,210,6|0,0:0|0:0,0:0:0:0:
256,192,136912,12,0,138242,0:0:0:0:
148,285,138686,5,0,0:0:0:0:
148,285,138833,2,0,L|152:241,1,42,2|0,0:0|0:0,0:0:0:0:
141,89,139425,5,2,0:0:0:0:
141,89,139572,1,0,0:0:0:0:
86,212,139868,1,0,0:0:0:0:
86,212,140016,2,0,P|128:225|156:224,1,63,2|0,0:0|0:0,0:0:0:0:
220,196,140607,5,2,0:0:0:0:
281,294,141198,1,2,0:0:0:0:
339,195,141789,1,2,0:0:0:0:
404,290,142380,1,2,0:0:0:0:
368,84,142971,6,0,B|343:80|343:80|302:85,1,63,2|0,0:0|0:0,0:0:0:0:
281,111,143563,2,0,L|275:154,1,42,2|0,0:0|0:0,0:0:0:0:
260,324,144154,1,2,0:0:0:0:
260,324,144301,1,0,0:0:0:0:
95,227,144597,1,0,0:0:0:0:
95,227,144745,2,0,L|167:235,1,63,2|0,0:0|0:0,0:0:0:0:
237,242,145336,5,2,0:0:0:0:
202,327,145927,1,2,0:0:0:0:
113,353,146518,1,2,0:0:0:0:
24,327,147109,1,2,0:0:0:0:
117,144,147700,5,2,0:0:0:0:
163,139,147996,1,2,0:0:0:0:
209,134,148292,1,2,0:0:0:0:
255,130,148587,1,2,0:0:0:0:
327,267,148883,5,2,0:0:0:0:
267,259,149179,1,8,0:0:0:0:
207,251,149475,1,2,0:0:0:0:
148,243,149770,1,8,0:0:0:0:
426,47,150065,5,10,0:0:0:0:
442,71,150213,1,8,0:0:0:0:
454,97,150361,1,8,0:0:0:0:
457,125,150508,1,8,0:0:0:0:
365,232,150656,5,10,0:0:0:0:
349,208,150804,1,8,0:0:0:0:
337,182,150952,1,8,0:0:0:0:
334,154,151099,1,8,0:0:0:0:
192,35,151247,5,10,0:0:0:0:
236,67,151395,1,8,0:0:0:0:
290,71,151543,1,8,0:0:0:0:
340,50,151691,1,8,0:0:0:0:
244,154,151838,5,10,0:0:0:0:
194,176,151986,1,8,0:0:0:0:
163,220,152134,1,8,0:0:0:0:
157,274,152282,1,8,0:0:0:0:
387,356,152430,5,2,0:0:0:0:
394,334,152503,1,0,0:0:0:0:
398,311,152577,1,8,0:0:0:0:
397,287,152651,1,0,0:0:0:0:
390,264,152725,1,8,0:0:0:0:
383,242,152798,1,0,0:0:0:0:
379,219,152872,1,8,0:0:0:0:
380,195,152946,1,0,0:0:0:0:
415,148,153021,5,2,0:0:0:0:
401,113,153095,1,0,0:0:0:0:
369,94,153168,1,8,0:0:0:0:
332,91,153242,1,0,0:0:0:0:
301,111,153316,1,8,0:0:0:0:
284,143,153390,1,0,0:0:0:0:
286,179,153464,1,8,0:0:0:0:
268,211,153538,1,0,0:0:0:0:
232,230,153612,5,2,0:0:0:0:
283,240,153686,1,0,0:0:0:0:
304,288,153760,1,8,0:0:0:0:
299,339,153833,1,0,0:0:0:0:
259,373,153907,1,8,0:0:0:0:
206,370,153981,1,0,0:0:0:0:
169,331,154055,1,8,0:0:0:0:
170,278,154129,1,0,0:0:0:0:
232,230,154203,5,2,0:0:0:0:
242,167,154277,1,0,0:0:0:0:
211,111,154351,1,8,0:0:0:0:
148,100,154425,1,0,0:0:0:0:
93,131,154499,1,8,0:0:0:0:
74,190,154572,1,0,0:0:0:0:
102,246,154646,1,8,0:0:0:0:
159,272,154720,1,0,0:0:0:0:
232,230,154794,6,0,L|236:206,14,13.125,2|0|0|0|0|0|0|0|0|0|0|0|0|0|0,0:0|0:0|0:0|0:0|0:0|0:0|0:0|0:0|0:0|0:0|0:0|0:0|0:0|0:0|0:0,0:0:0:0:
284,323,155385,2,0,L|288:347,6,13.125,8|0|0|0|0|0|0,0:0|0:0|0:0|0:0|0:0|0:0|0:0,0:0:0:0:
310,246,155681,5,0,0:0:0:0:
310,246,155829,1,0,0:0:0:0:
396,140,155976,2,0,L|390:206,1,52.5,2|0,0:0|0:0,0:0:0:0:
391,192,156272,1,0,0:0:0:0:
243,79,156420,2,0,L|249:145,1,52.5,2|0,0:0|0:0,0:0:0:0:
248,131,156716,1,0,0:0:0:0:
128,88,156863,1,8,0:0:0:0:
329,62,157011,1,8,0:0:0:0:
167,294,157159,6,0,B|151:248|151:248|164:171,1,125.999996154785,2|0,0:0|0:0,0:0:0:0:
247,14,157454,1,0,0:0:0:0:
255,134,157602,1,0,0:0:0:0:
262,22,157750,1,8,0:0:0:0:
267,119,157898,1,0,0:0:0:0:
476,115,158045,6,0,B|429:124|429:124|395:118|395:118|325:129,1,125.999996154785,2|0,0:0|0:0,0:0:0:0:
399,337,158341,6,0,B|412:301|400:269|400:269|426:273|451:259,1,105,0|0,0:0|0:0,0:0:0:0:
303,307,158784,6,0,B|271:312|271:312|219:309,1,62.9999980773926,2|0,0:0|0:0,0:0:0:0:
118,346,158932,6,0,B|166:319|210:348|210:348|194:318|198:288|198:288|162:232|191:167|191:167|151:181|147:227,1,341.25,8|0,0:0|0:0,0:0:0:0:
272,232,159966,6,0,L|366:233,1,62.9999980773926,2|0,0:0|0:0,0:0:0:0:
467,237,160114,1,8,0:0:0:0:
364,328,160262,1,0,0:0:0:0:
146,122,160410,6,0,B|111:167|138:236|138:236|158:218|151:183,1,157.5,2|0,0:0|0:0,0:0:0:0:
79,74,161001,2,0,P|63:97|49:139,1,52.5,2|0,0:0|0:0,0:0:0:0:
200,373,161297,6,0,B|204:339|204:339|197:315|197:315|204:266,1,94.499997116089,8|0,0:0|0:0,0:0:0:0:
226,147,161888,6,0,B|323:155|323:155|299:115,1,125.999996154785,6|0,0:0|0:0,0:0:0:0:
376,315,162183,6,0,L|373:381,1,52.5,0|0,0:0|0:0,0:0:0:0:
495,238,162479,2,0,L|498:304,1,52.5,8|0,0:0|0:0,0:0:0:0:
393,53,162774,6,0,B|340:40|340:40|230:53,1,125.999996154785,2|0,0:0|0:0,0:0:0:0:
186,214,163070,6,0,P|229:225|258:215,2,70,0|0|0,0:0|0:0|0:0,0:0:0:0:
164,195,163563,1,0,0:0:0:0:
129,102,163661,6,0,B|164:149|134:200|134:200|107:247|137:311|137:311|90:333|90:333|49:312|58:265,1,341.25,8|0,0:0|0:0,0:0:0:0:
210,251,164696,6,0,B|242:246|242:246|314:260,1,62.9999980773926,2|0,0:0|0:0,0:0:0:0:
383,301,164843,1,8,0:0:0:0:
274,341,164991,1,0,0:0:0:0:
305,60,165139,6,0,B|294:165|294:165|340:118,1,157.5,6|0,0:0|0:0,0:0:0:0:
235,31,165730,2,0,L|227:91,1,52.5,2|0,0:0|0:0,0:0:0:0:
260,331,166026,6,0,P|271:289|261:253,1,62.9999980773926,8|0,0:0|0:0,0:0:0:0:
134,181,166173,6,0,B|171:197|171:197|226:189,1,78.7500030040742,2|0,0:0|0:0,0:0:0:0:
295,164,166395,1,2,0:0:0:0:
382,329,166617,6,0,B|341:316|341:316|242:333,1,125.999996154785,6|0,0:0|0:0,0:0:0:0:
423,359,166912,1,0,0:0:0:0:
440,181,167060,1,0,0:0:0:0:
426,337,167208,1,8,0:0:0:0:
439,205,167356,1,0,0:0:0:0:
156,288,167503,6,0,P|212:337|266:325,1,125.999996154785,6|0,0:0|0:0,0:0:0:0:
263,116,167799,6,0,B|254:197|254:197|284:183,1,105,0|0,0:0|0:0,0:0:0:0:
147,188,168242,6,0,L|75:190,1,62.9999980773926,2|0,0:0|0:0,0:0:0:0:
157,90,168390,6,0,B|182:148|147:188|147:188|177:236|155:288|155:288|184:286|208:303|208:303|239:266|294:276,1,341.25,12|0,0:0|0:0,0:0:0:0:
441,296,169425,6,0,L|376:310,1,62.9999980773926,2|0,0:0|0:0,0:0:0:0:
270,349,169572,1,8,0:0:0:0:
429,378,169720,1,0,0:0:0:0:
344,115,169868,6,0,B|399:93|450:122|450:122|426:124|398:141,1,157.5,2|0,0:0|0:0,0:0:0:0:
321,47,170459,2,0,P|348:38|379:35,1,52.5,2|0,0:0|0:0,0:0:0:0:
347,267,170755,6,0,B|320:228|320:228|353:184,1,94.499997116089,8|0,0:0|0:0,0:0:0:0:
235,234,171346,6,0,B|182:239|182:239|154:228|154:228|88:234,1,125.999996154785,6|0,0:0|0:0,0:0:0:0:
100,59,171641,6,0,L|95:131,1,52.5,0|0,0:0|0:0,0:0:0:0:
235,6,171937,2,0,L|240:78,1,52.5,8|0,0:0|0:0,0:0:0:0:
235,234,172233,6,0,B|222:189|237:152|237:152|208:150|187:128,1,125.999996154785,6|0,0:0|0:0,0:0:0:0:
196,333,172528,6,0,B|233:343|233:343|287:335,1,78.75,0|0,0:0|0:0,0:0:0:0:
421,136,172971,1,2,0:0:0:0:
347,326,173119,6,0,B|344:284|305:248|259:259|259:259|297:234|334:222|324:145|290:102|209:115|196:148|185:178|185:178|151:189|151:189|154:247|120:275|120:275|115:306|142:326|142:326|167:309|164:272|164:272,1,629.999980773926,12|2,0:0|0:0,0:0:0:0:
125,70,177848,5,8,0:0:0:0:
126,85,177996,1,8,0:0:0:0:
127,100,178144,1,8,0:0:0:0:
128,115,178292,1,8,0:0:0:0:
235,97,178439,5,8,0:0:0:0:
226,133,178587,1,8,0:0:0:0:
219,170,178735,1,8,0:0:0:0:
212,206,178883,1,8,0:0:0:0:
330,191,179031,5,8,0:0:0:0:
305,255,179179,1,8,0:0:0:0:
276,318,179327,1,8,0:0:0:0:
245,380,179475,1,8,0:0:0:0:
291,115,179622,5,8,0:0:0:0:
342,108,179696,1,8,0:0:0:0:
389,127,179769,1,8,0:0:0:0:
411,174,179843,1,8,0:0:0:0:
409,226,179917,1,8,0:0:0:0:
374,264,179991,1,8,0:0:0:0:
322,269,180065,1,8,0:0:0:0:
274,246,180139,1,0,0:0:0:0:
267,193,180213,6,0,L|344:190,1,62.9999980773926
156,341,180804,6,0,B|151:291|151:291|135:270|135:270|128:203,1,125.999996154785,2|0,0:0|0:0,0:0:0:0:
62,55,181099,6,0,L|54:122,1,52.5,0|0,0:0|0:0,0:0:0:0:
186,10,181395,2,0,L|194:77,1,52.5,8|0,0:0|0:0,0:0:0:0:
329,190,181691,6,0,B|281:176|281:176|159:209,1,125.999996154785,2|0,0:0|0:0,0:0:0:0:
414,337,181986,6,0,P|435:298|430:261,2,70,0|0|0,0:0|0:0|0:0,0:0:0:0:
382,355,182479,1,0,0:0:0:0:
250,276,182577,6,0,B|308:246|357:276|357:276|357:232|390:207|390:207|300:167|239:200,1,341.25,8|0,0:0|0:0,0:0:0:0:
304,349,183612,6,0,L|388:356,1,62.9999980773926,2|0,0:0|0:0,0:0:0:0:
496,364,183760,1,8,0:0:0:0:
289,363,183907,1,0,0:0:0:0:
339,71,184055,6,0,B|329:172|329:172|397:152,1,157.5,2|0,0:0|0:0,0:0:0:0:
266,36,184646,2,0,L|259:106,1,52.5,2|0,0:0|0:0,0:0:0:0:
108,241,184942,6,0,P|161:261|183:257,1,62.9999980773926,8|0,0:0|0:0,0:0:0:0:
254,169,185090,6,0,L|171:172,1,78.7500030040742,2|0,0:0|0:0,0:0:0:0:
101,137,185311,1,2,0:0:0:0:
304,349,185533,6,0,B|351:356|383:328|383:328|378:363|406:400,1,125.999996154785,6|0,0:0|0:0,0:0:0:0:
432,185,185829,1,0,0:0:0:0:
456,340,185976,1,0,0:0:0:0:
437,206,186124,1,8,0:0:0:0:
450,316,186272,1,0,0:0:0:0:
291,177,186420,6,0,B|251:172|251:172|216:179|216:179|155:172,1,125.999996154785,2|0,0:0|0:0,0:0:0:0:
108,356,186715,6,0,B|123:321|123:321|101:290|107:245,1,105
61,55,187159,6,0,L|77:142,1,62.9999980773926,2|0,0:0|0:0,0:0:0:0:
187,272,187306,6,0,B|230:289|276:269|276:269|294:297|287:339|287:339|379:251|457:349|457:349,1,341.25,8|0,0:0|0:0,0:0:0:0:
395,226,188341,6,0,B|388:196|388:196|394:143,1,62.9999980773926,2|0,0:0|0:0,0:0:0:0:
406,73,188489,1,8,0:0:0:0:
417,239,188636,1,0,0:0:0:0:
106,175,188784,6,0,B|157:214|213:187|213:187|192:185|162:168,1,157.5,6|0,0:0|0:0,0:0:0:0:
135,269,189375,2,0,P|164:274|203:265,1,52.5,2|0,0:0|0:0,0:0:0:0:
122,82,189671,6,0,B|119:113|119:113|110:131|110:131|105:184,1,94.499997116089,8|0,0:0|0:0,0:0:0:0:
230,58,190262,6,0,B|323:53|323:53|301:87,1,125.999996154785,6|0,0:0|0:0,0:0:0:0:
105,174,191149,6,0,B|12:169|12:169|34:203,1,125.999996154785,6|0,0:0|0:0,0:0:0:0:
288,329,192035,6,0,B|328:269|281:211|281:211|322:196|339:160|339:160|359:195|401:207|401:207|389:220|374:248|374:248|382:295|357:350|357:350|404:342|434:357|434:357|463:315|456:251,1,629.999980773926,12|2,0:0|0:0,0:0:0:0:
456,252,195878,5,2,0:0:0:0:
456,252,196617,1,0,0:0:0:0:
454,236,196691,1,0,0:0:0:0:
452,220,196765,2,0,B|416:208|373:234|373:234|378:202|375:170|321:144|271:179|274:219|292:250|292:250|257:242|230:255,1,336,6|0,0:0|0:0,0:0:0:0:
98,105,199720,5,2,0:0:0:0:
98,105,200607,1,2,0:0:0:0:
98,105,201346,1,0,0:0:0:0:
99,127,201420,1,0,0:0:0:0:
100,148,201494,2,0,B|148:155|179:127|179:127|242:183|207:259|207:259|256:206|316:221|327:275|286:308|246:281,1,420,6|4,0:0|0:0,0:0:0:0:
384,238,205237,6,0,P|387:260|388:286,1,41.9999987182618,0|0,0:0|0:0,0:0:0:0:
370,119,205632,6,0,B|470:119|470:119|450:142,1,125.999996154785,2|0,0:0|0:0,0:0:0:0:
320,183,206420,2,0,L|267:182,1,41.9999987182618,0|0,0:0|0:0,0:0:0:0:
115,81,206814,6,0,B|133:114|119:150|119:150|150:138|172:147,1,125.999996154785,2|0,0:0|0:0,0:0:0:0:
164,263,207602,2,0,P|156:234|154:210,1,41.9999987182618,0|0,0:0|0:0,0:0:0:0:
227,85,207996,5,2,0:0:0:0:
49,117,208439,1,0,0:0:0:0:
267,352,209178,6,0,B|274:321|274:321|270:284,1,62.9999980773926,2|0,0:0|0:0,0:0:0:0:
213,169,209671,1,0,0:0:0:0:
201,146,209769,2,0,L|207:111,2,20.9999993591309
112,175,210065,2,0,L|106:140,2,20.9999993591309
152,58,210361,2,0,L|158:23,2,20.9999993591309
256,192,210656,12,0,213612,0:0:0:0:
162,92,213907,22,0,B|143:141|143:141|169:222,1,125.999996154785,2|0,0:0|0:0,0:0:0:0:
214,296,214696,2,0,P|183:293|162:295,1,41.9999987182618,0|0,0:0|0:0,0:0:0:0:
307,321,215090,6,0,B|339:277|311:230|311:230|293:262,1,125.999996154785,2|0,0:0|0:0,0:0:0:0:
392,221,215878,2,0,L|447:224,1,41.9999987182618,0|0,0:0|0:0,0:0:0:0:
316,127,216272,6,0,B|223:122|223:122|245:148,1,125.999996154785,2|0,0:0|0:0,0:0:0:0:
233,43,217060,2,0,L|181:41,1,41.9999987182618,0|0,0:0|0:0,0:0:0:0:
27,31,217454,5,2,0:0:0:0:
243,146,217898,1,0,0:0:0:0:
202,351,218636,6,0,B|194:318|194:318|205:280,1,62.9999980773926,2|0,0:0|0:0,0:0:0:0:
235,173,219129,1,0,0:0:0:0:
243,146,219227,2,0,L|251:118,2,20.9999993591309,0|0|0,0:0|0:0|0:0,0:0:0:0:
286,280,219523,2,0,L|291:300,2,20.9999993591309,0|0|0,0:0|0:0|0:0,0:0:0:0:
350,136,219819,2,0,L|358:108,2,20.9999993591309,2|0|0,0:0|0:0|0:0,0:0:0:0:
347,186,221001,6,0,L|385:190,1,31.4999990386963,4|0,0:0|0:0,0:0:0:0:
256,192,221296,12,0,222478,0:0:0:0:
285,213,222774,38,0,B|344:251|390:212|390:212|370:192|344:200,1,157.500006008148
243,292,222996,1,0,0:0:0:0:
269,314,223070,6,0,L|343:302,1,52.5
472,326,223218,2,0,L|398:338,1,52.5
212,378,223366,6,0,B|203:331|203:331|217:287|217:287|208:213,1,168,2|0,0:0|0:0,0:0:0:0:
35,162,223809,2,0,P|80:178|131:174,1,84,2|0,0:0|0:0,0:0:0:0:
348,113,224104,2,0,P|303:129|252:125,1,84,2|0,0:0|0:0,0:0:0:0:
47,83,224400,2,0,P|92:99|143:95,1,84,2|0,0:0|0:0,0:0:0:0:
330,36,225287,6,0,P|272:53|251:48,1,78.7499975967408,2|0,0:0|0:0,0:0:0:0:
429,43,225730,6,0,B|452:100|452:100|419:208,1,168,2|0,0:0|0:0,0:0:0:0:
263,237,226173,2,0,P|311:212|361:216,1,84,2|0,0:0|0:0,0:0:0:0:
389,354,226395,2,0,P|343:324|321:279,1,84,2|0,0:0|0:0,0:0:0:0:
241,157,226617,2,0,B|238:196|238:196|227:222|227:222|246:248|246:248|235:279|235:279|235:331,1,168,2|0,0:0|0:0,0:0:0:0:
235,314,227503,6,0,L|165:317,1,52.5,0|0,0:0|0:0,0:0:0:0:
108,180,227651,2,0,L|38:177,1,52.5,0|0,0:0|0:0,0:0:0:0:
228,221,227799,6,0,L|286:219,1,47.2499985580445,0|0,0:0|0:0,0:0:0:0:
403,181,228095,6,0,B|341:203|287:173|287:173|322:173|365:141,1,168,2|0,0:0|0:0,0:0:0:0:
408,262,228538,2,0,B|416:306|416:306|395:361,1,84,2|0,0:0|0:0,0:0:0:0:
492,180,228833,2,0,B|484:224|484:224|501:280,1,84,2|0,0:0|0:0,0:0:0:0:
403,99,229129,2,0,B|411:143|411:143|399:201,1,84,2|0,0:0|0:0,0:0:0:0:
197,51,230016,6,0,B|188:91|188:91|201:141,1,78.7499975967408,2|0,0:0|0:0,0:0:0:0:
283,252,230459,6,0,B|269:195|269:195|276:150|276:150|263:84,1,168,2|0,0:0|0:0,0:0:0:0:
127,174,230902,2,0,P|157:205|207:211,1,84,2|0,0:0|0:0,0:0:0:0:
103,260,231124,2,0,P|61:270|30:310,1,84,2|0,0:0|0:0,0:0:0:0:
52,197,231346,2,0,P|112:162|116:60,1,168,2|0,0:0|0:0,0:0:0:0:
199,317,232085,6,0,B|227:321|227:321|270:315,1,52.5,2|0,0:0|0:0,0:0:0:0:
335,293,232233,1,0,0:0:0:0:
117,341,232380,1,0,0:0:0:0:
225,125,232528,2,0,B|223:242|223:242|188:204,1,157.5,0|0,0:0|0:0,0:0:0:0:
307,167,232824,6,0,L|369:162,1,52.5,2|0,0:0|0:0,0:0:0:0:
389,243,233119,2,0,P|376:202|391:149,1,84,2|0,0:0|0:0,0:0:0:0:
195,212,233415,6,0,L|133:207,1,52.5,2|0,0:0|0:0,0:0:0:0:
113,288,233710,2,0,P|126:247|111:194,1,84,2|0,0:0|0:0,0:0:0:0:
317,338,234006,6,0,P|356:345|376:339,1,52.5,2|0,0:0|0:0,0:0:0:0:
389,243,234301,2,0,L|390:350,1,84,2|0,0:0|0:0,0:0:0:0:
263,116,234597,6,0,P|224:109|204:115,1,52.5,2|0,0:0|0:0,0:0:0:0:
195,212,234893,2,0,L|194:111,1,84,2|0,0:0|0:0,0:0:0:0:
60,283,235188,6,0,B|133:289,1,52.5,2|0,0:0|0:0,0:0:0:0:
6,144,235484,2,0,B|-5:182|-5:182|16:264,1,84,10|0,0:0|0:0,0:0:0:0:
173,35,235779,6,0,B|100:29,1,52.5,2|0,0:0|0:0,0:0:0:0:
238,155,236075,2,0,B|249:117|249:117|228:35,1,84,10|0,0:0|0:0,0:0:0:0:
209,343,236370,6,0,P|243:348|269:343,1,52.5,2|0,0:0|0:0,0:0:0:0:
309,201,236666,2,0,P|301:250|328:295,1,84,10|0,0:0|0:0,0:0:0:0:
489,246,236962,6,0,P|455:251|429:246,1,52.5,2|0,0:0|0:0,0:0:0:0:
411,96,237258,2,0,P|419:145|392:190,1,84,10|0,0:0|0:0,0:0:0:0:
193,46,237553,6,0,B|228:49|228:49|250:42|250:42|288:46,1,94.499997116089,8|0,0:0|0:0,0:0:0:0:
276,140,237774,2,0,B|240:136|240:136|219:127|219:127|182:123,1,94.499997116089,8|0,0:0|0:0,0:0:0:0:
143,195,237996,2,0,L|203:204,1,47.2499985580445,8|0,0:0|0:0,0:0:0:0:
350,288,238144,6,0,B|362:245|362:245|341:171,1,105,8|0,0:0|0:0,0:0:0:0:
278,328,238366,2,0,B|309:359|309:359|383:378,1,105,8|0,0:0|0:0,0:0:0:0:
280,248,238587,2,0,P|251:251|230:261,1,52.5,8|0,0:0|0:0,0:0:0:0:
69,363,238735,6,0,B|71:318|71:318|80:296|80:296|80:243,1,115.50000352478,8|0,0:0|0:0,0:0:0:0:
154,81,238957,2,0,B|154:127|154:127|145:149|145:149|143:194,1,115.50000352478,8|0,0:0|0:0,0:0:0:0:
158,339,239178,2,0,L|160:269,1,57.7500017623902,8|0,0:0|0:0,0:0:0:0:
271,86,239326,5,8,0:0:0:0:
283,54,239400,2,0,P|356:55|361:59,1,62.9999980773926,8|8,0:0|0:0,0:0:0:0:
425,156,239548,1,0,0:0:0:0:
467,144,239622,1,0,0:0:0:0:
491,107,239696,1,0,0:0:0:0:
492,63,239769,1,0,0:0:0:0:
382,254,239917,6,0,B|338:258|338:258|285:245,1,94.499997116089,12|0,0:0|0:0,0:0:0:0:
232,176,240213,1,0,0:0:0:0:
230,340,240361,1,0,0:0:0:0:
231,347,240434,1,0,0:0:0:0:
233,354,240508,1,0,0:0:0:0:
106,194,240656,1,0,0:0:0:0:
50,285,240804,5,0,0:0:0:0:
47,300,240878,1,0,0:0:0:0:
44,315,240952,1,0,0:0:0:0:
42,330,241026,1,0,0:0:0:0:
40,345,241099,1,0,0:0:0:0:
72,115,241247,1,0,0:0:0:0:
140,280,241395,6,0,L|138:313,1,31.5,0|0,0:0|0:0,0:0:0:0:
131,384,241691,5,0,0:0:0:0:
155,121,241838,1,0,0:0:0:0:
443,238,241986,1,0,0:0:0:0:
423,213,242060,1,0,0:0:0:0:
402,188,242134,1,0,0:0:0:0:
384,161,242208,1,0,0:0:0:0:
365,136,242282,6,0,B|302:130|302:130|268:148|268:148|238:128|238:128|148:120,1,220.499993270874,2|0,0:0|0:0,0:0:0:0:
72,115,242577,1,2,0:0:0:0:
239,364,242725,2,0,B|256:313|256:313|226:190,1,146.999995513916,0|2,0:0|0:0,0:0:0:0:
12,245,242947,2,0,B|47:285|47:285|169:320,1,146.999995513916,0|0,0:0|0:0,0:0:0:0:
144,212,243168,2,0,L|41:183,1,73.4999977569581,2|0,0:0|0:0,0:0:0:0:
143,30,243316,2,0,L|214:48,1,73.4999977569581,0|0,0:0|0:0,0:0:0:0:
390,212,243464,6,0,P|441:163|406:66,1,146.999995513916,2|0,0:0|0:0,0:0:0:0:
369,38,243686,1,0,0:0:0:0:
369,38,243760,1,2,0:0:0:0:
458,282,243907,1,0,0:0:0:0:
329,155,244055,2,0,P|308:201|320:254,1,73.4999977569581,2|0,0:0|0:0,0:0:0:0:
478,350,244203,2,0,P|475:313|457:281,1,73.4999977569581,0|0,0:0|0:0,0:0:0:0:
390,212,244351,1,2,0:0:0:0:
278,367,244499,1,0,0:0:0:0:
230,93,244646,6,0,B|267:158|227:223|227:223|273:203|318:227,1,220.499993270874,2|0,0:0|0:0,0:0:0:0:
377,300,244942,1,2,0:0:0:0:
160,157,245090,2,0,B|104:140|55:162|55:162|83:181|121:192,1,146.999995513916,0|2,0:0|0:0,0:0:0:0:
293,295,245311,2,0,B|335:255|341:201|341:201|310:216|282:243,1,146.999995513916
87,370,245533,2,0,P|135:379|185:368,1,73.4999977569581,2|0,0:0|0:0,0:0:0:0:
232,163,245681,2,0,P|184:154|134:165,1,73.4999977569581,0|0,0:0|0:0,0:0:0:0:
33,282,245829,6,0,B|127:302|127:302|191:287,1,146.999995513916,2|0,0:0|0:0,0:0:0:0:
237,238,246050,1,0,0:0:0:0:
237,238,246124,1,2,0:0:0:0:
87,370,246272,1,0,0:0:0:0:
17,169,246420,2,0,L|100:182,1,73.4999977569581,2|0,0:0|0:0,0:0:0:0:
237,238,246567,2,0,L|320:225,1,73.4999977569581,0|0,0:0|0:0,0:0:0:0:
491,61,246715,5,2,0:0:0:0:
443,41,246789,1,0,0:0:0:0:
391,43,246863,1,0,0:0:0:0:
352,76,246937,1,0,0:0:0:0:
336,125,247011,6,0,B|380:195|329:279|329:279|307:247|307:202,1,220.499993270874,2|0,0:0|0:0,0:0:0:0:
239,132,247306,1,2,0:0:0:0:
304,358,247454,2,0,B|410:375|410:375|360:323,1,146.999995513916,0|2,0:0|0:0,0:0:0:0:
213,311,247676,2,0,B|107:328|107:328|157:276,1,146.999995513916,0|0,0:0|0:0,0:0:0:0:
229,203,247898,2,0,P|241:144|226:102,1,73.4999977569581,2|0,0:0|0:0,0:0:0:0:
46,68,248045,2,0,P|44:104|55:139,1,73.4999977569581
134,299,248193,6,0,B|139:268|139:268|133:242|133:242|153:216|153:216|147:194|147:194|155:143,1,146.999995513916,2|0,0:0|0:0,0:0:0:0:
162,76,248415,1,0,0:0:0:0:
162,76,248489,1,2,0:0:0:0:
281,275,248636,1,0,0:0:0:0:
407,133,248784,2,0,P|360:121|318:132,1,73.4999977569581,2|0,0:0|0:0,0:0:0:0:
368,318,248932,2,0,P|404:321|439:311,1,73.4999977569581
481,204,249080,1,2,0:0:0:0:
291,369,249228,1,0,0:0:0:0:
256,92,249375,6,0,B|404:100|404:100|325:128,1,220.499993270874,2|0,0:0|0:0,0:0:0:0:
236,167,249671,1,2,0:0:0:0:
440,311,249819,2,0,B|465:262|465:262|448:152,1,146.999995513916,0|2,0:0|0:0,0:0:0:0:
335,124,250040,2,0,B|310:173|310:173|327:283,1,146.999995513916,0|0,0:0|0:0,0:0:0:0:
483,102,250262,2,0,P|435:96|407:106,1,73.4999977569581,2|0,0:0|0:0,0:0:0:0:
268,237,250410,2,0,P|220:243|192:233,1,73.4999977569581,0|0,0:0|0:0,0:0:0:0:
40,64,250558,6,0,B|72:51|92:56|92:56|127:41|127:41|156:47|205:31,1,146.999995513916,2|0,0:0|0:0,0:0:0:0:
270,13,250779,1,0,0:0:0:0:
270,13,250853,1,2,0:0:0:0:
125,197,251001,2,0,P|117:261|186:317,1,146.999995513916,0|2,0:0|0:0,0:0:0:0:
236,167,251223,1,0,0:0:0:0:
208,131,251297,2,0,L|112:117,1,73.4999977569581,0|0,0:0|0:0,0:0:0:0:
293,343,251444,5,2,0:0:0:0:
353,319,251517,1,0,0:0:0:0:
389,265,251591,1,0,0:0:0:0:
386,200,251665,1,0,0:0:0:0:
341,155,251740,6,0,B|287:143|237:168|237:168|232:105|272:39,1,220.499993270874,2|0,0:0|0:0,0:0:0:0:
344,18,252035,1,2,0:0:0:0:
389,265,252183,2,0,B|341:282|301:252|301:252|270:296|191:276,1,146.999995513916,0|2,0:0|0:0,0:0:0:0:
103,182,252405,2,0,B|151:165|191:195|191:195|222:151|301:171,1,146.999995513916,0|0,0:0|0:0,0:0:0:0:
293,343,252627,2,0,P|246:353|206:331,1,73.4999977569581,2|0,0:0|0:0,0:0:0:0:
79,271,252774,2,0,P|32:260|-5:276,1,73.4999977569581,0|0,0:0|0:0,0:0:0:0:
131,72,252922,6,0,B|192:57|192:57|292:76,1,146.999995513916,2|0,0:0|0:0,0:0:0:0:
362,91,253144,1,0,0:0:0:0:
362,91,253218,1,2,0:0:0:0:
293,343,253366,1,0,0:0:0:0:
508,226,253513,1,2,0:0:0:0:
270,175,253661,6,0,L|215:168,1,36.749998878479,0|0,0:0|0:0,0:0:0:0:
113,242,253809,2,0,L|168:235,1,36.749998878479,2|0,0:0|0:0,0:0:0:0:
223,318,253957,2,0,L|168:311,1,36.749998878479
357,384,254104,6,0,B|378:351|362:311|362:311|390:269|390:269|362:211|401:156,1,220.499993270874,2|0,0:0|0:0,0:0:0:0:
437,114,254400,1,2,0:0:0:0:
233,170,254548,2,0,B|117:164|117:164|152:146,1,146.999995513916,0|2,0:0|0:0,0:0:0:0:
294,265,254769,2,0,B|410:259|410:259|375:241,1,146.999995513916,0|0,0:0|0:0,0:0:0:0:
183,316,254991,2,0,P|191:369|220:396,1,73.4999977569581,2|0,0:0|0:0,0:0:0:0:
312,185,255139,2,0,P|304:132|275:105,1,73.4999977569581,0|0,0:0|0:0,0:0:0:0:
38,247,255287,6,0,B|97:250|97:250|127:239|127:239|212:244,1,146.999995513916,2|0,0:0|0:0,0:0:0:0:
264,248,255508,1,0,0:0:0:0:
264,248,255582,1,2,0:0:0:0:
194,86,255730,1,0,0:0:0:0:
107,382,255878,6,0,B|98:338|98:338|116:234,1,141.749995674133,2|0,0:0|0:0,0:0:0:0:
109,158,256173,6,0,L|100:228,1,52.5,2|0,0:0|0:0,0:0:0:0:
256,192,256469,12,0,258538,0:0:0:0:
166,124,258833,6,0,L|250:141,1,84,0|0,0:0|0:0,0:0:0:0:
326,262,259055,2,0,L|242:279,1,84,0|0,0:0|0:0,0:0:0:0:
86,148,259277,6,0,B|81:120|81:120|90:84,1,57.7500017623902,0|0,0:0|0:0,0:0:0:0:
279,60,259425,5,0,0:0:0:0:
325,64,259499,1,0,0:0:0:0:
360,93,259572,1,0,0:0:0:0:
373,137,259646,1,0,0:0:0:0:
338,195,259720,5,0,0:0:0:0:
271,208,259794,1,0,0:0:0:0:
204,222,259868,1,0,0:0:0:0:
137,236,259942,1,0,0:0:0:0:
67,253,260016,6,0,B|147:258|147:258|170:245|170:245|289:249,1,157.500006008148,2|0,0:0|0:0,0:0:0:0:
298,369,260237,6,0,P|294:323|299:298,1,52.5,8|0,0:0|0:0,0:0:0:0:
476,210,260459,6,0,P|399:204|387:103,1,157.500006008148,2|0,0:0|0:0,0:0:0:0:
495,18,260681,6,0,P|504:73|502:93,1,52.5,8|0,0:0|0:0,0:0:0:0:
293,50,260902,6,0,B|256:39|256:39|188:61,1,78.7500030040742,8|0,0:0|0:0,0:0:0:0:
211,318,261050,6,0,B|253:332|253:332|329:306,1,89.2500017023087,2|0,0:0|0:0,0:0:0:0:
247,188,261198,6,0,B|203:188|203:188|173:205|173:205|136:171|136:171|100:190|100:190|5:189,1,220.499993270874,6|0,0:0|0:0,0:0:0:0:
1,121,261494,1,2,0:0:0:0:
133,384,261641,2,0,P|194:332|181:250,1,146.999995513916,0|2,0:0|0:0,0:0:0:0:
48,189,261863,2,0,P|62:267|136:303,1,146.999995513916
285,118,262085,2,0,B|250:108|250:108|208:120,1,73.4999977569581,2|0,0:0|0:0,0:0:0:0:
295,317,262233,2,0,B|330:327|330:327|372:315,1,73.4999977569581,0|0,0:0|0:0,0:0:0:0:
449,124,262380,6,0,B|431:180|431:180|454:269,1,146.999995513916,2|0,0:0|0:0,0:0:0:0:
482,343,262602,1,0,0:0:0:0:
482,343,262676,1,2,0:0:0:0:
370,81,262824,1,0,0:0:0:0:
295,317,262971,2,0,P|258:295|228:240,1,73.4999977569581,2|0,0:0|0:0,0:0:0:0:
297,47,263119,2,0,P|296:89|264:142,1,73.4999977569581,0|0,0:0|0:0,0:0:0:0:
135,231,263267,1,2,0:0:0:0:
403,193,263415,1,0,0:0:0:0:
98,131,263563,6,0,B|65:205|105:284|105:284|131:262|138:209,1,220.499993270874,2|0,0:0|0:0,0:0:0:0:
192,141,263858,1,2,0:0:0:0:
187,356,264006,2,0,B|101:370|101:370|19:340,1,146.999995513916,0|2,0:0|0:0,0:0:0:0:
239,270,264228,2,0,B|325:284|325:284|407:254,1,146.999995513916,0|0,0:0|0:0,0:0:0:0:
370,49,264449,2,0,L|358:121,1,73.4999977569581,2|0,0:0|0:0,0:0:0:0:
484,326,264597,2,0,L|472:254,1,73.4999977569581,0|0,0:0|0:0,0:0:0:0:
289,77,264745,6,0,B|239:55|199:77|199:77|192:45|153:27,1,146.999995513916,2|0,0:0|0:0,0:0:0:0:
90,31,264966,1,0,0:0:0:0:
90,31,265040,1,2,0:0:0:0:
241,193,265188,1,0,0:0:0:0:
441,55,265336,2,0,P|380:46|342:61,1,73.4999977569581,2|0,0:0|0:0,0:0:0:0:
267,268,265484,2,0,P|230:271|195:261,1,73.4999977569581
0,156,265632,5,2,0:0:0:0:
35,131,265705,1,0,0:0:0:0:
78,126,265779,1,0,0:0:0:0:
121,132,265853,1,0,0:0:0:0:
152,163,265927,6,0,B|139:324|139:324|80:281,1,220.499993270874,2|0,0:0|0:0,0:0:0:0:
23,234,266223,1,2,0:0:0:0:
267,268,266370,2,0,B|333:270|333:270|362:255|362:255|457:259,1,146.999995513916,0|2,0:0|0:0,0:0:0:0:
361,78,266592,2,0,P|295:140|334:217,1,146.999995513916,0|0,0:0|0:0,0:0:0:0:
464,310,266814,2,0,P|486:252|473:209,1,73.4999977569581,2|0,0:0|0:0,0:0:0:0:
267,268,266962,2,0,P|269:304|288:335,1,73.4999977569581,0|0,0:0|0:0,0:0:0:0:
410,257,267109,6,0,B|414:205|414:205|433:174|433:174|438:105,1,146.999995513916,2|0,0:0|0:0,0:0:0:0:
446,37,267331,1,0,0:0:0:0:
446,37,267405,1,2,0:0:0:0:
404,286,267553,1,0,0:0:0:0:
291,83,267700,2,0,B|256:75|256:75|209:82,1,73.4999977569581,2|0,0:0|0:0,0:0:0:0:
194,265,267848,2,0,B|229:273|229:273|276:266,1,73.4999977569581,0|0,0:0|0:0,0:0:0:0:
392,175,267996,1,2,0:0:0:0:
192,342,268144,1,0,0:0:0:0:
119,144,268292,6,0,B|179:206|135:287|135:287|167:255|218:268,1,220.499993270874,2|0,0:0|0:0,0:0:0:0:
286,282,268587,1,2,0:0:0:0:
218,80,268735,2,0,B|164:75|164:75|141:60|141:60|41:54,1,146.999995513916,0|2,0:0|0:0,0:0:0:0:
51,240,268957,2,0,B|105:245|105:245|128:260|128:260|228:266,1,146.999995513916
325,158,269178,2,0,P|273:148|244:158,1,73.4999977569581,2|0,0:0|0:0,0:0:0:0:
243,350,269326,2,0,P|284:363|332:350,1,73.4999977569581
464,127,269474,6,0,B|492:177|492:177|457:317,1,146.999995513916,2|0,0:0|0:0,0:0:0:0:
445,340,269696,1,2,0:0:0:0:
445,340,269769,1,0,0:0:0:0:
254,153,269917,2,0,B|301:110|357:151|357:151|311:153|288:189,1,146.999995513916,2|0,0:0|0:0,0:0:0:0:
119,63,270139,2,0,B|72:20|16:61|16:61|62:63|85:99,1,146.999995513916,2|0,0:0|0:0,0:0:0:0:
161,245,270361,5,2,0:0:0:0:
171,202,270434,1,0,0:0:0:0:
180,158,270508,1,2,0:0:0:0:
189,114,270582,1,0,0:0:0:0:
199,71,270656,5,2,0:0:0:0:
159,266,270804,1,0,0:0:0:0:
324,157,270952,6,0,L|391:151,1,52.5
398,66,271247,2,0,L|450:70,1,52.5
463,222,271543,1,0,0:0:0:0:
482,75,271691,1,0,0:0:0:0:
304,142,271838,2,0,L|237:136,1,52.5
220,270,272134,2,0,L|153:276,1,52.5
123,140,272429,2,0,L|70:144,1,52.5
221,344,272725,5,2,0:0:0:0:
262,335,272799,1,2,0:0:0:0:
290,304,272873,1,2,0:0:0:0:
294,262,272947,1,2,0:0:0:0:
279,222,273021,6,0,P|232:198|219:198,1,52.5
108,308,273316,2,0,P|152:279|158:268,1,52.5
125,116,273612,2,0,P|127:168|134:179,1,52.5
290,304,273907,1,0,0:0:0:0:
202,383,274055,1,0,0:0:0:0:
233,198,274203,6,0,L|246:128,1,52.5
428,245,274499,2,0,L|415:175,1,52.5
280,355,274794,2,0,L|293:285,1,52.5
366,89,275090,5,8,0:0:0:0:
311,85,275164,1,8,0:0:0:0:
257,81,275237,1,8,0:0:0:0:
202,77,275311,1,8,0:0:0:0:
149,72,275385,6,0,B|126:138|148:184|148:184|176:166|170:118,1,173.250005287171,2|2,0:0|0:0,0:0:0:0:
52,105,275681,2,0,P|50:152|59:184,1,57.7500017623902,8|0,0:0|0:0,0:0:0:0:
192,345,275829,2,0,P|194:298|185:266,1,57.7500017623902,2|0,0:0|0:0,0:0:0:0:
257,81,275976,1,0,0:0:0:0:
240,108,276050,2,0,P|236:136|240:165,1,57.7500017623902,2|0,0:0|0:0,0:0:0:0:
353,137,276198,1,0,0:0:0:0:
341,165,276272,2,0,B|392:196|443:162|443:162|432:193|453:250,1,173.250005287171,8|0,0:0|0:0,0:0:0:0:
512,308,276567,6,0,P|452:269|393:383,1,188.999994232178,2|0,0:0|0:0,0:0:0:0:
447,384,276863,1,8,0:0:0:0:
255,257,277011,2,0,B|182:242|182:242|101:260,1,125.999996154785
50,364,277233,1,0,0:0:0:0:
21,327,277306,2,0,L|28:251,1,62.9999980773926
126,191,277454,2,0,L|131:253,1,62.9999980773926
260,319,277602,2,0,L|253:243,1,62.9999980773926
22,79,277750,6,0,B|72:83|72:83|104:71|104:71|130:92|130:92|167:79|167:79|256:85,1,204.749990627289,6|0,0:0|0:0,0:0:0:0:
311,85,278045,1,8,0:0:0:0:
370,335,278193,1,2,0:0:0:0:
442,103,278341,1,0,0:0:0:0:
419,121,278415,2,0,L|426:211,1,68.2499968757631,0|2,0:0|0:0,0:0:0:0:
450,358,278563,1,0,0:0:0:0:
484,325,278636,2,0,B|425:288|425:288|282:320,1,204.749990627289,8|0,0:0|0:0,0:0:0:0:
219,371,278932,6,0,P|259:297|206:226,1,146.999995513916,8|0,0:0|0:0,0:0:0:0:
62,225,279154,2,0,P|106:296|194:286,1,146.999995513916,2|0,0:0|0:0,0:0:0:0:
192,157,279375,2,0,P|150:200|146:227,1,73.4999977569581,2|0,0:0|0:0,0:0:0:0:
424,189,279523,6,0,B|433:126|433:126|450:106|450:106|466:-24,1,157.500006008148,2|0,0:0|0:0,0:0:0:0:
330,195,279745,2,0,B|338:262|338:262|355:282|355:282|364:345,1,157.500006008148,2|0,0:0|0:0,0:0:0:0:
359,77,279966,2,0,B|320:69|320:69|275:80,1,78.7500030040742,2|0,0:0|0:0,0:0:0:0:
163,301,280114,5,12,0:0:0:0:
256,192,280262,12,0,284548,0:0:0:0:
415,162,284843,6,0,B|359:181|295:158|295:158|298:193|321:235|321:235|259:197|196:211|196:211|225:160|181:114|155:119|155:119|140:163|116:180|116:180|111:246|149:277,1,630,6|0,0:0|0:0,0:0:0:0:
274,368,289425,5,0,0:0:0:0:
291,365,289499,1,0,0:0:0:0:
306,360,289572,2,0,B|375:292|462:338|462:338|485:292|481:260|481:260|438:247|401:245|401:245|397:202|415:162|415:162|367:168|333:154|333:154|374:92|335:27,1,630,6|0,0:0|0:0,0:0:0:0:
265,186,294301,6,0,B|193:235|108:171|108:171|108:209|83:239|83:239|109:264|159:278|159:278|137:317|145:364|145:364|98:352|98:352|63:301|3:297|3:297|18:325|11:349,1,630,6|0,0:0|0:0,0:0:0:0:
256,192,299031,12,0,303760,0:0:0:0:
256,192,303907,12,0,309671,0:0:0:0:
