osu file format v14

[General]
AudioFilename: audio.mp3
AudioLeadIn: 0
PreviewTime: 241691
Countdown: 0
SampleSet: Normal
StackLeniency: 0
Mode: 1
LetterboxInBreaks: 0
WidescreenStoryboard: 0

[Editor]
DistanceSpacing: 1
BeatDivisor: 4
GridSize: 32
TimelineZoom: 3

[Metadata]
Title:Enantiomorphs
TitleUnicode:Enantiomorphs
Artist:Camellia
ArtistUnicode:かめりあ
Creator:Fallmorph
Version:Distortion
Source:
Tags:Cametek Kamelcamellia Meganto Meteor Exit Tunes
BeatmapID:1510282
BeatmapSetID:714685

[Difficulty]
HPDrainRate:5
CircleSize:0
OverallDifficulty:7
ApproachRate:0
SliderMultiplier:1.4
SliderTickRate:1

[Events]
//Background and Video events
0,0,"bg.jpg",0,12
//Break Periods
//Storyboard Layer 0 (Background)
//Storyboard Layer 1 (Fail)
//Storyboard Layer 2 (Pass)
//Storyboard Layer 3 (Foreground)
//Storyboard Sound Samples

[TimingPoints]
1100,295.566502463054,4,1,0,25,1,0
1100,-134,4,1,0,25,0,0
5829,-134,4,1,0,75,0,0
12035,-134,4,1,0,50,0,0
15287,-134,4,1,0,75,0,0
24154,-112,4,1,0,100,0,0
24745,-100,4,1,0,100,0,0
25927,-112,4,1,0,100,0,0
26666,-100,4,1,0,100,0,0
28292,-112,4,1,0,100,0,0
29474,-100,4,1,0,100,0,0
30656,-112,4,1,0,100,0,0
31395,-100,4,1,0,100,0,0
33021,-112,4,1,0,100,0,0
34203,-100,4,1,0,100,0,0
34499,-112,4,1,0,90,0,0
38932,-100,4,1,0,100,0,0
41592,-112,4,1,0,90,0,0
43661,-100,4,1,0,100,0,0
43957,-112,4,1,0,100,0,0
44252,-100,4,1,0,100,0,0
48686,-112,4,1,0,100,0,0
48981,-100,4,1,0,100,0,0
52577,-101,4,1,0,100,0,0
52627,-102,4,1,0,100,0,0
52676,-103,4,1,0,100,0,0
52824,-106,4,1,0,100,0,0
52971,-109,4,1,0,100,0,0
53119,-112,4,1,0,90,0,0
54006,-100,4,1,0,100,0,0
57848,-97,4,1,0,100,0,0
59031,-94,4,1,0,100,0,0
60065,-91,4,1,0,100,0,0
61395,-88,4,1,0,100,0,0
63168,-100,4,1,0,100,0,0
64351,-112,4,1,0,100,0,0
64942,-100,4,1,0,100,0,0
67011,-106,4,1,0,100,0,0
67306,-100,4,1,0,100,0,0
71075,-112,4,1,0,100,0,0
72035,-100,4,1,0,100,0,0
72479,-112,4,1,0,90,0,0
73218,-100,4,1,0,100,0,0
73809,-112,4,1,0,100,0,0
74400,-100,4,1,0,100,0,0
74622,-112,4,1,0,100,0,0
74991,-100,4,1,0,100,0,0
76469,-106,4,1,0,100,0,0
76765,-100,4,1,0,100,0,0
80533,-112,4,1,0,90,0,0
81494,-100,4,1,0,100,0,0
82233,-112,4,1,0,100,0,0
82528,-100,4,1,0,100,0,0
82676,-112,4,1,0,100,0,0
82971,-100,4,1,0,100,0,0
83119,-112,4,1,0,100,0,0
83415,-100,4,1,0,100,0,0
83563,-112,4,1,0,100,0,0
84449,-100,4,1,0,100,0,0
84597,-112,4,1,0,100,0,0
84893,-100,4,1,0,100,0,0
85040,-112,4,1,0,100,0,0
85336,-100,4,1,0,100,0,0
85484,-112,4,1,0,100,0,0
85779,-100,4,1,0,100,0,0
85927,-112,4,1,0,100,0,0
86223,-100,4,1,0,100,0,0
86962,-112,4,1,0,100,0,0
87257,-100,4,1,0,100,0,0
87405,-112,4,1,0,100,0,0
87700,-100,4,1,0,100,0,0
87848,-112,4,1,0,100,0,0
88144,-100,4,1,0,100,0,0
88292,-112,4,1,0,100,0,0
89178,-100,4,1,0,100,0,0
89326,-112,4,1,0,100,0,0
89622,-100,4,1,0,100,0,0
89769,-112,4,1,0,100,0,0
90065,-100,4,1,0,100,0,0
90213,-112,4,1,0,100,0,0
90508,-100,4,1,0,100,0,0
90656,-112,4,1,0,100,0,0
90952,-100,4,1,0,100,0,0
91543,-100,4,1,0,100,0,0
91691,-112,4,1,0,100,0,0
91986,-100,4,1,0,100,0,0
92134,-112,4,1,0,100,0,0
92430,-100,4,1,0,100,0,0
92577,-112,4,1,0,100,0,0
92873,-100,4,1,0,100,0,0
93021,-112,4,1,0,100,0,0
93907,-100,4,1,0,100,0,0
94055,-112,4,1,0,100,0,0
94351,-100,4,1,0,100,0,0
94499,-112,4,1,0,100,0,0
94794,-100,4,1,0,100,0,0
94942,-112,4,1,0,100,0,0
95237,-100,4,1,0,100,0,0
95385,-112,4,1,0,100,0,0
95681,-100,4,1,0,100,0,0
111050,-112,4,1,0,100,0,0
112233,-100,4,1,0,100,0,0
114597,-97,4,1,0,100,0,0
115779,-94,4,1,0,100,0,0
116814,-91,4,1,0,100,0,0
118144,-88,4,1,0,100,0,0
119327,-134,4,1,0,75,0,0
138242,-112,4,1,0,80,0,0
147700,-106,4,1,0,90,0,0
152430,-100,4,1,0,100,0,0
155681,-112,4,1,0,100,0,0
157159,-94,4,1,0,100,0,0
157454,-112,4,1,0,100,0,0
158045,-94,4,1,0,100,0,0
158341,-112,4,1,0,100,0,0
158932,-94,4,1,0,100,0,0
159966,-112,4,1,0,100,0,0
160410,-94,4,1,0,100,0,0
161001,-112,4,1,0,100,0,0
161888,-94,4,1,0,100,0,0
162183,-112,4,1,0,100,0,0
162774,-94,4,1,0,100,0,0
163070,-112,4,1,0,100,0,0
163661,-94,4,1,0,100,0,0
164696,-112,4,1,0,100,0,0
165139,-94,4,1,0,100,0,0
165730,-112,4,1,0,100,0,0
166617,-94,4,1,0,100,0,0
166912,-112,4,1,0,100,0,0
167503,-94,4,1,0,100,0,0
167799,-112,4,1,0,100,0,0
168390,-94,4,1,0,100,0,0
169425,-112,4,1,0,100,0,0
169868,-94,4,1,0,100,0,0
170459,-112,4,1,0,100,0,0
171346,-94,4,1,0,100,0,0
171641,-112,4,1,0,100,0,0
172233,-94,4,1,0,100,0,0
172528,-112,4,1,0,100,0,0
173119,-94,4,1,0,100,0,0
176075,-112,4,1,0,100,0,0
177848,-106,4,1,0,100,0,0
179622,-100,4,1,0,100,0,0
180804,-94,4,1,0,100,0,0
181099,-112,4,1,0,100,0,0
181691,-94,4,1,0,100,0,0
181986,-112,4,1,0,100,0,0
182577,-94,4,1,0,100,0,0
183612,-112,4,1,0,100,0,0
184055,-94,4,1,0,100,0,0
184646,-112,4,1,0,100,0,0
185533,-94,4,1,0,100,0,0
185829,-112,4,1,0,100,0,0
186420,-94,4,1,0,100,0,0
186715,-112,4,1,0,100,0,0
187306,-94,4,1,0,100,0,0
188341,-112,4,1,0,100,0,0
188784,-94,4,1,0,100,0,0
189375,-112,4,1,0,100,0,0
190262,-94,4,1,0,100,0,0
190558,-112,4,1,0,100,0,0
191149,-94,4,1,0,100,0,0
191444,-112,4,1,0,100,0,0
192035,-94,4,1,0,100,0,0
192184,-134,4,1,0,75,0,0
194991,-134,4,1,0,75,0,0
204449,-112,4,1,0,75,0,0
204597,-134,4,1,0,75,0,0
210656,-134,4,1,0,50,0,0
213907,-134,4,1,0,75,0,0
222774,-112,4,1,0,100,0,0
223366,-100,4,1,0,100,0,0
224548,-112,4,1,0,100,0,0
225287,-100,4,1,0,100,0,0
226912,-112,4,1,0,100,0,0
228095,-100,4,1,0,100,0,0
229277,-112,4,1,0,100,0,0
230016,-100,4,1,0,100,0,0
231641,-112,4,1,0,100,0,0
232824,-100,4,1,0,100,0,0
233119,-112,4,1,0,90,0,0
237553,-100,4,1,0,100,0,0
240213,-112,4,1,0,90,0,0
242282,-100,4,1,0,100,0,1
253661,-106,4,1,0,100,0,0
254104,-100,4,1,0,100,0,1
256469,-100,4,1,0,100,0,0
256617,-100,4,1,0,75,0,0
259572,-112,4,1,0,90,0,0
261198,-100,4,1,0,100,0,1
270656,-100,4,1,0,100,0,0
271247,-112,4,1,0,90,0,0
275090,-97,4,1,0,100,0,0
275385,-97,4,1,0,100,0,1
276567,-94,4,1,0,100,0,1
277750,-91,4,1,0,100,0,1
278932,-88,4,1,0,100,0,1
280114,-88,4,1,0,100,0,0
280262,-88,4,1,0,75,0,0
280263,-134,4,1,0,75,0,0
284917,-134,4,1,0,50,0,0
289425,-134,4,1,0,75,0,0
289646,-134,4,1,0,50,0,0
294301,-134,4,1,0,75,0,0
294375,-134,4,1,0,50,0,0

[HitObjects]
256,192,1100,12,0,5681,0:0:0:0:
256,192,5829,5,0,0:0:0:0:
256,192,6617,1,8,0:0:0:0:
256,192,7011,1,0,0:0:0:0:
256,192,7799,1,8,0:0:0:0:
256,192,8193,1,0,0:0:0:0:
256,192,8981,1,0,0:0:0:0:
256,192,9375,1,8,0:0:0:0:
256,192,9819,1,8,0:0:0:0:
256,192,10558,1,0,0:0:0:0:
256,192,10681,1,8,0:0:0:0:
256,192,11050,1,0,0:0:0:0:
256,192,11149,1,0,0:0:0:0:
256,192,11247,1,8,0:0:0:0:
256,192,11346,1,0,0:0:0:0:
256,192,11444,1,0,0:0:0:0:
256,192,11543,1,8,0:0:0:0:
256,192,11641,1,0,0:0:0:0:
256,192,11740,1,8,0:0:0:0:
256,192,11838,1,0,0:0:0:0:
256,192,11937,1,8,0:0:0:0:
256,192,12035,12,0,15139,0:0:0:0:
256,192,15287,5,0,0:0:0:0:
256,192,16075,1,8,0:0:0:0:
256,192,16469,1,0,0:0:0:0:
256,192,17257,1,8,0:0:0:0:
256,192,17651,1,0,0:0:0:0:
256,192,18439,1,0,0:0:0:0:
256,192,18833,1,8,0:0:0:0:
256,192,19277,1,8,0:0:0:0:
256,192,20016,1,0,0:0:0:0:
256,192,20139,1,8,0:0:0:0:
256,192,20508,1,0,0:0:0:0:
256,192,20607,1,0,0:0:0:0:
256,192,20705,1,8,0:0:0:0:
256,192,20804,1,0,0:0:0:0:
256,192,20902,1,8,0:0:0:0:
256,192,21001,1,8,0:0:0:0:
256,192,21099,1,0,0:0:0:0:
256,192,21198,1,8,0:0:0:0:
256,192,21297,1,0,0:0:0:0:
256,192,21395,1,8,0:0:0:0:
256,192,22380,1,0,0:0:0:0:
256,192,22503,1,8,0:0:0:0:
256,192,22676,12,0,24006,0:0:0:0:
256,192,24154,5,0,0:0:0:0:
256,192,24203,1,0,0:0:0:0:
256,192,24252,1,0,0:0:0:0:
256,192,24301,1,8,0:0:0:0:
256,192,24449,1,8,0:0:0:0:
256,192,24597,1,0,0:0:0:0:
256,192,24745,5,12,0:0:0:0:
256,192,25188,5,4,0:0:0:0:
256,192,25484,5,4,0:0:0:0:
256,192,25779,5,4,0:0:0:0:
256,192,26666,5,12,0:0:0:0:
256,192,27109,5,12,0:0:0:0:
256,192,27553,5,4,0:0:0:0:
256,192,27774,5,4,0:0:0:0:
256,192,27996,5,4,0:0:0:0:
256,192,28883,1,0,0:0:0:0:
256,192,29031,1,0,0:0:0:0:
256,192,29178,1,8,0:0:0:0:
256,192,29228,1,8,0:0:0:0:
256,192,29277,1,8,0:0:0:0:
256,192,29326,1,0,0:0:0:0:
256,192,29474,5,12,0:0:0:0:
256,192,29917,5,4,0:0:0:0:
256,192,30213,5,4,0:0:0:0:
256,192,30508,5,4,0:0:0:0:
256,192,31395,5,12,0:0:0:0:
256,192,31838,5,12,0:0:0:0:
256,192,32282,5,4,0:0:0:0:
256,192,32503,5,4,0:0:0:0:
256,192,32725,5,4,0:0:0:0:
256,192,33464,1,8,0:0:0:0:
256,192,33538,1,8,0:0:0:0:
256,192,33612,1,0,0:0:0:0:
256,192,33760,1,8,0:0:0:0:
256,192,33907,1,8,0:0:0:0:
256,192,33957,1,8,0:0:0:0:
256,192,34006,1,8,0:0:0:0:
256,192,34055,1,8,0:0:0:0:
256,192,34203,5,4,0:0:0:0:
256,192,34499,1,8,0:0:0:0:
256,192,34794,1,0,0:0:0:0:
256,192,34942,1,0,0:0:0:0:
256,192,35090,1,8,0:0:0:0:
256,192,35385,1,0,0:0:0:0:
256,192,35533,1,8,0:0:0:0:
256,192,35681,1,8,0:0:0:0:
256,192,35829,1,0,0:0:0:0:
256,192,35976,1,0,0:0:0:0:
256,192,36124,1,8,0:0:0:0:
256,192,36272,1,8,0:0:0:0:
256,192,36567,1,0,0:0:0:0:
256,192,36863,1,8,0:0:0:0:
256,192,37159,1,0,0:0:0:0:
256,192,37306,1,0,0:0:0:0:
256,192,37454,1,8,0:0:0:0:
256,192,37602,1,8,0:0:0:0:
256,192,37750,1,0,0:0:0:0:
256,192,37898,1,0,0:0:0:0:
256,192,38045,1,8,0:0:0:0:
256,192,38193,1,0,0:0:0:0:
256,192,38341,1,0,0:0:0:0:
256,192,38489,1,8,0:0:0:0:
256,192,38636,1,8,0:0:0:0:
256,192,38932,1,0,0:0:0:0:
256,192,39129,1,8,0:0:0:0:
256,192,39228,1,0,0:0:0:0:
256,192,39326,1,8,0:0:0:0:
256,192,39425,1,8,0:0:0:0:
256,192,39523,1,0,0:0:0:0:
256,192,39720,1,0,0:0:0:0:
256,192,39819,1,8,0:0:0:0:
256,192,39917,1,0,0:0:0:0:
256,192,40016,1,0,0:0:0:0:
256,192,40114,1,8,0:0:0:0:
256,192,40311,1,8,0:0:0:0:
256,192,40410,1,0,0:0:0:0:
256,192,40508,1,8,0:0:0:0:
256,192,40607,1,8,0:0:0:0:
256,192,40705,1,0,0:0:0:0:
256,192,40804,1,8,0:0:0:0:
256,192,40902,1,0,0:0:0:0:
256,192,41001,1,8,0:0:0:0:
256,192,41099,1,0,0:0:0:0:
256,192,41297,5,12,0:0:0:0:
256,192,41592,1,0,0:0:0:0:
256,192,41740,1,8,0:0:0:0:
256,192,41814,1,0,0:0:0:0:
256,192,41888,1,8,0:0:0:0:
256,192,42035,1,0,0:0:0:0:
256,192,42183,1,8,0:0:0:0:
256,192,42257,1,8,0:0:0:0:
256,192,42331,1,0,0:0:0:0:
256,192,42405,1,0,0:0:0:0:
256,192,42479,1,8,0:0:0:0:
256,192,42627,1,0,0:0:0:0:
256,192,42700,1,0,0:0:0:0:
256,192,42774,1,8,0:0:0:0:
256,192,42848,1,0,0:0:0:0:
256,192,42922,1,8,0:0:0:0:
256,192,43070,1,0,0:0:0:0:
256,192,43366,1,8,0:0:0:0:
256,192,43439,1,0,0:0:0:0:
256,192,43513,1,8,0:0:0:0:
256,192,43661,5,4,0:0:0:0:
256,192,43957,1,8,0:0:0:0:
256,192,44104,1,8,0:0:0:0:
256,192,44252,5,4,0:0:0:0:
256,192,44548,1,0,0:0:0:0:
256,192,44622,1,0,0:0:0:0:
256,192,44696,1,8,0:0:0:0:
256,192,44769,1,8,0:0:0:0:
256,192,44843,1,0,0:0:0:0:
256,192,44917,1,8,0:0:0:0:
256,192,44991,1,0,0:0:0:0:
256,192,45065,1,8,0:0:0:0:
256,192,45139,1,0,0:0:0:0:
256,192,45213,1,0,0:0:0:0:
256,192,45287,1,8,0:0:0:0:
256,192,45434,1,0,0:0:0:0:
256,192,45508,1,8,0:0:0:0:
256,192,45656,1,8,0:0:0:0:
256,192,45730,1,0,0:0:0:0:
256,192,45878,1,8,0:0:0:0:
256,192,46026,5,4,0:0:0:0:
256,192,46321,5,4,0:0:0:0:
256,192,46617,5,12,0:0:0:0:
256,192,46765,1,8,0:0:0:0:
256,192,46838,1,8,0:0:0:0:
256,192,46912,1,0,0:0:0:0:
256,192,46986,1,0,0:0:0:0:
256,192,47060,1,8,0:0:0:0:
256,192,47208,1,8,0:0:0:0:
256,192,47356,1,0,0:0:0:0:
256,192,47430,1,0,0:0:0:0:
256,192,47503,1,8,0:0:0:0:
256,192,47651,1,8,0:0:0:0:
256,192,47799,1,0,0:0:0:0:
256,192,47873,1,8,0:0:0:0:
256,192,47947,1,8,0:0:0:0:
256,192,48095,1,8,0:0:0:0:
256,192,48144,1,8,0:0:0:0:
256,192,48193,1,8,0:0:0:0:
256,192,48242,1,0,0:0:0:0:
256,192,48390,5,4,0:0:0:0:
256,192,48686,1,0,0:0:0:0:
256,192,48833,1,8,0:0:0:0:
256,192,48981,5,4,0:0:0:0:
256,192,49277,1,0,0:0:0:0:
256,192,49351,1,0,0:0:0:0:
256,192,49425,1,8,0:0:0:0:
256,192,49499,1,8,0:0:0:0:
256,192,49572,1,0,0:0:0:0:
256,192,49646,1,8,0:0:0:0:
256,192,49720,1,8,0:0:0:0:
256,192,49794,1,8,0:0:0:0:
256,192,49868,1,0,0:0:0:0:
256,192,49942,1,0,0:0:0:0:
256,192,50016,1,8,0:0:0:0:
256,192,50090,1,8,0:0:0:0:
256,192,50164,1,0,0:0:0:0:
256,192,50311,1,8,0:0:0:0:
256,192,50385,1,0,0:0:0:0:
256,192,50459,1,8,0:0:0:0:
256,192,50533,1,8,0:0:0:0:
256,192,50607,1,0,0:0:0:0:
256,192,50755,5,4,0:0:0:0:
256,192,50902,1,8,0:0:0:0:
256,192,51050,1,0,0:0:0:0:
256,192,51198,1,8,0:0:0:0:
256,192,51272,1,8,0:0:0:0:
256,192,51346,1,0,0:0:0:0:
256,192,51494,1,8,0:0:0:0:
256,192,51567,1,8,0:0:0:0:
256,192,51641,1,0,0:0:0:0:
256,192,51715,1,0,0:0:0:0:
256,192,51789,1,8,0:0:0:0:
256,192,51937,1,8,0:0:0:0:
256,192,52085,1,0,0:0:0:0:
256,192,52159,1,8,0:0:0:0:
256,192,52233,1,8,0:0:0:0:
256,192,52380,1,8,0:0:0:0:
256,192,52528,1,0,0:0:0:0:
256,192,52577,1,0,0:0:0:0:
256,192,52627,1,0,0:0:0:0:
256,192,52676,1,8,0:0:0:0:
256,192,52824,1,0,0:0:0:0:
256,192,52971,1,8,0:0:0:0:
256,192,53119,1,8,0:0:0:0:
256,192,53193,1,8,0:0:0:0:
256,192,53267,1,0,0:0:0:0:
256,192,53341,1,0,0:0:0:0:
256,192,53415,1,0,0:0:0:0:
256,192,53489,1,0,0:0:0:0:
256,192,53563,1,8,0:0:0:0:
256,192,53636,1,8,0:0:0:0:
256,192,53710,1,8,0:0:0:0:
256,192,53858,1,0,0:0:0:0:
256,192,54006,5,4,0:0:0:0:
256,192,54301,1,8,0:0:0:0:
256,192,54375,1,8,0:0:0:0:
256,192,54449,1,0,0:0:0:0:
256,192,54523,1,8,0:0:0:0:
256,192,54597,1,0,0:0:0:0:
256,192,54671,1,0,0:0:0:0:
256,192,54745,1,8,0:0:0:0:
256,192,54893,1,0,0:0:0:0:
256,192,54966,1,8,0:0:0:0:
256,192,55114,1,8,0:0:0:0:
256,192,55188,1,0,0:0:0:0:
256,192,55336,1,8,0:0:0:0:
256,192,55484,5,4,0:0:0:0:
256,192,55779,5,4,0:0:0:0:
256,192,56075,5,12,0:0:0:0:
256,192,56223,1,8,0:0:0:0:
256,192,56297,1,8,0:0:0:0:
256,192,56370,1,0,0:0:0:0:
256,192,56444,1,0,0:0:0:0:
256,192,56518,1,8,0:0:0:0:
256,192,56666,1,8,0:0:0:0:
256,192,56814,1,0,0:0:0:0:
256,192,56888,1,0,0:0:0:0:
256,192,56962,1,8,0:0:0:0:
256,192,57109,1,8,0:0:0:0:
256,192,57257,1,0,0:0:0:0:
256,192,57331,1,8,0:0:0:0:
256,192,57405,1,8,0:0:0:0:
256,192,57553,1,8,0:0:0:0:
256,192,57627,1,8,0:0:0:0:
256,192,57700,1,0,0:0:0:0:
256,192,57848,5,12,0:0:0:0:
256,192,58070,1,8,0:0:0:0:
256,192,58144,1,0,0:0:0:0:
256,192,58292,1,8,0:0:0:0:
256,192,58439,1,8,0:0:0:0:
256,192,58587,1,0,0:0:0:0:
256,192,58735,1,8,0:0:0:0:
256,192,58883,1,0,0:0:0:0:
256,192,59031,1,8,0:0:0:0:
256,192,59252,1,8,0:0:0:0:
256,192,59326,1,0,0:0:0:0:
256,192,59474,1,8,0:0:0:0:
256,192,59622,1,8,0:0:0:0:
256,192,59769,1,0,0:0:0:0:
256,192,59917,1,8,0:0:0:0:
256,192,60065,1,0,0:0:0:0:
256,192,60114,1,0,0:0:0:0:
256,192,60164,1,0,0:0:0:0:
256,192,60213,1,8,0:0:0:0:
256,192,60434,1,8,0:0:0:0:
256,192,60508,1,0,0:0:0:0:
256,192,60656,1,8,0:0:0:0:
256,192,60804,1,8,0:0:0:0:
256,192,60952,1,0,0:0:0:0:
256,192,61099,1,8,0:0:0:0:
256,192,61247,1,0,0:0:0:0:
256,192,61395,1,8,0:0:0:0:
256,192,61617,1,0,0:0:0:0:
256,192,61691,1,8,0:0:0:0:
256,192,61838,1,0,0:0:0:0:
256,192,61986,1,8,0:0:0:0:
256,192,62060,1,0,0:0:0:0:
256,192,62208,1,0,0:0:0:0:
256,192,62282,1,8,0:0:0:0:
256,192,62430,1,0,0:0:0:0:
256,192,62577,12,0,63021,0:0:0:0:
256,192,63168,5,8,0:0:0:0:
256,192,63242,1,0,0:0:0:0:
256,192,63316,1,8,0:0:0:0:
256,192,63390,1,0,0:0:0:0:
256,192,63464,1,8,0:0:0:0:
256,192,63612,1,8,0:0:0:0:
256,192,63760,1,8,0:0:0:0:
256,192,63907,1,8,0:0:0:0:
256,192,64055,5,4,0:0:0:0:
256,192,64351,1,0,0:0:0:0:
256,192,64499,1,8,0:0:0:0:
256,192,64646,1,0,0:0:0:0:
256,192,64794,1,8,0:0:0:0:
256,192,64942,5,4,0:0:0:0:
256,192,65090,1,8,0:0:0:0:
256,192,65164,1,0,0:0:0:0:
256,192,65311,1,8,0:0:0:0:
256,192,65385,1,0,0:0:0:0:
256,192,65533,1,8,0:0:0:0:
256,192,65755,1,8,0:0:0:0:
256,192,65829,1,0,0:0:0:0:
256,192,65976,1,0,0:0:0:0:
256,192,66050,1,8,0:0:0:0:
256,192,66198,1,8,0:0:0:0:
256,192,66272,1,0,0:0:0:0:
256,192,66420,1,0,0:0:0:0:
256,192,66494,1,8,0:0:0:0:
256,192,66567,1,8,0:0:0:0:
256,192,66641,1,0,0:0:0:0:
256,192,66715,1,8,0:0:0:0:
256,192,66765,1,8,0:0:0:0:
256,192,66814,1,8,0:0:0:0:
256,192,66863,1,0,0:0:0:0:
256,192,67011,1,8,0:0:0:0:
256,192,67159,1,8,0:0:0:0:
256,192,67306,5,4,0:0:0:0:
256,192,67454,1,8,0:0:0:0:
256,192,67528,1,0,0:0:0:0:
256,192,67602,1,0,0:0:0:0:
256,192,67750,1,8,0:0:0:0:
256,192,67898,1,0,0:0:0:0:
256,192,68045,1,8,0:0:0:0:
256,192,68119,1,8,0:0:0:0:
256,192,68193,1,0,0:0:0:0:
256,192,68267,1,0,0:0:0:0:
256,192,68341,1,8,0:0:0:0:
256,192,68489,1,0,0:0:0:0:
256,192,68636,1,8,0:0:0:0:
256,192,68784,1,0,0:0:0:0:
256,192,68833,1,8,0:0:0:0:
256,192,68883,1,8,0:0:0:0:
256,192,68932,1,8,0:0:0:0:
256,192,69080,1,8,0:0:0:0:
256,192,69228,1,0,0:0:0:0:
256,192,69301,1,0,0:0:0:0:
256,192,69375,1,8,0:0:0:0:
256,192,69523,1,8,0:0:0:0:
256,192,69671,1,0,0:0:0:0:
256,192,69819,1,8,0:0:0:0:
256,192,69893,1,0,0:0:0:0:
256,192,69966,1,8,0:0:0:0:
256,192,70114,1,8,0:0:0:0:
256,192,70188,1,8,0:0:0:0:
256,192,70262,1,0,0:0:0:0:
256,192,70410,1,8,0:0:0:0:
256,192,70484,1,0,0:0:0:0:
256,192,70558,1,0,0:0:0:0:
256,192,70705,1,8,0:0:0:0:
256,192,70853,5,12,0:0:0:0:
256,192,71075,1,0,0:0:0:0:
256,192,71149,1,8,0:0:0:0:
256,192,71297,1,0,0:0:0:0:
256,192,71370,1,8,0:0:0:0:
256,192,71518,1,0,0:0:0:0:
256,192,71592,1,8,0:0:0:0:
256,192,71740,1,8,0:0:0:0:
256,192,71814,1,8,0:0:0:0:
256,192,71888,1,0,0:0:0:0:
256,192,72035,5,4,0:0:0:0:
256,192,72479,5,8,0:0:0:0:
256,192,72553,1,8,0:0:0:0:
256,192,72627,1,8,0:0:0:0:
256,192,72700,1,8,0:0:0:0:
256,192,72774,1,0,0:0:0:0:
256,192,72848,1,0,0:0:0:0:
256,192,72922,1,8,0:0:0:0:
256,192,72996,1,8,0:0:0:0:
256,192,73070,1,0,0:0:0:0:
256,192,73218,5,4,0:0:0:0:
256,192,73366,1,8,0:0:0:0:
256,192,73513,1,0,0:0:0:0:
256,192,73809,1,0,0:0:0:0:
256,192,73957,1,8,0:0:0:0:
256,192,74104,1,0,0:0:0:0:
256,192,74252,1,8,0:0:0:0:
256,192,74400,5,4,0:0:0:0:
256,192,74622,1,0,0:0:0:0:
256,192,74843,1,0,0:0:0:0:
256,192,74991,5,12,0:0:0:0:
256,192,75213,1,8,0:0:0:0:
256,192,75287,1,0,0:0:0:0:
256,192,75434,1,0,0:0:0:0:
256,192,75508,1,8,0:0:0:0:
256,192,75656,1,8,0:0:0:0:
256,192,75730,1,0,0:0:0:0:
256,192,75878,1,0,0:0:0:0:
256,192,75952,1,8,0:0:0:0:
256,192,76026,1,8,0:0:0:0:
256,192,76099,1,0,0:0:0:0:
256,192,76173,1,8,0:0:0:0:
256,192,76223,1,8,0:0:0:0:
256,192,76272,1,8,0:0:0:0:
256,192,76321,1,0,0:0:0:0:
256,192,76469,1,8,0:0:0:0:
256,192,76617,1,0,0:0:0:0:
256,192,76765,5,4,0:0:0:0:
256,192,76912,1,8,0:0:0:0:
256,192,76986,1,0,0:0:0:0:
256,192,77060,1,0,0:0:0:0:
256,192,77208,1,8,0:0:0:0:
256,192,77356,1,0,0:0:0:0:
256,192,77503,1,8,0:0:0:0:
256,192,77577,1,8,0:0:0:0:
256,192,77651,1,0,0:0:0:0:
256,192,77725,1,0,0:0:0:0:
256,192,77799,1,8,0:0:0:0:
256,192,77947,1,0,0:0:0:0:
256,192,78095,1,8,0:0:0:0:
256,192,78242,1,0,0:0:0:0:
256,192,78292,1,8,0:0:0:0:
256,192,78341,1,8,0:0:0:0:
256,192,78390,1,8,0:0:0:0:
256,192,78538,1,8,0:0:0:0:
256,192,78686,1,0,0:0:0:0:
256,192,78760,1,0,0:0:0:0:
256,192,78833,1,8,0:0:0:0:
256,192,78981,1,8,0:0:0:0:
256,192,79129,1,0,0:0:0:0:
256,192,79277,1,8,0:0:0:0:
256,192,79351,1,0,0:0:0:0:
256,192,79425,1,8,0:0:0:0:
256,192,79572,1,8,0:0:0:0:
256,192,79646,1,8,0:0:0:0:
256,192,79720,1,0,0:0:0:0:
256,192,79868,1,8,0:0:0:0:
256,192,79942,1,0,0:0:0:0:
256,192,80016,1,0,0:0:0:0:
256,192,80164,1,0,0:0:0:0:
256,192,80311,5,12,0:0:0:0:
256,192,80533,1,8,0:0:0:0:
256,192,80755,1,8,0:0:0:0:
256,192,80976,1,8,0:0:0:0:
256,192,81198,1,0,0:0:0:0:
256,192,81247,1,0,0:0:0:0:
256,192,81297,1,8,0:0:0:0:
256,192,81346,1,8,0:0:0:0:
256,192,81494,5,4,0:0:0:0:
256,192,82085,5,12,0:0:0:0:
256,192,82380,1,0,0:0:0:0:
256,192,82528,5,12,0:0:0:0:
256,192,82824,1,0,0:0:0:0:
256,192,82971,5,12,0:0:0:0:
256,192,83267,1,0,0:0:0:0:
256,192,83415,5,12,0:0:0:0:
256,192,83710,1,0,0:0:0:0:
256,192,83858,1,0,0:0:0:0:
256,192,84154,1,0,0:0:0:0:
256,192,84301,1,0,0:0:0:0:
256,192,84449,5,12,0:0:0:0:
256,192,84597,1,0,0:0:0:0:
256,192,84745,1,0,0:0:0:0:
256,192,84893,5,12,0:0:0:0:
256,192,85188,1,0,0:0:0:0:
256,192,85336,5,12,0:0:0:0:
256,192,85484,1,0,0:0:0:0:
256,192,85632,1,0,0:0:0:0:
256,192,85779,5,12,0:0:0:0:
256,192,85927,1,0,0:0:0:0:
256,192,86075,1,0,0:0:0:0:
256,192,86223,5,4,0:0:0:0:
256,192,86814,5,12,0:0:0:0:
256,192,87109,1,0,0:0:0:0:
256,192,87257,5,12,0:0:0:0:
256,192,87553,1,0,0:0:0:0:
256,192,87700,5,12,0:0:0:0:
256,192,87848,1,0,0:0:0:0:
256,192,87996,1,0,0:0:0:0:
256,192,88144,5,12,0:0:0:0:
256,192,88439,1,0,0:0:0:0:
256,192,88587,1,0,0:0:0:0:
256,192,88883,1,0,0:0:0:0:
256,192,89031,1,0,0:0:0:0:
256,192,89178,5,12,0:0:0:0:
256,192,89326,1,0,0:0:0:0:
256,192,89474,1,0,0:0:0:0:
256,192,89622,5,12,0:0:0:0:
256,192,89917,1,0,0:0:0:0:
256,192,90065,5,12,0:0:0:0:
256,192,90213,1,0,0:0:0:0:
256,192,90361,1,0,0:0:0:0:
256,192,90508,5,12,0:0:0:0:
256,192,90656,1,0,0:0:0:0:
256,192,90804,1,0,0:0:0:0:
256,192,90952,5,4,0:0:0:0:
256,192,91543,5,12,0:0:0:0:
256,192,91838,1,0,0:0:0:0:
256,192,91986,5,12,0:0:0:0:
256,192,92282,1,0,0:0:0:0:
256,192,92430,5,12,0:0:0:0:
256,192,92725,1,0,0:0:0:0:
256,192,92873,5,12,0:0:0:0:
256,192,93168,1,0,0:0:0:0:
256,192,93316,1,0,0:0:0:0:
256,192,93612,1,0,0:0:0:0:
256,192,93760,1,0,0:0:0:0:
256,192,93907,5,12,0:0:0:0:
256,192,94055,1,0,0:0:0:0:
256,192,94203,1,0,0:0:0:0:
256,192,94351,5,12,0:0:0:0:
256,192,94646,1,0,0:0:0:0:
256,192,94794,5,12,0:0:0:0:
256,192,94942,1,0,0:0:0:0:
256,192,95090,1,0,0:0:0:0:
256,192,95237,5,12,0:0:0:0:
256,192,95385,1,0,0:0:0:0:
256,192,95533,1,0,0:0:0:0:
256,192,95681,5,4,0:0:0:0:
256,192,95829,1,8,0:0:0:0:
256,192,95902,1,8,0:0:0:0:
256,192,95976,1,0,0:0:0:0:
256,192,96124,1,8,0:0:0:0:
256,192,96198,1,0,0:0:0:0:
256,192,96272,1,8,0:0:0:0:
256,192,96420,1,8,0:0:0:0:
256,192,96494,1,8,0:0:0:0:
256,192,96567,1,0,0:0:0:0:
256,192,96715,1,8,0:0:0:0:
256,192,96789,1,0,0:0:0:0:
256,192,96863,1,0,0:0:0:0:
256,192,97011,1,8,0:0:0:0:
256,192,97085,1,8,0:0:0:0:
256,192,97159,1,0,0:0:0:0:
256,192,97306,1,8,0:0:0:0:
256,192,97380,1,0,0:0:0:0:
256,192,97454,1,8,0:0:0:0:
256,192,97528,1,0,0:0:0:0:
256,192,97602,1,8,0:0:0:0:
256,192,97676,1,8,0:0:0:0:
256,192,97750,1,0,0:0:0:0:
256,192,97898,1,8,0:0:0:0:
256,192,97971,1,8,0:0:0:0:
256,192,98045,1,0,0:0:0:0:
256,192,98119,1,0,0:0:0:0:
256,192,98193,1,8,0:0:0:0:
256,192,98267,1,0,0:0:0:0:
256,192,98341,1,8,0:0:0:0:
256,192,98415,1,8,0:0:0:0:
256,192,98489,1,0,0:0:0:0:
256,192,98563,1,0,0:0:0:0:
256,192,98636,1,8,0:0:0:0:
256,192,98710,1,0,0:0:0:0:
256,192,98784,1,8,0:0:0:0:
256,192,98858,1,0,0:0:0:0:
256,192,98932,1,8,0:0:0:0:
256,192,99006,1,8,0:0:0:0:
256,192,99080,1,0,0:0:0:0:
256,192,99154,1,0,0:0:0:0:
256,192,99228,12,0,100262,0:0:0:0:
256,192,100410,5,4,0:0:0:0:
256,192,100705,1,0,0:0:0:0:
256,192,100853,1,8,0:0:0:0:
256,192,100927,1,8,0:0:0:0:
256,192,101001,1,0,0:0:0:0:
256,192,101099,1,8,0:0:0:0:
256,192,101198,1,8,0:0:0:0:
256,192,101297,1,0,0:0:0:0:
256,192,101444,1,8,0:0:0:0:
256,192,101518,1,8,0:0:0:0:
256,192,101592,1,0,0:0:0:0:
256,192,101666,1,0,0:0:0:0:
256,192,101740,1,8,0:0:0:0:
256,192,101814,1,8,0:0:0:0:
256,192,101888,1,0,0:0:0:0:
256,192,101962,1,8,0:0:0:0:
256,192,102035,1,8,0:0:0:0:
256,192,102109,1,8,0:0:0:0:
256,192,102183,1,0,0:0:0:0:
256,192,102331,1,0,0:0:0:0:
256,192,102405,1,8,0:0:0:0:
256,192,102479,1,0,0:0:0:0:
256,192,102627,1,8,0:0:0:0:
256,192,102774,5,4,0:0:0:0:
256,192,103070,5,4,0:0:0:0:
256,192,103366,1,0,0:0:0:0:
256,192,103513,1,8,0:0:0:0:
256,192,103587,1,8,0:0:0:0:
256,192,103661,1,0,0:0:0:0:
256,192,103809,1,8,0:0:0:0:
256,192,103883,1,0,0:0:0:0:
256,192,103957,1,0,0:0:0:0:
256,192,104104,1,8,0:0:0:0:
256,192,104178,1,8,0:0:0:0:
256,192,104252,1,0,0:0:0:0:
256,192,104400,1,8,0:0:0:0:
256,192,104474,1,0,0:0:0:0:
256,192,104548,1,0,0:0:0:0:
256,192,104696,1,8,0:0:0:0:
256,192,104843,5,12,0:0:0:0:
256,192,105139,5,12,0:0:0:0:
256,192,105434,1,0,0:0:0:0:
256,192,105582,1,8,0:0:0:0:
256,192,105656,1,8,0:0:0:0:
256,192,105730,1,0,0:0:0:0:
256,192,105829,1,8,0:0:0:0:
256,192,105927,1,8,0:0:0:0:
256,192,106026,1,0,0:0:0:0:
256,192,106173,1,8,0:0:0:0:
256,192,106247,1,8,0:0:0:0:
256,192,106321,1,0,0:0:0:0:
256,192,106395,1,8,0:0:0:0:
256,192,106469,1,8,0:0:0:0:
256,192,106543,1,8,0:0:0:0:
256,192,106617,1,0,0:0:0:0:
256,192,106691,1,0,0:0:0:0:
256,192,106765,1,8,0:0:0:0:
256,192,106838,1,8,0:0:0:0:
256,192,106912,1,0,0:0:0:0:
256,192,107060,1,8,0:0:0:0:
256,192,107134,1,0,0:0:0:0:
256,192,107208,1,8,0:0:0:0:
256,192,107356,1,0,0:0:0:0:
256,192,107503,5,12,0:0:0:0:
256,192,107799,1,0,0:0:0:0:
256,192,107947,1,8,0:0:0:0:
256,192,108021,1,0,0:0:0:0:
256,192,108095,1,0,0:0:0:0:
256,192,108242,1,8,0:0:0:0:
256,192,108316,1,8,0:0:0:0:
256,192,108390,1,0,0:0:0:0:
256,192,108538,1,8,0:0:0:0:
256,192,108686,1,0,0:0:0:0:
256,192,108784,1,8,0:0:0:0:
256,192,108883,1,0,0:0:0:0:
256,192,108981,1,0,0:0:0:0:
256,192,109080,1,8,0:0:0:0:
256,192,109178,1,0,0:0:0:0:
256,192,109277,1,8,0:0:0:0:
256,192,109375,1,0,0:0:0:0:
256,192,109474,1,8,0:0:0:0:
256,192,109572,1,8,0:0:0:0:
256,192,109720,1,0,0:0:0:0:
256,192,109868,5,12,0:0:0:0:
256,192,110016,12,0,111789,0:0:0:0:
256,192,111937,5,8,0:0:0:0:
256,192,112035,1,8,0:0:0:0:
256,192,112134,1,8,0:0:0:0:
256,192,112233,5,4,0:0:0:0:
256,192,112528,5,4,0:0:0:0:
256,192,112824,1,0,0:0:0:0:
256,192,112971,1,8,0:0:0:0:
256,192,113045,1,8,0:0:0:0:
256,192,113119,1,0,0:0:0:0:
256,192,113267,1,8,0:0:0:0:
256,192,113341,1,0,0:0:0:0:
256,192,113415,1,0,0:0:0:0:
256,192,113563,1,8,0:0:0:0:
256,192,113636,1,0,0:0:0:0:
256,192,113710,1,8,0:0:0:0:
256,192,113858,1,0,0:0:0:0:
256,192,114006,1,8,0:0:0:0:
256,192,114080,1,8,0:0:0:0:
256,192,114154,1,0,0:0:0:0:
256,192,114228,1,0,0:0:0:0:
256,192,114301,1,8,0:0:0:0:
256,192,114375,1,8,0:0:0:0:
256,192,114449,1,0,0:0:0:0:
256,192,114597,5,12,0:0:0:0:
256,192,114819,1,8,0:0:0:0:
256,192,114893,1,0,0:0:0:0:
256,192,115040,1,8,0:0:0:0:
256,192,115188,1,8,0:0:0:0:
256,192,115336,1,0,0:0:0:0:
256,192,115484,1,8,0:0:0:0:
256,192,115632,1,0,0:0:0:0:
256,192,115779,1,8,0:0:0:0:
256,192,116001,1,8,0:0:0:0:
256,192,116075,1,0,0:0:0:0:
256,192,116223,1,8,0:0:0:0:
256,192,116370,1,8,0:0:0:0:
256,192,116518,1,0,0:0:0:0:
256,192,116666,1,8,0:0:0:0:
256,192,116814,1,0,0:0:0:0:
256,192,116863,1,0,0:0:0:0:
256,192,116912,1,0,0:0:0:0:
256,192,116962,1,8,0:0:0:0:
256,192,117183,1,8,0:0:0:0:
256,192,117257,1,0,0:0:0:0:
256,192,117405,1,8,0:0:0:0:
256,192,117553,1,8,0:0:0:0:
256,192,117700,1,0,0:0:0:0:
256,192,117848,1,8,0:0:0:0:
256,192,117996,1,0,0:0:0:0:
256,192,118144,1,8,0:0:0:0:
256,192,118366,1,0,0:0:0:0:
256,192,118439,1,8,0:0:0:0:
256,192,118587,1,0,0:0:0:0:
256,192,118735,1,8,0:0:0:0:
256,192,118809,1,0,0:0:0:0:
256,192,118957,1,0,0:0:0:0:
256,192,119031,1,8,0:0:0:0:
256,192,119178,1,0,0:0:0:0:
256,192,119326,5,12,0:0:0:0:
256,192,120213,1,8,0:0:0:0:
256,192,120952,1,0,0:0:0:0:
256,192,121026,1,0,0:0:0:0:
256,192,121099,1,8,0:0:0:0:
256,192,122577,1,0,0:0:0:0:
256,192,123095,1,0,0:0:0:0:
256,192,123168,1,8,0:0:0:0:
256,192,123464,1,0,0:0:0:0:
256,192,123760,1,0,0:0:0:0:
256,192,124055,1,8,0:0:0:0:
256,192,124942,1,8,0:0:0:0:
256,192,125681,1,0,0:0:0:0:
256,192,125755,1,0,0:0:0:0:
256,192,125829,1,8,0:0:0:0:
256,192,127306,1,8,0:0:0:0:
256,192,127898,1,8,0:0:0:0:
256,192,128193,1,0,0:0:0:0:
256,192,128489,1,0,0:0:0:0:
256,192,128784,1,8,0:0:0:0:
256,192,129671,1,8,0:0:0:0:
256,192,130410,1,0,0:0:0:0:
256,192,130484,1,0,0:0:0:0:
256,192,130558,1,8,0:0:0:0:
256,192,132035,1,0,0:0:0:0:
256,192,132553,1,0,0:0:0:0:
256,192,132627,1,8,0:0:0:0:
256,192,132922,1,0,0:0:0:0:
256,192,133218,1,8,0:0:0:0:
256,192,133513,1,0,0:0:0:0:
256,192,134400,1,0,0:0:0:0:
256,192,135139,1,8,0:0:0:0:
256,192,135213,1,0,0:0:0:0:
256,192,135287,1,8,0:0:0:0:
256,192,136765,1,0,0:0:0:0:
256,192,137356,12,0,138095,0:0:0:0:
256,192,138242,5,8,0:0:0:0:
256,192,138686,1,0,0:0:0:0:
256,192,138833,1,8,0:0:0:0:
256,192,139129,1,0,0:0:0:0:
256,192,139425,1,8,0:0:0:0:
256,192,139572,1,0,0:0:0:0:
256,192,139868,1,0,0:0:0:0:
256,192,139942,1,0,0:0:0:0:
256,192,140016,1,8,0:0:0:0:
256,192,140459,1,0,0:0:0:0:
256,192,140607,1,8,0:0:0:0:
256,192,140902,1,0,0:0:0:0:
256,192,141198,1,8,0:0:0:0:
256,192,141494,1,0,0:0:0:0:
256,192,141789,1,8,0:0:0:0:
256,192,141937,1,0,0:0:0:0:
256,192,142085,1,0,0:0:0:0:
256,192,142380,1,8,0:0:0:0:
256,192,142676,1,0,0:0:0:0:
256,192,142971,1,8,0:0:0:0:
256,192,143415,1,0,0:0:0:0:
256,192,143563,1,8,0:0:0:0:
256,192,143858,1,0,0:0:0:0:
256,192,144154,1,8,0:0:0:0:
256,192,144301,1,0,0:0:0:0:
256,192,144597,1,0,0:0:0:0:
256,192,144671,1,0,0:0:0:0:
256,192,144745,1,8,0:0:0:0:
256,192,145188,1,0,0:0:0:0:
256,192,145336,1,8,0:0:0:0:
256,192,145632,1,0,0:0:0:0:
256,192,145927,1,8,0:0:0:0:
256,192,146223,1,0,0:0:0:0:
256,192,146518,1,8,0:0:0:0:
256,192,146666,1,0,0:0:0:0:
256,192,146814,1,0,0:0:0:0:
256,192,147109,1,8,0:0:0:0:
256,192,147405,1,0,0:0:0:0:
256,192,147700,1,8,0:0:0:0:
256,192,147996,1,0,0:0:0:0:
256,192,148292,1,0,0:0:0:0:
256,192,148587,1,8,0:0:0:0:
256,192,148883,1,0,0:0:0:0:
256,192,149178,1,0,0:0:0:0:
256,192,149474,1,8,0:0:0:0:
256,192,149769,1,0,0:0:0:0:
256,192,150065,1,8,0:0:0:0:
256,192,150213,1,8,0:0:0:0:
256,192,150361,1,0,0:0:0:0:
256,192,150508,1,8,0:0:0:0:
256,192,150656,1,0,0:0:0:0:
256,192,150804,1,0,0:0:0:0:
256,192,150952,1,8,0:0:0:0:
256,192,151099,1,8,0:0:0:0:
256,192,151247,1,0,0:0:0:0:
256,192,151395,1,8,0:0:0:0:
256,192,151543,1,0,0:0:0:0:
256,192,151691,1,0,0:0:0:0:
256,192,151838,1,8,0:0:0:0:
256,192,151986,1,8,0:0:0:0:
256,192,152134,1,0,0:0:0:0:
256,192,152282,1,8,0:0:0:0:
256,192,152430,5,8,0:0:0:0:
256,192,152503,1,8,0:0:0:0:
256,192,152577,1,0,0:0:0:0:
256,192,152651,1,0,0:0:0:0:
256,192,152725,1,8,0:0:0:0:
256,192,152799,1,0,0:0:0:0:
256,192,152873,1,8,0:0:0:0:
256,192,152947,1,0,0:0:0:0:
256,192,153021,1,0,0:0:0:0:
256,192,153095,1,8,0:0:0:0:
256,192,153168,1,8,0:0:0:0:
256,192,153242,1,0,0:0:0:0:
256,192,153316,1,8,0:0:0:0:
256,192,153390,1,8,0:0:0:0:
256,192,153464,1,0,0:0:0:0:
256,192,153538,1,0,0:0:0:0:
256,192,153612,1,8,0:0:0:0:
256,192,153686,1,0,0:0:0:0:
256,192,153760,1,8,0:0:0:0:
256,192,153833,1,8,0:0:0:0:
256,192,153907,1,0,0:0:0:0:
256,192,153981,1,0,0:0:0:0:
256,192,154055,1,8,0:0:0:0:
256,192,154129,1,0,0:0:0:0:
256,192,154203,1,8,0:0:0:0:
256,192,154277,1,8,0:0:0:0:
256,192,154351,1,0,0:0:0:0:
256,192,154425,1,0,0:0:0:0:
256,192,154499,1,8,0:0:0:0:
256,192,154572,1,0,0:0:0:0:
256,192,154646,1,8,0:0:0:0:
256,192,154720,1,0,0:0:0:0:
256,192,154794,12,0,155533,0:0:0:0:
256,192,155681,5,0,0:0:0:0:
256,192,155829,1,0,0:0:0:0:
256,192,155976,1,8,0:0:0:0:
256,192,156124,1,0,0:0:0:0:
256,192,156272,1,0,0:0:0:0:
256,192,156420,1,8,0:0:0:0:
256,192,156567,1,0,0:0:0:0:
256,192,156715,1,0,0:0:0:0:
256,192,156863,1,8,0:0:0:0:
256,192,157011,1,0,0:0:0:0:
256,192,157159,5,12,0:0:0:0:
256,192,157454,1,0,0:0:0:0:
256,192,157602,1,0,0:0:0:0:
256,192,157750,1,8,0:0:0:0:
256,192,157898,1,0,0:0:0:0:
256,192,158045,5,12,0:0:0:0:
256,192,158341,1,0,0:0:0:0:
256,192,158489,1,0,0:0:0:0:
256,192,158538,1,8,0:0:0:0:
256,192,158587,1,8,0:0:0:0:
256,192,158636,1,8,0:0:0:0:
256,192,158784,1,0,0:0:0:0:
256,192,158932,5,12,0:0:0:0:
256,192,159080,2,0,B|256:378|256:378|256:192,1,372.340425531915
256,192,159966,5,0,0:0:0:0:
256,192,160114,1,8,0:0:0:0:
256,192,160410,5,12,0:0:0:0:
256,192,160558,2,0,B|256:266|256:266|256:192,1,148.936170212766
256,192,161001,5,0,0:0:0:0:
256,192,161297,1,8,0:0:0:0:
256,192,161370,1,0,0:0:0:0:
256,192,161444,1,8,0:0:0:0:
256,192,161494,1,8,0:0:0:0:
256,192,161543,1,8,0:0:0:0:
256,192,161592,1,0,0:0:0:0:
256,192,161740,1,0,0:0:0:0:
256,192,161888,5,12,0:0:0:0:
256,192,162183,1,8,0:0:0:0:
256,192,162233,1,8,0:0:0:0:
256,192,162282,1,8,0:0:0:0:
256,192,162331,1,0,0:0:0:0:
256,192,162479,1,0,0:0:0:0:
256,192,162528,1,0,0:0:0:0:
256,192,162577,1,0,0:0:0:0:
256,192,162627,1,8,0:0:0:0:
256,192,162774,5,12,0:0:0:0:
256,192,163070,1,0,0:0:0:0:
256,192,163267,1,0,0:0:0:0:
256,192,163464,1,0,0:0:0:0:
256,192,163661,5,12,0:0:0:0:
256,192,163809,2,0,B|256:378|256:378|256:192,1,372.340425531915
256,192,164696,5,0,0:0:0:0:
256,192,164843,1,8,0:0:0:0:
256,192,165139,5,12,0:0:0:0:
256,192,165287,2,0,B|256:266|256:266|256:192,1,148.936170212766
256,192,165730,5,0,0:0:0:0:
256,192,166026,1,8,0:0:0:0:
256,192,166099,1,8,0:0:0:0:
256,192,166173,1,0,0:0:0:0:
256,192,166223,1,0,0:0:0:0:
256,192,166272,1,0,0:0:0:0:
256,192,166321,1,8,0:0:0:0:
256,192,166395,1,0,0:0:0:0:
256,192,166617,5,12,0:0:0:0:
256,192,166912,1,0,0:0:0:0:
256,192,167060,1,0,0:0:0:0:
256,192,167208,1,8,0:0:0:0:
256,192,167356,1,0,0:0:0:0:
256,192,167503,5,12,0:0:0:0:
256,192,167799,1,0,0:0:0:0:
256,192,167947,1,0,0:0:0:0:
256,192,167996,1,8,0:0:0:0:
256,192,168045,1,8,0:0:0:0:
256,192,168095,1,8,0:0:0:0:
256,192,168242,1,0,0:0:0:0:
256,192,168390,5,12,0:0:0:0:
256,192,168538,2,0,B|256:378|256:378|256:192,1,372.340425531915
256,192,169425,5,0,0:0:0:0:
256,192,169572,1,8,0:0:0:0:
256,192,169868,5,12,0:0:0:0:
256,192,170016,2,0,B|256:266|256:266|256:192,1,148.936170212766
256,192,170459,5,0,0:0:0:0:
256,192,170755,1,8,0:0:0:0:
256,192,170829,1,0,0:0:0:0:
256,192,170902,1,8,0:0:0:0:
256,192,170952,1,8,0:0:0:0:
256,192,171001,1,8,0:0:0:0:
256,192,171050,1,0,0:0:0:0:
256,192,171198,1,0,0:0:0:0:
256,192,171346,5,12,0:0:0:0:
256,192,171641,1,0,0:0:0:0:
256,192,171691,1,8,0:0:0:0:
256,192,171740,1,8,0:0:0:0:
256,192,171789,1,0,0:0:0:0:
256,192,171937,1,8,0:0:0:0:
256,192,171986,1,0,0:0:0:0:
256,192,172035,1,0,0:0:0:0:
256,192,172085,1,8,0:0:0:0:
256,192,172233,5,12,0:0:0:0:
256,192,172528,1,0,0:0:0:0:
256,192,172750,1,8,0:0:0:0:
256,192,172971,1,0,0:0:0:0:
256,192,173119,5,12,0:0:0:0:
256,192,173267,12,0,175927,0:0:0:0:
256,192,176075,5,4,0:0:0:0:
256,192,177848,1,8,0:0:0:0:
256,192,177996,1,8,0:0:0:0:
256,192,178144,1,0,0:0:0:0:
256,192,178292,1,8,0:0:0:0:
256,192,178439,1,0,0:0:0:0:
256,192,178587,1,0,0:0:0:0:
256,192,178735,1,8,0:0:0:0:
256,192,178883,1,8,0:0:0:0:
256,192,179031,1,0,0:0:0:0:
256,192,179178,1,8,0:0:0:0:
256,192,179326,1,0,0:0:0:0:
256,192,179474,1,0,0:0:0:0:
256,192,179622,1,8,0:0:0:0:
256,192,179696,1,0,0:0:0:0:
256,192,179769,1,8,0:0:0:0:
256,192,179843,1,0,0:0:0:0:
256,192,179917,1,8,0:0:0:0:
256,192,179991,1,8,0:0:0:0:
256,192,180065,1,0,0:0:0:0:
256,192,180213,12,0,180656,0:0:0:0:
256,192,180804,5,12,0:0:0:0:
256,192,181099,1,8,0:0:0:0:
256,192,181149,1,8,0:0:0:0:
256,192,181198,1,8,0:0:0:0:
256,192,181247,1,0,0:0:0:0:
256,192,181395,1,0,0:0:0:0:
256,192,181444,1,0,0:0:0:0:
256,192,181494,1,0,0:0:0:0:
256,192,181543,1,8,0:0:0:0:
256,192,181691,5,12,0:0:0:0:
256,192,181986,1,0,0:0:0:0:
256,192,182208,1,0,0:0:0:0:
256,192,182430,1,0,0:0:0:0:
256,192,182577,5,12,0:0:0:0:
256,192,182725,2,0,B|256:378|256:378|256:192,1,372.340425531915
256,192,183612,5,0,0:0:0:0:
256,192,183760,1,8,0:0:0:0:
256,192,184055,5,12,0:0:0:0:
256,192,184203,2,0,B|256:266|256:266|256:192,1,148.936170212766
256,192,184646,5,0,0:0:0:0:
256,192,184942,1,8,0:0:0:0:
256,192,185016,1,0,0:0:0:0:
256,192,185090,1,8,0:0:0:0:
256,192,185139,1,0,0:0:0:0:
256,192,185188,1,0,0:0:0:0:
256,192,185237,1,8,0:0:0:0:
256,192,185311,1,0,0:0:0:0:
256,192,185533,5,12,0:0:0:0:
256,192,185829,1,0,0:0:0:0:
256,192,185976,1,0,0:0:0:0:
256,192,186124,1,8,0:0:0:0:
256,192,186272,1,0,0:0:0:0:
256,192,186420,5,12,0:0:0:0:
256,192,186715,1,8,0:0:0:0:
256,192,186863,1,8,0:0:0:0:
256,192,186912,1,8,0:0:0:0:
256,192,186962,1,8,0:0:0:0:
256,192,187011,1,8,0:0:0:0:
256,192,187159,1,0,0:0:0:0:
256,192,187306,5,12,0:0:0:0:
256,192,187454,2,0,B|256:378|256:378|256:192,1,372.340425531915
256,192,188341,5,0,0:0:0:0:
256,192,188489,1,8,0:0:0:0:
256,192,188784,5,12,0:0:0:0:
256,192,188932,2,0,B|256:266|256:266|256:192,1,148.936170212766
256,192,189375,5,0,0:0:0:0:
256,192,189671,1,8,0:0:0:0:
256,192,189745,1,0,0:0:0:0:
256,192,189819,1,8,0:0:0:0:
256,192,189868,1,8,0:0:0:0:
256,192,189917,1,8,0:0:0:0:
256,192,189966,1,0,0:0:0:0:
256,192,190114,1,0,0:0:0:0:
256,192,190262,5,12,0:0:0:0:
256,192,190558,1,8,0:0:0:0:
256,192,190705,1,0,0:0:0:0:
256,192,190853,1,0,0:0:0:0:
256,192,191001,1,0,0:0:0:0:
256,192,191149,5,12,0:0:0:0:
256,192,191444,1,0,0:0:0:0:
256,192,191592,1,8,0:0:0:0:
256,192,191740,1,0,0:0:0:0:
256,192,191888,1,0,0:0:0:0:
256,192,192035,5,12,0:0:0:0:
256,192,192183,12,0,194843,0:0:0:0:
256,192,194991,5,8,0:0:0:0:
256,192,195878,1,8,0:0:0:0:
256,192,196617,1,0,0:0:0:0:
256,192,196691,1,0,0:0:0:0:
256,192,196765,1,8,0:0:0:0:
256,192,199720,1,8,0:0:0:0:
256,192,200607,1,8,0:0:0:0:
256,192,201346,1,0,0:0:0:0:
256,192,201420,1,0,0:0:0:0:
256,192,201494,1,8,0:0:0:0:
256,192,202085,12,0,204301,0:0:0:0:
256,192,204449,5,4,0:0:0:0:
256,192,205237,1,8,0:0:0:0:
256,192,205632,1,0,0:0:0:0:
256,192,206420,1,8,0:0:0:0:
256,192,206814,1,0,0:0:0:0:
256,192,207602,1,0,0:0:0:0:
256,192,207996,1,8,0:0:0:0:
256,192,208439,1,8,0:0:0:0:
256,192,209178,1,0,0:0:0:0:
256,192,209301,1,8,0:0:0:0:
256,192,209671,1,0,0:0:0:0:
256,192,209769,1,0,0:0:0:0:
256,192,209868,1,8,0:0:0:0:
256,192,209966,1,0,0:0:0:0:
256,192,210065,1,0,0:0:0:0:
256,192,210164,1,8,0:0:0:0:
256,192,210262,1,0,0:0:0:0:
256,192,210361,1,8,0:0:0:0:
256,192,210459,1,0,0:0:0:0:
256,192,210558,1,8,0:0:0:0:
256,192,210656,12,0,213760,0:0:0:0:
256,192,213907,5,0,0:0:0:0:
256,192,214696,1,8,0:0:0:0:
256,192,215090,1,0,0:0:0:0:
256,192,215878,1,8,0:0:0:0:
256,192,216272,1,0,0:0:0:0:
256,192,217060,1,0,0:0:0:0:
256,192,217454,1,8,0:0:0:0:
256,192,217898,1,8,0:0:0:0:
256,192,218636,1,0,0:0:0:0:
256,192,218760,1,8,0:0:0:0:
256,192,219129,1,0,0:0:0:0:
256,192,219228,1,0,0:0:0:0:
256,192,219326,1,8,0:0:0:0:
256,192,219425,1,0,0:0:0:0:
256,192,219523,1,8,0:0:0:0:
256,192,219622,1,8,0:0:0:0:
256,192,219720,1,0,0:0:0:0:
256,192,219819,1,8,0:0:0:0:
256,192,219917,1,0,0:0:0:0:
256,192,220016,1,8,0:0:0:0:
256,192,221001,1,0,0:0:0:0:
256,192,221124,1,8,0:0:0:0:
256,192,221297,12,0,222627,0:0:0:0:
256,192,222774,5,0,0:0:0:0:
256,192,222824,1,0,0:0:0:0:
256,192,222873,1,0,0:0:0:0:
256,192,222922,1,8,0:0:0:0:
256,192,223070,1,8,0:0:0:0:
256,192,223218,1,0,0:0:0:0:
256,192,223366,5,12,0:0:0:0:
256,192,223809,5,4,0:0:0:0:
256,192,224104,5,4,0:0:0:0:
256,192,224400,5,4,0:0:0:0:
256,192,225287,5,12,0:0:0:0:
256,192,225730,5,12,0:0:0:0:
256,192,226173,5,4,0:0:0:0:
256,192,226395,5,4,0:0:0:0:
256,192,226617,5,4,0:0:0:0:
256,192,227503,1,8,0:0:0:0:
256,192,227651,1,0,0:0:0:0:
256,192,227799,1,8,0:0:0:0:
256,192,227848,1,8,0:0:0:0:
256,192,227898,1,8,0:0:0:0:
256,192,227947,1,0,0:0:0:0:
256,192,228095,5,12,0:0:0:0:
256,192,228538,5,4,0:0:0:0:
256,192,228833,5,4,0:0:0:0:
256,192,229129,5,4,0:0:0:0:
256,192,230016,5,12,0:0:0:0:
256,192,230459,5,12,0:0:0:0:
256,192,230902,5,4,0:0:0:0:
256,192,231124,5,4,0:0:0:0:
256,192,231346,5,4,0:0:0:0:
256,192,232085,1,8,0:0:0:0:
256,192,232159,1,8,0:0:0:0:
256,192,232233,1,0,0:0:0:0:
256,192,232380,1,8,0:0:0:0:
256,192,232528,1,8,0:0:0:0:
256,192,232577,1,8,0:0:0:0:
256,192,232627,1,8,0:0:0:0:
256,192,232676,1,8,0:0:0:0:
256,192,232824,5,4,0:0:0:0:
256,192,233119,1,8,0:0:0:0:
256,192,233415,1,0,0:0:0:0:
256,192,233563,1,0,0:0:0:0:
256,192,233710,1,8,0:0:0:0:
256,192,234006,1,0,0:0:0:0:
256,192,234154,1,8,0:0:0:0:
256,192,234301,1,8,0:0:0:0:
256,192,234449,1,0,0:0:0:0:
256,192,234597,1,0,0:0:0:0:
256,192,234745,1,8,0:0:0:0:
256,192,234893,1,8,0:0:0:0:
256,192,235188,1,0,0:0:0:0:
256,192,235484,1,8,0:0:0:0:
256,192,235779,1,0,0:0:0:0:
256,192,235927,1,0,0:0:0:0:
256,192,236075,1,8,0:0:0:0:
256,192,236223,1,8,0:0:0:0:
256,192,236370,1,0,0:0:0:0:
256,192,236518,1,8,0:0:0:0:
256,192,236666,1,8,0:0:0:0:
256,192,236814,1,0,0:0:0:0:
256,192,236962,1,0,0:0:0:0:
256,192,237109,1,8,0:0:0:0:
256,192,237257,1,8,0:0:0:0:
256,192,237553,1,0,0:0:0:0:
256,192,237700,1,0,0:0:0:0:
256,192,237774,1,8,0:0:0:0:
256,192,237922,1,0,0:0:0:0:
256,192,237996,1,8,0:0:0:0:
256,192,238144,1,0,0:0:0:0:
256,192,238292,1,0,0:0:0:0:
256,192,238366,1,8,0:0:0:0:
256,192,238513,1,0,0:0:0:0:
256,192,238587,1,8,0:0:0:0:
256,192,238735,1,0,0:0:0:0:
256,192,238883,1,0,0:0:0:0:
256,192,238957,1,8,0:0:0:0:
256,192,239104,1,0,0:0:0:0:
256,192,239178,1,8,0:0:0:0:
256,192,239326,1,0,0:0:0:0:
256,192,239400,1,8,0:0:0:0:
256,192,239548,1,8,0:0:0:0:
256,192,239622,1,0,0:0:0:0:
256,192,239696,1,8,0:0:0:0:
256,192,239769,1,0,0:0:0:0:
256,192,239917,5,4,0:0:0:0:
256,192,240213,1,8,0:0:0:0:
256,192,240361,1,0,0:0:0:0:
256,192,240434,1,0,0:0:0:0:
256,192,240508,1,8,0:0:0:0:
256,192,240656,1,0,0:0:0:0:
256,192,240804,1,8,0:0:0:0:
256,192,240878,1,8,0:0:0:0:
256,192,240952,1,0,0:0:0:0:
256,192,241026,1,0,0:0:0:0:
256,192,241099,1,8,0:0:0:0:
256,192,241247,1,0,0:0:0:0:
256,192,241321,1,0,0:0:0:0:
256,192,241395,1,8,0:0:0:0:
256,192,241469,1,0,0:0:0:0:
256,192,241543,1,8,0:0:0:0:
256,192,241691,1,0,0:0:0:0:
256,192,241838,1,8,0:0:0:0:
256,192,241986,1,8,0:0:0:0:
256,192,242060,1,8,0:0:0:0:
256,192,242134,1,0,0:0:0:0:
256,192,242282,5,4,0:0:0:0:
256,192,242430,1,0,0:0:0:0:
256,192,242503,1,8,0:0:0:0:
256,192,242577,1,8,0:0:0:0:
256,192,242725,1,0,0:0:0:0:
256,192,242873,1,0,0:0:0:0:
256,192,242947,1,0,0:0:0:0:
256,192,243021,1,8,0:0:0:0:
256,192,243168,1,0,0:0:0:0:
256,192,243242,1,0,0:0:0:0:
256,192,243316,1,8,0:0:0:0:
256,192,243390,1,0,0:0:0:0:
256,192,243464,1,8,0:0:0:0:
256,192,243612,1,0,0:0:0:0:
256,192,243686,1,8,0:0:0:0:
256,192,243760,1,8,0:0:0:0:
256,192,243833,1,0,0:0:0:0:
256,192,243907,1,0,0:0:0:0:
256,192,244055,1,0,0:0:0:0:
256,192,244129,1,0,0:0:0:0:
256,192,244203,1,8,0:0:0:0:
256,192,244277,1,8,0:0:0:0:
256,192,244351,1,0,0:0:0:0:
256,192,244425,1,0,0:0:0:0:
256,192,244499,1,8,0:0:0:0:
256,192,244572,1,0,0:0:0:0:
256,192,244646,1,8,0:0:0:0:
256,192,244794,1,0,0:0:0:0:
256,192,244868,1,8,0:0:0:0:
256,192,244942,1,8,0:0:0:0:
256,192,245090,1,0,0:0:0:0:
256,192,245237,1,0,0:0:0:0:
256,192,245311,1,0,0:0:0:0:
256,192,245385,1,8,0:0:0:0:
256,192,245533,1,0,0:0:0:0:
256,192,245607,1,0,0:0:0:0:
256,192,245681,1,8,0:0:0:0:
256,192,245755,1,8,0:0:0:0:
256,192,245829,1,0,0:0:0:0:
256,192,245976,1,0,0:0:0:0:
256,192,246050,1,8,0:0:0:0:
256,192,246124,1,8,0:0:0:0:
256,192,246198,1,8,0:0:0:0:
256,192,246272,1,0,0:0:0:0:
256,192,246420,1,0,0:0:0:0:
256,192,246494,1,0,0:0:0:0:
256,192,246567,1,8,0:0:0:0:
256,192,246641,1,0,0:0:0:0:
256,192,246715,1,8,0:0:0:0:
256,192,246789,1,0,0:0:0:0:
256,192,246863,1,8,0:0:0:0:
256,192,246937,1,8,0:0:0:0:
256,192,247011,1,0,0:0:0:0:
256,192,247159,1,0,0:0:0:0:
256,192,247233,1,0,0:0:0:0:
256,192,247306,1,8,0:0:0:0:
256,192,247454,1,8,0:0:0:0:
256,192,247602,1,0,0:0:0:0:
256,192,247676,1,8,0:0:0:0:
256,192,247750,1,8,0:0:0:0:
256,192,247898,1,0,0:0:0:0:
256,192,247971,1,0,0:0:0:0:
256,192,248045,1,8,0:0:0:0:
256,192,248095,1,8,0:0:0:0:
256,192,248144,1,8,0:0:0:0:
256,192,248193,1,0,0:0:0:0:
256,192,248341,1,0,0:0:0:0:
256,192,248415,1,0,0:0:0:0:
256,192,248489,1,8,0:0:0:0:
256,192,248563,1,0,0:0:0:0:
256,192,248636,1,8,0:0:0:0:
256,192,248784,1,0,0:0:0:0:
256,192,248858,1,0,0:0:0:0:
256,192,248932,1,8,0:0:0:0:
256,192,249006,1,8,0:0:0:0:
256,192,249080,1,0,0:0:0:0:
256,192,249154,1,8,0:0:0:0:
256,192,249228,1,0,0:0:0:0:
256,192,249277,1,8,0:0:0:0:
256,192,249326,1,8,0:0:0:0:
256,192,249375,1,0,0:0:0:0:
256,192,249523,1,0,0:0:0:0:
256,192,249597,1,0,0:0:0:0:
256,192,249671,1,8,0:0:0:0:
256,192,249819,1,8,0:0:0:0:
256,192,249966,1,0,0:0:0:0:
256,192,250040,1,0,0:0:0:0:
256,192,250114,1,8,0:0:0:0:
256,192,250164,1,0,0:0:0:0:
256,192,250213,1,0,0:0:0:0:
256,192,250262,1,8,0:0:0:0:
256,192,250410,1,0,0:0:0:0:
256,192,250459,1,0,0:0:0:0:
256,192,250508,1,0,0:0:0:0:
256,192,250558,1,8,0:0:0:0:
256,192,250779,1,8,0:0:0:0:
256,192,250853,1,0,0:0:0:0:
256,192,251001,1,8,0:0:0:0:
256,192,251075,1,0,0:0:0:0:
256,192,251223,1,8,0:0:0:0:
256,192,251297,1,0,0:0:0:0:
256,192,251444,1,8,0:0:0:0:
256,192,251518,1,8,0:0:0:0:
256,192,251592,1,0,0:0:0:0:
256,192,251666,1,0,0:0:0:0:
256,192,251740,1,8,0:0:0:0:
256,192,251888,1,0,0:0:0:0:
256,192,251962,1,8,0:0:0:0:
256,192,252035,1,8,0:0:0:0:
256,192,252109,1,0,0:0:0:0:
256,192,252183,1,0,0:0:0:0:
256,192,252331,1,0,0:0:0:0:
256,192,252405,1,0,0:0:0:0:
256,192,252479,1,8,0:0:0:0:
256,192,252627,1,0,0:0:0:0:
256,192,252700,1,0,0:0:0:0:
256,192,252774,1,8,0:0:0:0:
256,192,252848,1,0,0:0:0:0:
256,192,252922,1,8,0:0:0:0:
256,192,253070,1,0,0:0:0:0:
256,192,253144,1,8,0:0:0:0:
256,192,253218,1,8,0:0:0:0:
256,192,253366,1,0,0:0:0:0:
256,192,253513,1,0,0:0:0:0:
256,192,253661,1,8,0:0:0:0:
256,192,253809,1,8,0:0:0:0:
256,192,253957,1,8,0:0:0:0:
256,192,254104,5,4,0:0:0:0:
256,192,254252,1,0,0:0:0:0:
256,192,254326,1,8,0:0:0:0:
256,192,254400,1,8,0:0:0:0:
256,192,254474,1,8,0:0:0:0:
256,192,254548,1,0,0:0:0:0:
256,192,254696,1,0,0:0:0:0:
256,192,254769,1,0,0:0:0:0:
256,192,254843,1,8,0:0:0:0:
256,192,254991,1,0,0:0:0:0:
256,192,255065,1,0,0:0:0:0:
256,192,255139,1,8,0:0:0:0:
256,192,255213,1,8,0:0:0:0:
256,192,255287,1,0,0:0:0:0:
256,192,255434,1,0,0:0:0:0:
256,192,255508,1,8,0:0:0:0:
256,192,255582,1,8,0:0:0:0:
256,192,255730,1,0,0:0:0:0:
256,192,255878,1,0,0:0:0:0:
256,192,255952,1,0,0:0:0:0:
256,192,256026,1,8,0:0:0:0:
256,192,256099,1,0,0:0:0:0:
256,192,256173,1,8,0:0:0:0:
256,192,256247,1,0,0:0:0:0:
256,192,256321,1,8,0:0:0:0:
256,192,256395,1,8,0:0:0:0:
256,192,256469,1,0,0:0:0:0:
256,192,256617,12,0,259425,0:0:0:0:
256,192,259572,5,8,0:0:0:0:
256,192,259646,1,8,0:0:0:0:
256,192,259720,1,8,0:0:0:0:
256,192,259794,1,8,0:0:0:0:
256,192,259868,1,0,0:0:0:0:
256,192,259942,1,0,0:0:0:0:
256,192,260016,1,8,0:0:0:0:
256,192,260164,1,0,0:0:0:0:
256,192,260237,1,8,0:0:0:0:
256,192,260385,1,8,0:0:0:0:
256,192,260459,1,0,0:0:0:0:
256,192,260607,1,0,0:0:0:0:
256,192,260681,1,8,0:0:0:0:
256,192,260902,1,8,0:0:0:0:
256,192,261050,1,0,0:0:0:0:
256,192,261198,5,4,0:0:0:0:
256,192,261346,1,0,0:0:0:0:
256,192,261420,1,8,0:0:0:0:
256,192,261494,1,8,0:0:0:0:
256,192,261567,1,8,0:0:0:0:
256,192,261641,1,0,0:0:0:0:
256,192,261789,1,0,0:0:0:0:
256,192,261863,1,0,0:0:0:0:
256,192,261937,1,8,0:0:0:0:
256,192,262085,1,0,0:0:0:0:
256,192,262159,1,8,0:0:0:0:
256,192,262233,1,8,0:0:0:0:
256,192,262306,1,0,0:0:0:0:
256,192,262380,1,8,0:0:0:0:
256,192,262528,1,0,0:0:0:0:
256,192,262602,1,8,0:0:0:0:
256,192,262676,1,8,0:0:0:0:
256,192,262824,1,0,0:0:0:0:
256,192,262971,1,0,0:0:0:0:
256,192,263045,1,0,0:0:0:0:
256,192,263119,1,8,0:0:0:0:
256,192,263193,1,8,0:0:0:0:
256,192,263267,1,0,0:0:0:0:
256,192,263341,1,0,0:0:0:0:
256,192,263415,1,8,0:0:0:0:
256,192,263489,1,0,0:0:0:0:
256,192,263563,1,8,0:0:0:0:
256,192,263710,1,0,0:0:0:0:
256,192,263784,1,8,0:0:0:0:
256,192,263858,1,8,0:0:0:0:
256,192,263932,1,0,0:0:0:0:
256,192,264006,1,0,0:0:0:0:
256,192,264154,1,0,0:0:0:0:
256,192,264228,1,0,0:0:0:0:
256,192,264301,1,8,0:0:0:0:
256,192,264449,1,0,0:0:0:0:
256,192,264523,1,0,0:0:0:0:
256,192,264597,1,8,0:0:0:0:
256,192,264671,1,8,0:0:0:0:
256,192,264745,1,0,0:0:0:0:
256,192,264893,1,0,0:0:0:0:
256,192,264966,1,8,0:0:0:0:
256,192,265040,1,8,0:0:0:0:
256,192,265188,1,0,0:0:0:0:
256,192,265336,1,0,0:0:0:0:
256,192,265410,1,0,0:0:0:0:
256,192,265484,1,8,0:0:0:0:
256,192,265558,1,0,0:0:0:0:
256,192,265632,1,8,0:0:0:0:
256,192,265705,1,0,0:0:0:0:
256,192,265779,1,8,0:0:0:0:
256,192,265853,1,8,0:0:0:0:
256,192,265927,1,0,0:0:0:0:
256,192,266075,1,0,0:0:0:0:
256,192,266149,1,0,0:0:0:0:
256,192,266223,1,8,0:0:0:0:
256,192,266297,1,0,0:0:0:0:
256,192,266370,1,8,0:0:0:0:
256,192,266518,1,0,0:0:0:0:
256,192,266592,1,8,0:0:0:0:
256,192,266666,1,8,0:0:0:0:
256,192,266814,1,0,0:0:0:0:
256,192,266888,1,0,0:0:0:0:
256,192,266962,1,8,0:0:0:0:
256,192,267011,1,8,0:0:0:0:
256,192,267060,1,8,0:0:0:0:
256,192,267109,1,0,0:0:0:0:
256,192,267257,1,0,0:0:0:0:
256,192,267331,1,0,0:0:0:0:
256,192,267405,1,8,0:0:0:0:
256,192,267553,1,8,0:0:0:0:
256,192,267700,1,0,0:0:0:0:
256,192,267774,1,0,0:0:0:0:
256,192,267848,1,8,0:0:0:0:
256,192,267922,1,8,0:0:0:0:
256,192,267996,1,0,0:0:0:0:
256,192,268070,1,8,0:0:0:0:
256,192,268144,1,0,0:0:0:0:
256,192,268193,1,8,0:0:0:0:
256,192,268242,1,8,0:0:0:0:
256,192,268292,1,0,0:0:0:0:
256,192,268439,1,0,0:0:0:0:
256,192,268513,1,0,0:0:0:0:
256,192,268587,1,8,0:0:0:0:
256,192,268661,1,0,0:0:0:0:
256,192,268735,1,8,0:0:0:0:
256,192,268883,1,0,0:0:0:0:
256,192,268957,1,0,0:0:0:0:
256,192,269031,1,8,0:0:0:0:
256,192,269080,1,0,0:0:0:0:
256,192,269129,1,0,0:0:0:0:
256,192,269178,1,8,0:0:0:0:
256,192,269326,1,0,0:0:0:0:
256,192,269375,1,0,0:0:0:0:
256,192,269425,1,0,0:0:0:0:
256,192,269474,1,8,0:0:0:0:
256,192,269696,1,8,0:0:0:0:
256,192,269769,1,0,0:0:0:0:
256,192,269917,1,8,0:0:0:0:
256,192,269991,1,0,0:0:0:0:
256,192,270139,1,8,0:0:0:0:
256,192,270213,1,0,0:0:0:0:
256,192,270361,1,8,0:0:0:0:
256,192,270434,1,8,0:0:0:0:
256,192,270508,1,0,0:0:0:0:
256,192,270582,1,0,0:0:0:0:
256,192,270656,1,8,0:0:0:0:
256,192,270804,1,0,0:0:0:0:
256,192,270952,5,12,0:0:0:0:
256,192,271247,1,0,0:0:0:0:
256,192,271321,1,8,0:0:0:0:
256,192,271395,1,0,0:0:0:0:
256,192,271543,1,0,0:0:0:0:
256,192,271691,1,8,0:0:0:0:
256,192,271838,1,8,0:0:0:0:
256,192,272060,1,8,0:0:0:0:
256,192,272134,1,0,0:0:0:0:
256,192,272282,1,8,0:0:0:0:
256,192,272430,1,0,0:0:0:0:
256,192,272503,1,8,0:0:0:0:
256,192,272577,1,0,0:0:0:0:
256,192,272725,1,8,0:0:0:0:
256,192,272799,1,8,0:0:0:0:
256,192,272873,1,0,0:0:0:0:
256,192,272947,1,0,0:0:0:0:
256,192,273021,1,8,0:0:0:0:
256,192,273242,1,8,0:0:0:0:
256,192,273316,1,0,0:0:0:0:
256,192,273464,1,8,0:0:0:0:
256,192,273612,1,0,0:0:0:0:
256,192,273686,1,8,0:0:0:0:
256,192,273760,1,0,0:0:0:0:
256,192,273907,1,8,0:0:0:0:
256,192,274055,1,8,0:0:0:0:
256,192,274203,1,0,0:0:0:0:
256,192,274425,1,8,0:0:0:0:
256,192,274499,1,0,0:0:0:0:
256,192,274646,1,8,0:0:0:0:
256,192,274794,1,0,0:0:0:0:
256,192,274868,1,8,0:0:0:0:
256,192,274942,1,0,0:0:0:0:
256,192,275090,1,8,0:0:0:0:
256,192,275164,1,0,0:0:0:0:
256,192,275237,1,8,0:0:0:0:
256,192,275311,1,0,0:0:0:0:
256,192,275385,1,0,0:0:0:0:
256,192,275607,1,0,0:0:0:0:
256,192,275681,1,8,0:0:0:0:
256,192,275829,1,0,0:0:0:0:
256,192,275902,1,0,0:0:0:0:
256,192,275976,1,8,0:0:0:0:
256,192,276026,1,8,0:0:0:0:
256,192,276075,1,8,0:0:0:0:
256,192,276124,1,0,0:0:0:0:
256,192,276272,1,0,0:0:0:0:
256,192,276321,1,0,0:0:0:0:
256,192,276370,1,0,0:0:0:0:
256,192,276420,1,8,0:0:0:0:
256,192,276567,1,0,0:0:0:0:
256,192,276789,1,0,0:0:0:0:
256,192,276863,1,8,0:0:0:0:
256,192,277011,1,0,0:0:0:0:
256,192,277085,1,8,0:0:0:0:
256,192,277159,1,0,0:0:0:0:
256,192,277208,1,8,0:0:0:0:
256,192,277257,1,8,0:0:0:0:
256,192,277306,1,0,0:0:0:0:
256,192,277454,1,8,0:0:0:0:
256,192,277503,1,0,0:0:0:0:
256,192,277553,1,0,0:0:0:0:
256,192,277602,1,8,0:0:0:0:
256,192,277750,1,0,0:0:0:0:
256,192,277971,1,0,0:0:0:0:
256,192,278045,1,8,0:0:0:0:
256,192,278193,1,0,0:0:0:0:
256,192,278267,1,0,0:0:0:0:
256,192,278341,1,8,0:0:0:0:
256,192,278390,1,8,0:0:0:0:
256,192,278439,1,8,0:0:0:0:
256,192,278489,1,0,0:0:0:0:
256,192,278636,1,0,0:0:0:0:
256,192,278686,1,0,0:0:0:0:
256,192,278735,1,0,0:0:0:0:
256,192,278784,1,8,0:0:0:0:
256,192,278932,1,0,0:0:0:0:
256,192,279080,1,0,0:0:0:0:
256,192,279154,1,8,0:0:0:0:
256,192,279301,1,0,0:0:0:0:
256,192,279375,1,8,0:0:0:0:
256,192,279523,1,0,0:0:0:0:
256,192,279597,1,8,0:0:0:0:
256,192,279745,1,0,0:0:0:0:
256,192,279819,1,8,0:0:0:0:
256,192,279893,1,8,0:0:0:0:
256,192,279966,1,0,0:0:0:0:
256,192,280040,1,0,0:0:0:0:
256,192,280114,1,8,0:0:0:0:
256,192,280262,12,0,284696,0:0:0:0:
256,192,284843,5,0,0:0:0:0:
256,192,289425,5,8,0:0:0:0:
256,192,289499,1,8,0:0:0:0:
256,192,289572,1,0,0:0:0:0:
256,192,294301,5,8,0:0:0:0:
256,192,299031,12,0,303612,0:0:0:0:
