osu file format v14

[General]
AudioFilename: audio.mp3
AudioLeadIn: 0
PreviewTime: 241683
Countdown: 0
SampleSet: None
StackLeniency: 0.7
Mode: 3
LetterboxInBreaks: 0
SpecialStyle: 0
WidescreenStoryboard: 1

[Editor]
Bookmarks: 119311,204434
DistanceSpacing: 0.5
BeatDivisor: 2
GridSize: 4
TimelineZoom: 1.699999

[Metadata]
Title:Enantiomorphs
TitleUnicode:Enantiomorphs
Artist:Camellia
ArtistUnicode:Camellia
Creator:Amethyst507
Version:Crystallius Emorphus
Source:
Tags:
BeatmapID:1586334
BeatmapSetID:753441

[Difficulty]
HPDrainRate:8.5
CircleSize:4
OverallDifficulty:8.5
ApproachRate:5
SliderMultiplier:1.4
SliderTickRate:1

[Events]
//Background and Video events
0,0,"60017778_p0totype.jpg",0,0
//Break Periods
//Storyboard Layer 0 (Background)
//Storyboard Layer 1 (Fail)
//Storyboard Layer 2 (Pass)
//Storyboard Layer 3 (Foreground)
//Storyboard Sound Samples

[TimingPoints]
1093,295.566502463054,4,2,0,30,1,0
242275,-100,4,2,0,30,0,1
256462,-100,4,2,0,30,0,0
261191,-100,4,2,0,30,0,1
270945,-10,4,2,0,30,0,1
270950,-100,4,2,0,30,0,1
271240,-10,4,2,0,30,0,1
271245,-100,4,2,0,30,0,1
271536,-10,4,2,0,30,0,1
271541,-100,4,2,0,30,0,1
271831,-10,4,2,0,30,0,1
271836,-100,4,2,0,30,0,1
272127,-10,4,2,0,30,0,1
272132,-100,4,2,0,30,0,1
272423,-10,4,2,0,30,0,1
272428,-100,4,2,0,30,0,1
273014,-10,4,2,0,30,0,1
273019,-100,4,2,0,30,0,1
273309,-10,4,2,0,30,0,1
273314,-100,4,2,0,30,0,1
273605,-10,4,2,0,30,0,1
273610,-100,4,2,0,30,0,1
273900,-10,4,2,0,30,0,1
273905,-100,4,2,0,30,0,1
274196,-10,4,2,0,30,0,1
274201,-100,4,2,0,30,0,1
274492,-10,4,2,0,30,0,1
274497,-100,4,2,0,30,0,1
280107,6,4,1,0,15,1,0
280114.988416988,98.6917343671959,4,1,0,15,1,0
280122.976833977,98.8618859374311,4,1,0,15,1,0
280130.965250965,99.0326252277582,4,1,0,15,1,0
280138.953667954,99.2039552885092,4,1,0,15,1,0
280146.942084942,99.3758791911608,4,1,0,15,1,0
280154.93050193,99.5484000285192,4,1,0,15,1,0
280162.918918919,99.7215209149045,4,1,0,15,1,0
280170.907335907,99.8952449863386,4,1,0,15,1,0
280178.895752896,100.069575400735,4,1,0,15,1,0
280186.884169884,100.244515338088,4,1,0,15,1,0
280194.872586873,100.42006800067,4,1,0,15,1,0
280202.861003861,100.596236613224,4,1,0,15,1,0
280210.849420849,100.773024423159,4,1,0,15,1,0
280218.837837838,100.950434700757,4,1,0,15,1,0
280226.826254826,101.128470739365,4,1,0,15,1,0
280234.814671815,101.307135855607,4,1,0,15,1,0
280242.803088803,101.486433389585,4,1,0,15,1,0
280250.791505791,101.666366705089,4,1,0,15,1,0
280258.77992278,101.846939189808,4,1,0,15,1,0
280266.768339768,102.028154255539,4,1,0,15,1,0
280274.756756757,102.210015338408,4,1,0,15,1,0
280282.745173745,102.392525899082,4,1,0,15,1,0
280290.733590734,102.575689422991,4,1,0,15,1,0
280298.722007722,102.759509420547,4,1,0,15,1,0
280306.71042471,102.943989427374,4,1,0,15,1,0
280314.698841699,103.129133004528,4,1,0,15,1,0
280322.687258687,103.31494373873,4,1,0,15,1,0
280330.675675676,103.501425242599,4,1,0,15,1,0
280338.664092664,103.688581154881,4,1,0,15,1,0
280346.652509652,103.876415140689,4,1,0,15,1,0
280354.640926641,104.064930891745,4,1,0,15,1,0
280362.629343629,104.254132126615,4,1,0,15,1,0
280370.617760618,104.44402259096,4,1,0,15,1,0
280378.606177606,104.634606057778,4,1,0,15,1,0
280386.594594595,104.825886327659,4,1,0,15,1,0
280394.583011583,105.017867229033,4,1,0,15,1,0
280402.571428571,105.210552618428,4,1,0,15,1,0
280410.55984556,105.403946380728,4,1,0,15,1,0
280418.548262548,105.598052429433,4,1,0,15,1,0
280426.536679537,105.792874706925,4,1,0,15,1,0
280434.525096525,105.988417184733,4,1,0,15,1,0
280442.513513513,106.184683863802,4,1,0,15,1,0
280450.501930502,106.381678774771,4,1,0,15,1,0
280458.49034749,106.57940597824,4,1,0,15,1,0
280466.478764479,106.77786956506,4,1,0,15,1,0
280474.467181467,106.977073656606,4,1,0,15,1,0
280482.455598456,107.177022405067,4,1,0,15,1,0
280490.444015444,107.377719993731,4,1,0,15,1,0
280498.432432432,107.579170637283,4,1,0,15,1,0
280506.420849421,107.781378582092,4,1,0,15,1,0
280514.409266409,107.984348106516,4,1,0,15,1,0
280522.397683398,108.1880835212,4,1,0,15,1,0
280530.386100386,108.392589169383,4,1,0,15,1,0
280538.374517375,108.597869427205,4,1,0,15,1,0
280546.362934363,108.80392870402,4,1,0,15,1,0
280554.351351351,109.010771442713,4,1,0,15,1,0
280562.33976834,109.218402120018,4,1,0,15,1,0
280570.328185328,109.426825246839,4,1,0,15,1,0
280578.316602317,109.636045368581,4,1,0,15,1,0
280586.305019305,109.846067065477,4,1,0,15,1,0
280594.293436293,110.056894952925,4,1,0,15,1,0
280602.281853282,110.268533681822,4,1,0,15,1,0
280610.27027027,110.48098793891,4,1,0,15,1,0
280618.258687259,110.694262447121,4,1,0,15,1,0
280626.247104247,110.908361965926,4,1,0,15,1,0
280634.235521236,111.123291291688,4,1,0,15,1,0
280642.223938224,111.339055258024,4,1,0,15,1,0
280650.212355212,111.555658736165,4,1,0,15,1,0
280658.200772201,111.77310663532,4,1,0,15,1,0
280666.189189189,111.991403903052,4,1,0,15,1,0
280674.177606178,112.21055552565,4,1,0,15,1,0
280682.166023166,112.430566528509,4,1,0,15,1,0
280690.154440154,112.651441976515,4,1,0,15,1,0
280698.142857143,112.873186974434,4,1,0,15,1,0
280706.131274131,113.095806667303,4,1,0,15,1,0
280714.11969112,113.319306240831,4,1,0,15,1,0
280722.108108108,113.543690921798,4,1,0,15,1,0
280730.096525097,113.768965978467,4,1,0,15,1,0
280738.084942085,113.995136720991,4,1,0,15,1,0
280746.073359073,114.222208501837,4,1,0,15,1,0
280754.061776062,114.4501867162,4,1,0,15,1,0
280762.05019305,114.679076802437,4,1,0,15,1,0
280770.038610039,114.908884242498,4,1,0,15,1,0
280778.027027027,115.13961456236,4,1,0,15,1,0
280786.015444015,115.371273332476,4,1,0,15,1,0
280794.003861004,115.603866168216,4,1,0,15,1,0
280801.992277992,115.837398730328,4,1,0,15,1,0
280809.980694981,116.071876725393,4,1,0,15,1,0
280817.969111969,116.307305906289,4,1,0,15,1,0
280825.957528958,116.543692072666,4,1,0,15,1,0
280833.945945946,116.781041071419,4,1,0,15,1,0
280841.934362934,117.019358797167,4,1,0,15,1,0
280849.922779923,117.25865119275,4,1,0,15,1,0
280857.911196911,117.498924249714,4,1,0,15,1,0
280865.8996139,117.740184008815,4,1,0,15,1,0
280873.888030888,117.982436560525,4,1,0,15,1,0
280881.876447876,118.225688045546,4,1,0,15,1,0
280889.864864865,118.469944655324,4,1,0,15,1,0
280897.853281853,118.715212632582,4,1,0,15,1,0
280905.841698842,118.961498271843,4,1,0,15,1,0
280913.83011583,119.208807919975,4,1,0,15,1,0
280921.818532819,119.457147976735,4,1,0,15,1,0
280929.806949807,119.706524895317,4,1,0,15,1,0
280937.795366795,119.956945182918,4,1,0,15,1,0
280945.783783784,120.208415401297,4,1,0,15,1,0
280953.772200772,120.460942167353,4,1,0,15,1,0
280961.760617761,120.714532153702,4,1,0,15,1,0
280969.749034749,120.969192089269,4,1,0,15,1,0
280977.737451737,121.224928759877,4,1,0,15,1,0
280985.725868726,121.481749008857,4,1,0,15,1,0
280993.714285714,121.739659737651,4,1,0,15,1,0
281001.702702703,121.998667906437,4,1,0,15,1,0
281009.691119691,122.25878053475,4,1,0,15,1,0
281017.67953668,122.520004702119,4,1,0,15,1,0
281025.667953668,122.782347548708,4,1,0,15,1,0
281033.656370656,123.045816275968,4,1,0,15,1,0
281041.644787645,123.310418147294,4,1,0,15,1,0
281049.633204633,123.576160488694,4,1,0,15,1,0
281057.621621622,123.843050689463,4,1,0,15,1,0
281065.61003861,124.111096202871,4,1,0,15,1,0
281073.598455598,124.380304546856,4,1,0,15,1,0
281081.586872587,124.650683304725,4,1,0,15,1,0
281089.575289575,124.922240125868,4,1,0,15,1,0
281097.563706564,125.194982726476,4,1,0,15,1,0
281105.552123552,125.468918890278,4,1,0,15,1,0
281113.540540541,125.744056469277,4,1,0,15,1,0
281121.528957529,126.020403384499,4,1,0,15,1,0
281129.517374517,126.297967626759,4,1,0,15,1,0
281137.505791506,126.576757257424,4,1,0,15,1,0
281145.494208494,126.856780409199,4,1,0,15,1,0
281153.482625483,127.138045286915,4,1,0,15,1,0
281161.471042471,127.420560168333,4,1,0,15,1,0
281169.459459459,127.704333404951,4,1,0,15,1,0
281177.447876448,127.989373422834,4,1,0,15,1,0
281185.436293436,128.27568872344,4,1,0,15,1,0
281193.424710425,128.563287884474,4,1,0,15,1,0
281201.413127413,128.852179560736,4,1,0,15,1,0
281209.401544402,129.142372484996,4,1,0,15,1,0
281217.38996139,129.43387546887,4,1,0,15,1,0
281225.378378378,129.726697403713,4,1,0,15,1,0
281233.366795367,130.020847261524,4,1,0,15,1,0
281241.355212355,130.31633409586,4,1,0,15,1,0
281249.343629344,130.613167042768,4,1,0,15,1,0
281257.332046332,130.911355321723,4,1,0,15,1,0
281265.32046332,131.210908236587,4,1,0,15,1,0
281273.308880309,131.511835176572,4,1,0,15,1,0
281281.297297297,131.814145617224,4,1,0,15,1,0
281289.285714286,132.117849121416,4,1,0,15,1,0
281297.274131274,132.422955340358,4,1,0,15,1,0
281305.262548263,132.729474014618,4,1,0,15,1,0
281313.250965251,133.037414975159,4,1,0,15,1,0
281321.239382239,133.346788144389,4,1,0,15,1,0
281329.227799228,133.65760353723,4,1,0,15,1,0
281337.216216216,133.969871262195,4,1,0,15,1,0
281345.204633205,134.283601522486,4,1,0,15,1,0
281353.193050193,134.598804617103,4,1,0,15,1,0
281361.181467181,134.915490941974,4,1,0,15,1,0
281369.16988417,135.233670991098,4,1,0,15,1,0
281377.158301158,135.5533553577,4,1,0,15,1,0
281385.146718147,135.874554735412,4,1,0,15,1,0
281393.135135135,136.197279919459,4,1,0,15,1,0
281401.123552124,136.521541807877,4,1,0,15,1,0
281409.111969112,136.847351402732,4,1,0,15,1,0
281417.1003861,137.174719811366,4,1,0,15,1,0
281425.088803089,137.503658247664,4,1,0,15,1,0
281433.077220077,137.83417803333,4,1,0,15,1,0
281441.065637066,138.166290599184,4,1,0,15,1,0
281449.054054054,138.500007486487,4,1,0,15,1,0
281457.042471042,138.83534034827,4,1,0,15,1,0
281465.030888031,139.172300950697,4,1,0,15,1,0
281473.019305019,139.510901174437,4,1,0,15,1,0
281481.007722008,139.85115301606,4,1,0,15,1,0
281488.996138996,140.193068589459,4,1,0,15,1,0
281496.984555985,140.536660127281,4,1,0,15,1,0
281504.972972973,140.88193998239,4,1,0,15,1,0
281512.961389961,141.228920629347,4,1,0,15,1,0
281520.94980695,141.57761466591,4,1,0,15,1,0
281528.938223938,141.928034814563,4,1,0,15,1,0
281536.926640927,142.280193924059,4,1,0,15,1,0
281544.915057915,142.634104970991,4,1,0,15,1,0
281552.903474903,142.98978106139,4,1,0,15,1,0
281560.891891892,143.347235432337,4,1,0,15,1,0
281568.88030888,143.70648145361,4,1,0,15,1,0
281576.868725869,144.067532629349,4,1,0,15,1,0
281584.857142857,144.430402599747,4,1,0,15,1,0
281592.845559846,144.79510514277,4,1,0,15,1,0
281600.833976834,145.161654175899,4,1,0,15,1,0
281608.822393822,145.530063757901,4,1,0,15,1,0
281616.810810811,145.900348090628,4,1,0,15,1,0
281624.799227799,146.272521520839,4,1,0,15,1,0
281632.787644788,146.646598542055,4,1,0,15,1,0
281640.776061776,147.022593796441,4,1,0,15,1,0
281648.764478765,147.400522076714,4,1,0,15,1,0
281656.752895753,147.780398328084,4,1,0,15,1,0
281664.741312741,148.162237650227,4,1,0,15,1,0
281672.72972973,148.54605529928,4,1,0,15,1,0
281680.718146718,148.931866689878,4,1,0,15,1,0
281688.706563707,149.319687397217,4,1,0,15,1,0
281696.694980695,149.709533159144,4,1,0,15,1,0
281704.683397683,150.101419878296,4,1,0,15,1,0
281712.671814672,150.495363624254,4,1,0,15,1,0
281720.66023166,150.891380635742,4,1,0,15,1,0
281728.648648649,151.289487322861,4,1,0,15,1,0
281736.637065637,151.689700269352,4,1,0,15,1,0
281744.625482626,152.0920362349,4,1,0,15,1,0
281752.613899614,152.496512157475,4,1,0,15,1,0
281760.602316602,152.903145155708,4,1,0,15,1,0
281768.590733591,153.311952531305,4,1,0,15,1,0
281776.579150579,153.722951771501,4,1,0,15,1,0
281784.567567568,154.136160551557,4,1,0,15,1,0
281792.555984556,154.55159673729,4,1,0,15,1,0
281800.544401544,154.969278387649,4,1,0,15,1,0
281808.532818533,155.389223757332,4,1,0,15,1,0
281816.521235521,155.811451299446,4,1,0,15,1,0
281824.50965251,156.23597966821,4,1,0,15,1,0
281832.498069498,156.662827721699,4,1,0,15,1,0
281840.486486487,157.092014524643,4,1,0,15,1,0
281848.474903475,157.523559351258,4,1,0,15,1,0
281856.463320463,157.957481688138,4,1,0,15,1,0
281864.451737452,158.393801237184,4,1,0,15,1,0
281872.44015444,158.832537918585,4,1,0,15,1,0
281880.428571429,159.273711873855,4,1,0,15,1,0
281888.416988417,159.71734346891,4,1,0,15,1,0
281896.405405405,160.163453297203,4,1,0,15,1,0
281904.393822394,160.612062182913,4,1,0,15,1,0
281912.382239382,161.063191184184,4,1,0,15,1,0
281920.370656371,161.516861596419,4,1,0,15,1,0
281928.359073359,161.973094955632,4,1,0,15,1,0
281936.347490348,162.431913041856,4,1,0,15,1,0
281944.335907336,162.893337882607,4,1,0,15,1,0
281952.324324324,163.357391756412,4,1,0,15,1,0
281960.312741313,163.824097196394,4,1,0,15,1,0
281968.301158301,164.293476993918,4,1,0,15,1,0
281976.28957529,164.765554202301,4,1,0,15,1,0
281984.277992278,165.240352140588,4,1,0,15,1,0
281992.266409266,165.717894397391,4,1,0,15,1,0
282000.254826255,166.198204834795,4,1,0,15,1,0
282008.243243243,166.681307592333,4,1,0,15,1,0
282016.231660232,167.16722709103,4,1,0,15,1,0
282024.22007722,167.655988037519,4,1,0,15,1,0
282032.208494209,168.147615428225,4,1,0,15,1,0
282040.196911197,168.642134553634,4,1,0,15,1,0
282048.185328185,169.13957100262,4,1,0,15,1,0
282056.173745174,169.639950666868,4,1,0,15,1,0
282064.162162162,170.14329974536,4,1,0,15,1,0
282072.150579151,170.649644748949,4,1,0,15,1,0
282080.138996139,171.159012505016,4,1,0,15,1,0
282088.127413127,171.671430162206,4,1,0,15,1,0
282096.115830116,172.186925195252,4,1,0,15,1,0
282104.104247104,172.705525409884,4,1,0,15,1,0
282112.092664093,173.227258947832,4,1,0,15,1,0
282120.081081081,173.752154291913,4,1,0,15,1,0
282128.06949807,174.280240271218,4,1,0,15,1,0
282136.057915058,174.811546066386,4,1,0,15,1,0
282144.046332046,175.346101214983,4,1,0,15,1,0
282152.034749035,175.883935616972,4,1,0,15,1,0
282160.023166023,176.425079540293,4,1,0,15,1,0
282168.011583012,176.969563626537,4,1,0,15,1,0
282176,177.517418896729,4,1,0,15,1,0
282183.988416988,178.068676757225,4,1,0,15,1,0
282191.976833977,178.623369005707,4,1,0,15,1,0
282199.965250965,179.181527837303,4,1,0,15,1,0
282207.953667954,179.743185850811,4,1,0,15,1,0
282215.942084942,180.308376055048,4,1,0,15,1,0
282223.93050193,180.877131875317,4,1,0,15,1,0
282231.918918919,181.449487159997,4,1,0,15,1,0
282239.907335907,182.025476187255,4,1,0,15,1,0
282247.895752896,182.605133671893,4,1,0,15,1,0
282255.884169884,183.18849477232,4,1,0,15,1,0
282263.872586873,183.775595097662,4,1,0,15,1,0
282271.861003861,184.366470715005,4,1,0,15,1,0
282279.849420849,184.961158156787,4,1,0,15,1,0
282287.837837838,185.559694428319,4,1,0,15,1,0
282295.826254826,186.162117015469,4,1,0,15,1,0
282303.814671815,186.768463892482,4,1,0,15,1,0
282311.803088803,187.378773529963,4,1,0,15,1,0
282319.791505791,187.993084903012,4,1,0,15,1,0
282327.77992278,188.611437499522,4,1,0,15,1,0
282335.768339768,189.233871328639,4,1,0,15,1,0
282343.756756757,189.860426929392,4,1,0,15,1,0
282351.745173745,190.491145379496,4,1,0,15,1,0
282359.733590734,191.126068304324,4,1,0,15,1,0
282367.722007722,191.765237886073,4,1,0,15,1,0
282375.71042471,192.408696873099,4,1,0,15,1,0
282383.698841699,193.056488589448,4,1,0,15,1,0
282391.687258687,193.708656944586,4,1,0,15,1,0
282399.675675676,194.365246443313,4,1,0,15,1,0
282407.664092664,195.026302195891,4,1,0,15,1,0
282415.652509652,195.691869928374,4,1,0,15,1,0
282423.640926641,196.361995993154,4,1,0,15,1,0
282431.629343629,197.036727379718,4,1,0,15,1,0
282439.617760618,197.716111725634,4,1,0,15,1,0
282447.606177606,198.400197327764,4,1,0,15,1,0
282455.594594595,199.089033153705,4,1,0,15,1,0
282463.583011583,199.782668853477,4,1,0,15,1,0
282471.571428571,200.481154771451,4,1,0,15,1,0
282479.55984556,201.184541958531,4,1,0,15,1,0
282487.548262548,201.89288218459,4,1,0,15,1,0
282495.536679537,202.606227951172,4,1,0,15,1,0
282503.525096525,203.324632504465,4,1,0,15,1,0
282511.513513513,204.048149848549,4,1,0,15,1,0
282519.501930502,204.776834758931,4,1,0,15,1,0
282527.49034749,205.510742796362,4,1,0,15,1,0
282535.478764479,206.249930320969,4,1,0,15,1,0
282543.467181467,206.994454506675,4,1,0,15,1,0
282551.455598456,207.744373355942,4,1,0,15,1,0
282559.444015444,208.499745714837,4,1,0,15,1,0
282567.432432432,209.260631288423,4,1,0,15,1,0
282575.420849421,210.027090656491,4,1,0,15,1,0
282583.409266409,210.799185289635,4,1,0,15,1,0
282591.397683398,211.576977565692,4,1,0,15,1,0
282599.386100386,212.360530786537,4,1,0,15,1,0
282607.374517375,213.149909195258,4,1,0,15,1,0
282615.362934363,213.945177993715,4,1,0,15,1,0
282623.351351351,214.746403360491,4,1,0,15,1,0
282631.33976834,215.553652469254,4,1,0,15,1,0
282639.328185328,216.366993507528,4,1,0,15,1,0
282647.316602317,217.186495695892,4,1,0,15,1,0
282655.305019305,218.01222930762,4,1,0,15,1,0
282663.293436293,218.844265688768,4,1,0,15,1,0
282671.281853282,219.682677278725,4,1,0,15,1,0
282679.27027027,220.527537631236,4,1,0,15,1,0
282687.258687259,221.378921435911,4,1,0,15,1,0
282695.247104247,222.23690454024,4,1,0,15,1,0
282703.235521236,223.101563972112,4,1,0,15,1,0
282711.223938224,223.972977962875,4,1,0,15,1,0
282719.212355212,224.851225970924,4,1,0,15,1,0
282727.200772201,225.736388705859,4,1,0,15,1,0
282735.189189189,226.628548153207,4,1,0,15,1,0
282743.177606178,227.527787599735,4,1,0,15,1,0
282751.166023166,228.434191659374,4,1,0,15,1,0
282759.154440154,229.347846299751,4,1,0,15,1,0
282767.142857143,230.26883886938,4,1,0,15,1,0
282775.131274131,231.19725812549,4,1,0,15,1,0
282783.11969112,232.133194262546,4,1,0,15,1,0
282791.108108108,233.076738941454,4,1,0,15,1,0
282799.096525097,234.027985319488,4,1,0,15,1,0
282807.084942085,234.98702808095,4,1,0,15,1,0
282815.073359073,235.953963468587,4,1,0,15,1,0
282823.061776062,236.928889315788,4,1,0,15,1,0
282831.05019305,237.91190507958,4,1,0,15,1,0
282839.038610039,238.903111874453,4,1,0,15,1,0
282847.027027027,239.902612507031,4,1,0,15,1,0
282855.015444015,240.910511511616,4,1,0,15,1,0
282863.003861004,241.926915186635,4,1,0,15,1,0
282870.992277992,242.951931632013,4,1,0,15,1,0
282878.980694981,243.985670787497,4,1,0,15,1,0
282886.969111969,245.028244471964,4,1,0,15,1,0
282894.957528958,246.079766423746,4,1,0,15,1,0
282902.945945946,247.140352341989,4,1,0,15,1,0
282910.934362934,248.210119929092,4,1,0,15,1,0
282918.922779923,249.289188934255,4,1,0,15,1,0
282926.911196911,250.377681198159,4,1,0,15,1,0
282934.8996139,251.47572069883,4,1,0,15,1,0
282942.888030888,252.583433598716,4,1,0,15,1,0
282950.876447876,253.700948293004,4,1,0,15,1,0
282958.864864865,254.828395459233,4,1,0,15,1,0
282966.853281853,255.965908108239,4,1,0,15,1,0
282974.841698842,257.113621636459,4,1,0,15,1,0
282982.83011583,258.271673879659,4,1,0,15,1,0
282990.818532819,259.440205168119,4,1,0,15,1,0
282998.806949807,260.619358383315,4,1,0,15,1,0
283006.795366795,261.809279016163,4,1,0,15,1,0
283014.783783784,263.010115226864,4,1,0,15,1,0
283022.772200772,264.222017906397,4,1,0,15,1,0
283030.760617761,265.445140739731,4,1,0,15,1,0
283038.749034749,266.679640270788,4,1,0,15,1,0
283046.737451737,267.925675969239,4,1,0,15,1,0
283054.725868726,269.183410299175,4,1,0,15,1,0
283062.714285714,270.453008789723,4,1,0,15,1,0
283070.702702703,271.734640107665,4,1,0,15,1,0
283078.691119691,273.028476132146,4,1,0,15,1,0
283086.67953668,274.334692031504,4,1,0,15,1,0
283094.667953668,275.653466342339,4,1,0,15,1,0
283102.656370656,276.984981050858,4,1,0,15,1,0
283110.644787645,278.329421676596,4,1,0,15,1,0
283118.633204633,279.686977358583,4,1,0,15,1,0
283126.621621622,281.05784094405,4,1,0,15,1,0
283134.61003861,282.442209079753,4,1,0,15,1,0
283142.598455598,283.84028230601,4,1,0,15,1,0
283150.586872587,285.252265153545,4,1,0,15,1,0
283158.575289575,286.678366243235,4,1,0,15,1,0
283166.563706564,288.118798388871,4,1,0,15,1,0
283174.552123552,289.573778703022,4,1,0,15,1,0
283182.540540541,291.043528706134,4,1,0,15,1,0
283190.528957529,292.528274438958,4,1,0,15,1,0
283198.517374517,294.028246578445,4,1,0,15,1,0
283206.505791506,295.543680557219,4,1,0,15,1,0
283214.494208494,297.074816686773,4,1,0,15,1,0
283222.482625483,298.621900284498,4,1,0,15,1,0
283230.471042471,300.185181804721,4,1,0,15,1,0
283238.459459459,301.764916973869,4,1,0,15,1,0
283246.447876448,303.361366929921,4,1,0,15,1,0
283254.436293436,304.974798366324,4,1,0,15,1,0
283262.424710425,306.605483680509,4,1,0,15,1,0
283270.413127413,308.253701127209,4,1,0,15,1,0
283278.401544402,309.919734976745,4,1,0,15,1,0
283286.38996139,311.603875678475,4,1,0,15,1,0
283294.378378378,313.306420029595,4,1,0,15,1,0
283302.366795367,315.02767134951,4,1,0,15,1,0
283310.355212355,316.767939659988,4,1,0,15,1,0
283318.343629344,318.527541871306,4,1,0,15,1,0
283326.332046332,320.306801974648,4,1,0,15,1,0
283334.32046332,322.106051240979,4,1,0,15,1,0
283342.308880309,323.925628426662,4,1,0,15,1,0
283350.297297297,325.765879986089,4,1,0,15,1,0
283358.285714286,327.627160291588,4,1,0,15,1,0
283366.274131274,329.509831860929,4,1,0,15,1,0
283374.262548263,331.414265592705,4,1,0,15,1,0
283382.250965251,333.340841009932,4,1,0,15,1,0
283390.239382239,335.289946512191,4,1,0,15,1,0
283398.227799228,337.261979636668,4,1,0,15,1,0
283406.216216216,339.257347328463,4,1,0,15,1,0
283414.204633205,341.276466220547,4,1,0,15,1,0
283422.193050193,343.319762923785,4,1,0,15,1,0
283430.181467181,345.387674327427,4,1,0,15,1,0
283438.16988417,347.480647910537,4,1,0,15,1,0
283446.158301158,349.599142064808,4,1,0,15,1,0
283454.146718147,351.743626429255,4,1,0,15,1,0
283462.135135135,353.914582237314,4,1,0,15,1,0
283470.123552124,356.112502676859,4,1,0,15,1,0
283478.111969112,358.337893263732,4,1,0,15,1,0
283486.1003861,360.591272229355,4,1,0,15,1,0
283494.088803089,362.873170923071,4,1,0,15,1,0
283502.077220077,365.184134229844,4,1,0,15,1,0
283510.065637066,367.524721004038,4,1,0,15,1,0
283518.054054054,369.895504519973,4,1,0,15,1,0
283526.042471042,372.29707294004,4,1,0,15,1,0
283534.030888031,374.730029801165,4,1,0,15,1,0
283542.019305019,377.194994520478,4,1,0,15,1,0
283550.007722008,379.692602921067,4,1,0,15,1,0
283557.996138996,382.223507778765,4,1,0,15,1,0
283565.984555985,384.788379390942,4,1,0,15,1,0
283573.972972973,387.387906168367,4,1,0,15,1,0
283581.961389961,390.022795251209,4,1,0,15,1,0
283589.94980695,392.693773150359,4,1,0,15,1,0
283597.938223938,395.401586415284,4,1,0,15,1,0
283605.926640927,398.147002329698,4,1,0,15,1,0
283613.915057915,400.930809636426,4,1,0,15,1,0
283621.903474903,403.753819292885,4,1,0,15,1,0
283629.891891892,406.61686525871,4,1,0,15,1,0
283637.88030888,409.520805317129,4,1,0,15,1,0
283645.868725869,412.466521931792,4,1,0,15,1,0
283653.857142857,415.454923140839,4,1,0,15,1,0
283661.845559846,418.486943490124,4,1,0,15,1,0
283669.833976834,421.563545007605,4,1,0,15,1,0
283677.822393822,424.685718221026,4,1,0,15,1,0
283685.810810811,427.854483221166,4,1,0,15,1,0
283693.799227799,431.070890773044,4,1,0,15,1,0
283701.787644788,434.336023477623,4,1,0,15,1,0
283709.776061776,437.650996986714,4,1,0,15,1,0
283717.764478765,441.016961273943,4,1,0,15,1,0
283725.752895753,444.435101964823,4,1,0,15,1,0
283733.741312741,447.906641729162,4,1,0,15,1,0
283741.72972973,451.432841739236,4,1,0,15,1,0
283749.718146718,455.015003197403,4,1,0,15,1,0
283757.706563707,458.654468937006,4,1,0,15,1,0
283765.694980695,462.352625100749,4,1,0,15,1,0
283773.683397683,466.11090290091,4,1,0,15,1,0
283781.671814672,469.930780466121,4,1,0,15,1,0
283789.66023166,473.813784779692,4,1,0,15,1,0
283797.648648649,477.761493714853,4,1,0,15,1,0
283805.637065637,481.775538172573,4,1,0,15,1,0
283813.625482626,485.857604328072,4,1,0,15,1,0
283821.613899614,490.009435992517,4,1,0,15,1,0
283829.602316602,494.232837096849,4,1,0,15,1,0
283837.590733591,498.529674305174,4,1,0,15,1,0
283845.579150579,502.901879765675,4,1,0,15,1,0
283853.567567568,507.351454007562,4,1,0,15,1,0
283861.555984556,511.880468993186,4,1,0,15,1,0
283869.544401544,516.491071335094,4,1,0,15,1,0
283877.532818533,521.185485688528,4,1,0,15,1,0
283885.521235521,525.966018330626,4,1,0,15,1,0
283893.50965251,530.83506093843,4,1,0,15,1,0
283901.498069498,535.795094578695,4,1,0,15,1,0
283909.486486487,540.848693923492,4,1,0,15,1,0
283917.474903475,545.998531706651,4,1,0,15,1,0
283925.463320463,551.247383437251,4,1,0,15,1,0
283933.451737452,556.598132387618,4,1,0,15,1,0
283941.44015444,562.053774874677,4,1,0,15,1,0
283949.428571429,567.617425854973,4,1,0,15,1,0
283957.416988417,573.292324855321,4,1,0,15,1,0
283965.405405405,579.081842262801,4,1,0,15,1,0
283973.393822394,584.989485999778,4,1,0,15,1,0
283981.382239382,591.018908611704,4,1,0,15,1,0
283989.370656371,597.173914797807,4,1,0,15,1,0
283997.359073359,603.458469417295,4,1,0,15,1,0
284005.347490348,609.876706006461,4,1,0,15,1,0
284013.335907336,616.432935845158,4,1,0,15,1,0
284021.324324324,623.131657614416,4,1,0,15,1,0
284029.312741313,629.977567690664,4,1,0,15,1,0
284037.301158301,636.975571126069,4,1,0,15,1,0
284045.28957529,644.130793368934,4,1,0,15,1,0
284053.277992278,651.448592783006,4,1,0,15,1,0
284061.266409266,658.934574029963,4,1,0,15,1,0
284069.254826255,666.594602385327,4,1,0,15,1,0
284077.243243243,674.434819064631,4,1,0,15,1,0
284085.231660232,682.461657644031,4,1,0,15,1,0
284093.22007722,690.681861667623,4,1,0,15,1,0
284101.208494209,699.102503542749,4,1,0,15,1,0
284109.196911197,707.731004834568,4,1,0,15,1,0
284117.185328185,716.575158082289,4,1,0,15,1,0
284125.173745174,725.643150271871,4,1,0,15,1,0
284133.162162162,734.943588113777,4,1,0,15,1,0
284141.150579151,744.48552528987,4,1,0,15,1,0
284149.138996139,754.278491850734,4,1,0,15,1,0
284157.127413127,764.332525964066,4,1,0,15,1,0
284165.115830116,774.6582082365,4,1,0,15,1,0
284173.104247104,785.266698855526,4,1,0,15,1,0
284181.092664093,796.169777825596,4,1,0,15,1,0
284189.081081081,807.379888603396,4,1,0,15,1,0
284197.06949807,818.91018547209,4,1,0,15,1,0
284205.057915058,830.774585033708,4,1,0,15,1,0
284213.046332046,842.987822243486,4,1,0,15,1,0
284221.034749035,855.565511460531,4,1,0,15,1,0
284229.023166023,868.524213046642,4,1,0,15,1,0
284237.011583012,881.881506110604,4,1,0,15,1,0
284245,295.566502463054,4,2,0,30,1,0
284245,-303.030303030303,4,1,0,15,0,0
284836.1,-294.117647058824,4,1,0,15,0,0
285427.2,-285.714285714286,4,1,0,15,0,0
286018.3,-277.777777777778,4,1,0,15,0,0
286609.4,-270.27027027027,4,1,0,15,0,0
287200.5,-263.157894736842,4,1,0,15,0,0
287791.6,-256.410256410256,4,1,0,15,0,0
288382.7,-250,4,1,0,15,0,0
288973.8,-243.90243902439,4,1,0,15,0,0
289564.9,-238.095238095238,4,1,0,15,0,0
290156,-232.558139534884,4,1,0,15,0,0
290747.1,-227.272727272727,4,1,0,15,0,0
291338.2,-222.222222222222,4,1,0,15,0,0
291929.3,-217.391304347826,4,1,0,15,0,0
292520.4,-212.765957446809,4,1,0,15,0,0
293111.5,-208.333333333333,4,1,0,15,0,0
293702.6,-204.081632653061,4,1,0,15,0,0
294293.7,-200,4,1,0,15,0,0
294884.8,-196.078431372549,4,1,0,15,0,0
295475.9,-192.307692307692,4,1,0,15,0,0
296067,-188.679245283019,4,1,0,15,0,0
296658.1,-185.185185185185,4,1,0,15,0,0
297249.2,-181.818181818182,4,1,0,15,0,0
297840.3,-178.571428571429,4,1,0,15,0,0
298431.4,-175.438596491228,4,1,0,15,0,0
299022.5,-172.413793103448,4,1,0,15,0,0
299613.6,-169.491525423729,4,1,0,15,0,0
300204.7,-166.666666666667,4,1,0,15,0,0
300795.8,-163.934426229508,4,1,0,15,0,0
301386.9,-161.290322580645,4,1,0,15,0,0
301978,-158.730158730159,4,1,0,15,0,0
302014.954545455,-153.846153846154,4,1,0,15,0,0
302051.909090909,-149.253731343284,4,1,0,15,0,0
302088.863636364,-144.927536231884,4,1,0,15,0,0
302125.818181818,-140.845070422535,4,1,0,15,0,0
302162.772727273,-136.986301369863,4,1,0,15,0,0
302199.727272727,-133.333333333333,4,1,0,15,0,0
302236.681818182,-129.87012987013,4,1,0,15,0,0
302273.636363636,-126.582278481013,4,1,0,15,0,0
302310.590909091,-123.456790123457,4,1,0,15,0,0
302347.545454545,-120.481927710843,4,1,0,15,0,0
302384.5,-117.647058823529,4,1,0,15,0,0
302421.454545455,-114.942528735632,4,1,0,15,0,0
302458.409090909,-112.359550561798,4,1,0,15,0,0
302495.363636364,-109.89010989011,4,1,0,15,0,0
302532.318181818,-107.52688172043,4,1,0,15,0,0
302569.272727273,-105.263157894737,4,1,0,15,0,0
302606.227272727,-103.092783505155,4,1,0,15,0,0
302643.181818182,-101.010101010101,4,1,0,15,0,0
302680.136363636,-99.009900990099,4,1,0,15,0,0
302717.090909091,-97.0873786407767,4,1,0,15,0,0
302754.045454545,-95.2380952380952,4,1,0,15,0,0
302791,-93.4579439252336,4,1,0,15,0,0
302827.954545455,-91.7431192660551,4,1,0,15,0,0
302864.909090909,-90.0900900900901,4,1,0,15,0,0
302901.863636364,-88.495575221239,4,1,0,15,0,0
302938.818181818,-86.9565217391304,4,1,0,15,0,0
302975.772727273,-85.4700854700855,4,1,0,15,0,0
303012.727272727,-84.0336134453782,4,1,0,15,0,0
303049.681818182,-82.6446280991736,4,1,0,15,0,0
303086.636363636,-81.3008130081301,4,1,0,15,0,0
303123.590909091,-80,4,1,0,15,0,0
303160.545454545,-78.740157480315,4,1,0,15,0,0
303197.5,-77.5193798449612,4,1,0,15,0,0
303234.454545455,-76.3358778625954,4,1,0,15,0,0
303271.409090909,-75.187969924812,4,1,0,15,0,0
303308.363636364,-74.0740740740741,4,1,0,15,0,0
303345.318181818,-72.992700729927,4,1,0,15,0,0
303382.272727273,-71.9424460431655,4,1,0,15,0,0
303419.227272727,-70.9219858156028,4,1,0,15,0,0
303456.181818182,-69.9300699300699,4,1,0,15,0,0
303493.136363636,-68.9655172413793,4,1,0,15,0,0
303530.090909091,-68.0272108843538,4,1,0,15,0,0
303567.045454545,-67.1140939597315,4,1,0,15,0,0
303604,-66.2251655629139,4,1,0,15,0,0

[HitObjects]
192,192,5822,5,0,0:0:0:0:
448,192,6597,1,0,0:0:0:0:
320,192,6634,1,0,0:0:0:0:
320,192,7004,1,0,0:0:0:0:
64,192,7743,1,0,0:0:0:0:
192,192,7817,1,0,0:0:0:0:
64,192,8186,1,0,0:0:0:0:
320,192,8925,1,0,0:0:0:0:
448,192,8999,1,0,0:0:0:0:
320,192,9368,1,0,0:0:0:0:
64,192,9812,1,0,0:0:0:0:
64,192,10551,1,0,0:0:0:0:
192,192,10551,1,0,0:0:0:0:
320,192,15280,128,0,15317:0:0:0:0:
448,192,15317,128,0,15354:0:0:0:0:
192,192,16056,1,0,0:0:0:0:
64,192,16092,1,0,0:0:0:0:
64,192,16462,1,0,0:0:0:0:
320,192,17238,1,0,0:0:0:0:
448,192,17275,1,0,0:0:0:0:
448,192,17644,1,0,0:0:0:0:
64,192,18457,1,0,0:0:0:0:
192,192,18531,1,0,0:0:0:0:
448,192,18826,1,0,0:0:0:0:
320,192,19270,1,0,0:0:0:0:
448,192,20009,1,0,0:0:0:0:
320,192,20009,1,0,0:0:0:0:
64,192,22373,128,0,24738:0:0:0:0:
192,192,22410,128,0,24590:0:0:0:0:
320,192,22447,128,0,24442:0:0:0:0:
448,192,22484,128,0,24147:0:0:0:0:
448,192,24738,128,0,25033:0:0:0:0:
320,192,24738,128,0,25033:0:0:0:0:
448,192,25181,128,0,25329:0:0:0:0:
320,192,25181,128,0,25329:0:0:0:0:
448,192,25477,128,0,25625:0:0:0:0:
320,192,25477,128,0,25625:0:0:0:0:
64,192,25772,128,0,25920:0:0:0:0:
192,192,25772,128,0,25920:0:0:0:0:
448,192,26659,128,0,27028:0:0:0:0:
320,192,26659,128,0,27028:0:0:0:0:
192,192,26659,128,0,27028:0:0:0:0:
64,192,26659,128,0,27028:0:0:0:0:
64,192,27102,128,0,27398:0:0:0:0:
192,192,27102,128,0,27398:0:0:0:0:
320,192,27546,128,0,27693:0:0:0:0:
192,192,27546,128,0,27693:0:0:0:0:
320,192,27767,128,0,27915:0:0:0:0:
192,192,27767,128,0,27915:0:0:0:0:
320,192,27989,128,0,28211:0:0:0:0:
192,192,27989,128,0,28211:0:0:0:0:
64,192,28876,128,0,29467:0:0:0:0:
192,192,29171,128,0,29467:0:0:0:0:
448,192,29467,128,0,29762:0:0:0:0:
320,192,29467,128,0,29762:0:0:0:0:
448,192,29910,128,0,30058:0:0:0:0:
320,192,29910,128,0,30058:0:0:0:0:
448,192,30206,128,0,30354:0:0:0:0:
320,192,30206,128,0,30354:0:0:0:0:
64,192,30501,128,0,30649:0:0:0:0:
192,192,30501,128,0,30649:0:0:0:0:
64,192,31388,128,0,31758:0:0:0:0:
192,192,31388,128,0,31758:0:0:0:0:
320,192,31388,128,0,31758:0:0:0:0:
448,192,31388,128,0,31758:0:0:0:0:
64,192,31831,128,0,31979:0:0:0:0:
192,192,31831,128,0,31979:0:0:0:0:
64,192,32275,128,0,32423:0:0:0:0:
448,192,32275,128,0,32423:0:0:0:0:
448,192,32496,128,0,32644:0:0:0:0:
64,192,32496,128,0,32644:0:0:0:0:
64,192,32718,128,0,32940:0:0:0:0:
448,192,32718,128,0,32940:0:0:0:0:
64,192,33457,128,0,34122:0:0:0:0:
192,192,33605,128,0,34122:0:0:0:0:
320,192,33753,128,0,34196:0:0:0:0:
448,192,33900,128,0,34196:0:0:0:0:
192,192,34196,1,0,0:0:0:0:
64,192,34196,1,0,0:0:0:0:
448,192,34344,1,0,0:0:0:0:
320,192,34492,1,0,0:0:0:0:
64,192,34492,1,0,0:0:0:0:
64,192,34639,1,0,0:0:0:0:
192,192,34787,1,0,0:0:0:0:
320,192,34787,1,0,0:0:0:0:
320,192,34935,1,0,0:0:0:0:
448,192,35083,1,0,0:0:0:0:
64,192,35083,1,0,0:0:0:0:
192,192,35083,1,0,0:0:0:0:
448,192,35230,1,0,0:0:0:0:
320,192,35378,1,0,0:0:0:0:
64,192,35378,128,0,35674:0:0:0:0:
192,192,35674,1,0,0:0:0:0:
320,192,35674,1,0,0:0:0:0:
448,192,35674,1,0,0:0:0:0:
320,192,35822,1,0,0:0:0:0:
64,192,35969,1,0,0:0:0:0:
448,192,35969,1,0,0:0:0:0:
64,192,36117,1,0,0:0:0:0:
192,192,36265,1,0,0:0:0:0:
320,192,36265,1,0,0:0:0:0:
448,192,36265,1,0,0:0:0:0:
320,192,36413,1,0,0:0:0:0:
64,192,36560,1,0,0:0:0:0:
448,192,36560,128,0,36856:0:0:0:0:
192,192,36856,1,0,0:0:0:0:
320,192,36856,1,0,0:0:0:0:
64,192,36856,1,0,0:0:0:0:
320,192,37004,1,0,0:0:0:0:
64,192,37152,1,0,0:0:0:0:
448,192,37152,1,0,0:0:0:0:
192,192,37299,1,0,0:0:0:0:
64,192,37447,1,0,0:0:0:0:
192,192,37447,1,0,0:0:0:0:
448,192,37447,1,0,0:0:0:0:
320,192,37595,1,0,0:0:0:0:
448,192,37743,1,0,0:0:0:0:
64,192,37743,1,0,0:0:0:0:
320,192,37743,128,0,38038:0:0:0:0:
448,192,38038,1,0,0:0:0:0:
192,192,38038,1,0,0:0:0:0:
448,192,38186,1,0,0:0:0:0:
64,192,38334,1,0,0:0:0:0:
192,192,38334,1,0,0:0:0:0:
320,192,38334,1,0,0:0:0:0:
64,192,38482,1,0,0:0:0:0:
320,192,38629,1,0,0:0:0:0:
192,192,38629,1,0,0:0:0:0:
448,192,38629,1,0,0:0:0:0:
320,192,38777,1,0,0:0:0:0:
192,192,38925,1,0,0:0:0:0:
64,192,38925,1,0,0:0:0:0:
448,192,38925,1,0,0:0:0:0:
64,192,39122,1,0,0:0:0:0:
320,192,39221,1,0,0:0:0:0:
192,192,39221,1,0,0:0:0:0:
448,192,39319,1,0,0:0:0:0:
64,192,39319,1,0,0:0:0:0:
64,192,39516,1,0,0:0:0:0:
192,192,39516,1,0,0:0:0:0:
448,192,39516,1,0,0:0:0:0:
64,192,39713,1,0,0:0:0:0:
320,192,39812,1,0,0:0:0:0:
448,192,39812,1,0,0:0:0:0:
64,192,39910,1,0,0:0:0:0:
192,192,39910,1,0,0:0:0:0:
64,192,40107,1,0,0:0:0:0:
192,192,40107,1,0,0:0:0:0:
448,192,40107,1,0,0:0:0:0:
64,192,40304,1,0,0:0:0:0:
192,192,40403,1,0,0:0:0:0:
448,192,40403,1,0,0:0:0:0:
320,192,40501,1,0,0:0:0:0:
64,192,40501,1,0,0:0:0:0:
320,192,40698,1,0,0:0:0:0:
448,192,40698,1,0,0:0:0:0:
192,192,40772,1,0,0:0:0:0:
64,192,40772,1,0,0:0:0:0:
320,192,40846,1,0,0:0:0:0:
448,192,40846,1,0,0:0:0:0:
192,192,40920,1,0,0:0:0:0:
320,192,40994,1,0,0:0:0:0:
64,192,40994,1,0,0:0:0:0:
448,192,41068,1,0,0:0:0:0:
192,192,41068,1,0,0:0:0:0:
64,192,41142,1,0,0:0:0:0:
320,192,41142,1,0,0:0:0:0:
192,192,41216,1,0,0:0:0:0:
320,192,41290,128,0,41585:0:0:0:0:
448,192,41290,128,0,41585:0:0:0:0:
64,192,41290,128,0,41585:0:0:0:0:
192,192,41585,128,0,41733:0:0:0:0:
320,192,41733,128,0,41881:0:0:0:0:
192,192,41881,128,0,42250:0:0:0:0:
64,192,42250,128,0,42324:0:0:0:0:
448,192,42324,128,0,42398:0:0:0:0:
64,192,42398,128,0,42620:0:0:0:0:
320,192,42620,128,0,42693:0:0:0:0:
192,192,42693,128,0,43211:0:0:0:0:
448,192,43211,1,0,0:0:0:0:
448,192,43285,1,0,0:0:0:0:
320,192,43359,1,0,0:0:0:0:
64,192,43432,1,0,0:0:0:0:
192,192,43506,1,0,0:0:0:0:
192,192,43580,1,0,0:0:0:0:
448,192,43654,128,0,44097:0:0:0:0:
64,192,43654,128,0,44097:0:0:0:0:
320,192,43654,128,0,43950:0:0:0:0:
192,192,43950,128,0,44097:0:0:0:0:
320,192,44097,128,0,44541:0:0:0:0:
64,192,44245,1,0,0:0:0:0:
448,192,44245,1,0,0:0:0:0:
192,192,44245,128,0,44541:0:0:0:0:
192,192,44615,1,0,0:0:0:0:
320,192,44689,1,0,0:0:0:0:
192,192,44762,1,0,0:0:0:0:
320,192,44836,1,0,0:0:0:0:
192,192,44910,1,0,0:0:0:0:
320,192,44984,1,0,0:0:0:0:
192,192,45058,1,0,0:0:0:0:
320,192,45132,1,0,0:0:0:0:
448,192,45132,1,0,0:0:0:0:
64,192,45132,1,0,0:0:0:0:
192,192,45206,1,0,0:0:0:0:
320,192,45280,1,0,0:0:0:0:
192,192,45354,1,0,0:0:0:0:
64,192,45427,1,0,0:0:0:0:
320,192,45427,1,0,0:0:0:0:
448,192,45427,1,0,0:0:0:0:
448,192,45649,1,0,0:0:0:0:
320,192,45649,1,0,0:0:0:0:
320,192,45871,1,0,0:0:0:0:
448,192,45871,1,0,0:0:0:0:
64,192,46019,128,0,46314:0:0:0:0:
192,192,46019,1,0,0:0:0:0:
320,192,46314,1,0,0:0:0:0:
448,192,46314,128,0,46610:0:0:0:0:
192,192,46610,1,0,0:0:0:0:
320,192,46610,1,0,0:0:0:0:
64,192,46610,1,0,0:0:0:0:
192,192,46758,128,0,46905:0:0:0:0:
64,192,46905,1,0,0:0:0:0:
448,192,46905,1,0,0:0:0:0:
320,192,46905,1,0,0:0:0:0:
448,192,47053,1,0,0:0:0:0:
192,192,47053,1,0,0:0:0:0:
320,192,47053,1,0,0:0:0:0:
192,192,47127,1,0,0:0:0:0:
64,192,47201,1,0,0:0:0:0:
64,192,47349,1,0,0:0:0:0:
192,192,47423,1,0,0:0:0:0:
448,192,47496,1,0,0:0:0:0:
64,192,47496,1,0,0:0:0:0:
320,192,47496,1,0,0:0:0:0:
192,192,47570,1,0,0:0:0:0:
320,192,47644,1,0,0:0:0:0:
64,192,47792,1,0,0:0:0:0:
448,192,47792,1,0,0:0:0:0:
192,192,47792,1,0,0:0:0:0:
64,192,47866,1,0,0:0:0:0:
192,192,47940,1,0,0:0:0:0:
448,192,47940,1,0,0:0:0:0:
320,192,47940,1,0,0:0:0:0:
448,192,48014,1,0,0:0:0:0:
64,192,48088,1,0,0:0:0:0:
320,192,48088,1,0,0:0:0:0:
192,192,48161,1,0,0:0:0:0:
320,192,48235,1,0,0:0:0:0:
320,192,48309,1,0,0:0:0:0:
448,192,48383,1,0,0:0:0:0:
64,192,48383,1,0,0:0:0:0:
192,192,48383,128,0,48679:0:0:0:0:
64,192,48679,1,0,0:0:0:0:
448,192,48679,1,0,0:0:0:0:
192,192,48826,1,0,0:0:0:0:
448,192,48974,1,0,0:0:0:0:
64,192,48974,1,0,0:0:0:0:
192,192,48974,1,0,0:0:0:0:
320,192,48974,128,0,49270:0:0:0:0:
448,192,49270,1,0,0:0:0:0:
64,192,49270,1,0,0:0:0:0:
192,192,49344,1,0,0:0:0:0:
320,192,49418,1,0,0:0:0:0:
320,192,49492,1,0,0:0:0:0:
448,192,49565,1,0,0:0:0:0:
64,192,49565,1,0,0:0:0:0:
192,192,49639,1,0,0:0:0:0:
192,192,49713,1,0,0:0:0:0:
320,192,49787,1,0,0:0:0:0:
448,192,49861,1,0,0:0:0:0:
64,192,49861,1,0,0:0:0:0:
192,192,49935,1,0,0:0:0:0:
320,192,50009,1,0,0:0:0:0:
320,192,50083,1,0,0:0:0:0:
192,192,50157,1,0,0:0:0:0:
64,192,50157,128,0,50304:0:0:0:0:
448,192,50230,128,0,50378:0:0:0:0:
320,192,50304,128,0,50452:0:0:0:0:
192,192,50378,128,0,50526:0:0:0:0:
448,192,50452,1,0,0:0:0:0:
64,192,50452,1,0,0:0:0:0:
320,192,50526,128,0,50674:0:0:0:0:
192,192,50600,128,0,50748:0:0:0:0:
64,192,50600,128,0,50748:0:0:0:0:
448,192,50748,1,0,0:0:0:0:
320,192,50748,1,0,0:0:0:0:
320,192,50895,1,0,0:0:0:0:
320,192,51043,1,0,0:0:0:0:
448,192,51043,1,0,0:0:0:0:
64,192,51043,1,0,0:0:0:0:
192,192,51191,1,0,0:0:0:0:
192,192,51339,1,0,0:0:0:0:
64,192,51339,1,0,0:0:0:0:
448,192,51339,1,0,0:0:0:0:
320,192,51487,1,0,0:0:0:0:
320,192,51634,1,0,0:0:0:0:
448,192,51634,1,0,0:0:0:0:
64,192,51634,1,0,0:0:0:0:
192,192,51782,128,0,51930:0:0:0:0:
64,192,51930,1,0,0:0:0:0:
448,192,51930,1,0,0:0:0:0:
320,192,51930,1,0,0:0:0:0:
192,192,52078,1,0,0:0:0:0:
192,192,52152,1,0,0:0:0:0:
64,192,52226,1,0,0:0:0:0:
448,192,52226,1,0,0:0:0:0:
192,192,52299,1,0,0:0:0:0:
320,192,52373,1,0,0:0:0:0:
320,192,52447,1,0,0:0:0:0:
448,192,52521,1,0,0:0:0:0:
64,192,52521,128,0,52669:0:0:0:0:
192,192,52595,128,0,52743:0:0:0:0:
448,192,52669,128,0,52817:0:0:0:0:
320,192,52743,128,0,52891:0:0:0:0:
192,192,52817,128,0,52964:0:0:0:0:
64,192,52891,128,0,53038:0:0:0:0:
448,192,52964,128,0,53112:0:0:0:0:
64,192,53112,1,0,0:0:0:0:
192,192,53149,1,0,0:0:0:0:
320,192,53186,128,0,53629:0:0:0:0:
448,192,53556,128,0,53629:0:0:0:0:
192,192,53592,128,0,53999:0:0:0:0:
64,192,53629,128,0,53999:0:0:0:0:
448,192,53999,128,0,54294:0:0:0:0:
320,192,53999,128,0,54294:0:0:0:0:
64,192,54294,1,0,0:0:0:0:
448,192,54368,1,0,0:0:0:0:
64,192,54442,1,0,0:0:0:0:
448,192,54516,1,0,0:0:0:0:
64,192,54590,1,0,0:0:0:0:
192,192,54590,1,0,0:0:0:0:
448,192,54664,1,0,0:0:0:0:
64,192,54738,1,0,0:0:0:0:
448,192,54812,1,0,0:0:0:0:
64,192,54886,1,0,0:0:0:0:
192,192,54886,1,0,0:0:0:0:
320,192,55107,1,0,0:0:0:0:
448,192,55107,1,0,0:0:0:0:
448,192,55329,1,0,0:0:0:0:
320,192,55329,1,0,0:0:0:0:
448,192,55477,128,0,55772:0:0:0:0:
64,192,55477,1,0,0:0:0:0:
192,192,55477,1,0,0:0:0:0:
320,192,55772,128,0,56068:0:0:0:0:
64,192,55772,1,0,0:0:0:0:
192,192,55772,1,0,0:0:0:0:
192,192,56068,1,0,0:0:0:0:
64,192,56068,1,0,0:0:0:0:
448,192,56068,1,0,0:0:0:0:
320,192,56216,128,0,56363:0:0:0:0:
64,192,56363,1,0,0:0:0:0:
448,192,56363,1,0,0:0:0:0:
192,192,56363,1,0,0:0:0:0:
448,192,56511,1,0,0:0:0:0:
64,192,56511,1,0,0:0:0:0:
192,192,56511,1,0,0:0:0:0:
448,192,56585,1,0,0:0:0:0:
320,192,56659,1,0,0:0:0:0:
448,192,56807,1,0,0:0:0:0:
320,192,56881,1,0,0:0:0:0:
192,192,56955,1,0,0:0:0:0:
448,192,56955,1,0,0:0:0:0:
64,192,56955,1,0,0:0:0:0:
320,192,57102,1,0,0:0:0:0:
320,192,57250,1,0,0:0:0:0:
64,192,57250,1,0,0:0:0:0:
448,192,57250,1,0,0:0:0:0:
192,192,57324,1,0,0:0:0:0:
192,192,57398,1,0,0:0:0:0:
448,192,57398,1,0,0:0:0:0:
64,192,57398,1,0,0:0:0:0:
320,192,57472,1,0,0:0:0:0:
320,192,57546,128,0,57841:0:0:0:0:
64,192,57841,1,0,0:0:0:0:
192,192,57841,1,0,0:0:0:0:
448,192,57841,1,0,0:0:0:0:
192,192,57989,1,0,0:0:0:0:
448,192,57989,1,0,0:0:0:0:
192,192,58063,1,0,0:0:0:0:
64,192,58137,1,0,0:0:0:0:
448,192,58137,1,0,0:0:0:0:
320,192,58137,1,0,0:0:0:0:
320,192,58285,1,0,0:0:0:0:
192,192,58285,1,0,0:0:0:0:
64,192,58432,1,0,0:0:0:0:
448,192,58432,1,0,0:0:0:0:
192,192,58432,1,0,0:0:0:0:
320,192,58506,1,0,0:0:0:0:
192,192,58580,1,0,0:0:0:0:
448,192,58580,1,0,0:0:0:0:
64,192,58728,1,0,0:0:0:0:
448,192,58728,1,0,0:0:0:0:
192,192,58728,1,0,0:0:0:0:
320,192,58876,1,0,0:0:0:0:
192,192,58876,1,0,0:0:0:0:
192,192,59024,1,0,0:0:0:0:
64,192,59024,1,0,0:0:0:0:
448,192,59097,1,0,0:0:0:0:
320,192,59097,1,0,0:0:0:0:
192,192,59171,1,0,0:0:0:0:
192,192,59245,1,0,0:0:0:0:
64,192,59319,1,0,0:0:0:0:
448,192,59319,1,0,0:0:0:0:
192,192,59467,1,0,0:0:0:0:
320,192,59467,1,0,0:0:0:0:
192,192,59615,1,0,0:0:0:0:
64,192,59615,1,0,0:0:0:0:
448,192,59615,1,0,0:0:0:0:
320,192,59689,1,0,0:0:0:0:
448,192,59762,1,0,0:0:0:0:
64,192,59762,1,0,0:0:0:0:
64,192,59910,1,0,0:0:0:0:
448,192,59910,1,0,0:0:0:0:
192,192,59910,128,0,60206:0:0:0:0:
64,192,60206,1,0,0:0:0:0:
448,192,60206,1,0,0:0:0:0:
320,192,60206,1,0,0:0:0:0:
192,192,60354,1,0,0:0:0:0:
192,192,60427,1,0,0:0:0:0:
64,192,60501,1,0,0:0:0:0:
320,192,60501,1,0,0:0:0:0:
448,192,60501,1,0,0:0:0:0:
192,192,60649,1,0,0:0:0:0:
320,192,60797,1,0,0:0:0:0:
448,192,60797,1,0,0:0:0:0:
64,192,60871,1,0,0:0:0:0:
320,192,60945,1,0,0:0:0:0:
64,192,61092,1,0,0:0:0:0:
448,192,61092,1,0,0:0:0:0:
192,192,61092,1,0,0:0:0:0:
448,192,61388,1,0,0:0:0:0:
320,192,61388,1,0,0:0:0:0:
64,192,61388,1,0,0:0:0:0:
192,192,61610,1,0,0:0:0:0:
64,192,61684,1,0,0:0:0:0:
448,192,61684,1,0,0:0:0:0:
320,192,61684,1,0,0:0:0:0:
192,192,61831,1,0,0:0:0:0:
320,192,61831,1,0,0:0:0:0:
192,192,62053,1,0,0:0:0:0:
448,192,62127,1,0,0:0:0:0:
320,192,62127,1,0,0:0:0:0:
64,192,62127,1,0,0:0:0:0:
192,192,62275,128,0,62423:0:0:0:0:
64,192,62423,1,0,0:0:0:0:
448,192,62423,1,0,0:0:0:0:
320,192,62423,1,0,0:0:0:0:
448,192,62570,1,0,0:0:0:0:
320,192,62570,1,0,0:0:0:0:
192,192,62570,1,0,0:0:0:0:
64,192,62570,1,0,0:0:0:0:
320,192,63161,1,0,0:0:0:0:
448,192,63161,1,0,0:0:0:0:
64,192,63161,1,0,0:0:0:0:
192,192,63161,1,0,0:0:0:0:
320,192,63235,1,0,0:0:0:0:
320,192,63309,1,0,0:0:0:0:
320,192,63383,1,0,0:0:0:0:
320,192,63457,1,0,0:0:0:0:
320,192,63605,1,0,0:0:0:0:
320,192,63753,1,0,0:0:0:0:
320,192,63900,1,0,0:0:0:0:
448,192,64048,1,0,0:0:0:0:
64,192,64048,1,0,0:0:0:0:
320,192,64048,128,0,64344:0:0:0:0:
192,192,64344,128,0,64492:0:0:0:0:
320,192,64492,128,0,64639:0:0:0:0:
192,192,64639,128,0,64787:0:0:0:0:
320,192,64787,128,0,64935:0:0:0:0:
448,192,64935,1,0,0:0:0:0:
64,192,64935,1,0,0:0:0:0:
192,192,64935,1,0,0:0:0:0:
320,192,65083,128,0,65157:0:0:0:0:
448,192,65157,128,0,65230:0:0:0:0:
64,192,65230,128,0,65304:0:0:0:0:
192,192,65304,128,0,65378:0:0:0:0:
320,192,65378,128,0,65526:0:0:0:0:
64,192,65526,1,0,0:0:0:0:
448,192,65526,1,0,0:0:0:0:
192,192,65526,128,0,65748:0:0:0:0:
320,192,65748,128,0,65822:0:0:0:0:
192,192,65822,128,0,65969:0:0:0:0:
448,192,65969,128,0,66043:0:0:0:0:
320,192,66043,128,0,66191:0:0:0:0:
64,192,66191,128,0,66265:0:0:0:0:
192,192,66265,128,0,66413:0:0:0:0:
448,192,66413,1,0,0:0:0:0:
64,192,66413,1,0,0:0:0:0:
320,192,66413,128,0,66487:0:0:0:0:
192,192,66487,128,0,66634:0:0:0:0:
320,192,66634,1,0,0:0:0:0:
448,192,66634,1,0,0:0:0:0:
64,192,66708,1,0,0:0:0:0:
192,192,66708,128,0,66856:0:0:0:0:
320,192,66856,1,0,0:0:0:0:
448,192,66856,1,0,0:0:0:0:
64,192,66856,1,0,0:0:0:0:
320,192,67004,1,0,0:0:0:0:
320,192,67152,1,0,0:0:0:0:
192,192,67299,1,0,0:0:0:0:
64,192,67299,1,0,0:0:0:0:
448,192,67299,1,0,0:0:0:0:
320,192,67299,128,0,67521:0:0:0:0:
448,192,67595,1,0,0:0:0:0:
64,192,67595,1,0,0:0:0:0:
320,192,67595,128,0,67817:0:0:0:0:
320,192,67891,1,0,0:0:0:0:
64,192,67891,1,0,0:0:0:0:
448,192,67891,128,0,68112:0:0:0:0:
192,192,68038,1,0,0:0:0:0:
192,192,68112,1,0,0:0:0:0:
448,192,68186,1,0,0:0:0:0:
320,192,68186,1,0,0:0:0:0:
64,192,68186,1,0,0:0:0:0:
192,192,68334,128,0,68482:0:0:0:0:
320,192,68482,1,0,0:0:0:0:
64,192,68482,1,0,0:0:0:0:
448,192,68482,1,0,0:0:0:0:
192,192,68629,128,0,68777:0:0:0:0:
64,192,68777,1,0,0:0:0:0:
448,192,68777,1,0,0:0:0:0:
320,192,68777,128,0,69073:0:0:0:0:
64,192,69073,1,0,0:0:0:0:
448,192,69073,1,0,0:0:0:0:
192,192,69073,128,0,69221:0:0:0:0:
448,192,69221,1,0,0:0:0:0:
64,192,69221,1,0,0:0:0:0:
320,192,69294,1,0,0:0:0:0:
448,192,69368,1,0,0:0:0:0:
192,192,69368,1,0,0:0:0:0:
64,192,69368,1,0,0:0:0:0:
320,192,69516,128,0,69664:0:0:0:0:
448,192,69664,1,0,0:0:0:0:
192,192,69664,1,0,0:0:0:0:
64,192,69664,1,0,0:0:0:0:
448,192,69812,1,0,0:0:0:0:
192,192,69886,1,0,0:0:0:0:
320,192,69886,1,0,0:0:0:0:
64,192,69959,1,0,0:0:0:0:
448,192,69959,1,0,0:0:0:0:
320,192,70107,128,0,70255:0:0:0:0:
64,192,70255,1,0,0:0:0:0:
448,192,70255,1,0,0:0:0:0:
192,192,70255,1,0,0:0:0:0:
448,192,70403,1,0,0:0:0:0:
192,192,70477,1,0,0:0:0:0:
64,192,70477,1,0,0:0:0:0:
448,192,70551,1,0,0:0:0:0:
320,192,70551,128,0,70698:0:0:0:0:
192,192,70698,128,0,70846:0:0:0:0:
64,192,70846,1,0,0:0:0:0:
448,192,70846,1,0,0:0:0:0:
320,192,70920,128,0,70994:0:0:0:0:
320,192,71142,128,0,71216:0:0:0:0:
320,192,71363,128,0,71437:0:0:0:0:
320,192,71585,128,0,71659:0:0:0:0:
320,192,71733,128,0,71881:0:0:0:0:
192,192,72028,1,0,0:0:0:0:
64,192,72028,1,0,0:0:0:0:
448,192,72028,1,0,0:0:0:0:
320,192,72028,1,0,0:0:0:0:
64,192,72620,128,0,73211:0:0:0:0:
448,192,72767,128,0,73211:0:0:0:0:
192,192,72915,128,0,73211:0:0:0:0:
320,192,73211,1,0,0:0:0:0:
320,192,73359,1,0,0:0:0:0:
320,192,73506,128,0,73802:0:0:0:0:
448,192,73802,1,0,0:0:0:0:
192,192,73802,1,0,0:0:0:0:
64,192,73802,128,0,73950:0:0:0:0:
448,192,73950,128,0,74097:0:0:0:0:
64,192,74097,128,0,74245:0:0:0:0:
448,192,74245,128,0,74393:0:0:0:0:
320,192,74393,1,0,0:0:0:0:
64,192,74393,1,0,0:0:0:0:
192,192,74393,128,0,74541:0:0:0:0:
192,192,74615,128,0,74762:0:0:0:0:
192,192,74836,128,0,74984:0:0:0:0:
320,192,74984,1,0,0:0:0:0:
64,192,74984,1,0,0:0:0:0:
448,192,74984,128,0,75132:0:0:0:0:
320,192,75132,128,0,75206:0:0:0:0:
64,192,75206,128,0,75280:0:0:0:0:
448,192,75280,128,0,75427:0:0:0:0:
64,192,75427,128,0,75501:0:0:0:0:
320,192,75501,128,0,75649:0:0:0:0:
192,192,75649,128,0,75723:0:0:0:0:
448,192,75723,128,0,75871:0:0:0:0:
64,192,75871,1,0,0:0:0:0:
320,192,75871,128,0,75945:0:0:0:0:
192,192,75945,128,0,76092:0:0:0:0:
320,192,76092,1,0,0:0:0:0:
448,192,76092,1,0,0:0:0:0:
192,192,76166,1,0,0:0:0:0:
64,192,76166,128,0,76462:0:0:0:0:
320,192,76758,1,0,0:0:0:0:
448,192,76758,1,0,0:0:0:0:
64,192,76758,1,0,0:0:0:0:
192,192,76758,128,0,76979:0:0:0:0:
64,192,77053,1,0,0:0:0:0:
448,192,77053,1,0,0:0:0:0:
192,192,77053,128,0,77275:0:0:0:0:
192,192,77349,1,0,0:0:0:0:
448,192,77349,1,0,0:0:0:0:
64,192,77349,128,0,77570:0:0:0:0:
320,192,77496,1,0,0:0:0:0:
320,192,77570,1,0,0:0:0:0:
64,192,77644,1,0,0:0:0:0:
192,192,77644,1,0,0:0:0:0:
448,192,77644,1,0,0:0:0:0:
320,192,77792,128,0,77940:0:0:0:0:
192,192,77940,1,0,0:0:0:0:
448,192,77940,1,0,0:0:0:0:
64,192,77940,1,0,0:0:0:0:
320,192,78088,128,0,78235:0:0:0:0:
448,192,78235,1,0,0:0:0:0:
64,192,78235,1,0,0:0:0:0:
192,192,78235,128,0,78531:0:0:0:0:
448,192,78531,1,0,0:0:0:0:
64,192,78531,1,0,0:0:0:0:
320,192,78531,128,0,78679:0:0:0:0:
64,192,78679,1,0,0:0:0:0:
448,192,78679,1,0,0:0:0:0:
192,192,78753,1,0,0:0:0:0:
64,192,78826,1,0,0:0:0:0:
320,192,78826,1,0,0:0:0:0:
448,192,78826,1,0,0:0:0:0:
192,192,78974,128,0,79122:0:0:0:0:
64,192,79122,1,0,0:0:0:0:
320,192,79122,1,0,0:0:0:0:
448,192,79122,1,0,0:0:0:0:
64,192,79270,1,0,0:0:0:0:
320,192,79344,1,0,0:0:0:0:
192,192,79344,1,0,0:0:0:0:
448,192,79418,1,0,0:0:0:0:
64,192,79418,1,0,0:0:0:0:
192,192,79565,128,0,79713:0:0:0:0:
448,192,79713,1,0,0:0:0:0:
64,192,79713,1,0,0:0:0:0:
320,192,79713,1,0,0:0:0:0:
64,192,79861,1,0,0:0:0:0:
320,192,79935,1,0,0:0:0:0:
448,192,79935,1,0,0:0:0:0:
64,192,80009,1,0,0:0:0:0:
192,192,80009,128,0,80157:0:0:0:0:
320,192,80157,128,0,80304:0:0:0:0:
448,192,80304,1,0,0:0:0:0:
64,192,80304,1,0,0:0:0:0:
192,192,80304,1,0,0:0:0:0:
320,192,80526,1,0,0:0:0:0:
320,192,80748,1,0,0:0:0:0:
320,192,80969,1,0,0:0:0:0:
64,192,81191,1,0,0:0:0:0:
192,192,81228,1,0,0:0:0:0:
320,192,81265,1,0,0:0:0:0:
448,192,81302,1,0,0:0:0:0:
64,192,81339,1,0,0:0:0:0:
192,192,81413,1,0,0:0:0:0:
448,192,81487,128,0,82078:0:0:0:0:
320,192,81487,128,0,82078:0:0:0:0:
64,192,82078,128,0,82373:0:0:0:0:
192,192,82078,1,0,0:0:0:0:
448,192,82226,1,0,0:0:0:0:
448,192,82373,1,0,0:0:0:0:
64,192,82521,128,0,82817:0:0:0:0:
320,192,82521,1,0,0:0:0:0:
448,192,82669,1,0,0:0:0:0:
320,192,82817,1,0,0:0:0:0:
64,192,82964,128,0,83260:0:0:0:0:
192,192,82964,1,0,0:0:0:0:
448,192,82964,1,0,0:0:0:0:
448,192,83112,1,0,0:0:0:0:
320,192,83260,128,0,83408:0:0:0:0:
192,192,83260,1,0,0:0:0:0:
64,192,83408,128,0,83703:0:0:0:0:
448,192,83408,128,0,83556:0:0:0:0:
192,192,83556,128,0,83703:0:0:0:0:
320,192,83703,128,0,83851:0:0:0:0:
448,192,83851,1,0,0:0:0:0:
64,192,83851,1,0,0:0:0:0:
192,192,83851,1,0,0:0:0:0:
320,192,83999,1,0,0:0:0:0:
192,192,84147,1,0,0:0:0:0:
64,192,84147,1,0,0:0:0:0:
448,192,84147,1,0,0:0:0:0:
192,192,84294,1,0,0:0:0:0:
320,192,84442,1,0,0:0:0:0:
64,192,84442,1,0,0:0:0:0:
448,192,84442,128,0,84738:0:0:0:0:
64,192,84590,1,0,0:0:0:0:
192,192,84738,1,0,0:0:0:0:
448,192,84886,128,0,85181:0:0:0:0:
320,192,84886,1,0,0:0:0:0:
64,192,85033,1,0,0:0:0:0:
192,192,85181,1,0,0:0:0:0:
448,192,85329,128,0,85625:0:0:0:0:
320,192,85329,1,0,0:0:0:0:
64,192,85329,1,0,0:0:0:0:
64,192,85477,1,0,0:0:0:0:
192,192,85625,1,0,0:0:0:0:
320,192,85625,1,0,0:0:0:0:
448,192,85772,128,0,86068:0:0:0:0:
192,192,85772,1,0,0:0:0:0:
64,192,85920,1,0,0:0:0:0:
320,192,86068,1,0,0:0:0:0:
320,192,86216,1,0,0:0:0:0:
448,192,86216,1,0,0:0:0:0:
192,192,86216,128,0,86807:0:0:0:0:
64,192,86216,128,0,86807:0:0:0:0:
320,192,86807,1,0,0:0:0:0:
448,192,86807,128,0,87102:0:0:0:0:
64,192,86955,1,0,0:0:0:0:
192,192,87102,1,0,0:0:0:0:
448,192,87250,128,0,87546:0:0:0:0:
64,192,87250,1,0,0:0:0:0:
320,192,87398,1,0,0:0:0:0:
192,192,87546,1,0,0:0:0:0:
448,192,87693,128,0,87989:0:0:0:0:
320,192,87693,1,0,0:0:0:0:
64,192,87693,128,0,87841:0:0:0:0:
192,192,87841,128,0,87989:0:0:0:0:
64,192,87989,128,0,88137:0:0:0:0:
320,192,87989,1,0,0:0:0:0:
448,192,88137,128,0,88432:0:0:0:0:
320,192,88137,128,0,88285:0:0:0:0:
192,192,88285,128,0,88432:0:0:0:0:
64,192,88432,128,0,88580:0:0:0:0:
448,192,88580,1,0,0:0:0:0:
320,192,88580,1,0,0:0:0:0:
320,192,88728,1,0,0:0:0:0:
448,192,88876,1,0,0:0:0:0:
192,192,88876,1,0,0:0:0:0:
64,192,88876,1,0,0:0:0:0:
320,192,89024,1,0,0:0:0:0:
448,192,89171,1,0,0:0:0:0:
192,192,89171,1,0,0:0:0:0:
64,192,89171,128,0,89467:0:0:0:0:
448,192,89319,1,0,0:0:0:0:
320,192,89467,1,0,0:0:0:0:
192,192,89467,1,0,0:0:0:0:
64,192,89615,128,0,89910:0:0:0:0:
448,192,89615,1,0,0:0:0:0:
192,192,89762,1,0,0:0:0:0:
448,192,89910,1,0,0:0:0:0:
320,192,89910,1,0,0:0:0:0:
192,192,90058,1,0,0:0:0:0:
64,192,90058,128,0,90354:0:0:0:0:
448,192,90206,1,0,0:0:0:0:
192,192,90354,1,0,0:0:0:0:
320,192,90354,1,0,0:0:0:0:
64,192,90501,128,0,90797:0:0:0:0:
448,192,90501,1,0,0:0:0:0:
192,192,90649,1,0,0:0:0:0:
320,192,90797,1,0,0:0:0:0:
64,192,90945,1,0,0:0:0:0:
192,192,90945,1,0,0:0:0:0:
320,192,90945,128,0,91536:0:0:0:0:
448,192,90945,128,0,91536:0:0:0:0:
64,192,91536,128,0,91831:0:0:0:0:
192,192,91536,1,0,0:0:0:0:
448,192,91684,1,0,0:0:0:0:
320,192,91831,1,0,0:0:0:0:
64,192,91979,128,0,92275:0:0:0:0:
448,192,91979,1,0,0:0:0:0:
192,192,92127,1,0,0:0:0:0:
320,192,92275,1,0,0:0:0:0:
64,192,92423,128,0,92718:0:0:0:0:
192,192,92423,1,0,0:0:0:0:
448,192,92423,1,0,0:0:0:0:
448,192,92570,1,0,0:0:0:0:
192,192,92718,1,0,0:0:0:0:
448,192,92718,128,0,92866:0:0:0:0:
64,192,92866,128,0,93161:0:0:0:0:
320,192,92866,128,0,93014:0:0:0:0:
192,192,93014,128,0,93161:0:0:0:0:
320,192,93161,128,0,93309:0:0:0:0:
64,192,93309,1,0,0:0:0:0:
192,192,93309,1,0,0:0:0:0:
448,192,93309,1,0,0:0:0:0:
320,192,93457,1,0,0:0:0:0:
448,192,93605,1,0,0:0:0:0:
64,192,93605,1,0,0:0:0:0:
192,192,93605,1,0,0:0:0:0:
192,192,93753,1,0,0:0:0:0:
448,192,93900,128,0,94196:0:0:0:0:
320,192,93900,1,0,0:0:0:0:
64,192,93900,1,0,0:0:0:0:
64,192,94048,1,0,0:0:0:0:
192,192,94196,1,0,0:0:0:0:
320,192,94196,1,0,0:0:0:0:
448,192,94344,128,0,94639:0:0:0:0:
192,192,94344,1,0,0:0:0:0:
64,192,94492,1,0,0:0:0:0:
192,192,94639,1,0,0:0:0:0:
448,192,94787,128,0,95083:0:0:0:0:
64,192,94787,1,0,0:0:0:0:
320,192,94787,1,0,0:0:0:0:
64,192,94935,1,0,0:0:0:0:
192,192,95083,1,0,0:0:0:0:
320,192,95083,1,0,0:0:0:0:
448,192,95230,128,0,95526:0:0:0:0:
64,192,95230,1,0,0:0:0:0:
448,192,95674,1,0,0:0:0:0:
320,192,95674,1,0,0:0:0:0:
192,192,95674,1,0,0:0:0:0:
64,192,95674,1,0,0:0:0:0:
192,192,95822,1,0,0:0:0:0:
64,192,95822,1,0,0:0:0:0:
448,192,95895,1,0,0:0:0:0:
320,192,95895,1,0,0:0:0:0:
192,192,95969,1,0,0:0:0:0:
64,192,95969,1,0,0:0:0:0:
320,192,96117,1,0,0:0:0:0:
192,192,96117,1,0,0:0:0:0:
448,192,96265,1,0,0:0:0:0:
64,192,96265,1,0,0:0:0:0:
320,192,96339,1,0,0:0:0:0:
192,192,96339,1,0,0:0:0:0:
448,192,96413,1,0,0:0:0:0:
64,192,96413,1,0,0:0:0:0:
192,192,96487,1,0,0:0:0:0:
320,192,96487,1,0,0:0:0:0:
448,192,96560,1,0,0:0:0:0:
64,192,96560,1,0,0:0:0:0:
448,192,96708,1,0,0:0:0:0:
192,192,96708,1,0,0:0:0:0:
64,192,96856,1,0,0:0:0:0:
320,192,96856,1,0,0:0:0:0:
192,192,97004,1,0,0:0:0:0:
64,192,97004,1,0,0:0:0:0:
320,192,97078,1,0,0:0:0:0:
448,192,97078,1,0,0:0:0:0:
192,192,97152,1,0,0:0:0:0:
64,192,97152,1,0,0:0:0:0:
448,192,97299,1,0,0:0:0:0:
64,192,97299,1,0,0:0:0:0:
320,192,97373,1,0,0:0:0:0:
192,192,97373,1,0,0:0:0:0:
448,192,97447,1,0,0:0:0:0:
64,192,97447,1,0,0:0:0:0:
64,192,97595,1,0,0:0:0:0:
320,192,97595,1,0,0:0:0:0:
448,192,97669,1,0,0:0:0:0:
192,192,97669,1,0,0:0:0:0:
320,192,97743,1,0,0:0:0:0:
64,192,97743,1,0,0:0:0:0:
192,192,97891,1,0,0:0:0:0:
320,192,97964,1,0,0:0:0:0:
448,192,98038,1,0,0:0:0:0:
64,192,98038,1,0,0:0:0:0:
320,192,98112,1,0,0:0:0:0:
192,192,98112,1,0,0:0:0:0:
64,192,98186,1,0,0:0:0:0:
448,192,98186,1,0,0:0:0:0:
192,192,98260,1,0,0:0:0:0:
320,192,98334,1,0,0:0:0:0:
448,192,98334,1,0,0:0:0:0:
192,192,98408,1,0,0:0:0:0:
64,192,98408,1,0,0:0:0:0:
320,192,98482,1,0,0:0:0:0:
448,192,98482,1,0,0:0:0:0:
192,192,98556,1,0,0:0:0:0:
64,192,98629,1,0,0:0:0:0:
320,192,98629,1,0,0:0:0:0:
448,192,98703,1,0,0:0:0:0:
192,192,98703,1,0,0:0:0:0:
320,192,98777,1,0,0:0:0:0:
64,192,98777,1,0,0:0:0:0:
192,192,98851,1,0,0:0:0:0:
320,192,98925,1,0,0:0:0:0:
448,192,98925,1,0,0:0:0:0:
192,192,98999,1,0,0:0:0:0:
64,192,98999,1,0,0:0:0:0:
320,192,99073,1,0,0:0:0:0:
448,192,99073,1,0,0:0:0:0:
192,192,99147,1,0,0:0:0:0:
448,192,99221,1,0,0:0:0:0:
320,192,99221,1,0,0:0:0:0:
64,192,99221,128,0,100255:0:0:0:0:
448,192,99516,128,0,100255:0:0:0:0:
320,192,99664,128,0,100255:0:0:0:0:
64,192,100403,5,0,0:0:0:0:
448,192,100403,1,0,0:0:0:0:
192,192,100403,128,0,100698:0:0:0:0:
320,192,100698,1,0,0:0:0:0:
64,192,100698,1,0,0:0:0:0:
448,192,100698,1,0,0:0:0:0:
192,192,100846,1,0,0:0:0:0:
448,192,100846,1,0,0:0:0:0:
320,192,100920,1,0,0:0:0:0:
448,192,100994,1,0,0:0:0:0:
192,192,100994,1,0,0:0:0:0:
64,192,100994,1,0,0:0:0:0:
192,192,101142,1,0,0:0:0:0:
64,192,101142,1,0,0:0:0:0:
320,192,101216,1,0,0:0:0:0:
192,192,101290,1,0,0:0:0:0:
64,192,101290,1,0,0:0:0:0:
448,192,101290,1,0,0:0:0:0:
320,192,101437,1,0,0:0:0:0:
64,192,101437,1,0,0:0:0:0:
192,192,101511,1,0,0:0:0:0:
64,192,101585,1,0,0:0:0:0:
320,192,101585,1,0,0:0:0:0:
448,192,101585,1,0,0:0:0:0:
448,192,101733,1,0,0:0:0:0:
192,192,101733,1,0,0:0:0:0:
64,192,101807,1,0,0:0:0:0:
320,192,101881,1,0,0:0:0:0:
192,192,101881,1,0,0:0:0:0:
448,192,101881,1,0,0:0:0:0:
320,192,102028,1,0,0:0:0:0:
64,192,102028,1,0,0:0:0:0:
192,192,102102,1,0,0:0:0:0:
64,192,102176,1,0,0:0:0:0:
320,192,102176,1,0,0:0:0:0:
448,192,102176,1,0,0:0:0:0:
192,192,102324,1,0,0:0:0:0:
64,192,102324,1,0,0:0:0:0:
320,192,102398,1,0,0:0:0:0:
64,192,102472,1,0,0:0:0:0:
192,192,102472,1,0,0:0:0:0:
448,192,102472,1,0,0:0:0:0:
448,192,102620,128,0,102767:0:0:0:0:
64,192,102767,1,0,0:0:0:0:
192,192,102767,1,0,0:0:0:0:
320,192,102767,1,0,0:0:0:0:
448,192,102915,128,0,103063:0:0:0:0:
64,192,103063,1,0,0:0:0:0:
192,192,103063,1,0,0:0:0:0:
320,192,103063,1,0,0:0:0:0:
320,192,103211,128,0,103359:0:0:0:0:
192,192,103359,1,0,0:0:0:0:
64,192,103359,1,0,0:0:0:0:
448,192,103359,1,0,0:0:0:0:
320,192,103506,128,0,103654:0:0:0:0:
448,192,103654,1,0,0:0:0:0:
64,192,103654,1,0,0:0:0:0:
192,192,103654,1,0,0:0:0:0:
448,192,103802,1,0,0:0:0:0:
192,192,103802,1,0,0:0:0:0:
64,192,103839,1,0,0:0:0:0:
320,192,103876,1,0,0:0:0:0:
64,192,103950,1,0,0:0:0:0:
192,192,103950,1,0,0:0:0:0:
448,192,104097,1,0,0:0:0:0:
192,192,104097,1,0,0:0:0:0:
320,192,104134,1,0,0:0:0:0:
64,192,104171,1,0,0:0:0:0:
192,192,104245,1,0,0:0:0:0:
448,192,104245,1,0,0:0:0:0:
320,192,104393,1,0,0:0:0:0:
64,192,104393,1,0,0:0:0:0:
448,192,104430,1,0,0:0:0:0:
192,192,104467,1,0,0:0:0:0:
320,192,104541,1,0,0:0:0:0:
64,192,104541,1,0,0:0:0:0:
448,192,104689,1,0,0:0:0:0:
192,192,104689,1,0,0:0:0:0:
320,192,104726,1,0,0:0:0:0:
64,192,104762,1,0,0:0:0:0:
448,192,104836,1,0,0:0:0:0:
320,192,104836,128,0,105058:0:0:0:0:
448,192,105132,1,0,0:0:0:0:
64,192,105132,1,0,0:0:0:0:
320,192,105132,128,0,105427:0:0:0:0:
192,192,105427,1,0,0:0:0:0:
64,192,105427,1,0,0:0:0:0:
448,192,105427,1,0,0:0:0:0:
448,192,105575,1,0,0:0:0:0:
64,192,105575,1,0,0:0:0:0:
192,192,105649,1,0,0:0:0:0:
64,192,105723,1,0,0:0:0:0:
320,192,105723,1,0,0:0:0:0:
448,192,105723,1,0,0:0:0:0:
192,192,105871,1,0,0:0:0:0:
448,192,105871,1,0,0:0:0:0:
320,192,105945,1,0,0:0:0:0:
448,192,106019,1,0,0:0:0:0:
64,192,106019,1,0,0:0:0:0:
192,192,106019,1,0,0:0:0:0:
64,192,106166,1,0,0:0:0:0:
320,192,106166,1,0,0:0:0:0:
448,192,106240,1,0,0:0:0:0:
64,192,106314,1,0,0:0:0:0:
320,192,106314,1,0,0:0:0:0:
192,192,106314,1,0,0:0:0:0:
448,192,106462,1,0,0:0:0:0:
192,192,106462,1,0,0:0:0:0:
320,192,106536,1,0,0:0:0:0:
192,192,106610,1,0,0:0:0:0:
64,192,106610,1,0,0:0:0:0:
448,192,106610,1,0,0:0:0:0:
320,192,106758,1,0,0:0:0:0:
64,192,106758,1,0,0:0:0:0:
192,192,106831,1,0,0:0:0:0:
64,192,106905,1,0,0:0:0:0:
320,192,106905,1,0,0:0:0:0:
448,192,106905,1,0,0:0:0:0:
192,192,107053,1,0,0:0:0:0:
448,192,107053,1,0,0:0:0:0:
64,192,107127,1,0,0:0:0:0:
448,192,107201,1,0,0:0:0:0:
192,192,107201,1,0,0:0:0:0:
320,192,107201,1,0,0:0:0:0:
64,192,107349,128,0,107496:0:0:0:0:
192,192,107496,1,0,0:0:0:0:
320,192,107496,1,0,0:0:0:0:
448,192,107496,1,0,0:0:0:0:
64,192,107644,128,0,107792:0:0:0:0:
448,192,107792,1,0,0:0:0:0:
320,192,107792,1,0,0:0:0:0:
192,192,107792,1,0,0:0:0:0:
192,192,107940,128,0,108088:0:0:0:0:
64,192,108088,1,0,0:0:0:0:
320,192,108088,1,0,0:0:0:0:
448,192,108088,1,0,0:0:0:0:
192,192,108235,128,0,108383:0:0:0:0:
64,192,108383,1,0,0:0:0:0:
320,192,108383,1,0,0:0:0:0:
448,192,108383,1,0,0:0:0:0:
320,192,108531,1,0,0:0:0:0:
64,192,108531,1,0,0:0:0:0:
448,192,108568,1,0,0:0:0:0:
192,192,108605,1,0,0:0:0:0:
320,192,108679,1,0,0:0:0:0:
448,192,108679,1,0,0:0:0:0:
64,192,108826,1,0,0:0:0:0:
192,192,108900,1,0,0:0:0:0:
320,192,108900,1,0,0:0:0:0:
320,192,108974,1,0,0:0:0:0:
448,192,108974,1,0,0:0:0:0:
64,192,108974,1,0,0:0:0:0:
64,192,109122,1,0,0:0:0:0:
192,192,109159,1,0,0:0:0:0:
320,192,109196,1,0,0:0:0:0:
448,192,109196,1,0,0:0:0:0:
192,192,109270,1,0,0:0:0:0:
64,192,109270,1,0,0:0:0:0:
320,192,109344,1,0,0:0:0:0:
448,192,109418,1,0,0:0:0:0:
192,192,109418,1,0,0:0:0:0:
64,192,109418,1,0,0:0:0:0:
320,192,109565,128,0,109861:0:0:0:0:
448,192,109861,1,0,0:0:0:0:
64,192,109861,128,0,109935:0:0:0:0:
192,192,109898,128,0,109972:0:0:0:0:
320,192,109935,128,0,110378:0:0:0:0:
448,192,110378,1,0,0:0:0:0:
64,192,110452,1,0,0:0:0:0:
320,192,110526,1,0,0:0:0:0:
192,192,110600,1,0,0:0:0:0:
448,192,110674,1,0,0:0:0:0:
64,192,110748,1,0,0:0:0:0:
320,192,110822,1,0,0:0:0:0:
64,192,110895,128,0,110969:0:0:0:0:
192,192,110969,128,0,111043:0:0:0:0:
448,192,111043,1,0,0:0:0:0:
320,192,111080,1,0,0:0:0:0:
192,192,111117,1,0,0:0:0:0:
64,192,111154,1,0,0:0:0:0:
448,192,111191,128,0,111265:0:0:0:0:
320,192,111265,128,0,111339:0:0:0:0:
64,192,111339,1,0,0:0:0:0:
192,192,111376,1,0,0:0:0:0:
320,192,111413,1,0,0:0:0:0:
448,192,111450,1,0,0:0:0:0:
64,192,111487,128,0,111560:0:0:0:0:
192,192,111560,128,0,111634:0:0:0:0:
448,192,111634,1,0,0:0:0:0:
320,192,111671,1,0,0:0:0:0:
192,192,111708,1,0,0:0:0:0:
64,192,111745,1,0,0:0:0:0:
448,192,111782,1,0,0:0:0:0:
320,192,111801,1,0,0:0:0:0:
192,192,111819,1,0,0:0:0:0:
64,192,111838,1,0,0:0:0:0:
448,192,111856,1,0,0:0:0:0:
320,192,111930,1,0,0:0:0:0:
320,192,111979,1,0,0:0:0:0:
320,192,112127,1,0,0:0:0:0:
448,192,112226,1,0,0:0:0:0:
64,192,112226,1,0,0:0:0:0:
320,192,112226,128,0,112521:0:0:0:0:
192,192,112521,1,0,0:0:0:0:
64,192,112521,1,0,0:0:0:0:
448,192,112521,1,0,0:0:0:0:
448,192,112669,1,0,0:0:0:0:
64,192,112669,1,0,0:0:0:0:
320,192,112743,1,0,0:0:0:0:
192,192,112817,1,0,0:0:0:0:
64,192,112817,1,0,0:0:0:0:
448,192,112817,1,0,0:0:0:0:
320,192,112964,128,0,113112:0:0:0:0:
448,192,113112,1,0,0:0:0:0:
192,192,113112,1,0,0:0:0:0:
64,192,113112,1,0,0:0:0:0:
448,192,113260,1,0,0:0:0:0:
64,192,113260,1,0,0:0:0:0:
320,192,113297,1,0,0:0:0:0:
192,192,113334,1,0,0:0:0:0:
320,192,113408,1,0,0:0:0:0:
448,192,113408,1,0,0:0:0:0:
64,192,113556,1,0,0:0:0:0:
448,192,113556,1,0,0:0:0:0:
192,192,113592,1,0,0:0:0:0:
320,192,113629,1,0,0:0:0:0:
448,192,113629,1,0,0:0:0:0:
192,192,113703,1,0,0:0:0:0:
64,192,113703,1,0,0:0:0:0:
320,192,113851,1,0,0:0:0:0:
448,192,113851,1,0,0:0:0:0:
64,192,113851,1,0,0:0:0:0:
192,192,113999,1,0,0:0:0:0:
320,192,113999,1,0,0:0:0:0:
320,192,114073,1,0,0:0:0:0:
448,192,114147,1,0,0:0:0:0:
64,192,114147,1,0,0:0:0:0:
192,192,114147,128,0,114221:0:0:0:0:
192,192,114294,128,0,114590:0:0:0:0:
64,192,114294,1,0,0:0:0:0:
320,192,114442,1,0,0:0:0:0:
448,192,114442,1,0,0:0:0:0:
320,192,114590,1,0,0:0:0:0:
448,192,114590,1,0,0:0:0:0:
64,192,114590,1,0,0:0:0:0:
320,192,114738,1,0,0:0:0:0:
64,192,114738,1,0,0:0:0:0:
320,192,114812,1,0,0:0:0:0:
448,192,114886,1,0,0:0:0:0:
64,192,114886,1,0,0:0:0:0:
192,192,114886,1,0,0:0:0:0:
192,192,115033,1,0,0:0:0:0:
320,192,115033,1,0,0:0:0:0:
448,192,115181,1,0,0:0:0:0:
64,192,115181,1,0,0:0:0:0:
320,192,115181,1,0,0:0:0:0:
192,192,115255,1,0,0:0:0:0:
320,192,115329,1,0,0:0:0:0:
64,192,115329,1,0,0:0:0:0:
448,192,115477,1,0,0:0:0:0:
64,192,115477,1,0,0:0:0:0:
320,192,115477,1,0,0:0:0:0:
192,192,115625,1,0,0:0:0:0:
320,192,115625,1,0,0:0:0:0:
320,192,115772,1,0,0:0:0:0:
448,192,115772,1,0,0:0:0:0:
64,192,115846,1,0,0:0:0:0:
192,192,115846,1,0,0:0:0:0:
320,192,115920,1,0,0:0:0:0:
320,192,115994,1,0,0:0:0:0:
448,192,116068,1,0,0:0:0:0:
64,192,116068,1,0,0:0:0:0:
320,192,116216,1,0,0:0:0:0:
192,192,116216,1,0,0:0:0:0:
320,192,116363,1,0,0:0:0:0:
448,192,116363,1,0,0:0:0:0:
64,192,116363,1,0,0:0:0:0:
192,192,116437,1,0,0:0:0:0:
64,192,116511,1,0,0:0:0:0:
448,192,116511,1,0,0:0:0:0:
448,192,116659,1,0,0:0:0:0:
64,192,116659,1,0,0:0:0:0:
320,192,116659,128,0,116955:0:0:0:0:
448,192,116955,1,0,0:0:0:0:
64,192,116955,1,0,0:0:0:0:
192,192,116955,1,0,0:0:0:0:
320,192,117102,1,0,0:0:0:0:
320,192,117176,1,0,0:0:0:0:
448,192,117250,1,0,0:0:0:0:
192,192,117250,1,0,0:0:0:0:
64,192,117250,1,0,0:0:0:0:
320,192,117398,1,0,0:0:0:0:
192,192,117546,1,0,0:0:0:0:
64,192,117546,1,0,0:0:0:0:
448,192,117620,1,0,0:0:0:0:
192,192,117693,1,0,0:0:0:0:
448,192,117841,1,0,0:0:0:0:
64,192,117841,1,0,0:0:0:0:
320,192,117841,1,0,0:0:0:0:
64,192,118137,1,0,0:0:0:0:
192,192,118137,1,0,0:0:0:0:
448,192,118137,1,0,0:0:0:0:
320,192,118359,1,0,0:0:0:0:
448,192,118432,1,0,0:0:0:0:
64,192,118432,1,0,0:0:0:0:
192,192,118432,1,0,0:0:0:0:
320,192,118580,1,0,0:0:0:0:
192,192,118580,1,0,0:0:0:0:
320,192,118802,1,0,0:0:0:0:
64,192,118876,1,0,0:0:0:0:
192,192,118876,1,0,0:0:0:0:
448,192,118876,1,0,0:0:0:0:
320,192,119024,128,0,119171:0:0:0:0:
448,192,119171,1,0,0:0:0:0:
64,192,119171,1,0,0:0:0:0:
192,192,119171,1,0,0:0:0:0:
64,192,119319,128,0,123014:0:0:0:0:
320,192,119319,128,0,123161:0:0:0:0:
192,192,119319,128,0,123014:0:0:0:0:
448,192,119319,128,0,123161:0:0:0:0:
64,192,123161,1,0,0:0:0:0:
192,192,123457,1,0,0:0:0:0:
320,192,123753,1,0,0:0:0:0:
448,192,124048,1,0,0:0:0:0:
64,192,124048,1,0,0:0:0:0:
64,192,124787,1,0,0:0:0:0:
192,192,124861,1,0,0:0:0:0:
320,192,124935,1,0,0:0:0:0:
448,192,124935,1,0,0:0:0:0:
192,192,125674,1,0,0:0:0:0:
320,192,125748,1,0,0:0:0:0:
448,192,125822,1,0,0:0:0:0:
64,192,125822,1,0,0:0:0:0:
64,192,127299,1,0,0:0:0:0:
448,192,127299,1,0,0:0:0:0:
192,192,127373,1,0,0:0:0:0:
320,192,127447,1,0,0:0:0:0:
64,192,127891,1,0,0:0:0:0:
192,192,128186,1,0,0:0:0:0:
320,192,128482,1,0,0:0:0:0:
448,192,128777,1,0,0:0:0:0:
64,192,128777,1,0,0:0:0:0:
192,192,128851,1,0,0:0:0:0:
320,192,128925,1,0,0:0:0:0:
448,192,129664,1,0,0:0:0:0:
320,192,129738,1,0,0:0:0:0:
64,192,129738,1,0,0:0:0:0:
192,192,130403,1,0,0:0:0:0:
64,192,130477,1,0,0:0:0:0:
320,192,130551,1,0,0:0:0:0:
448,192,130551,1,0,0:0:0:0:
192,192,132028,1,0,0:0:0:0:
64,192,132620,1,0,0:0:0:0:
192,192,132915,1,0,0:0:0:0:
320,192,133211,1,0,0:0:0:0:
448,192,133506,1,0,0:0:0:0:
64,192,133506,1,0,0:0:0:0:
64,192,134393,1,0,0:0:0:0:
192,192,134467,1,0,0:0:0:0:
448,192,134467,1,0,0:0:0:0:
64,192,134984,1,0,0:0:0:0:
192,192,135021,1,0,0:0:0:0:
320,192,135058,1,0,0:0:0:0:
448,192,135095,1,0,0:0:0:0:
64,192,135132,1,0,0:0:0:0:
192,192,135206,1,0,0:0:0:0:
320,192,135280,128,0,138088:0:0:0:0:
192,192,136758,128,0,138088:0:0:0:0:
64,192,138235,1,0,0:0:0:0:
192,192,138235,1,0,0:0:0:0:
448,192,138235,1,0,0:0:0:0:
320,192,138235,1,0,0:0:0:0:
64,192,138531,1,0,0:0:0:0:
192,192,138679,1,0,0:0:0:0:
192,192,138826,128,0,139122:0:0:0:0:
64,192,138826,1,0,0:0:0:0:
320,192,138826,1,0,0:0:0:0:
448,192,138826,1,0,0:0:0:0:
320,192,139122,1,0,0:0:0:0:
448,192,139418,1,0,0:0:0:0:
192,192,139418,1,0,0:0:0:0:
64,192,139418,1,0,0:0:0:0:
320,192,139418,128,0,139713:0:0:0:0:
192,192,139713,1,0,0:0:0:0:
64,192,139787,1,0,0:0:0:0:
320,192,139861,1,0,0:0:0:0:
192,192,140009,1,0,0:0:0:0:
448,192,140009,1,0,0:0:0:0:
64,192,140009,1,0,0:0:0:0:
320,192,140009,128,0,140304:0:0:0:0:
192,192,140304,1,0,0:0:0:0:
64,192,140452,1,0,0:0:0:0:
448,192,140600,1,0,0:0:0:0:
320,192,140600,1,0,0:0:0:0:
192,192,140600,1,0,0:0:0:0:
64,192,140600,128,0,140895:0:0:0:0:
448,192,140895,1,0,0:0:0:0:
320,192,141191,1,0,0:0:0:0:
192,192,141191,1,0,0:0:0:0:
64,192,141191,1,0,0:0:0:0:
448,192,141191,128,0,141487:0:0:0:0:
192,192,141487,1,0,0:0:0:0:
64,192,141782,1,0,0:0:0:0:
320,192,141782,1,0,0:0:0:0:
448,192,141782,1,0,0:0:0:0:
192,192,141782,128,0,142078:0:0:0:0:
320,192,142078,1,0,0:0:0:0:
448,192,142078,1,0,0:0:0:0:
64,192,142078,128,0,142373:0:0:0:0:
192,192,142373,128,0,142669:0:0:0:0:
320,192,142373,1,0,0:0:0:0:
448,192,142373,1,0,0:0:0:0:
320,192,142669,128,0,142964:0:0:0:0:
192,192,142964,1,0,0:0:0:0:
64,192,142964,1,0,0:0:0:0:
448,192,142964,128,0,143260:0:0:0:0:
320,192,143260,1,0,0:0:0:0:
64,192,143408,1,0,0:0:0:0:
320,192,143556,1,0,0:0:0:0:
448,192,143556,1,0,0:0:0:0:
192,192,143556,1,0,0:0:0:0:
64,192,143556,128,0,143851:0:0:0:0:
448,192,143851,1,0,0:0:0:0:
448,192,144147,1,0,0:0:0:0:
320,192,144147,1,0,0:0:0:0:
192,192,144147,1,0,0:0:0:0:
64,192,144147,1,0,0:0:0:0:
320,192,144294,1,0,0:0:0:0:
192,192,144442,1,0,0:0:0:0:
64,192,144738,1,0,0:0:0:0:
320,192,144738,1,0,0:0:0:0:
448,192,144738,1,0,0:0:0:0:
192,192,144738,128,0,145033:0:0:0:0:
448,192,145033,1,0,0:0:0:0:
192,192,145181,1,0,0:0:0:0:
192,192,145329,128,0,145625:0:0:0:0:
64,192,145329,1,0,0:0:0:0:
320,192,145329,1,0,0:0:0:0:
448,192,145329,1,0,0:0:0:0:
320,192,145625,1,0,0:0:0:0:
448,192,145772,1,0,0:0:0:0:
192,192,145920,1,0,0:0:0:0:
320,192,145920,1,0,0:0:0:0:
64,192,145920,1,0,0:0:0:0:
448,192,145920,128,0,146216:0:0:0:0:
192,192,146216,1,0,0:0:0:0:
192,192,146511,1,0,0:0:0:0:
64,192,146511,1,0,0:0:0:0:
320,192,146511,1,0,0:0:0:0:
448,192,146511,1,0,0:0:0:0:
64,192,146659,1,0,0:0:0:0:
320,192,146807,1,0,0:0:0:0:
64,192,147102,1,0,0:0:0:0:
192,192,147102,1,0,0:0:0:0:
448,192,147102,1,0,0:0:0:0:
320,192,147102,128,0,147398:0:0:0:0:
192,192,147398,128,0,147693:0:0:0:0:
64,192,147693,1,0,0:0:0:0:
320,192,147693,1,0,0:0:0:0:
448,192,147693,1,0,0:0:0:0:
192,192,147989,1,0,0:0:0:0:
64,192,147989,1,0,0:0:0:0:
448,192,147989,1,0,0:0:0:0:
192,192,148137,1,0,0:0:0:0:
320,192,148285,1,0,0:0:0:0:
448,192,148285,1,0,0:0:0:0:
64,192,148285,1,0,0:0:0:0:
64,192,148580,1,0,0:0:0:0:
320,192,148580,1,0,0:0:0:0:
448,192,148580,1,0,0:0:0:0:
192,192,148876,1,0,0:0:0:0:
64,192,148876,1,0,0:0:0:0:
448,192,148876,1,0,0:0:0:0:
192,192,149024,1,0,0:0:0:0:
320,192,149171,1,0,0:0:0:0:
448,192,149171,1,0,0:0:0:0:
64,192,149171,1,0,0:0:0:0:
448,192,149467,1,0,0:0:0:0:
192,192,149467,1,0,0:0:0:0:
64,192,149467,1,0,0:0:0:0:
320,192,149762,1,0,0:0:0:0:
448,192,149762,1,0,0:0:0:0:
64,192,149762,1,0,0:0:0:0:
320,192,149910,1,0,0:0:0:0:
192,192,150058,1,0,0:0:0:0:
64,192,150058,1,0,0:0:0:0:
448,192,150058,1,0,0:0:0:0:
320,192,150206,1,0,0:0:0:0:
192,192,150206,1,0,0:0:0:0:
64,192,150354,1,0,0:0:0:0:
448,192,150354,1,0,0:0:0:0:
192,192,150501,1,0,0:0:0:0:
448,192,150501,1,0,0:0:0:0:
320,192,150649,1,0,0:0:0:0:
64,192,150649,1,0,0:0:0:0:
192,192,150797,1,0,0:0:0:0:
64,192,150797,1,0,0:0:0:0:
320,192,150945,1,0,0:0:0:0:
448,192,150945,1,0,0:0:0:0:
64,192,151092,1,0,0:0:0:0:
192,192,151092,1,0,0:0:0:0:
448,192,151240,1,0,0:0:0:0:
64,192,151240,1,0,0:0:0:0:
192,192,151388,1,0,0:0:0:0:
320,192,151388,1,0,0:0:0:0:
448,192,151536,1,0,0:0:0:0:
64,192,151536,1,0,0:0:0:0:
320,192,151684,1,0,0:0:0:0:
64,192,151684,1,0,0:0:0:0:
192,192,151831,1,0,0:0:0:0:
448,192,151831,1,0,0:0:0:0:
320,192,151979,1,0,0:0:0:0:
64,192,151979,1,0,0:0:0:0:
64,192,152127,1,0,0:0:0:0:
448,192,152127,1,0,0:0:0:0:
192,192,152275,1,0,0:0:0:0:
320,192,152275,1,0,0:0:0:0:
320,192,152423,1,0,0:0:0:0:
448,192,152423,1,0,0:0:0:0:
64,192,152496,1,0,0:0:0:0:
192,192,152496,1,0,0:0:0:0:
320,192,152570,1,0,0:0:0:0:
448,192,152570,1,0,0:0:0:0:
192,192,152644,1,0,0:0:0:0:
64,192,152644,1,0,0:0:0:0:
320,192,152718,1,0,0:0:0:0:
448,192,152718,1,0,0:0:0:0:
64,192,152792,1,0,0:0:0:0:
192,192,152792,1,0,0:0:0:0:
320,192,152866,1,0,0:0:0:0:
448,192,152866,1,0,0:0:0:0:
192,192,152940,1,0,0:0:0:0:
64,192,152940,1,0,0:0:0:0:
320,192,153014,1,0,0:0:0:0:
448,192,153014,1,0,0:0:0:0:
192,192,153088,1,0,0:0:0:0:
64,192,153088,1,0,0:0:0:0:
448,192,153161,1,0,0:0:0:0:
320,192,153161,1,0,0:0:0:0:
192,192,153235,1,0,0:0:0:0:
64,192,153235,1,0,0:0:0:0:
320,192,153309,1,0,0:0:0:0:
448,192,153309,1,0,0:0:0:0:
64,192,153383,1,0,0:0:0:0:
192,192,153383,1,0,0:0:0:0:
320,192,153457,1,0,0:0:0:0:
448,192,153457,1,0,0:0:0:0:
192,192,153531,1,0,0:0:0:0:
64,192,153531,1,0,0:0:0:0:
320,192,153605,1,0,0:0:0:0:
448,192,153605,1,0,0:0:0:0:
64,192,153679,1,0,0:0:0:0:
192,192,153679,1,0,0:0:0:0:
448,192,153753,1,0,0:0:0:0:
320,192,153753,1,0,0:0:0:0:
192,192,153826,1,0,0:0:0:0:
64,192,153826,1,0,0:0:0:0:
320,192,153900,1,0,0:0:0:0:
448,192,153900,1,0,0:0:0:0:
64,192,153974,1,0,0:0:0:0:
192,192,153974,1,0,0:0:0:0:
448,192,154048,1,0,0:0:0:0:
320,192,154048,1,0,0:0:0:0:
192,192,154122,1,0,0:0:0:0:
64,192,154122,1,0,0:0:0:0:
320,192,154196,1,0,0:0:0:0:
448,192,154196,1,0,0:0:0:0:
64,192,154270,1,0,0:0:0:0:
192,192,154270,1,0,0:0:0:0:
448,192,154344,1,0,0:0:0:0:
320,192,154344,1,0,0:0:0:0:
192,192,154418,1,0,0:0:0:0:
64,192,154418,1,0,0:0:0:0:
320,192,154492,1,0,0:0:0:0:
448,192,154492,1,0,0:0:0:0:
64,192,154565,1,0,0:0:0:0:
192,192,154565,1,0,0:0:0:0:
448,192,154639,1,0,0:0:0:0:
320,192,154639,1,0,0:0:0:0:
192,192,154713,1,0,0:0:0:0:
64,192,154713,1,0,0:0:0:0:
448,192,154787,1,0,0:0:0:0:
320,192,154787,1,0,0:0:0:0:
192,192,154824,1,0,0:0:0:0:
64,192,154861,1,0,0:0:0:0:
448,192,154898,1,0,0:0:0:0:
320,192,154935,1,0,0:0:0:0:
192,192,154935,1,0,0:0:0:0:
64,192,154972,1,0,0:0:0:0:
448,192,155009,1,0,0:0:0:0:
320,192,155046,1,0,0:0:0:0:
192,192,155083,1,0,0:0:0:0:
64,192,155083,1,0,0:0:0:0:
448,192,155120,1,0,0:0:0:0:
320,192,155157,1,0,0:0:0:0:
192,192,155193,1,0,0:0:0:0:
448,192,155230,1,0,0:0:0:0:
64,192,155230,1,0,0:0:0:0:
320,192,155267,1,0,0:0:0:0:
192,192,155304,1,0,0:0:0:0:
64,192,155341,1,0,0:0:0:0:
320,192,155378,1,0,0:0:0:0:
448,192,155378,1,0,0:0:0:0:
192,192,155415,1,0,0:0:0:0:
64,192,155452,1,0,0:0:0:0:
448,192,155489,1,0,0:0:0:0:
320,192,155526,1,0,0:0:0:0:
192,192,155526,1,0,0:0:0:0:
64,192,155563,1,0,0:0:0:0:
448,192,155600,1,0,0:0:0:0:
320,192,155637,1,0,0:0:0:0:
64,192,155674,1,0,0:0:0:0:
192,192,155674,1,0,0:0:0:0:
448,192,155822,1,0,0:0:0:0:
320,192,155969,1,0,0:0:0:0:
192,192,155969,1,0,0:0:0:0:
448,192,156117,1,0,0:0:0:0:
448,192,156265,1,0,0:0:0:0:
320,192,156413,1,0,0:0:0:0:
64,192,156413,1,0,0:0:0:0:
448,192,156560,1,0,0:0:0:0:
448,192,156708,1,0,0:0:0:0:
320,192,156856,1,0,0:0:0:0:
64,192,156856,1,0,0:0:0:0:
320,192,157004,1,0,0:0:0:0:
448,192,157152,1,0,0:0:0:0:
64,192,157152,1,0,0:0:0:0:
192,192,157152,128,0,157447:0:0:0:0:
320,192,157447,1,0,0:0:0:0:
192,192,157595,1,0,0:0:0:0:
64,192,157743,1,0,0:0:0:0:
320,192,157743,1,0,0:0:0:0:
448,192,157743,1,0,0:0:0:0:
320,192,157891,1,0,0:0:0:0:
192,192,158038,128,0,158334:0:0:0:0:
320,192,158334,128,0,158777:0:0:0:0:
448,192,158777,1,0,0:0:0:0:
64,192,158777,1,0,0:0:0:0:
320,192,158925,128,0,159959:0:0:0:0:
448,192,159959,1,0,0:0:0:0:
64,192,159959,1,0,0:0:0:0:
192,192,159959,1,0,0:0:0:0:
320,192,160107,1,0,0:0:0:0:
192,192,160107,1,0,0:0:0:0:
448,192,160107,1,0,0:0:0:0:
64,192,160107,1,0,0:0:0:0:
448,192,160403,1,0,0:0:0:0:
64,192,160403,1,0,0:0:0:0:
192,192,160403,128,0,160994:0:0:0:0:
64,192,160994,1,0,0:0:0:0:
448,192,160994,1,0,0:0:0:0:
320,192,160994,1,0,0:0:0:0:
448,192,161290,128,0,162176:0:0:0:0:
64,192,161290,1,0,0:0:0:0:
192,192,161290,1,0,0:0:0:0:
192,192,161881,128,0,162472:0:0:0:0:
320,192,161881,1,0,0:0:0:0:
64,192,161881,1,0,0:0:0:0:
320,192,162176,128,0,162472:0:0:0:0:
448,192,162472,1,0,0:0:0:0:
64,192,162472,128,0,162767:0:0:0:0:
192,192,162767,1,0,0:0:0:0:
320,192,162767,1,0,0:0:0:0:
448,192,162767,128,0,163063:0:0:0:0:
320,192,163063,1,0,0:0:0:0:
192,192,163063,1,0,0:0:0:0:
64,192,163063,1,0,0:0:0:0:
448,192,163211,1,0,0:0:0:0:
448,192,163359,1,0,0:0:0:0:
192,192,163359,1,0,0:0:0:0:
320,192,163506,1,0,0:0:0:0:
64,192,163506,1,0,0:0:0:0:
64,192,163654,1,0,0:0:0:0:
448,192,163654,1,0,0:0:0:0:
192,192,163654,128,0,164541:0:0:0:0:
64,192,164541,1,0,0:0:0:0:
448,192,164541,1,0,0:0:0:0:
320,192,164541,1,0,0:0:0:0:
448,192,164689,1,0,0:0:0:0:
320,192,164689,1,0,0:0:0:0:
64,192,164689,1,0,0:0:0:0:
192,192,164689,1,0,0:0:0:0:
320,192,165132,128,0,165723:0:0:0:0:
192,192,165132,1,0,0:0:0:0:
64,192,165132,1,0,0:0:0:0:
448,192,165132,1,0,0:0:0:0:
448,192,165723,128,0,166019:0:0:0:0:
192,192,165723,1,0,0:0:0:0:
64,192,165723,1,0,0:0:0:0:
320,192,166019,1,0,0:0:0:0:
64,192,166019,128,0,166166:0:0:0:0:
320,192,166166,128,0,166388:0:0:0:0:
192,192,166388,1,0,0:0:0:0:
64,192,166388,1,0,0:0:0:0:
448,192,166388,1,0,0:0:0:0:
192,192,166610,128,0,166905:0:0:0:0:
320,192,166905,1,0,0:0:0:0:
192,192,167053,1,0,0:0:0:0:
64,192,167201,1,0,0:0:0:0:
320,192,167201,1,0,0:0:0:0:
448,192,167201,1,0,0:0:0:0:
448,192,167349,1,0,0:0:0:0:
320,192,167496,1,0,0:0:0:0:
192,192,167496,128,0,168235:0:0:0:0:
64,192,168235,1,0,0:0:0:0:
320,192,168235,1,0,0:0:0:0:
448,192,168235,1,0,0:0:0:0:
448,192,168383,1,0,0:0:0:0:
192,192,168383,1,0,0:0:0:0:
64,192,168383,1,0,0:0:0:0:
320,192,168383,128,0,169418:0:0:0:0:
448,192,169418,1,0,0:0:0:0:
192,192,169418,1,0,0:0:0:0:
64,192,169418,1,0,0:0:0:0:
192,192,169565,1,0,0:0:0:0:
320,192,169565,1,0,0:0:0:0:
448,192,169565,1,0,0:0:0:0:
64,192,169565,1,0,0:0:0:0:
448,192,169861,1,0,0:0:0:0:
64,192,169861,1,0,0:0:0:0:
320,192,169861,1,0,0:0:0:0:
192,192,169861,128,0,170452:0:0:0:0:
320,192,170452,1,0,0:0:0:0:
448,192,170452,1,0,0:0:0:0:
64,192,170452,1,0,0:0:0:0:
192,192,170748,1,0,0:0:0:0:
64,192,170748,1,0,0:0:0:0:
448,192,170748,128,0,171339:0:0:0:0:
64,192,171339,128,0,171930:0:0:0:0:
320,192,171339,128,0,171634:0:0:0:0:
192,192,171634,128,0,171930:0:0:0:0:
320,192,171930,1,0,0:0:0:0:
448,192,171930,1,0,0:0:0:0:
448,192,172226,1,0,0:0:0:0:
64,192,172226,1,0,0:0:0:0:
192,192,172226,1,0,0:0:0:0:
320,192,172226,128,0,172521:0:0:0:0:
192,192,172521,128,0,172964:0:0:0:0:
320,192,172743,128,0,172964:0:0:0:0:
64,192,172964,1,0,0:0:0:0:
448,192,172964,1,0,0:0:0:0:
320,192,173112,1,0,0:0:0:0:
192,192,173112,1,0,0:0:0:0:
448,192,173112,128,0,175994:0:0:0:0:
64,192,173112,128,0,175994:0:0:0:0:
448,192,176068,1,0,0:0:0:0:
320,192,176068,1,0,0:0:0:0:
192,192,176068,1,0,0:0:0:0:
64,192,176068,1,0,0:0:0:0:
320,192,176437,1,0,0:0:0:0:
448,192,176474,1,0,0:0:0:0:
64,192,176511,1,0,0:0:0:0:
192,192,176548,1,0,0:0:0:0:
320,192,176585,1,0,0:0:0:0:
448,192,176622,1,0,0:0:0:0:
192,192,176659,1,0,0:0:0:0:
64,192,176696,1,0,0:0:0:0:
320,192,176733,1,0,0:0:0:0:
448,192,176770,1,0,0:0:0:0:
192,192,176807,1,0,0:0:0:0:
64,192,176844,1,0,0:0:0:0:
320,192,176881,1,0,0:0:0:0:
448,192,176918,1,0,0:0:0:0:
192,192,176955,1,0,0:0:0:0:
64,192,176992,1,0,0:0:0:0:
320,192,177028,1,0,0:0:0:0:
448,192,177065,1,0,0:0:0:0:
192,192,177102,1,0,0:0:0:0:
64,192,177139,1,0,0:0:0:0:
320,192,177176,1,0,0:0:0:0:
448,192,177213,1,0,0:0:0:0:
192,192,177250,1,0,0:0:0:0:
64,192,177287,1,0,0:0:0:0:
320,192,177324,1,0,0:0:0:0:
448,192,177361,1,0,0:0:0:0:
192,192,177398,1,0,0:0:0:0:
64,192,177435,1,0,0:0:0:0:
320,192,177472,1,0,0:0:0:0:
448,192,177509,1,0,0:0:0:0:
192,192,177546,1,0,0:0:0:0:
64,192,177583,1,0,0:0:0:0:
320,192,177620,1,0,0:0:0:0:
448,192,177657,1,0,0:0:0:0:
192,192,177693,1,0,0:0:0:0:
64,192,177730,1,0,0:0:0:0:
320,192,177767,1,0,0:0:0:0:
448,192,177804,1,0,0:0:0:0:
192,192,177841,1,0,0:0:0:0:
64,192,177841,1,0,0:0:0:0:
320,192,177878,1,0,0:0:0:0:
448,192,177915,1,0,0:0:0:0:
192,192,177952,1,0,0:0:0:0:
64,192,177989,1,0,0:0:0:0:
320,192,177989,1,0,0:0:0:0:
448,192,178026,1,0,0:0:0:0:
192,192,178063,1,0,0:0:0:0:
64,192,178100,1,0,0:0:0:0:
320,192,178137,1,0,0:0:0:0:
448,192,178137,1,0,0:0:0:0:
192,192,178174,1,0,0:0:0:0:
64,192,178211,1,0,0:0:0:0:
320,192,178248,1,0,0:0:0:0:
448,192,178285,1,0,0:0:0:0:
192,192,178285,1,0,0:0:0:0:
64,192,178322,1,0,0:0:0:0:
320,192,178359,1,0,0:0:0:0:
448,192,178395,1,0,0:0:0:0:
192,192,178432,1,0,0:0:0:0:
64,192,178432,1,0,0:0:0:0:
320,192,178469,1,0,0:0:0:0:
448,192,178506,1,0,0:0:0:0:
192,192,178543,1,0,0:0:0:0:
64,192,178580,1,0,0:0:0:0:
320,192,178580,1,0,0:0:0:0:
448,192,178617,1,0,0:0:0:0:
192,192,178654,1,0,0:0:0:0:
64,192,178691,1,0,0:0:0:0:
320,192,178728,1,0,0:0:0:0:
448,192,178728,1,0,0:0:0:0:
192,192,178765,1,0,0:0:0:0:
64,192,178802,1,0,0:0:0:0:
320,192,178839,1,0,0:0:0:0:
448,192,178876,1,0,0:0:0:0:
192,192,178876,1,0,0:0:0:0:
64,192,178913,1,0,0:0:0:0:
320,192,178950,1,0,0:0:0:0:
448,192,178987,1,0,0:0:0:0:
192,192,179024,1,0,0:0:0:0:
64,192,179024,1,0,0:0:0:0:
320,192,179060,1,0,0:0:0:0:
448,192,179097,1,0,0:0:0:0:
192,192,179134,1,0,0:0:0:0:
64,192,179171,1,0,0:0:0:0:
320,192,179171,1,0,0:0:0:0:
448,192,179208,1,0,0:0:0:0:
192,192,179245,1,0,0:0:0:0:
64,192,179282,1,0,0:0:0:0:
320,192,179319,1,0,0:0:0:0:
448,192,179319,1,0,0:0:0:0:
192,192,179356,1,0,0:0:0:0:
64,192,179393,1,0,0:0:0:0:
320,192,179430,1,0,0:0:0:0:
448,192,179467,1,0,0:0:0:0:
192,192,179467,1,0,0:0:0:0:
64,192,179504,1,0,0:0:0:0:
320,192,179541,1,0,0:0:0:0:
448,192,179578,1,0,0:0:0:0:
192,192,179615,1,0,0:0:0:0:
64,192,179615,1,0,0:0:0:0:
320,192,179652,1,0,0:0:0:0:
448,192,179689,1,0,0:0:0:0:
192,192,179689,1,0,0:0:0:0:
64,192,179726,1,0,0:0:0:0:
320,192,179762,1,0,0:0:0:0:
448,192,179762,1,0,0:0:0:0:
192,192,179799,1,0,0:0:0:0:
64,192,179836,1,0,0:0:0:0:
448,192,179836,1,0,0:0:0:0:
320,192,179873,1,0,0:0:0:0:
192,192,179910,1,0,0:0:0:0:
64,192,179910,1,0,0:0:0:0:
448,192,179947,1,0,0:0:0:0:
320,192,179984,1,0,0:0:0:0:
64,192,179984,1,0,0:0:0:0:
192,192,180021,1,0,0:0:0:0:
320,192,180058,1,0,0:0:0:0:
448,192,180058,1,0,0:0:0:0:
64,192,180095,1,0,0:0:0:0:
192,192,180132,1,0,0:0:0:0:
320,192,180132,1,0,0:0:0:0:
448,192,180169,1,0,0:0:0:0:
192,192,180206,128,0,180723:0:0:0:0:
64,192,180206,128,0,180723:0:0:0:0:
320,192,180243,128,0,180723:0:0:0:0:
448,192,180280,128,0,180723:0:0:0:0:
64,192,180797,1,0,0:0:0:0:
192,192,180797,1,0,0:0:0:0:
448,192,180797,128,0,181388:0:0:0:0:
320,192,180797,128,0,181092:0:0:0:0:
64,192,181092,128,0,181388:0:0:0:0:
320,192,181388,1,0,0:0:0:0:
192,192,181388,128,0,181684:0:0:0:0:
64,192,181684,1,0,0:0:0:0:
448,192,181684,1,0,0:0:0:0:
320,192,181684,128,0,181979:0:0:0:0:
192,192,181979,1,0,0:0:0:0:
64,192,181979,1,0,0:0:0:0:
448,192,181979,1,0,0:0:0:0:
320,192,182127,1,0,0:0:0:0:
448,192,182275,1,0,0:0:0:0:
192,192,182275,1,0,0:0:0:0:
64,192,182423,1,0,0:0:0:0:
320,192,182423,1,0,0:0:0:0:
320,192,182570,1,0,0:0:0:0:
192,192,182570,1,0,0:0:0:0:
448,192,182570,1,0,0:0:0:0:
64,192,182570,128,0,183605:0:0:0:0:
320,192,183605,1,0,0:0:0:0:
448,192,183605,1,0,0:0:0:0:
192,192,183605,1,0,0:0:0:0:
448,192,183753,1,0,0:0:0:0:
320,192,183753,1,0,0:0:0:0:
64,192,183753,1,0,0:0:0:0:
192,192,183753,1,0,0:0:0:0:
64,192,184048,1,0,0:0:0:0:
320,192,184048,1,0,0:0:0:0:
448,192,184048,1,0,0:0:0:0:
192,192,184048,128,0,184639:0:0:0:0:
448,192,184639,1,0,0:0:0:0:
64,192,184639,1,0,0:0:0:0:
320,192,184639,128,0,184935:0:0:0:0:
64,192,184935,128,0,185083:0:0:0:0:
192,192,184935,1,0,0:0:0:0:
448,192,185083,1,0,0:0:0:0:
320,192,185083,128,0,185304:0:0:0:0:
448,192,185304,1,0,0:0:0:0:
192,192,185304,1,0,0:0:0:0:
64,192,185304,1,0,0:0:0:0:
448,192,185526,1,0,0:0:0:0:
192,192,185526,1,0,0:0:0:0:
64,192,185526,1,0,0:0:0:0:
320,192,185526,128,0,185822:0:0:0:0:
192,192,185822,1,0,0:0:0:0:
320,192,185969,1,0,0:0:0:0:
448,192,186117,1,0,0:0:0:0:
64,192,186117,1,0,0:0:0:0:
192,192,186117,1,0,0:0:0:0:
64,192,186265,1,0,0:0:0:0:
192,192,186413,1,0,0:0:0:0:
320,192,186413,128,0,187152:0:0:0:0:
448,192,187152,1,0,0:0:0:0:
192,192,187152,1,0,0:0:0:0:
64,192,187152,1,0,0:0:0:0:
448,192,187299,1,0,0:0:0:0:
64,192,187299,1,0,0:0:0:0:
320,192,187299,1,0,0:0:0:0:
192,192,187299,128,0,188186:0:0:0:0:
64,192,188186,1,0,0:0:0:0:
448,192,188186,1,0,0:0:0:0:
320,192,188186,1,0,0:0:0:0:
448,192,188334,1,0,0:0:0:0:
320,192,188334,1,0,0:0:0:0:
192,192,188334,1,0,0:0:0:0:
64,192,188334,1,0,0:0:0:0:
64,192,188777,1,0,0:0:0:0:
192,192,188777,1,0,0:0:0:0:
320,192,188777,1,0,0:0:0:0:
448,192,188777,128,0,189368:0:0:0:0:
192,192,189368,1,0,0:0:0:0:
64,192,189368,1,0,0:0:0:0:
64,192,189664,1,0,0:0:0:0:
448,192,189664,1,0,0:0:0:0:
192,192,189664,128,0,190255:0:0:0:0:
320,192,189664,1,0,0:0:0:0:
320,192,190255,1,0,0:0:0:0:
448,192,190255,1,0,0:0:0:0:
192,192,190403,1,0,0:0:0:0:
320,192,190551,1,0,0:0:0:0:
64,192,190698,1,0,0:0:0:0:
448,192,191142,1,0,0:0:0:0:
320,192,191142,1,0,0:0:0:0:
192,192,191290,1,0,0:0:0:0:
320,192,191437,1,0,0:0:0:0:
64,192,191585,1,0,0:0:0:0:
64,192,192028,1,0,0:0:0:0:
192,192,192028,1,0,0:0:0:0:
448,192,192028,128,0,194984:0:0:0:0:
320,192,192028,128,0,194984:0:0:0:0:
320,192,195871,1,0,0:0:0:0:
320,192,196758,1,0,0:0:0:0:
192,192,199713,1,0,0:0:0:0:
192,192,200600,1,0,0:0:0:0:
192,192,201487,128,0,204368:0:0:0:0:
64,192,204442,1,0,0:0:0:0:
192,192,204442,1,0,0:0:0:0:
320,192,204442,1,0,0:0:0:0:
448,192,204442,1,0,0:0:0:0:
448,192,205255,1,0,0:0:0:0:
320,192,205625,1,0,0:0:0:0:
64,192,206363,1,0,0:0:0:0:
192,192,206807,1,0,0:0:0:0:
448,192,207546,1,0,0:0:0:0:
192,192,207989,1,0,0:0:0:0:
320,192,208432,1,0,0:0:0:0:
64,192,209171,1,0,0:0:0:0:
448,192,209171,1,0,0:0:0:0:
192,192,213900,1,0,0:0:0:0:
320,192,214713,1,0,0:0:0:0:
448,192,215083,1,0,0:0:0:0:
192,192,215895,1,0,0:0:0:0:
64,192,216265,1,0,0:0:0:0:
320,192,217078,1,0,0:0:0:0:
64,192,217447,1,0,0:0:0:0:
448,192,217891,1,0,0:0:0:0:
320,192,218629,1,0,0:0:0:0:
192,192,218629,1,0,0:0:0:0:
448,192,220994,128,0,223359:0:0:0:0:
320,192,221031,128,0,223211:0:0:0:0:
192,192,221068,128,0,223063:0:0:0:0:
64,192,221105,128,0,222767:0:0:0:0:
64,192,223359,128,0,223654:0:0:0:0:
192,192,223359,128,0,223654:0:0:0:0:
64,192,223802,128,0,223950:0:0:0:0:
192,192,223802,128,0,223950:0:0:0:0:
64,192,224097,128,0,224245:0:0:0:0:
192,192,224097,128,0,224245:0:0:0:0:
448,192,224393,128,0,224541:0:0:0:0:
320,192,224393,128,0,224541:0:0:0:0:
64,192,225280,128,0,225649:0:0:0:0:
192,192,225280,128,0,225649:0:0:0:0:
320,192,225280,128,0,225649:0:0:0:0:
448,192,225280,128,0,225649:0:0:0:0:
448,192,225723,128,0,226019:0:0:0:0:
320,192,225723,128,0,226019:0:0:0:0:
192,192,226166,128,0,226314:0:0:0:0:
320,192,226166,128,0,226314:0:0:0:0:
192,192,226388,128,0,226536:0:0:0:0:
320,192,226388,128,0,226536:0:0:0:0:
192,192,226610,128,0,226831:0:0:0:0:
320,192,226610,128,0,226831:0:0:0:0:
448,192,227496,128,0,228088:0:0:0:0:
320,192,227792,128,0,228088:0:0:0:0:
64,192,228088,128,0,228383:0:0:0:0:
192,192,228088,128,0,228383:0:0:0:0:
64,192,228531,128,0,228679:0:0:0:0:
192,192,228531,128,0,228679:0:0:0:0:
64,192,228826,128,0,228974:0:0:0:0:
192,192,228826,128,0,228974:0:0:0:0:
448,192,229122,128,0,229270:0:0:0:0:
320,192,229122,128,0,229270:0:0:0:0:
448,192,230009,128,0,230378:0:0:0:0:
320,192,230009,128,0,230378:0:0:0:0:
192,192,230009,128,0,230378:0:0:0:0:
64,192,230009,128,0,230378:0:0:0:0:
448,192,230452,128,0,230600:0:0:0:0:
320,192,230452,128,0,230600:0:0:0:0:
448,192,230895,128,0,231043:0:0:0:0:
64,192,230895,128,0,231043:0:0:0:0:
64,192,231117,128,0,231265:0:0:0:0:
448,192,231117,128,0,231265:0:0:0:0:
448,192,231339,128,0,231560:0:0:0:0:
64,192,231339,128,0,231560:0:0:0:0:
448,192,232078,128,0,232743:0:0:0:0:
320,192,232226,128,0,232743:0:0:0:0:
192,192,232373,128,0,232817:0:0:0:0:
64,192,232521,128,0,232817:0:0:0:0:
320,192,232817,1,0,0:0:0:0:
448,192,232817,1,0,0:0:0:0:
64,192,232964,1,0,0:0:0:0:
192,192,233112,1,0,0:0:0:0:
448,192,233112,1,0,0:0:0:0:
448,192,233260,1,0,0:0:0:0:
320,192,233408,1,0,0:0:0:0:
192,192,233408,1,0,0:0:0:0:
192,192,233556,1,0,0:0:0:0:
64,192,233703,1,0,0:0:0:0:
448,192,233703,1,0,0:0:0:0:
320,192,233703,1,0,0:0:0:0:
64,192,233851,1,0,0:0:0:0:
192,192,233999,1,0,0:0:0:0:
448,192,233999,128,0,234294:0:0:0:0:
320,192,234294,1,0,0:0:0:0:
192,192,234294,1,0,0:0:0:0:
64,192,234294,1,0,0:0:0:0:
192,192,234442,1,0,0:0:0:0:
448,192,234590,1,0,0:0:0:0:
64,192,234590,1,0,0:0:0:0:
448,192,234738,1,0,0:0:0:0:
320,192,234886,1,0,0:0:0:0:
192,192,234886,1,0,0:0:0:0:
64,192,234886,1,0,0:0:0:0:
192,192,235033,1,0,0:0:0:0:
448,192,235181,1,0,0:0:0:0:
64,192,235181,128,0,235477:0:0:0:0:
320,192,235477,1,0,0:0:0:0:
192,192,235477,1,0,0:0:0:0:
448,192,235477,1,0,0:0:0:0:
192,192,235625,1,0,0:0:0:0:
448,192,235772,1,0,0:0:0:0:
64,192,235772,1,0,0:0:0:0:
320,192,235920,1,0,0:0:0:0:
448,192,236068,1,0,0:0:0:0:
320,192,236068,1,0,0:0:0:0:
64,192,236068,1,0,0:0:0:0:
192,192,236216,1,0,0:0:0:0:
64,192,236363,1,0,0:0:0:0:
448,192,236363,1,0,0:0:0:0:
192,192,236363,128,0,236659:0:0:0:0:
64,192,236659,1,0,0:0:0:0:
320,192,236659,1,0,0:0:0:0:
64,192,236807,1,0,0:0:0:0:
448,192,236955,1,0,0:0:0:0:
320,192,236955,1,0,0:0:0:0:
192,192,236955,1,0,0:0:0:0:
448,192,237102,1,0,0:0:0:0:
192,192,237250,1,0,0:0:0:0:
320,192,237250,1,0,0:0:0:0:
64,192,237250,1,0,0:0:0:0:
192,192,237398,1,0,0:0:0:0:
320,192,237546,1,0,0:0:0:0:
448,192,237546,1,0,0:0:0:0:
64,192,237546,1,0,0:0:0:0:
320,192,237767,1,0,0:0:0:0:
448,192,237767,1,0,0:0:0:0:
64,192,237767,1,0,0:0:0:0:
192,192,237989,1,0,0:0:0:0:
320,192,237989,1,0,0:0:0:0:
448,192,238137,1,0,0:0:0:0:
64,192,238137,1,0,0:0:0:0:
192,192,238137,1,0,0:0:0:0:
448,192,238359,1,0,0:0:0:0:
64,192,238359,1,0,0:0:0:0:
192,192,238359,1,0,0:0:0:0:
448,192,238580,1,0,0:0:0:0:
192,192,238580,1,0,0:0:0:0:
64,192,238580,1,0,0:0:0:0:
320,192,238728,1,0,0:0:0:0:
192,192,238728,1,0,0:0:0:0:
64,192,238950,1,0,0:0:0:0:
320,192,238950,1,0,0:0:0:0:
448,192,238950,1,0,0:0:0:0:
320,192,239171,1,0,0:0:0:0:
192,192,239171,1,0,0:0:0:0:
320,192,239319,1,0,0:0:0:0:
448,192,239319,1,0,0:0:0:0:
192,192,239393,1,0,0:0:0:0:
64,192,239393,1,0,0:0:0:0:
320,192,239467,1,0,0:0:0:0:
192,192,239541,1,0,0:0:0:0:
320,192,239615,1,0,0:0:0:0:
448,192,239615,1,0,0:0:0:0:
192,192,239689,1,0,0:0:0:0:
64,192,239689,1,0,0:0:0:0:
448,192,239762,1,0,0:0:0:0:
64,192,239836,1,0,0:0:0:0:
448,192,239910,1,0,0:0:0:0:
320,192,239910,128,0,241684:0:0:0:0:
64,192,241684,128,0,241979:0:0:0:0:
448,192,241831,128,0,241979:0:0:0:0:
320,192,241831,1,0,0:0:0:0:
192,192,241905,1,0,0:0:0:0:
320,192,241979,1,0,0:0:0:0:
64,192,242053,1,0,0:0:0:0:
192,192,242053,1,0,0:0:0:0:
448,192,242127,1,0,0:0:0:0:
320,192,242127,1,0,0:0:0:0:
192,192,242201,1,0,0:0:0:0:
64,192,242275,1,0,0:0:0:0:
448,192,242275,1,0,0:0:0:0:
320,192,242275,1,0,0:0:0:0:
192,192,242373,1,0,0:0:0:0:
64,192,242423,1,0,0:0:0:0:
448,192,242423,1,0,0:0:0:0:
320,192,242521,1,0,0:0:0:0:
64,192,242570,1,0,0:0:0:0:
192,192,242570,1,0,0:0:0:0:
448,192,242570,1,0,0:0:0:0:
320,192,242669,1,0,0:0:0:0:
448,192,242718,1,0,0:0:0:0:
64,192,242718,1,0,0:0:0:0:
192,192,242792,1,0,0:0:0:0:
320,192,242866,1,0,0:0:0:0:
448,192,242866,1,0,0:0:0:0:
64,192,242866,1,0,0:0:0:0:
192,192,242964,1,0,0:0:0:0:
448,192,243014,1,0,0:0:0:0:
64,192,243014,1,0,0:0:0:0:
320,192,243063,1,0,0:0:0:0:
192,192,243161,1,0,0:0:0:0:
64,192,243161,1,0,0:0:0:0:
448,192,243161,1,0,0:0:0:0:
320,192,243260,1,0,0:0:0:0:
192,192,243309,1,0,0:0:0:0:
448,192,243309,1,0,0:0:0:0:
64,192,243359,1,0,0:0:0:0:
320,192,243457,1,0,0:0:0:0:
192,192,243457,1,0,0:0:0:0:
448,192,243457,1,0,0:0:0:0:
64,192,243556,1,0,0:0:0:0:
192,192,243605,1,0,0:0:0:0:
448,192,243605,1,0,0:0:0:0:
320,192,243679,1,0,0:0:0:0:
192,192,243753,1,0,0:0:0:0:
64,192,243753,1,0,0:0:0:0:
448,192,243753,1,0,0:0:0:0:
320,192,243826,1,0,0:0:0:0:
448,192,243900,1,0,0:0:0:0:
64,192,243900,1,0,0:0:0:0:
192,192,243999,1,0,0:0:0:0:
320,192,244048,1,0,0:0:0:0:
448,192,244048,1,0,0:0:0:0:
64,192,244048,1,0,0:0:0:0:
192,192,244122,1,0,0:0:0:0:
448,192,244196,1,0,0:0:0:0:
64,192,244196,1,0,0:0:0:0:
320,192,244245,1,0,0:0:0:0:
192,192,244344,1,0,0:0:0:0:
64,192,244344,1,0,0:0:0:0:
448,192,244344,1,0,0:0:0:0:
320,192,244442,1,0,0:0:0:0:
192,192,244492,1,0,0:0:0:0:
448,192,244492,1,0,0:0:0:0:
64,192,244541,1,0,0:0:0:0:
192,192,244639,1,0,0:0:0:0:
320,192,244639,1,0,0:0:0:0:
448,192,244639,1,0,0:0:0:0:
64,192,244738,1,0,0:0:0:0:
192,192,244787,1,0,0:0:0:0:
448,192,244787,1,0,0:0:0:0:
320,192,244886,1,0,0:0:0:0:
448,192,244935,1,0,0:0:0:0:
64,192,244935,1,0,0:0:0:0:
192,192,244935,1,0,0:0:0:0:
320,192,245009,1,0,0:0:0:0:
448,192,245083,1,0,0:0:0:0:
64,192,245083,1,0,0:0:0:0:
192,192,245132,1,0,0:0:0:0:
320,192,245230,1,0,0:0:0:0:
448,192,245230,1,0,0:0:0:0:
64,192,245230,1,0,0:0:0:0:
192,192,245329,1,0,0:0:0:0:
64,192,245378,1,0,0:0:0:0:
320,192,245378,1,0,0:0:0:0:
448,192,245427,1,0,0:0:0:0:
320,192,245526,1,0,0:0:0:0:
192,192,245526,1,0,0:0:0:0:
64,192,245526,1,0,0:0:0:0:
448,192,245625,1,0,0:0:0:0:
192,192,245674,1,0,0:0:0:0:
64,192,245674,1,0,0:0:0:0:
320,192,245723,1,0,0:0:0:0:
192,192,245822,1,0,0:0:0:0:
448,192,245822,1,0,0:0:0:0:
64,192,245822,1,0,0:0:0:0:
320,192,245920,1,0,0:0:0:0:
192,192,245969,1,0,0:0:0:0:
448,192,245969,1,0,0:0:0:0:
64,192,246043,1,0,0:0:0:0:
192,192,246117,1,0,0:0:0:0:
320,192,246117,1,0,0:0:0:0:
448,192,246117,1,0,0:0:0:0:
64,192,246191,1,0,0:0:0:0:
192,192,246265,1,0,0:0:0:0:
320,192,246265,1,0,0:0:0:0:
448,192,246314,1,0,0:0:0:0:
320,192,246413,1,0,0:0:0:0:
64,192,246413,128,0,246634:0:0:0:0:
192,192,246413,1,0,0:0:0:0:
448,192,246487,128,0,246634:0:0:0:0:
192,192,246560,128,0,246634:0:0:0:0:
320,192,246634,128,0,246782:0:0:0:0:
64,192,246708,128,0,246930:0:0:0:0:
192,192,246708,128,0,246856:0:0:0:0:
448,192,246782,128,0,246856:0:0:0:0:
320,192,246856,128,0,246930:0:0:0:0:
192,192,246930,128,0,247004:0:0:0:0:
64,192,247004,1,0,0:0:0:0:
320,192,247004,1,0,0:0:0:0:
448,192,247004,1,0,0:0:0:0:
192,192,247102,1,0,0:0:0:0:
320,192,247152,1,0,0:0:0:0:
448,192,247152,1,0,0:0:0:0:
64,192,247226,1,0,0:0:0:0:
192,192,247299,1,0,0:0:0:0:
320,192,247299,1,0,0:0:0:0:
448,192,247299,1,0,0:0:0:0:
64,192,247373,1,0,0:0:0:0:
448,192,247447,1,0,0:0:0:0:
192,192,247447,1,0,0:0:0:0:
320,192,247496,1,0,0:0:0:0:
448,192,247595,1,0,0:0:0:0:
64,192,247595,1,0,0:0:0:0:
192,192,247595,1,0,0:0:0:0:
320,192,247669,1,0,0:0:0:0:
448,192,247743,1,0,0:0:0:0:
64,192,247743,1,0,0:0:0:0:
192,192,247792,1,0,0:0:0:0:
448,192,247891,1,0,0:0:0:0:
64,192,247891,1,0,0:0:0:0:
320,192,247891,128,0,248186:0:0:0:0:
448,192,248186,1,0,0:0:0:0:
192,192,248186,1,0,0:0:0:0:
64,192,248186,1,0,0:0:0:0:
320,192,248285,1,0,0:0:0:0:
448,192,248334,1,0,0:0:0:0:
64,192,248334,1,0,0:0:0:0:
192,192,248408,1,0,0:0:0:0:
320,192,248482,1,0,0:0:0:0:
448,192,248482,1,0,0:0:0:0:
64,192,248482,1,0,0:0:0:0:
192,192,248580,1,0,0:0:0:0:
320,192,248629,1,0,0:0:0:0:
448,192,248629,1,0,0:0:0:0:
64,192,248679,1,0,0:0:0:0:
192,192,248777,1,0,0:0:0:0:
320,192,248777,1,0,0:0:0:0:
448,192,248777,1,0,0:0:0:0:
64,192,248876,1,0,0:0:0:0:
448,192,248925,1,0,0:0:0:0:
192,192,248925,1,0,0:0:0:0:
320,192,248999,1,0,0:0:0:0:
64,192,249073,1,0,0:0:0:0:
192,192,249073,1,0,0:0:0:0:
448,192,249073,128,0,249221:0:0:0:0:
320,192,249221,128,0,249368:0:0:0:0:
448,192,249368,1,0,0:0:0:0:
192,192,249368,1,0,0:0:0:0:
64,192,249368,1,0,0:0:0:0:
320,192,249467,1,0,0:0:0:0:
448,192,249516,1,0,0:0:0:0:
64,192,249516,1,0,0:0:0:0:
192,192,249590,1,0,0:0:0:0:
320,192,249664,1,0,0:0:0:0:
448,192,249664,1,0,0:0:0:0:
64,192,249664,1,0,0:0:0:0:
192,192,249762,1,0,0:0:0:0:
64,192,249812,1,0,0:0:0:0:
320,192,249812,1,0,0:0:0:0:
448,192,249861,1,0,0:0:0:0:
320,192,249959,1,0,0:0:0:0:
192,192,249959,1,0,0:0:0:0:
64,192,249959,1,0,0:0:0:0:
448,192,250033,1,0,0:0:0:0:
320,192,250107,1,0,0:0:0:0:
64,192,250107,1,0,0:0:0:0:
192,192,250157,1,0,0:0:0:0:
320,192,250255,1,0,0:0:0:0:
448,192,250255,1,0,0:0:0:0:
64,192,250255,128,0,250551:0:0:0:0:
192,192,250403,128,0,250551:0:0:0:0:
320,192,250551,1,0,0:0:0:0:
448,192,250551,1,0,0:0:0:0:
192,192,250698,1,0,0:0:0:0:
448,192,250772,1,0,0:0:0:0:
320,192,250772,1,0,0:0:0:0:
64,192,250772,1,0,0:0:0:0:
448,192,250846,1,0,0:0:0:0:
320,192,250846,1,0,0:0:0:0:
64,192,250994,1,0,0:0:0:0:
320,192,250994,1,0,0:0:0:0:
448,192,250994,1,0,0:0:0:0:
64,192,251216,1,0,0:0:0:0:
320,192,251216,1,0,0:0:0:0:
448,192,251216,1,0,0:0:0:0:
192,192,251290,1,0,0:0:0:0:
320,192,251363,1,0,0:0:0:0:
64,192,251437,1,0,0:0:0:0:
192,192,251437,1,0,0:0:0:0:
448,192,251437,128,0,251585:0:0:0:0:
320,192,251511,128,0,251585:0:0:0:0:
64,192,251585,128,0,251733:0:0:0:0:
192,192,251659,128,0,251733:0:0:0:0:
320,192,251733,1,0,0:0:0:0:
448,192,251733,1,0,0:0:0:0:
64,192,251807,1,0,0:0:0:0:
192,192,251881,1,0,0:0:0:0:
320,192,251881,1,0,0:0:0:0:
448,192,251979,1,0,0:0:0:0:
64,192,252028,1,0,0:0:0:0:
320,192,252028,1,0,0:0:0:0:
192,192,252028,1,0,0:0:0:0:
448,192,252102,1,0,0:0:0:0:
320,192,252176,1,0,0:0:0:0:
64,192,252176,1,0,0:0:0:0:
192,192,252250,1,0,0:0:0:0:
320,192,252324,1,0,0:0:0:0:
448,192,252324,1,0,0:0:0:0:
64,192,252324,1,0,0:0:0:0:
192,192,252423,1,0,0:0:0:0:
64,192,252472,1,0,0:0:0:0:
448,192,252472,1,0,0:0:0:0:
320,192,252521,1,0,0:0:0:0:
448,192,252620,1,0,0:0:0:0:
192,192,252620,1,0,0:0:0:0:
64,192,252620,1,0,0:0:0:0:
320,192,252693,1,0,0:0:0:0:
448,192,252767,1,0,0:0:0:0:
64,192,252767,1,0,0:0:0:0:
192,192,252841,1,0,0:0:0:0:
64,192,252915,1,0,0:0:0:0:
320,192,252915,1,0,0:0:0:0:
448,192,252915,1,0,0:0:0:0:
192,192,252989,1,0,0:0:0:0:
448,192,253063,1,0,0:0:0:0:
64,192,253063,1,0,0:0:0:0:
320,192,253161,1,0,0:0:0:0:
64,192,253211,1,0,0:0:0:0:
448,192,253211,1,0,0:0:0:0:
192,192,253211,1,0,0:0:0:0:
320,192,253285,1,0,0:0:0:0:
448,192,253359,1,0,0:0:0:0:
64,192,253359,1,0,0:0:0:0:
192,192,253432,1,0,0:0:0:0:
64,192,253506,1,0,0:0:0:0:
448,192,253506,1,0,0:0:0:0:
320,192,253506,1,0,0:0:0:0:
192,192,253605,1,0,0:0:0:0:
448,192,253654,1,0,0:0:0:0:
64,192,253654,1,0,0:0:0:0:
64,192,253802,1,0,0:0:0:0:
448,192,253802,1,0,0:0:0:0:
64,192,253950,1,0,0:0:0:0:
448,192,253950,1,0,0:0:0:0:
448,192,254097,1,0,0:0:0:0:
64,192,254097,1,0,0:0:0:0:
320,192,254097,1,0,0:0:0:0:
192,192,254196,1,0,0:0:0:0:
64,192,254245,1,0,0:0:0:0:
320,192,254245,1,0,0:0:0:0:
448,192,254319,1,0,0:0:0:0:
192,192,254393,1,0,0:0:0:0:
64,192,254393,1,0,0:0:0:0:
320,192,254393,1,0,0:0:0:0:
448,192,254467,1,0,0:0:0:0:
320,192,254541,1,0,0:0:0:0:
192,192,254541,1,0,0:0:0:0:
64,192,254615,1,0,0:0:0:0:
192,192,254689,1,0,0:0:0:0:
320,192,254689,1,0,0:0:0:0:
448,192,254689,1,0,0:0:0:0:
64,192,254787,1,0,0:0:0:0:
448,192,254836,1,0,0:0:0:0:
320,192,254836,1,0,0:0:0:0:
192,192,254886,1,0,0:0:0:0:
64,192,254984,1,0,0:0:0:0:
320,192,254984,1,0,0:0:0:0:
448,192,254984,1,0,0:0:0:0:
192,192,255058,1,0,0:0:0:0:
448,192,255132,1,0,0:0:0:0:
64,192,255132,1,0,0:0:0:0:
320,192,255206,1,0,0:0:0:0:
192,192,255280,1,0,0:0:0:0:
64,192,255280,1,0,0:0:0:0:
448,192,255280,1,0,0:0:0:0:
320,192,255378,1,0,0:0:0:0:
192,192,255427,1,0,0:0:0:0:
64,192,255427,1,0,0:0:0:0:
448,192,255501,1,0,0:0:0:0:
320,192,255575,1,0,0:0:0:0:
192,192,255575,1,0,0:0:0:0:
64,192,255575,1,0,0:0:0:0:
448,192,255649,1,0,0:0:0:0:
320,192,255723,1,0,0:0:0:0:
192,192,255723,1,0,0:0:0:0:
64,192,255797,1,0,0:0:0:0:
448,192,255871,1,0,0:0:0:0:
320,192,255871,1,0,0:0:0:0:
192,192,255871,1,0,0:0:0:0:
64,192,255895,1,0,0:0:0:0:
448,192,255945,1,0,0:0:0:0:
320,192,255969,1,0,0:0:0:0:
64,192,256019,1,0,0:0:0:0:
192,192,256043,1,0,0:0:0:0:
320,192,256092,1,0,0:0:0:0:
448,192,256117,1,0,0:0:0:0:
64,192,256166,1,0,0:0:0:0:
192,192,256166,1,0,0:0:0:0:
320,192,256240,1,0,0:0:0:0:
448,192,256265,1,0,0:0:0:0:
192,192,256314,1,0,0:0:0:0:
64,192,256339,1,0,0:0:0:0:
448,192,256388,1,0,0:0:0:0:
320,192,256413,1,0,0:0:0:0:
64,192,256462,1,0,0:0:0:0:
448,192,256462,1,0,0:0:0:0:
192,192,256462,1,0,0:0:0:0:
192,192,256560,1,0,0:0:0:0:
448,192,256659,1,0,0:0:0:0:
320,192,256708,1,0,0:0:0:0:
64,192,256758,1,0,0:0:0:0:
192,192,256856,1,0,0:0:0:0:
448,192,256955,1,0,0:0:0:0:
320,192,257004,1,0,0:0:0:0:
64,192,257053,1,0,0:0:0:0:
448,192,257152,1,0,0:0:0:0:
192,192,257201,1,0,0:0:0:0:
320,192,257299,1,0,0:0:0:0:
64,192,257349,1,0,0:0:0:0:
448,192,257398,1,0,0:0:0:0:
192,192,257496,1,0,0:0:0:0:
448,192,257644,1,0,0:0:0:0:
320,192,257743,1,0,0:0:0:0:
64,192,257841,1,0,0:0:0:0:
192,192,257891,1,0,0:0:0:0:
448,192,257940,1,0,0:0:0:0:
320,192,258038,1,0,0:0:0:0:
64,192,258088,1,0,0:0:0:0:
192,192,258137,1,0,0:0:0:0:
448,192,258235,1,0,0:0:0:0:
64,192,258334,1,0,0:0:0:0:
320,192,258383,1,0,0:0:0:0:
192,192,258482,1,0,0:0:0:0:
448,192,258531,1,0,0:0:0:0:
320,192,258679,1,0,0:0:0:0:
64,192,258826,1,0,0:0:0:0:
192,192,258925,1,0,0:0:0:0:
448,192,259024,1,0,0:0:0:0:
320,192,259073,1,0,0:0:0:0:
64,192,259122,1,0,0:0:0:0:
192,192,259221,1,0,0:0:0:0:
448,192,259270,1,0,0:0:0:0:
320,192,259319,1,0,0:0:0:0:
64,192,259418,1,0,0:0:0:0:
192,192,259492,1,0,0:0:0:0:
320,192,259492,1,0,0:0:0:0:
448,192,259565,1,0,0:0:0:0:
320,192,259565,1,0,0:0:0:0:
192,192,259639,1,0,0:0:0:0:
64,192,259639,1,0,0:0:0:0:
320,192,259713,1,0,0:0:0:0:
448,192,259713,1,0,0:0:0:0:
192,192,259787,1,0,0:0:0:0:
64,192,259787,1,0,0:0:0:0:
320,192,259861,1,0,0:0:0:0:
448,192,259861,1,0,0:0:0:0:
64,192,259861,1,0,0:0:0:0:
448,192,259935,1,0,0:0:0:0:
320,192,259935,1,0,0:0:0:0:
64,192,259935,1,0,0:0:0:0:
320,192,260009,1,0,0:0:0:0:
192,192,260009,1,0,0:0:0:0:
192,192,260157,1,0,0:0:0:0:
192,192,260230,1,0,0:0:0:0:
64,192,260230,1,0,0:0:0:0:
448,192,260230,1,0,0:0:0:0:
320,192,260378,1,0,0:0:0:0:
448,192,260452,1,0,0:0:0:0:
64,192,260452,1,0,0:0:0:0:
192,192,260452,1,0,0:0:0:0:
320,192,260600,1,0,0:0:0:0:
64,192,260674,1,0,0:0:0:0:
320,192,260674,1,0,0:0:0:0:
448,192,260674,1,0,0:0:0:0:
192,192,260822,1,0,0:0:0:0:
64,192,260895,1,0,0:0:0:0:
448,192,260895,1,0,0:0:0:0:
320,192,260895,1,0,0:0:0:0:
320,192,261043,1,0,0:0:0:0:
64,192,261043,1,0,0:0:0:0:
192,192,261043,1,0,0:0:0:0:
448,192,261043,1,0,0:0:0:0:
64,192,261191,1,0,0:0:0:0:
320,192,261191,1,0,0:0:0:0:
448,192,261191,1,0,0:0:0:0:
192,192,261290,1,0,0:0:0:0:
448,192,261339,1,0,0:0:0:0:
320,192,261339,1,0,0:0:0:0:
64,192,261437,1,0,0:0:0:0:
192,192,261487,1,0,0:0:0:0:
320,192,261487,1,0,0:0:0:0:
448,192,261487,1,0,0:0:0:0:
64,192,261585,1,0,0:0:0:0:
192,192,261634,1,0,0:0:0:0:
320,192,261634,1,0,0:0:0:0:
448,192,261684,1,0,0:0:0:0:
320,192,261782,1,0,0:0:0:0:
192,192,261782,1,0,0:0:0:0:
64,192,261782,1,0,0:0:0:0:
448,192,261881,1,0,0:0:0:0:
320,192,261930,1,0,0:0:0:0:
64,192,261930,1,0,0:0:0:0:
192,192,261979,1,0,0:0:0:0:
320,192,262078,1,0,0:0:0:0:
448,192,262078,1,0,0:0:0:0:
64,192,262078,1,0,0:0:0:0:
192,192,262152,1,0,0:0:0:0:
448,192,262226,1,0,0:0:0:0:
64,192,262226,1,0,0:0:0:0:
320,192,262299,1,0,0:0:0:0:
192,192,262373,1,0,0:0:0:0:
64,192,262373,1,0,0:0:0:0:
448,192,262373,1,0,0:0:0:0:
320,192,262472,1,0,0:0:0:0:
448,192,262521,1,0,0:0:0:0:
192,192,262521,1,0,0:0:0:0:
64,192,262595,1,0,0:0:0:0:
192,192,262669,1,0,0:0:0:0:
320,192,262669,1,0,0:0:0:0:
448,192,262669,1,0,0:0:0:0:
64,192,262743,1,0,0:0:0:0:
320,192,262817,1,0,0:0:0:0:
448,192,262817,1,0,0:0:0:0:
192,192,262866,1,0,0:0:0:0:
64,192,262964,1,0,0:0:0:0:
448,192,262964,1,0,0:0:0:0:
192,192,262964,1,0,0:0:0:0:
320,192,263038,1,0,0:0:0:0:
448,192,263112,1,0,0:0:0:0:
64,192,263112,1,0,0:0:0:0:
192,192,263161,1,0,0:0:0:0:
320,192,263260,1,0,0:0:0:0:
448,192,263260,1,0,0:0:0:0:
64,192,263260,1,0,0:0:0:0:
192,192,263334,1,0,0:0:0:0:
320,192,263408,1,0,0:0:0:0:
448,192,263408,1,0,0:0:0:0:
192,192,263482,1,0,0:0:0:0:
64,192,263556,1,0,0:0:0:0:
320,192,263556,1,0,0:0:0:0:
448,192,263556,1,0,0:0:0:0:
192,192,263654,1,0,0:0:0:0:
64,192,263703,1,0,0:0:0:0:
448,192,263703,1,0,0:0:0:0:
320,192,263753,1,0,0:0:0:0:
448,192,263851,1,0,0:0:0:0:
192,192,263851,1,0,0:0:0:0:
64,192,263851,1,0,0:0:0:0:
320,192,263925,1,0,0:0:0:0:
448,192,263999,1,0,0:0:0:0:
192,192,263999,1,0,0:0:0:0:
64,192,264048,1,0,0:0:0:0:
320,192,264147,1,0,0:0:0:0:
448,192,264147,1,0,0:0:0:0:
64,192,264147,1,0,0:0:0:0:
192,192,264147,1,0,0:0:0:0:
64,192,264245,1,0,0:0:0:0:
192,192,264294,1,0,0:0:0:0:
448,192,264294,1,0,0:0:0:0:
320,192,264344,1,0,0:0:0:0:
192,192,264442,1,0,0:0:0:0:
64,192,264442,1,0,0:0:0:0:
448,192,264442,1,0,0:0:0:0:
320,192,264516,1,0,0:0:0:0:
192,192,264590,1,0,0:0:0:0:
64,192,264590,1,0,0:0:0:0:
320,192,264664,1,0,0:0:0:0:
448,192,264738,1,0,0:0:0:0:
192,192,264738,1,0,0:0:0:0:
64,192,264738,1,0,0:0:0:0:
320,192,264836,1,0,0:0:0:0:
192,192,264886,1,0,0:0:0:0:
64,192,264886,1,0,0:0:0:0:
448,192,264935,1,0,0:0:0:0:
448,192,265033,1,0,0:0:0:0:
320,192,265033,1,0,0:0:0:0:
64,192,265033,1,0,0:0:0:0:
192,192,265107,1,0,0:0:0:0:
320,192,265181,1,0,0:0:0:0:
64,192,265181,1,0,0:0:0:0:
448,192,265230,1,0,0:0:0:0:
192,192,265329,1,0,0:0:0:0:
320,192,265329,1,0,0:0:0:0:
64,192,265329,128,0,265477:0:0:0:0:
448,192,265403,128,0,265477:0:0:0:0:
320,192,265477,128,0,265625:0:0:0:0:
192,192,265551,128,0,265625:0:0:0:0:
64,192,265625,128,0,265772:0:0:0:0:
448,192,265625,1,0,0:0:0:0:
192,192,265698,128,0,265772:0:0:0:0:
448,192,265772,128,0,265920:0:0:0:0:
320,192,265846,128,0,265920:0:0:0:0:
192,192,265920,1,0,0:0:0:0:
64,192,265920,128,0,267102:0:0:0:0:
448,192,266019,1,0,0:0:0:0:
320,192,266068,1,0,0:0:0:0:
192,192,266117,1,0,0:0:0:0:
448,192,266216,1,0,0:0:0:0:
320,192,266216,1,0,0:0:0:0:
192,192,266314,1,0,0:0:0:0:
320,192,266363,1,0,0:0:0:0:
448,192,266413,1,0,0:0:0:0:
192,192,266511,1,0,0:0:0:0:
320,192,266511,1,0,0:0:0:0:
448,192,266610,1,0,0:0:0:0:
192,192,266659,1,0,0:0:0:0:
320,192,266708,1,0,0:0:0:0:
192,192,266807,128,0,267102:0:0:0:0:
448,192,266807,1,0,0:0:0:0:
320,192,267102,1,0,0:0:0:0:
448,192,267102,128,0,268137:0:0:0:0:
192,192,267201,1,0,0:0:0:0:
64,192,267250,1,0,0:0:0:0:
320,192,267299,1,0,0:0:0:0:
192,192,267398,1,0,0:0:0:0:
64,192,267398,1,0,0:0:0:0:
320,192,267496,1,0,0:0:0:0:
64,192,267546,1,0,0:0:0:0:
192,192,267595,1,0,0:0:0:0:
320,192,267693,1,0,0:0:0:0:
64,192,267693,1,0,0:0:0:0:
192,192,267792,1,0,0:0:0:0:
320,192,267841,1,0,0:0:0:0:
64,192,267891,1,0,0:0:0:0:
320,192,267989,128,0,268285:0:0:0:0:
192,192,267989,1,0,0:0:0:0:
64,192,268137,128,0,268285:0:0:0:0:
192,192,268285,128,0,268987:0:0:0:0:
448,192,268383,1,0,0:0:0:0:
320,192,268432,1,0,0:0:0:0:
64,192,268482,1,0,0:0:0:0:
448,192,268580,1,0,0:0:0:0:
320,192,268580,1,0,0:0:0:0:
64,192,268679,1,0,0:0:0:0:
320,192,268728,1,0,0:0:0:0:
448,192,268777,1,0,0:0:0:0:
64,192,268876,128,0,268950:0:0:0:0:
320,192,268913,128,0,269319:0:0:0:0:
448,192,268950,128,0,269060:0:0:0:0:
64,192,269171,128,0,269245:0:0:0:0:
192,192,269208,128,0,269282:0:0:0:0:
448,192,269245,128,0,269467:0:0:0:0:
320,192,269467,1,0,0:0:0:0:
192,192,269467,1,0,0:0:0:0:
64,192,269467,1,0,0:0:0:0:
320,192,269615,1,0,0:0:0:0:
448,192,269689,1,0,0:0:0:0:
192,192,269689,1,0,0:0:0:0:
64,192,269689,1,0,0:0:0:0:
64,192,269762,1,0,0:0:0:0:
192,192,269762,1,0,0:0:0:0:
448,192,269910,1,0,0:0:0:0:
192,192,269910,1,0,0:0:0:0:
64,192,269910,1,0,0:0:0:0:
320,192,269910,1,0,0:0:0:0:
320,192,270058,1,0,0:0:0:0:
448,192,270132,1,0,0:0:0:0:
64,192,270132,1,0,0:0:0:0:
192,192,270132,1,0,0:0:0:0:
320,192,270206,1,0,0:0:0:0:
192,192,270280,1,0,0:0:0:0:
448,192,270354,1,0,0:0:0:0:
320,192,270354,1,0,0:0:0:0:
64,192,270354,128,0,270649:0:0:0:0:
192,192,270427,128,0,270649:0:0:0:0:
320,192,270501,128,0,270649:0:0:0:0:
448,192,270575,128,0,270945:0:0:0:0:
320,192,270945,1,0,0:0:0:0:
192,192,270945,1,0,0:0:0:0:
64,192,270945,1,0,0:0:0:0:
320,192,271092,1,0,0:0:0:0:
192,192,271166,1,0,0:0:0:0:
448,192,271240,1,0,0:0:0:0:
320,192,271240,1,0,0:0:0:0:
64,192,271240,128,0,271388:0:0:0:0:
320,192,271388,1,0,0:0:0:0:
192,192,271462,1,0,0:0:0:0:
448,192,271536,1,0,0:0:0:0:
320,192,271536,1,0,0:0:0:0:
64,192,271536,128,0,271684:0:0:0:0:
320,192,271684,1,0,0:0:0:0:
192,192,271758,1,0,0:0:0:0:
448,192,271831,1,0,0:0:0:0:
320,192,271831,1,0,0:0:0:0:
64,192,271831,128,0,271979:0:0:0:0:
320,192,271979,1,0,0:0:0:0:
192,192,272053,1,0,0:0:0:0:
448,192,272127,1,0,0:0:0:0:
320,192,272127,1,0,0:0:0:0:
64,192,272127,128,0,272275:0:0:0:0:
320,192,272275,1,0,0:0:0:0:
192,192,272349,1,0,0:0:0:0:
320,192,272423,1,0,0:0:0:0:
448,192,272423,1,0,0:0:0:0:
64,192,272423,128,0,272570:0:0:0:0:
320,192,272570,1,0,0:0:0:0:
192,192,272644,1,0,0:0:0:0:
448,192,272718,1,0,0:0:0:0:
64,192,272718,1,0,0:0:0:0:
320,192,272718,1,0,0:0:0:0:
192,192,272792,1,0,0:0:0:0:
64,192,272792,1,0,0:0:0:0:
320,192,272866,1,0,0:0:0:0:
448,192,272866,1,0,0:0:0:0:
64,192,272940,1,0,0:0:0:0:
448,192,272940,1,0,0:0:0:0:
320,192,273014,1,0,0:0:0:0:
192,192,273014,1,0,0:0:0:0:
64,192,273014,1,0,0:0:0:0:
192,192,273161,1,0,0:0:0:0:
320,192,273235,1,0,0:0:0:0:
192,192,273309,1,0,0:0:0:0:
64,192,273309,1,0,0:0:0:0:
448,192,273309,128,0,273457:0:0:0:0:
192,192,273457,1,0,0:0:0:0:
320,192,273531,1,0,0:0:0:0:
448,192,273605,1,0,0:0:0:0:
192,192,273605,1,0,0:0:0:0:
64,192,273605,1,0,0:0:0:0:
192,192,273753,1,0,0:0:0:0:
320,192,273826,1,0,0:0:0:0:
192,192,273900,1,0,0:0:0:0:
64,192,273900,1,0,0:0:0:0:
448,192,273900,128,0,274048:0:0:0:0:
320,192,274048,128,0,274196:0:0:0:0:
192,192,274196,1,0,0:0:0:0:
64,192,274196,1,0,0:0:0:0:
448,192,274196,128,0,274344:0:0:0:0:
192,192,274344,1,0,0:0:0:0:
320,192,274418,1,0,0:0:0:0:
192,192,274492,1,0,0:0:0:0:
64,192,274492,1,0,0:0:0:0:
448,192,274492,128,0,274639:0:0:0:0:
192,192,274639,1,0,0:0:0:0:
320,192,274713,1,0,0:0:0:0:
64,192,274787,1,0,0:0:0:0:
192,192,274787,1,0,0:0:0:0:
448,192,274787,128,0,274935:0:0:0:0:
320,192,274861,128,0,274935:0:0:0:0:
64,192,274935,128,0,275083:0:0:0:0:
192,192,275009,128,0,275083:0:0:0:0:
320,192,275083,1,0,0:0:0:0:
448,192,275083,1,0,0:0:0:0:
64,192,275157,1,0,0:0:0:0:
192,192,275157,1,0,0:0:0:0:
448,192,275230,1,0,0:0:0:0:
64,192,275230,1,0,0:0:0:0:
320,192,275230,1,0,0:0:0:0:
192,192,275304,1,0,0:0:0:0:
192,192,275378,1,0,0:0:0:0:
64,192,275378,128,0,275674:0:0:0:0:
448,192,275378,128,0,275674:0:0:0:0:
320,192,275378,1,0,0:0:0:0:
192,192,275674,1,0,0:0:0:0:
320,192,275674,1,0,0:0:0:0:
192,192,275822,128,0,276117:0:0:0:0:
320,192,275822,128,0,276117:0:0:0:0:
448,192,275822,1,0,0:0:0:0:
64,192,275822,1,0,0:0:0:0:
64,192,276117,1,0,0:0:0:0:
448,192,276117,1,0,0:0:0:0:
64,192,276265,128,0,276487:0:0:0:0:
448,192,276265,128,0,276487:0:0:0:0:
64,192,276560,1,0,0:0:0:0:
192,192,276560,1,0,0:0:0:0:
320,192,276560,128,0,276856:0:0:0:0:
448,192,276560,128,0,276856:0:0:0:0:
192,192,276856,1,0,0:0:0:0:
64,192,276856,1,0,0:0:0:0:
64,192,277004,128,0,277299:0:0:0:0:
192,192,277004,128,0,277299:0:0:0:0:
320,192,277004,1,0,0:0:0:0:
448,192,277004,1,0,0:0:0:0:
448,192,277299,128,0,277447:0:0:0:0:
320,192,277299,128,0,277447:0:0:0:0:
192,192,277447,1,0,0:0:0:0:
64,192,277447,1,0,0:0:0:0:
192,192,277521,1,0,0:0:0:0:
64,192,277595,1,0,0:0:0:0:
320,192,277595,1,0,0:0:0:0:
448,192,277595,1,0,0:0:0:0:
192,192,277743,1,0,0:0:0:0:
448,192,277743,1,0,0:0:0:0:
64,192,277743,128,0,278038:0:0:0:0:
320,192,277743,128,0,278038:0:0:0:0:
192,192,278038,1,0,0:0:0:0:
448,192,278038,1,0,0:0:0:0:
64,192,278186,1,0,0:0:0:0:
320,192,278186,1,0,0:0:0:0:
192,192,278186,128,0,278482:0:0:0:0:
448,192,278186,128,0,278482:0:0:0:0:
320,192,278482,1,0,0:0:0:0:
64,192,278482,1,0,0:0:0:0:
192,192,278629,1,0,0:0:0:0:
448,192,278629,1,0,0:0:0:0:
64,192,278629,128,0,278925:0:0:0:0:
448,192,278925,1,0,0:0:0:0:
320,192,278925,1,0,0:0:0:0:
192,192,278925,1,0,0:0:0:0:
192,192,279073,1,0,0:0:0:0:
64,192,279147,1,0,0:0:0:0:
448,192,279147,1,0,0:0:0:0:
320,192,279147,1,0,0:0:0:0:
192,192,279368,1,0,0:0:0:0:
448,192,279368,1,0,0:0:0:0:
64,192,279368,1,0,0:0:0:0:
448,192,279516,1,0,0:0:0:0:
64,192,279516,1,0,0:0:0:0:
320,192,279516,1,0,0:0:0:0:
192,192,279590,1,0,0:0:0:0:
448,192,279738,1,0,0:0:0:0:
64,192,279738,1,0,0:0:0:0:
320,192,279738,1,0,0:0:0:0:
192,192,279775,1,0,0:0:0:0:
320,192,279812,1,0,0:0:0:0:
448,192,279849,1,0,0:0:0:0:
64,192,279886,1,0,0:0:0:0:
192,192,279910,1,0,0:0:0:0:
320,192,279935,1,0,0:0:0:0:
64,192,279959,1,0,0:0:0:0:
448,192,279959,1,0,0:0:0:0:
192,192,280009,1,0,0:0:0:0:
320,192,280058,1,0,0:0:0:0:
64,192,280107,128,0,284245:0:0:0:0:
448,192,280107,128,0,284245:0:0:0:0:
192,192,284245,1,0,0:0:0:0:
448,192,284393,1,0,0:0:0:0:
64,192,284541,1,0,0:0:0:0:
320,192,284689,1,0,0:0:0:0:
64,192,284836,1,0,0:0:0:0:
448,192,284984,1,0,0:0:0:0:
192,192,285132,1,0,0:0:0:0:
320,192,285280,1,0,0:0:0:0:
448,192,285427,1,0,0:0:0:0:
64,192,285575,1,0,0:0:0:0:
320,192,285723,1,0,0:0:0:0:
192,192,285871,1,0,0:0:0:0:
448,192,286019,1,0,0:0:0:0:
64,192,286166,1,0,0:0:0:0:
192,192,286314,1,0,0:0:0:0:
320,192,286462,1,0,0:0:0:0:
64,192,286610,1,0,0:0:0:0:
448,192,286758,1,0,0:0:0:0:
192,192,286905,1,0,0:0:0:0:
320,192,287053,1,0,0:0:0:0:
64,192,287201,1,0,0:0:0:0:
448,192,287349,1,0,0:0:0:0:
192,192,287496,1,0,0:0:0:0:
448,192,287644,1,0,0:0:0:0:
64,192,287792,1,0,0:0:0:0:
320,192,287940,1,0,0:0:0:0:
192,192,288088,1,0,0:0:0:0:
64,192,288235,1,0,0:0:0:0:
448,192,288383,1,0,0:0:0:0:
64,192,288531,1,0,0:0:0:0:
320,192,288679,1,0,0:0:0:0:
192,192,288826,1,0,0:0:0:0:
64,192,288974,1,0,0:0:0:0:
320,192,289122,1,0,0:0:0:0:
192,192,289270,1,0,0:0:0:0:
448,192,289418,1,0,0:0:0:0:
64,192,289565,1,0,0:0:0:0:
448,192,289713,1,0,0:0:0:0:
192,192,289861,1,0,0:0:0:0:
320,192,290009,1,0,0:0:0:0:
64,192,290157,1,0,0:0:0:0:
448,192,290304,1,0,0:0:0:0:
192,192,290452,1,0,0:0:0:0:
320,192,290600,1,0,0:0:0:0:
448,192,290748,1,0,0:0:0:0:
64,192,290895,1,0,0:0:0:0:
448,192,291043,1,0,0:0:0:0:
320,192,291191,1,0,0:0:0:0:
64,192,291339,1,0,0:0:0:0:
448,192,291487,1,0,0:0:0:0:
192,192,291634,1,0,0:0:0:0:
320,192,291782,1,0,0:0:0:0:
448,192,291930,1,0,0:0:0:0:
192,192,292078,1,0,0:0:0:0:
448,192,292226,1,0,0:0:0:0:
64,192,292373,1,0,0:0:0:0:
320,192,292521,1,0,0:0:0:0:
192,192,292669,1,0,0:0:0:0:
448,192,292817,1,0,0:0:0:0:
64,192,292964,1,0,0:0:0:0:
320,192,293112,1,0,0:0:0:0:
448,192,293260,1,0,0:0:0:0:
192,192,293408,1,0,0:0:0:0:
320,192,293556,1,0,0:0:0:0:
64,192,293703,1,0,0:0:0:0:
448,192,293851,1,0,0:0:0:0:
192,192,293999,1,0,0:0:0:0:
320,192,294147,1,0,0:0:0:0:
448,192,294294,1,0,0:0:0:0:
64,192,294442,1,0,0:0:0:0:
448,192,294590,1,0,0:0:0:0:
192,192,294738,1,0,0:0:0:0:
64,192,294886,1,0,0:0:0:0:
448,192,295033,1,0,0:0:0:0:
192,192,295181,1,0,0:0:0:0:
320,192,295329,1,0,0:0:0:0:
448,192,295477,1,0,0:0:0:0:
64,192,295625,1,0,0:0:0:0:
320,192,295772,1,0,0:0:0:0:
64,192,295920,1,0,0:0:0:0:
448,192,296068,1,0,0:0:0:0:
192,192,296216,1,0,0:0:0:0:
320,192,296363,1,0,0:0:0:0:
64,192,296511,1,0,0:0:0:0:
448,192,296659,1,0,0:0:0:0:
64,192,296807,1,0,0:0:0:0:
192,192,296955,1,0,0:0:0:0:
320,192,297102,1,0,0:0:0:0:
64,192,297250,1,0,0:0:0:0:
448,192,297398,1,0,0:0:0:0:
192,192,297546,1,0,0:0:0:0:
320,192,297693,1,0,0:0:0:0:
64,192,297841,1,0,0:0:0:0:
448,192,297989,1,0,0:0:0:0:
64,192,298137,1,0,0:0:0:0:
320,192,298285,1,0,0:0:0:0:
192,192,298432,1,0,0:0:0:0:
64,192,298580,1,0,0:0:0:0:
448,192,298728,1,0,0:0:0:0:
192,192,298876,1,0,0:0:0:0:
320,192,299024,1,0,0:0:0:0:
64,192,299171,1,0,0:0:0:0:
448,192,299319,1,0,0:0:0:0:
192,192,299467,1,0,0:0:0:0:
448,192,299615,1,0,0:0:0:0:
64,192,299762,1,0,0:0:0:0:
320,192,299910,1,0,0:0:0:0:
64,192,300058,1,0,0:0:0:0:
448,192,300206,1,0,0:0:0:0:
192,192,300354,1,0,0:0:0:0:
320,192,300501,1,0,0:0:0:0:
64,192,300649,1,0,0:0:0:0:
448,192,300797,1,0,0:0:0:0:
192,192,300945,1,0,0:0:0:0:
448,192,301092,1,0,0:0:0:0:
64,192,301240,1,0,0:0:0:0:
320,192,301388,1,0,0:0:0:0:
192,192,301536,1,0,0:0:0:0:
448,192,301684,1,0,0:0:0:0:
64,192,301831,1,0,0:0:0:0:
320,192,301979,1,0,0:0:0:0:
64,192,302127,1,0,0:0:0:0:
448,192,302275,1,0,0:0:0:0:
192,192,302423,1,0,0:0:0:0:
320,192,302570,1,0,0:0:0:0:
64,192,302718,1,0,0:0:0:0:
192,192,302866,1,0,0:0:0:0:
448,192,303014,1,0,0:0:0:0:
64,192,303161,1,0,0:0:0:0:
192,192,303309,1,0,0:0:0:0:
320,192,303457,1,0,0:0:0:0:
448,192,303605,1,0,0:0:0:0:
