osu file format v14

[General]
AudioFilename: audio.mp3
AudioLeadIn: 0
PreviewTime: 239917
Countdown: 0
SampleSet: Soft
StackLeniency: 0.5
Mode: 0
LetterboxInBreaks: 0
WidescreenStoryboard: 0

[Editor]
DistanceSpacing: 1.4
BeatDivisor: 4
GridSize: 4
TimelineZoom: 1

[Metadata]
Title:Enantiomorphs
TitleUnicode:Enantiomorphs
Artist:Camellia
ArtistUnicode:かめりあ
Creator:-kevincela-
Version:Optical Isomer
Source:
Tags:cametek kamelcamellia MEGANTO METEOR Exit Tunes Academy
BeatmapID:1023091
BeatmapSetID:479108

[Difficulty]
HPDrainRate:6
CircleSize:4
OverallDifficulty:8.5
ApproachRate:9.6
SliderMultiplier:1.8
SliderTickRate:1

[Events]
//Background and Video events
0,0,"bgg.jpg",0,0
//Break Periods
//Storyboard Layer 0 (Background)
//Storyboard Layer 1 (Fail)
//Storyboard Layer 2 (Pass)
//Storyboard Layer 3 (Foreground)
//Storyboard Sound Samples

[TimingPoints]
5829,295.566502463054,4,2,1,60,1,0
5829,-200,4,2,1,60,0,0
6420,-200,4,2,1,5,0,0
6567,-200,4,2,1,60,0,0
6863,-200,4,2,1,5,0,0
7011,-200,4,2,1,60,0,0
8045,-200,4,2,1,5,0,0
8193,-200,4,2,1,60,0,0
9228,-200,4,2,1,5,0,0
9375,-200,4,2,1,60,0,0
9671,-200,4,2,1,5,0,0
9819,-200,4,2,1,60,0,0
10262,-133.333333333333,4,2,1,60,0,0
10558,-200,4,2,1,60,0,0
11149,-133.333333333333,4,2,1,60,0,0
12035,-200,4,2,1,60,0,0
15878,-200,4,2,1,5,0,0
16026,-200,4,2,1,60,0,0
16321,-200,4,2,1,5,0,0
16469,-200,4,2,1,60,0,0
17503,-200,4,2,1,5,0,0
17651,-200,4,2,1,60,0,0
18686,-200,4,2,1,5,0,0
18833,-200,4,2,1,60,0,0
19129,-200,4,2,1,5,0,0
19277,-200,4,2,1,60,0,0
19720,-133.333333333333,4,2,1,60,0,0
20016,-200,4,2,1,60,0,0
20607,-133.333333333333,4,2,1,60,0,0
24154,-66.6666666666667,4,2,1,70,0,0
24745,-83.3333333333333,4,2,1,70,0,0
25188,-66.6666666666667,4,2,1,70,0,0
26666,-133.333333333333,4,2,1,70,0,0
27109,-83.3333333333333,4,2,1,70,0,0
27553,-66.6666666666667,4,2,1,70,0,0
29474,-83.3333333333333,4,2,1,70,0,0
29917,-66.6666666666667,4,2,1,70,0,0
31395,-133.333333333333,4,2,1,70,0,0
31838,-83.3333333333333,4,2,1,70,0,0
32282,-66.6666666666667,4,2,1,70,0,0
33316,-50,4,2,1,70,0,0
33612,-66.6666666666667,4,2,1,70,0,0
34203,-83.3333333333333,4,2,1,70,0,0
36567,-71.4285714285714,4,2,1,70,0,0
38932,-76.9230769230769,4,2,1,70,0,0
41296,-100,4,2,1,70,0,0
42183,-133.333333333333,4,2,1,60,0,0
42627,-200,4,2,1,50,0,0
43070,-200,4,2,1,40,0,0
43292,-200,4,2,1,5,0,0
43365,-83.3333333333333,4,2,1,80,0,0
43957,-66.6666666666667,4,2,1,80,0,0
44548,-83.3333333333333,4,2,1,80,0,0
45434,-66.6666666666667,4,2,1,80,0,0
46026,-83.3333333333333,4,2,1,80,0,0
46764,-66.6666666666667,4,2,1,80,0,0
47060,-76.9230769230769,4,2,1,80,0,0
47799,-66.6666666666667,4,2,1,80,0,0
48095,-133.333333333333,4,2,1,80,0,0
48390,-76.9230769230769,4,2,1,80,0,0
49129,-66.6666666666667,4,2,1,80,0,0
49277,-76.9230769230769,4,2,1,80,0,0
50607,-62.5,4,2,1,80,0,0
50755,-76.9230769230769,4,2,1,80,0,0
52528,-133.333333333333,4,2,1,80,0,0
53119,-181.818181818181,4,2,1,80,0,0
54006,-66.6666666666667,4,2,1,80,0,0
55484,-83.3333333333333,4,2,1,80,0,0
56223,-66.6666666666667,4,2,1,80,0,0
56518,-83.3333333333333,4,2,1,80,0,0
57257,-66.6666666666667,4,2,1,80,0,0
57553,-133.333333333333,4,2,1,80,0,0
57848,-83.3333333333333,4,2,1,80,0,0
59030,-71.4285714285714,4,2,1,80,0,0
60213,-62.5,4,2,1,80,0,0
61395,-55.5555555555556,4,2,1,80,0,0
62282,-55.5555555555556,4,2,1,80,0,0
62577,-133.333333333333,4,2,1,80,0,0
63168,-66.6666666666667,4,2,1,80,0,0
63316,-100,4,2,1,80,0,0
63760,-83.3333333333333,4,2,1,80,0,0
64055,-66.6666666666667,4,2,1,80,0,0
64942,-62.5,4,2,1,80,0,0
67011,-55.5555555555556,4,2,1,80,0,0
67306,-76.9230769230769,4,2,1,80,0,0
68784,-66.6666666666667,4,2,1,80,0,0
69080,-76.9230769230769,4,2,1,80,0,0
69523,-66.6666666666667,4,2,1,80,0,0
69671,-71.4285714285714,4,2,1,80,0,0
70114,-66.6666666666667,4,2,1,80,0,0
70558,-71.4285714285714,4,2,1,80,0,0
70853,-76.9230769230769,4,2,1,80,0,0
71075,-83.3333333333333,4,2,1,80,0,0
71296,-90.9090909090909,4,2,1,80,0,0
71518,-100,4,2,1,80,0,0
71740,-66.6666666666667,4,2,1,80,0,0
71888,-62.5,4,2,1,80,0,0
72035,-133.333333333333,4,2,1,80,0,0
73218,-66.6666666666667,4,2,1,80,0,0
73809,-76.9230769230769,4,2,1,80,0,0
74400,-90.9090909090909,4,2,1,80,0,0
74991,-66.6666666666667,4,2,1,80,0,0
76173,-83.3333333333333,4,2,1,80,0,0
76469,-66.6666666666667,4,2,1,80,0,0
76617,-133.333333333333,4,2,1,80,0,0
76764,-76.9230769230769,4,2,1,80,0,0
78242,-66.6666666666667,4,2,1,80,0,0
78538,-76.9230769230769,4,2,1,80,0,0
78981,-66.6666666666667,4,2,1,80,0,0
79129,-71.4285714285714,4,2,1,80,0,0
79572,-62.5,4,2,1,80,0,0
79720,-71.4285714285714,4,2,1,80,0,0
80311,-133.333333333333,4,2,1,80,0,0
80459,-133.333333333333,4,2,1,5,0,0
80533,-133.333333333333,4,2,1,60,0,0
80681,-133.333333333333,4,2,1,5,0,0
80755,-133.333333333333,4,2,1,60,0,0
80902,-133.333333333333,4,2,1,5,0,0
80976,-133.333333333333,4,2,1,60,0,0
81124,-133.333333333333,4,2,1,5,0,0
81198,-133.333333333333,4,2,1,60,0,0
81494,-133.333333333333,4,2,1,60,0,0
82085,-117.647058823529,4,2,1,60,0,0
83415,-133.333333333333,4,2,1,60,0,0
84449,-100,4,2,1,60,0,0
86223,-133.333333333333,4,2,1,60,0,0
86814,-117.647058823529,4,2,1,60,0,0
88144,-133.333333333333,4,2,1,60,0,0
89178,-100,4,2,1,60,0,0
90952,-133.333333333333,4,2,1,60,0,0
91986,-117.647058823529,4,2,1,60,0,0
92873,-133.333333333333,4,2,1,60,0,0
93907,-100,4,2,1,60,0,0
98045,-66.6666666666667,4,2,1,80,0,0
99228,-133.333333333333,4,2,1,80,0,0
100114,-133.333333333333,4,2,1,50,0,0
100410,-76.9230769230769,4,2,1,80,0,0
102627,-66.6666666666667,4,2,1,80,0,0
102774,-71.4285714285714,4,2,1,80,0,0
103513,-66.6666666666667,4,2,1,80,0,0
104843,-62.5,4,2,1,80,0,0
105139,-76.9230769230769,4,2,1,80,0,0
107356,-66.6666666666667,4,2,1,80,0,0
107651,-71.4285714285714,4,2,1,80,0,0
108242,-66.6666666666667,4,2,1,80,0,0
109868,-200,4,2,1,80,0,0
112232,-76.9230769230769,4,2,1,80,0,0
112971,-66.6666666666667,4,2,1,80,0,0
113267,-76.9230769230769,4,2,1,80,0,0
114597,-83.3333333333333,4,2,1,80,0,0
115779,-71.4285714285714,4,2,1,80,0,0
116962,-62.5,4,2,1,80,0,0
118144,-55.5555555555556,4,2,1,80,0,0
119326,-200,4,2,1,60,0,0
130631,-200,4,2,2,30,0,0
132035,-200,4,2,1,60,0,0
138095,-200,4,2,1,5,0,0
138242,-153.846153846153,4,2,2,65,0,0
151543,-117.647058823529,4,2,2,65,0,0
151838,-95.2380952380951,4,2,2,65,0,0
152134,-80,4,2,2,65,0,0
152429,-80,4,2,1,60,0,0
154794,-66.6666666666667,4,2,1,60,0,0
155681,-133.333333333333,4,2,1,45,0,0
157159,-66.6666666666667,4,2,1,70,0,0
158341,-133.333333333333,4,2,1,70,0,0
158784,-66.6666666666667,4,2,1,70,0,0
158932,-153.846153846153,4,2,1,70,0,0
161296,-200,4,2,1,70,0,0
161888,-66.6666666666667,4,2,1,70,0,0
162183,-76.9230769230769,4,2,1,70,0,0
162479,-90.9090909090909,4,2,1,70,0,0
162774,-66.6666666666667,4,2,1,70,0,0
163070,-133.333333333333,4,2,1,70,0,0
163513,-153.846153846153,4,2,1,70,0,0
165730,-200,4,2,1,70,0,0
166026,-66.6666666666667,4,2,1,70,0,0
166173,-83.3333333333333,4,2,1,70,0,0
166617,-66.6666666666667,4,2,1,70,0,0
167799,-133.333333333333,4,2,1,70,0,0
168242,-66.6666666666667,4,2,1,70,0,0
168390,-153.846153846153,4,2,1,70,0,0
170755,-200,4,2,1,70,0,0
171346,-66.6666666666667,4,2,1,70,0,0
171641,-76.9230769230769,4,2,1,70,0,0
171937,-90.9090909090909,4,2,1,70,0,0
172232,-66.6666666666667,4,2,1,70,0,0
172528,-133.333333333333,4,2,1,70,0,0
173119,-200,4,2,1,70,0,0
176075,-66.6666666666667,4,2,1,70,0,0
180213,-400,4,2,1,60,0,0
180804,-66.6666666666667,4,2,1,70,0,0
181099,-76.9230769230769,4,2,1,70,0,0
181395,-90.9090909090909,4,2,1,70,0,0
181691,-66.6666666666667,4,2,1,70,0,0
181986,-133.333333333333,4,2,1,70,0,0
182577,-153.846153846153,4,2,1,70,0,0
184646,-200,4,2,1,70,0,0
184942,-66.6666666666667,4,2,1,70,0,0
185090,-83.3333333333333,4,2,1,70,0,0
185533,-66.6666666666667,4,2,1,70,0,0
186715,-76.9230769230769,4,2,1,70,0,0
187159,-66.6666666666667,4,2,1,70,0,0
187306,-153.846153846153,4,2,1,70,0,0
189671,-200,4,2,1,70,0,0
190262,-66.6666666666667,4,2,1,70,0,0
192035,-200,4,2,1,70,0,0
192627,-200,4,2,2,60,0,0
193218,-200,4,2,1,50,0,0
193809,-200,4,2,2,40,0,0
194400,-200,4,2,1,30,0,0
194991,-333.333333333333,4,2,1,60,0,0
204449,-200,4,2,1,60,0,0
205040,-200,4,2,1,5,0,0
205188,-200,4,2,1,60,0,0
205484,-200,4,2,1,5,0,0
205631,-200,4,2,1,60,0,0
206666,-200,4,2,1,5,0,0
206814,-200,4,2,1,60,0,0
207848,-200,4,2,1,5,0,0
207996,-200,4,2,1,60,0,0
208292,-200,4,2,1,5,0,0
208439,-200,4,2,1,60,0,0
208883,-133.333333333333,4,2,1,60,0,0
209178,-200,4,2,1,60,0,0
209695,-200,4,2,1,5,0,0
209769,-133.333333333333,4,2,1,60,0,0
210656,-200,4,2,1,60,0,0
214498,-200,4,2,1,5,0,0
214646,-200,4,2,1,60,0,0
214942,-200,4,2,1,5,0,0
215090,-200,4,2,1,60,0,0
216124,-200,4,2,1,5,0,0
216272,-200,4,2,1,60,0,0
217306,-200,4,2,1,5,0,0
217454,-200,4,2,1,60,0,0
217750,-200,4,2,1,5,0,0
217897,-200,4,2,1,60,0,0
218341,-133.333333333333,4,2,1,60,0,0
218636,-200,4,2,1,60,0,0
219154,-200,4,2,1,5,0,0
219228,-133.333333333333,4,2,1,60,0,0
222774,-66.6666666666667,4,2,1,70,0,0
223365,-83.3333333333333,4,2,1,70,0,0
223809,-66.6666666666667,4,2,1,70,0,0
225287,-133.333333333333,4,2,1,70,0,0
225730,-83.3333333333333,4,2,1,70,0,0
226173,-66.6666666666667,4,2,1,70,0,0
230016,-133.333333333333,4,2,1,70,0,0
230459,-66.6666666666667,4,2,1,70,0,0
232085,-50,4,2,1,70,0,0
232232,-66.6666666666667,4,2,1,70,0,0
232824,-83.3333333333333,4,2,1,70,0,0
235188,-71.4285714285714,4,2,1,70,0,0
237553,-66.6666666666667,4,2,1,70,0,0
239917,-100,4,2,1,70,0,0
240804,-133.333333333333,4,2,1,60,0,0
241247,-200,4,2,1,50,0,0
241691,-66.6666666666667,4,2,1,60,0,0
242282,-66.6666666666667,4,2,1,80,0,1
248045,-66.6666666666667,4,2,1,60,0,1
248193,-66.6666666666667,4,2,1,80,0,1
249080,-133.333333333333,4,2,1,80,0,1
249375,-66.6666666666667,4,2,1,80,0,1
250040,-133.333333333333,4,2,1,80,0,1
250262,-66.6666666666667,4,2,1,80,0,1
250558,-62.5,4,2,1,80,0,1
253513,-100,4,2,1,80,0,1
254104,-66.6666666666667,4,2,1,80,0,1
255878,-100,4,2,1,80,0,1
256173,-133.333333333333,4,2,1,80,0,1
256469,-200,4,2,1,40,0,0
257651,-133.333333333333,4,2,1,50,0,0
258833,-100,4,2,1,60,0,0
260016,-66.6666666666667,4,2,1,70,0,0
260213,-76.9230769230769,4,2,1,70,0,0
260459,-71.4285714285714,4,2,1,70,0,0
260656,-66.6666666666667,4,2,1,70,0,0
261198,-66.6666666666667,4,2,1,80,0,1
266962,-62.5,4,2,1,80,0,1
267109,-66.6666666666667,4,2,1,80,0,1
267996,-133.333333333333,4,2,1,80,0,1
268292,-66.6666666666667,4,2,1,80,0,1
268883,-133.333333333333,4,2,1,80,0,1
269178,-200,4,2,1,80,0,1
269474,-62.5,4,2,1,80,0,1
270656,-133.333333333333,4,2,1,80,0,0
275385,-83.3333333333333,4,2,1,80,0,0
278932,-66.6666666666667,4,2,1,80,0,1
280114,-500,4,2,1,60,0,0
289425,-181.818181818181,4,2,1,60,0,0
289572,-500,4,2,1,60,0,0
299178,-500,4,2,1,5,0,0
303612,-500,4,2,1,60,0,0
303686,-500,4,2,1,5,0,0

[Colours]
Combo1 : 231,118,138
Combo2 : 135,210,233
Combo3 : 184,33,71
Combo4 : 40,137,255

[HitObjects]
36,160,5829,6,0,B|99:151|99:151|145:168|145:168|212:160,1,180,2|0,0:0|0:0,0:0:0:0:
284,96,6567,2,0,P|288:60|280:0,1,90,2|0,0:0|0:0,0:0:0:0:
348,164,7011,1,2,0:0:0:0:
348,164,7750,6,0,P|369:134|392:78,1,90,2|0,0:0|0:0,0:0:0:0:
360,260,8193,1,2,0:0:0:0:
360,260,8932,6,0,P|393:245|441:208,1,90,2|0,0:0|0:0,0:0:0:0:
312,340,9375,2,0,L|220:332,1,90,2|0,0:0|0:0,0:0:0:0:
76,320,9819,1,2,0:0:0:0:
76,320,10262,6,0,L|72:304,6,16.8750006437302
32,216,10558,6,0,B|116:196|100:240|188:216,1,157.5,2|0,0:0|0:0,0:0:0:0:
268,156,11149,6,0,L|276:96,2,45.0000017166138,2|2|2,0:0|0:0|0:0,0:0:0:0:
340,264,11444,2,0,L|345:308,2,45.0000017166138,2|2|2,0:0|0:0|0:0,0:0:0:0:
412,132,11740,2,0,L|417:87,2,45.0000017166138,2|2|2,0:0|0:0|0:0,0:0:0:0:
416,144,15287,6,0,B|353:135|353:135|307:152|307:152|240:144,1,180,2|0,0:0|0:0,0:0:0:0:
136,116,16026,2,0,L|132:24,1,90,2|0,0:0|0:0,0:0:0:0:
36,164,16469,1,2,0:0:0:0:
36,164,17208,6,0,L|40:72,1,90,2|0,0:0|0:0,0:0:0:0:
128,224,17651,1,2,0:0:0:0:
128,224,18390,6,0,L|124:316,1,90,2|0,0:0|0:0,0:0:0:0:
216,172,18833,2,0,P|248:184|312:184,1,90,2|0,0:0|0:0,0:0:0:0:
444,168,19277,1,2,0:0:0:0:
444,168,19720,6,0,L|448:140,6,16.8750006437302
508,232,20016,6,0,P|448:256|364:208,1,157.5,2|0,0:0|0:0,0:0:0:0:
312,136,20607,6,0,L|316:88,2,45.0000017166138,2|2|2,0:0|0:0|0:0,0:0:0:0:
236,248,20902,2,0,L|240:296,2,45.0000017166138,2|2|2,0:0|0:0|0:0,0:0:0:0:
156,112,21198,2,0,L|160:64,2,45.0000017166138,2|2|2,0:0|0:0|0:0,0:0:0:0:
156,112,22380,6,0,L|150:180,1,67.5000025749208,2|0,0:0|0:0,0:0:0:0:
256,192,22602,12,0,23858,0:0:0:0:
232,180,24154,6,0,P|268:244|256:168,1,202.500007724762,2|0,0:1|0:0,0:0:0:0:
160,276,24449,6,0,P|192:308|232:324,1,67.5000025749208,0|0,3:0|0:0,0:0:0:0:
359,278,24597,2,0,P|375:248|382:215,1,67.5000025749208,0|0,3:0|0:0,0:0:0:0:
380,32,24745,6,0,B|300:24|300:24|248:44|248:44|164:36,1,215.999993408203,4|0,3:2|0:0,0:0:0:0:
308,108,25188,6,0,L|396:116,1,67.5000025749208,4|0,3:2|0:0,0:0:0:0:
184,188,25484,2,0,L|96:196,1,67.5000025749208,4|0,3:2|0:0,0:0:0:0:
332,272,25779,2,0,L|420:280,1,67.5000025749208,4|0,3:2|0:0,0:0:0:0:
399,278,26666,6,0,B|391:158|391:158|419:214,1,168.750006437302,4|0,0:0|0:0,0:0:0:0:
483,331,27109,6,0,B|443:371|443:371|339:362|339:362|307:315,1,215.999993408203,4|0,3:2|0:0,0:0:0:0:
412,201,27553,6,0,L|504:196,1,67.5000025749208,4|0,3:2|0:0,0:0:0:0:
308,316,27774,2,0,L|241:313,1,67.5000025749208,4|0,3:2|0:0,0:0:0:0:
108,152,27996,2,0,B|132:164|132:164|152:152|152:152|172:164|172:164|228:132|300:156,1,202.500007724762,4|0,3:2|0:0,0:0:0:0:
412,201,28292,5,2,0:0:0:0:
412,201,28735,1,2,0:0:0:0:
472,124,28883,6,0,L|476:56,1,67.5000025749208,2|0,0:0|0:0,0:0:0:0:
415,268,29030,2,0,L|411:200,1,67.5000025749208,2|0,0:0|0:0,0:0:0:0:
499,304,29178,6,0,B|478:341|478:341|423:362|423:362|366:351|366:351|339:317,1,202.500007724762,2|0,0:1|0:0,0:0:0:0:
411,200,29474,6,0,B|259:182|259:182|318:216,1,215.999993408203,4|0,3:2|0:0,0:0:0:0:
336,112,29917,6,0,L|256:103,1,67.5000025749208,4|0,3:2|0:0,0:0:0:0:
140,256,30213,2,0,L|207:263,1,67.5000025749208,4|0,3:2|0:0,0:0:0:0:
120,88,30508,2,0,L|52:80,1,67.5000025749208,4|0,3:2|0:0,0:0:0:0:
52,80,31395,6,0,B|119:89|119:89|224:40,1,168.750006437302,4|0,3:2|0:0,0:0:0:0:
356,116,31838,6,0,B|292:104|292:104|208:144|208:144|264:154,1,215.999993408203,4|0,3:2|0:0,0:0:0:0:
448,148,32282,6,0,L|440:64,1,67.5000025749208,4|0,3:2|0:0,0:0:0:0:
264,154,32503,2,0,L|258:222,1,67.5000025749208,4|0,3:2|0:0,0:0:0:0:
372,308,32725,2,0,B|368:252|368:252|356:224|356:224|372:200|372:200|360:176|360:176|356:108,1,202.500007724762,4|0,3:2|0:0,0:0:0:0:
350,26,33021,5,0,0:0:0:0:
350,26,33464,2,0,L|358:138,1,90,2|0,1:0|0:0,0:0:0:0:
372,308,33612,5,0,3:0:0:0:
258,222,33760,1,0,0:0:0:0:
140,308,33907,2,0,L|148:352,6,33.7500012874604,2|0|0|0|0|0|0,0:1|0:0|0:0|0:0|0:0|0:0|0:0,0:0:0:0:
56,264,34203,6,0,B|64:204|64:204|56:164|56:164|68:96,1,161.999995056153,0|0,3:0|0:0,0:0:0:0:
96,16,34498,1,8,0:1:0:0:
180,160,34646,6,0,L|192:96,1,53.9999983520508
212,16,34794,1,0,3:0:0:0:
272,224,34942,6,0,L|281:170,1,53.9999983520508
304,80,35090,1,8,0:1:0:0:
364,284,35237,6,0,L|373:230,1,53.9999983520508
304,80,35385,6,0,B|220:96|220:96|140:64,1,161.999995056153,0|0,3:0|0:0,0:0:0:0:
64,28,35681,1,8,0:1:0:0:
44,272,35828,6,0,L|52:212,1,53.9999983520508
68,124,35976,1,0,3:0:0:0:
188,360,36124,6,0,L|180:300,1,53.9999983520508
164,212,36272,1,8,0:1:0:0:
280,120,36420,6,0,L|272:180,1,53.9999983520508
180,306,36567,6,0,B|240:326|240:326|297:317|297:317|368:336,1,188.999994232178,0|0,3:0|0:0,0:0:0:0:
448,364,36863,1,8,0:1:0:0:
448,99,37011,6,0,L|376:107,1,62.9999980773926
280,120,37159,1,0,3:0:0:0:
268,360,37306,6,0,L|297:293,1,62.9999980773926
333,204,37454,1,8,0:1:0:0:
132,76,37602,6,0,L|174:134,1,62.9999980773926
293,302,37750,6,0,B|252:288|252:288|220:304|220:304|168:272|112:304,1,188.999994232178,0|0,3:0|0:0,0:0:0:0:
44,352,38045,1,8,0:1:0:0:
44,140,38193,6,0,L|72:208,1,62.9999980773926
115,302,38341,1,0,3:0:0:0:
240,48,38489,6,0,L|212:116,1,62.9999980773926
176,212,38636,1,8,0:1:0:0:
381,135,38784,6,0,L|299:166,1,62.9999980773926
176,212,38932,6,0,L|331:154,1,155.999992858887,12|0,0:1|3:0,0:0:0:0:
455,87,39228,2,0,P|468:124|465:163,2,77.9999964294435,8|0|0,0:1|3:0|0:0,0:0:0:0:
321,9,39523,6,0,B|297:77|297:77|325:169,1,155.999992858887,8|0,0:1|3:0,0:0:0:0:
376,256,39819,1,8,0:1:0:0:
376,256,39917,2,0,P|339:268|300:265,1,77.9999964294435,0|0,3:0|0:0,0:0:0:0:
96,228,40114,6,0,P|144:192|252:200,1,155.999992858887,8|0,0:1|3:0,0:0:0:0:
272,50,40410,2,0,P|231:115|236:191,1,155.999992858887,8|0,0:1|3:0,0:0:0:0:
364,348,40705,5,8,0:1:0:0:
376,256,40804,1,0,3:0:0:0:
388,164,40902,1,0,3:0:0:0:
400,76,41001,2,0,L|412:-4,2,77.9999964294435,8|0|0,0:1|3:0|3:0,0:0:0:0:
468,224,41296,5,2,0:0:0:0:
468,224,41592,1,0,0:0:0:0:
376,256,41740,1,0,0:0:0:0:
296,204,41888,2,0,P|243:204|185:233,1,90,2|0,0:0|0:0,0:0:0:0:
100,276,42183,6,0,L|110:127,1,135.000005149842,2|0,0:0|0:0,0:0:0:0:
12,80,42627,6,0,L|3:188,1,90,2|0,0:0|0:0,0:0:0:0:
95,344,43070,6,0,B|99:275,1,67.5,2|0,0:0|0:0,0:0:0:0:
216,232,43365,5,0,0:0:0:0:
213,181,43439,1,0,0:0:0:0:
210,130,43513,1,0,0:0:0:0:
207,80,43587,1,0,0:0:0:0:
204,29,43661,6,0,B|252:28|280:52|280:52|304:24|356:16,1,161.999995056153,4|0,3:2|0:0,0:0:0:0:
416,152,43957,6,0,P|380:136|352:100,1,67.5000025749208,0|0,0:1|0:0,0:0:0:0:
166,179,44104,2,0,P|196:154|214:112,1,67.5000025749208,0|0,0:1|0:0,0:0:0:0:
280,52,44252,6,0,L|300:260,1,202.500007724762,10|0,0:1|0:0,0:0:0:0:
208,308,44548,5,2,0:0:0:0:
174,305,44622,1,2,0:0:0:0:
140,303,44695,1,2,0:0:0:0:
106,301,44769,1,2,0:0:0:0:
72,296,44843,6,0,L|78:367,1,53.9999983520508,2|2,0:0|0:0,0:0:0:0:
132,208,44991,2,0,L|136:154,1,53.9999983520508,2|2,0:0|0:0,0:0:0:0:
60,76,45139,6,0,L|7:80,1,53.9999983520508,2|2,3:0|0:0,0:0:0:0:
135,154,45287,2,0,L|189:158,1,53.9999983520508,2|2,0:0|0:0,0:0:0:0:
312,216,45434,6,0,B|324:176|324:176|296:84,1,135.000005149842,10|0,0:1|0:0,0:0:0:0:
188,157,45656,2,0,B|176:197|176:197|204:289,1,135.000005149842,2|0,0:1|0:0,0:0:0:0:
232,380,45878,1,2,0:1:0:0:
466,200,46026,6,0,B|414:184|414:184|297:220,1,161.999995056153,0|0,3:0|0:0,0:0:0:0:
33,174,46321,2,0,B|84:189|84:189|188:156,1,161.999995056153,0|0,3:0|0:0,0:0:0:0:
296,88,46617,2,0,L|304:20,1,53.9999983520508,8|0,0:1|0:0,0:0:0:0:
459,131,46764,6,0,L|467:199,1,67.5000025749208
484,328,46912,1,0,3:0:0:0:
311,215,47060,6,0,B|252:208|252:208|197:226|197:226|130:219,1,175.499991966248,10|0,0:1|0:0,0:0:0:0:
260,300,47356,1,0,0:0:0:0:
260,300,47429,1,0,0:0:0:0:
260,300,47503,2,0,L|400:316,1,116.999994644165,10|0,0:1|0:0,0:0:0:0:
176,140,47799,6,0,L|108:132,1,67.5000025749208,0|0,3:0|0:0,0:0:0:0:
152,308,47947,2,0,L|84:300,1,67.5000025749208,8|0,0:1|0:0,0:0:0:0:
139,219,48095,6,0,L|255:231,1,101.250003862381,2|0,0:1|0:0,0:0:0:0:
376,312,48390,6,0,B|396:272|396:272|376:128,1,175.499991966248,2|0,3:1|0:0,0:0:0:0:
360,56,48686,2,0,L|292:64,1,58.4999973220826,0|0,3:0|0:0,0:0:0:0:
139,219,48833,2,2,L|255:231,1,116.999994644165,0|0,0:0|3:0,1:0:0:0:
443,131,49129,6,0,B|407:131|407:131|378:142,1,67.5000025749208
255,231,49277,2,0,L|275:367,1,116.999994644165,0|0,3:0|0:0,0:0:0:0:
156,334,49498,1,0,0:0:0:0:
156,334,49572,6,0,L|136:198,1,116.999994644165,0|0,3:0|0:0,0:0:0:0:
50,140,49794,1,0,0:0:0:0:
44,172,49868,6,0,L|35:229,1,58.4999973220826,0|0,3:0|0:0,0:0:0:0:
156,334,50016,1,0,0:0:0:0:
162,302,50090,1,0,0:0:0:0:
168,270,50163,6,0,L|177:213,1,58.4999973220826,0|0,3:0|0:0,0:0:0:0:
268,76,50311,2,0,L|277:133,1,58.4999973220826
304,296,50459,1,0,3:0:0:0:
444,164,50607,6,0,L|368:175,1,72
177,212,50755,1,0,3:0:0:0:
396,372,50902,6,0,B|408:336|408:336|392:252,1,116.999994644165,0|0,0:0|3:0,0:0:0:0:
174,98,51198,2,0,B|162:134|162:134|178:218,1,116.999994644165,0|0,0:0|3:0,0:0:0:0:
304,296,51494,2,0,L|232:304,1,58.4999973220826
136,320,51641,1,0,3:0:0:0:
115,91,51789,2,0,L|187:99,1,58.4999973220826
360,116,51937,6,0,L|376:248,1,116.999994644165,2|0,3:1|0:0,0:0:0:0:
464,164,52159,1,0,0:0:0:0:
464,164,52232,2,0,L|478:280,1,116.999994644165,2|0,3:1|0:0,0:0:0:0:
295,344,52528,6,0,B|288:287|288:287|270:256|270:256|291:221|291:221|272:192|272:192|264:110,1,236.250009012223,2|0,3:2|0:0,0:0:0:0:
112,84,53119,6,0,B|88:136|88:136|98:252,1,173.250005287171,2|0,0:0|0:0,0:0:0:0:
180,158,53710,1,8,0:1:0:0:
180,158,54006,6,0,L|280:146,1,67.5000025749208,2|0,3:1|0:0,0:0:0:0:
376,136,54154,5,2,0:0:0:0:
402,148,54228,1,2,0:0:0:0:
424,169,54301,1,2,0:0:0:0:
439,195,54375,1,2,0:0:0:0:
445,224,54449,1,2,0:0:0:0:
442,254,54523,1,2,0:0:0:0:
431,281,54597,1,2,3:0:0:0:
411,304,54671,1,2,0:0:0:0:
386,320,54745,1,2,0:0:0:0:
357,327,54819,1,2,0:0:0:0:
328,328,54893,6,0,B|312:264|312:264|324:184,1,135.000005149842,10|0,0:1|0:0,0:0:0:0:
224,56,55114,2,0,B|240:120|240:120|228:200,1,135.000005149842,2|0,0:1|0:0,0:0:0:0:
208,320,55336,1,2,0:1:0:0:
72,200,55484,6,0,B|116:180|116:180|247:189,1,161.999995056153,0|0,3:0|0:0,0:0:0:0:
479,183,55779,2,0,B|435:203|435:203|304:194,1,161.999995056153,0|0,3:0|0:0,0:0:0:0:
296,80,56075,2,0,L|349:83,1,53.9999983520508,8|0,0:1|0:0,0:0:0:0:
479,183,56223,2,0,L|474:115,1,67.5000025749208,0|0,0:1|0:0,0:0:0:0:
321,195,56370,5,0,3:0:0:0:
324,199,56444,1,0,0:0:0:0:
327,203,56518,2,0,B|334:304|334:304|366:364,1,161.999995056153,10|0,0:1|0:0,0:0:0:0:
412,260,56814,1,0,0:0:0:0:
412,260,56888,1,0,0:0:0:0:
412,260,56962,2,0,L|404:152,1,107.999996704102,10|0,0:1|0:0,0:0:0:0:
224,56,57257,6,0,L|230:137,1,67.5000025749208,0|0,3:0|0:0,0:0:0:0:
56,176,57405,2,0,L|60:108,1,67.5000025749208,8|0,0:1|0:0,0:0:0:0:
196,200,57553,6,0,L|204:308,1,101.250003862381,2|0,1:0|0:0,0:0:0:0:
99,317,57848,6,0,P|155:297|227:309,1,107.999996704102,2|0,3:2|0:0,0:0:0:0:
288,328,58070,2,0,L|284:384,1,53.9999983520508,2|0,0:0|3:0,0:0:0:0:
480,236,58292,6,0,P|424:256|352:244,1,107.999996704102,2|0,0:0|3:0,0:0:0:0:
300,188,58513,2,0,L|308:71,1,107.999996704102,2|0,0:0|0:0,0:0:0:0:
252,8,58735,1,2,3:2:0:0:
404,140,58883,1,0,0:0:0:0:
192,231,59030,6,0,P|129:232|74:203,1,125.999996154785,2|0,3:2|0:0,0:0:0:0:
24,132,59252,2,0,L|32:60,1,62.9999980773926,2|0,0:0|3:0,0:0:0:0:
155,331,59474,6,0,P|218:332|273:303,1,125.999996154785,2|0,0:0|3:0,0:0:0:0:
316,216,59695,2,0,L|298:61,1,125.999996154785,2|0,0:0|0:0,0:0:0:0:
252,8,59917,1,2,3:2:0:0:
404,140,60065,1,0,0:0:0:0:
192,232,60213,6,0,P|128:232|52:288,1,144,2|0,3:2|0:0,0:0:0:0:
28,364,60434,2,0,L|108:372,1,72,2|0,0:0|3:0,0:0:0:0:
273,303,60656,6,0,P|337:303|413:247,1,144,2|0,0:0|3:0,0:0:0:0:
436,171,60878,2,0,L|284:155,1,144,2|0,0:0|0:0,0:0:0:0:
232,84,61099,2,0,P|290:44|361:42,1,144,2|0,3:2|0:0,0:0:0:0:
402,261,61395,6,0,B|324:280|324:280|232:244,1,161.999995056153,4|0,3:2|0:0,0:0:0:0:
93,239,61617,2,0,B|171:220|171:220|248:250,1,161.999995056153,4|0,3:2|0:0,0:0:0:0:
388,168,61838,6,0,L|221:264,1,161.999995056153,4|0,3:2|0:0,0:0:0:0:
107,329,62060,2,0,L|247:248,1,161.999995056153,4|0,3:2|0:0,0:0:0:0:
200,84,62282,6,0,L|220:162,1,80.9999975280763,0|0,3:0|0:0,0:0:0:0:
268,326,62429,2,0,L|247:247,1,80.9999975280763,0|0,3:0|0:0,0:0:0:0:
127,150,62577,6,0,B|79:130|79:130|119:262|119:262|147:222,1,236.250009012223,2|0,0:0|0:0,0:0:0:0:
220,162,63168,6,0,L|296:146,1,67.5000025749208,8|0,0:1|0:0,0:0:0:0:
452,116,63316,5,0,0:0:0:0:
452,116,63390,1,0,0:0:0:0:
452,116,63464,2,0,L|376:100,1,45,2|0,0:0|0:0,0:0:0:0:
450,196,63612,2,0,L|374:180,1,45,2|0,0:0|0:0,0:0:0:0:
228,252,63760,6,0,L|313:233,1,53.9999983520508,2|0,0:0|0:0,0:0:0:0:
230,342,63907,2,0,L|315:323,1,53.9999983520508,2|0,0:0|0:0,0:0:0:0:
450,196,64055,6,0,B|422:140|422:140|440:280,1,202.500007724762,2|0,3:1|0:0,0:0:0:0:
452,380,64351,5,8,0:1:0:0:
368,352,64498,1,2,0:0:0:0:
282,330,64646,1,0,0:0:0:0:
196,304,64794,1,2,0:0:0:0:
264,88,64942,6,0,B|272:124|272:124|268:176,1,72,2|0,3:2|0:0,0:0:0:0:
80,160,65090,1,0,0:0:0:0:
112,144,65163,2,0,L|188:136,1,72,2|0,0:0|0:0,0:0:0:0:
387,243,65311,1,0,0:0:0:0:
355,255,65385,2,0,L|279:247,1,72,2|0,0:0|0:0,0:0:0:0:
112,376,65533,6,0,B|92:308|92:308|112:228,1,144,8|0,0:1|0:0,0:0:0:0:
282,109,65755,2,0,B|302:177|302:177|282:257,1,144,2|0,0:0|0:0,0:0:0:0:
36,144,65976,2,0,B|104:124|104:124|184:144,1,144,2|0,0:0|0:0,0:0:0:0:
352,336,66198,2,0,B|281:353|281:353|213:333,1,144,2|0,0:0|0:0,0:0:0:0:
174,141,66420,6,0,L|178:57,1,72,2|0,3:2|0:0,0:0:0:0:
268,236,66641,1,0,3:0:0:0:
284,247,66715,2,0,L|280:163,1,72,10|0,0:1|0:1,0:0:0:0:
272,48,66863,1,0,3:0:0:0:
88,224,67011,6,0,B|95:252|95:252|89:273|89:273|96:302,2,80.9999975280763,2|0|0,0:1|0:0|0:0,0:0:0:0:
144,384,67306,5,0,3:0:0:0:
271,311,67454,2,0,L|195:307,1,58.4999973220826
352,368,67602,2,0,B|368:312|368:312|348:236,1,116.999994644165,0|0,3:0|0:0,0:0:0:0:
368,116,67824,1,0,0:0:0:0:
354,142,67897,2,0,B|338:198|338:198|358:274,1,116.999994644165,0|0,3:0|0:0,0:0:0:0:
432,196,68119,1,0,0:0:0:0:
432,196,68193,2,0,L|508:200,1,58.4999973220826,0|0,3:0|0:0,0:0:0:0:
268,96,68341,2,0,L|192:100,1,58.4999973220826
92,106,68489,6,0,L|208:99,1,116.999994644165,0|0,3:0|0:0,0:0:0:0:
316,252,68784,2,0,B|180:240|180:240|220:252|252:292,1,202.500007724762,2|0,3:1|0:0,0:0:0:0:
100,324,69080,6,0,L|167:319,1,58.4999973220826,0|0,3:0|0:0,0:0:0:0:
280,164,69228,1,0,0:0:0:0:
280,164,69301,1,0,0:0:0:0:
280,164,69375,2,0,L|212:159,1,58.4999973220826,0|0,3:0|0:0,0:0:0:0:
284,356,69523,6,0,B|308:360|308:360|328:352|328:352|352:356,1,67.5000025749208
496,376,69671,6,0,P|500:332|488:240,1,125.999996154785,0|0,3:0|0:0,0:0:0:0:
420,168,69893,1,0,3:0:0:0:
424,144,69966,2,0,L|436:76,1,62.9999980773926,8|0,0:1|0:0,0:0:0:0:
337,289,70114,2,0,L|349:357,1,67.5000025749208,2|0,0:1|0:0,0:0:0:0:
280,164,70262,6,0,B|211:157|211:157|148:176,1,135.000005149842,0|0,3:0|0:0,0:0:0:0:
208,280,70484,1,0,3:0:0:0:
212,248,70558,6,2,B|220:184|220:184|204:128|204:128|216:52,1,188.999994232178,10|0,1:0|0:0,0:0:0:0:
300,16,70853,6,0,L|284:132,1,116.999994644165,0|0,3:0|0:0,0:0:0:0:
372,80,71075,2,0,L|356:196,1,107.999996704102,0|0,3:0|0:0,0:0:0:0:
440,160,71296,2,0,L|424:276,1,99.0000030212403,0|0,3:0|0:0,0:0:0:0:
512,228,71518,2,0,L|496:344,1,90,0|0,3:0|0:0,0:0:0:0:
293,64,71740,6,0,L|284:131,1,67.5000025749208
435,186,71888,2,0,L|426:258,1,72,0|0,3:0|0:0,0:0:0:0:
312,328,72035,6,0,B|264:344|224:328|224:328|168:308|128:328|128:328|172:348,1,236.250009012223,0|0,3:0|0:0,0:0:0:0:
264,244,72627,6,0,L|260:196,1,33.7500012874604,2|0,0:0|0:0,0:0:0:0:
256,132,72774,2,0,L|252:84,1,33.7500012874604
276,220,72922,5,2,0:0:0:0:
277,237,72996,1,0,0:0:0:0:
279,254,73070,1,0,0:0:0:0:
92,124,73218,5,0,3:0:0:0:
92,124,73365,2,0,L|168:128,1,67.5000025749208,2|0,0:0|0:0,0:0:0:0:
336,88,73513,2,0,B|352:120|348:152|348:152|388:80|344:20,1,202.500007724762,2|0,1:0|0:0,0:0:0:0:
265,188,73809,6,0,P|256:161|256:132,1,58.4999973220826,8|0,0:1|0:0,0:0:0:0:
390,235,73957,2,0,P|413:217|428:192,1,58.4999973220826,2|0,0:0|0:0,0:0:0:0:
216,268,74104,2,0,P|193:250|176:217,1,58.4999973220826
376,324,74252,2,0,P|405:323|432:313,1,58.4999973220826,2|0,0:0|0:0,0:0:0:0:
272,364,74400,6,0,L|308:264,1,99.0000030212403,2|0,3:2|0:0,0:0:0:0:
296,112,74622,2,0,L|329:18,1,99.0000030212403,2|0,0:0|0:0,0:0:0:0:
220,152,74843,2,0,P|235:170|256:185,1,49.5000015106202,2|0,0:0|0:0,0:0:0:0:
442,228,74991,6,0,B|405:211|366:223|366:223|328:189|328:189|293:202|255:185,1,202.500007724762,10|0,0:1|0:0,0:0:0:0:
136,112,75287,6,0,P|132:76|140:32,1,67.5000025749208,2|0,0:0|0:0,0:0:0:0:
246,278,75434,1,0,0:0:0:0:
256,252,75508,2,0,P|260:216|252:172,1,67.5000025749208,2|0,0:0|0:0,0:0:0:0:
99,227,75656,1,0,0:0:0:0:
89,253,75730,2,0,P|85:289|93:333,1,67.5000025749208,2|0,0:0|0:0,0:0:0:0:
246,278,75878,6,0,L|328:284,1,67.5000025749208,0|0,3:0|0:0,0:0:0:0:
468,303,76026,1,0,0:0:0:0:
468,303,76099,1,0,3:0:0:0:
468,303,76173,6,0,B|377:327|395:267|312:283,1,161.999995056153,8|0,0:1|0:0,0:0:0:0:
265,366,76469,2,0,P|298:375|332:376,1,67.5000025749208,2|0,0:1|0:0,0:0:0:0:
436,212,76617,6,0,L|432:172,1,33.7500012874604,2|0,0:0|0:0,0:0:0:0:
420,36,76764,5,0,3:0:0:0:
248,168,76912,2,0,L|324:172,1,58.4999973220826
432,178,77060,6,0,B|440:236|440:236|424:292,1,116.999994644165,0|0,3:0|0:0,0:0:0:0:
310,285,77282,1,0,0:0:0:0:
310,285,77356,2,0,B|368:277|368:277|424:292,1,116.999994644165,0|0,3:0|0:0,0:0:0:0:
348,372,77577,1,0,0:0:0:0:
348,372,77651,2,0,L|290:379,1,58.4999973220826,0|0,3:0|0:0,0:0:0:0:
116,264,77799,6,0,L|173:271,1,58.4999973220826
310,285,77947,2,0,P|320:216|304:152,1,116.999994644165,0|0,3:0|0:0,0:0:0:0:
188,92,78242,6,0,B|224:92|248:112|248:112|280:76|348:76|376:116,1,202.500007724762,2|0,3:1|0:0,0:0:0:0:
317,228,78538,6,0,L|311:170,1,58.4999973220826,0|0,3:0|0:0,0:0:0:0:
195,34,78686,1,0,0:0:0:0:
195,34,78760,1,0,0:0:0:0:
195,34,78833,2,0,L|186:100,1,58.4999973220826,0|0,3:0|0:0,0:0:0:0:
108,220,78981,6,0,L|200:212,1,67.5000025749208
438,213,79129,6,0,B|379:236|379:236|295:224,1,125.999996154785,0|0,3:0|0:0,0:0:0:0:
356,72,79425,2,0,L|368:148,1,62.9999980773926,0|0,3:0|0:0,0:0:0:0:
400,336,79572,2,0,L|304:320,1,72
195,241,79720,6,0,B|254:218|254:218|317:227,1,125.999996154785,0|0,3:0|0:0,0:0:0:0:
132,320,80016,2,0,B|100:264|100:264|112:116,1,188.999994232178,0|0,3:0|0:0,0:0:0:0:
92,32,80311,6,0,P|148:36|180:52,1,67.5000025749208,2|0,0:0|0:0,0:0:0:0:
168,20,80533,2,0,P|214:51|234:81,1,67.5000025749208,2|0,0:0|0:0,0:0:0:0:
240,56,80755,2,0,P|264:106|266:142,1,67.5000025749208,2|0,0:0|0:0,0:0:0:0:
288,116,80976,2,0,P|283:171|267:204,1,67.5000025749208,2|0,0:0|0:0,0:0:0:0:
288,204,81198,1,2,0:0:0:0:
180,244,81346,1,0,0:0:0:0:
92,168,81494,6,0,B|72:120|100:68|100:68|112:40|92:4|92:4|80:44|48:64,1,236.250009012223,4|0,3:2|0:0,0:0:0:0:
176,128,82085,6,0,P|222:136|276:128,1,76.5000014591217,8|0,0:1|0:0,0:0:0:0:
360,112,82380,1,0,0:0:0:0:
468,220,82528,6,0,B|389:209|389:209|311:243,1,153.000002918243,2|0,0:1|0:0,0:0:0:0:
124,292,82971,2,0,B|181:299|181:299|239:274,1,114.750002188683,2|0,3:1|0:0,0:0:0:0:
321,238,83267,1,8,0:1:0:0:
156,68,83415,6,0,L|168:208,1,135.000005149842,2|0,0:1|0:0,0:0:0:0:
312,364,83858,5,0,3:0:0:0:
312,364,84154,1,0,3:0:0:0:
312,364,84449,2,0,L|324:224,1,135.000005149842,10|0,0:1|0:0,0:0:0:0:
332,128,84745,1,0,3:0:0:0:
184,276,84893,2,0,L|166:72,1,180,2|0,0:1|0:0,0:0:0:0:
412,68,85336,6,0,P|432:124|392:212,1,135,2|0,3:1|0:0,0:0:0:0:
323,229,85631,1,8,0:1:0:0:
153,132,85779,2,0,B|220:136|220:136|264:124|264:124|332:128,1,180,2|0,0:1|0:0,0:0:0:0:
396,292,86223,6,0,B|340:348|272:312|272:312|232:336|232:336|172:324,1,236.250009012223,0|0,3:1|0:0,0:0:0:0:
323,229,86814,6,0,L|316:144,1,76.5000014591217,10|0,0:1|0:0,0:0:0:0:
304,44,87109,1,0,0:0:0:0:
191,172,87257,2,0,L|179:325,1,153.000002918243,2|0,0:1|0:0,0:0:0:0:
332,343,87700,6,0,L|321:215,1,114.750002188683,2|0,3:1|0:0,0:0:0:0:
314,132,87996,1,8,0:1:0:0:
64,155,88144,6,0,P|125:181|191:171,1,135.000005149842,2|0,0:1|0:0,0:0:0:0:
314,132,88587,5,0,3:0:0:0:
314,132,88883,1,0,3:0:0:0:
314,132,89178,2,0,P|380:116|448:144,1,135,10|0,0:1|0:0,0:0:0:0:
512,200,89474,1,0,3:0:0:0:
372,384,89622,2,0,B|340:304|340:304|372:216,1,180,10|0,0:1|0:0,0:0:0:0:
424,44,90065,6,0,B|372:56|372:56|272:44,1,135,10|0,0:1|0:0,0:0:0:0:
192,32,90361,1,0,3:0:0:0:
416,128,90508,2,0,B|372:136|372:136|277:124|277:124|224:136,1,180,10|0,0:1|0:0,0:0:0:0:
96,212,90952,6,0,B|72:180|72:140|72:140|52:308,1,236.250009012223,0|0,3:0|0:0,0:0:0:0:
132,360,91543,6,0,L|143:271,1,67.5000025749208,8|0,0:1|0:0,0:0:0:0:
160,148,91838,1,0,0:0:0:0:
360,220,91986,6,0,B|292:248|292:248|200:228,1,153.000002918243,2|0,0:1|0:0,0:0:0:0:
96,80,92429,2,0,B|148:58|148:58|220:73,1,114.750002188683,2|0,3:1|0:0,0:0:0:0:
296,92,92725,1,8,0:1:0:0:
296,332,92873,6,0,L|140:300,1,135.000005149842,2|0,0:1|0:0,0:0:0:0:
360,220,93316,5,0,3:0:0:0:
360,220,93612,1,0,3:0:0:0:
360,220,93907,2,0,B|376:176|376:176|360:72,1,135,10|0,0:1|0:0,0:0:0:0:
344,4,94203,1,0,3:0:0:0:
272,164,94351,2,0,B|252:217|252:217|272:343,1,180,2|0,0:1|0:0,0:0:0:0:
486,230,94794,6,0,B|420:248|420:248|360:220,1,135,2|0,3:1|0:0,0:0:0:0:
272,164,95090,1,8,0:1:0:0:
400,48,95237,2,0,B|436:12|436:12|428:148,1,180,2|0,0:1|0:0,0:0:0:0:
416,328,95681,5,0,3:0:0:0:
316,304,95828,1,0,3:0:0:0:
300,308,95902,1,0,3:0:0:0:
284,312,95976,1,0,3:0:0:0:
192,348,96124,1,0,3:0:0:0:
176,344,96198,1,0,3:0:0:0:
160,340,96272,1,8,3:1:0:0:
64,308,96420,1,0,3:0:0:0:
48,312,96494,1,0,3:0:0:0:
32,316,96567,1,0,3:0:0:0:
148,236,96715,5,0,3:0:0:0:
137,194,96789,1,0,3:0:0:0:
127,155,96863,1,0,3:0:0:0:
272,40,97011,1,0,3:0:0:0:
262,79,97085,1,0,3:0:0:0:
251,121,97159,1,0,3:0:0:0:
332,354,97306,5,0,3:0:0:0:
318,301,97380,1,0,3:0:0:0:
305,251,97454,1,8,3:1:0:0:
489,105,97602,1,0,3:0:0:0:
476,155,97676,1,0,3:0:0:0:
463,208,97750,1,0,3:0:0:0:
332,354,97897,1,0,3:0:0:0:
280,344,97971,1,0,3:0:0:0:
228,364,98045,6,0,L|216:292,3,67.5000025749208,8|0|0|0,0:1|3:0|3:0|3:0,0:0:0:0:
144,232,98341,2,0,L|155:165,3,67.5000025749208,8|0|0|0,0:1|3:0|3:0|3:0,0:0:0:0:
88,80,98636,5,8,0:1:0:0:
134,60,98710,1,0,3:0:0:0:
184,62,98784,1,0,3:0:0:0:
228,87,98858,1,0,3:0:0:0:
257,128,98932,1,8,0:1:0:0:
303,147,99006,1,0,3:0:0:0:
353,145,99080,1,0,3:0:0:0:
397,120,99154,1,0,3:0:0:0:
426,79,99228,6,0,B|432:159|432:159|420:200|420:200|432:300,1,202.500007724762,2|2,0:0|0:0,0:0:0:0:
429,278,100114,5,2,0:0:0:0:
383,258,100188,1,0,0:0:0:0:
333,260,100262,1,0,0:0:0:0:
289,285,100336,1,0,0:0:0:0:
260,326,100410,6,0,L|268:144,1,175.499991966248,0|0,3:0|0:0,0:0:0:0:
272,52,100705,2,0,L|200:48,1,58.4999973220826,0|0,3:0|0:0,0:0:0:0:
104,144,100853,1,0,0:0:0:0:
104,144,100927,1,0,0:0:0:0:
104,144,101001,2,0,L|176:148,1,58.4999973220826,0|0,3:0|0:0,0:0:0:0:
412,112,101149,1,0,0:0:0:0:
412,112,101223,1,0,0:0:0:0:
412,112,101296,6,0,L|340:108,1,58.4999973220826,0|0,3:0|0:0,0:0:0:0:
152,248,101444,2,0,L|224:244,1,58.4999973220826
396,236,101592,6,0,B|387:292|387:292|400:368,1,116.999994644165,0|0,3:2|0:0,0:0:0:0:
288,324,101814,1,0,0:0:0:0:
296,296,101888,2,0,B|304:239|304:239|292:164,1,116.999994644165,0|0,3:2|0:0,0:0:0:0:
160,104,102109,1,2,0:0:0:0:
150,132,102183,6,0,B|141:188|141:188|154:264,1,116.999994644165,0|0,3:0|0:0,0:0:0:0:
294,180,102405,2,0,L|214:188,1,58.4999973220826,0|0,0:0|3:0,0:0:0:0:
104,332,102627,2,0,L|184:340,1,67.5000025749208
316,356,102774,5,0,3:0:0:0:
380,120,102922,2,0,B|398:178|398:178|383:244,1,125.999996154785,0|0,0:0|3:0,0:0:0:0:
151,247,103218,2,0,B|132:188|132:188|147:122,1,125.999996154785,0|0,0:0|3:0,0:0:0:0:
256,16,103513,6,0,L|260:104,1,67.5000025749208
268,232,103661,1,0,3:0:0:0:
149,58,103809,2,0,L|145:146,1,67.5000025749208
80,320,103957,6,0,B|140:344|140:344|224:324,1,135.000005149842,0|0,3:0|0:0,0:0:0:0:
332,164,104252,2,0,B|268:140|268:140|188:160,1,135.000005149842,0|0,3:0|0:0,0:0:0:0:
364,344,104548,2,0,L|352:276,1,67.5000025749208,0|0,3:0|0:0,0:0:0:0:
444,140,104695,2,0,L|432:206,1,67.5000025749208
268,232,104843,6,0,B|252:152|252:152|267:95|267:95|248:0,1,216,2|0,3:1|0:0,0:0:0:0:
179,97,105139,6,0,B|263:121|263:121|359:89,1,175.499991966248,2|0,3:1|0:0,0:0:0:0:
456,56,105434,1,0,3:0:0:0:
444,220,105582,5,0,0:0:0:0:
444,220,105656,1,0,0:0:0:0:
444,220,105730,2,0,L|424:148,1,58.4999973220826,0|0,3:0|0:0,0:0:0:0:
332,300,105878,1,0,0:0:0:0:
332,300,105952,1,0,0:0:0:0:
332,300,106026,6,0,L|316:356,1,58.4999973220826,0|0,3:0|0:0,0:0:0:0:
240,184,106173,2,0,L|224:127,1,58.4999973220826
128,264,106321,6,0,B|72:276|72:276|0:256,1,116.999994644165,0|0,3:0|0:0,0:0:0:0:
84,129,106543,1,0,0:0:0:0:
110,124,106617,2,0,B|166:112|166:112|223:127,1,116.999994644165,0|0,3:0|0:0,0:0:0:0:
296,300,106838,1,0,0:0:0:0:
300,268,106912,6,0,L|312:148,1,116.999994644165,0|0,3:0|0:0,0:0:0:0:
396,128,107134,2,0,L|389:201,1,58.4999973220826,0|0,0:0|3:0,0:0:0:0:
208,324,107356,6,0,L|215:251,1,67.5000025749208
224,128,107503,1,0,3:0:0:0:
32,180,107651,2,0,B|92:204|92:204|164:188,1,125.999996154785,0|0,0:0|3:0,0:0:0:0:
292,56,107947,2,0,B|232:32|232:32|160:48,1,125.999996154785,0|0,0:0|3:0,0:0:0:0:
328,252,108242,6,0,P|336:212|328:168,1,67.5000025749208
292,56,108390,1,0,3:0:0:0:
232,228,108538,2,0,P|229:261|237:294,1,67.5000025749208
328,252,108686,6,0,B|388:276|388:276|460:256,1,135.000005149842,4|0,3:2|0:0,0:0:0:0:
396,88,108883,1,0,3:0:0:0:
396,88,108981,2,0,L|392:188,1,90.0000034332277,4|0,3:2|0:0,0:0:0:0:
334,341,109178,2,0,L|328:252,1,90.0000034332277,4|0,3:2|0:0,0:0:0:0:
224,120,109425,6,0,B|160:136|160:136|88:120,2,135.000005149842
162,220,109868,6,0,L|154:24,1,180,2|0,0:0|0:0,0:0:0:0:
256,192,110533,12,0,111641,0:0:0:0:
384,80,111937,6,0,L|392:32,2,30,2|0|2,0:0|0:0|0:0,0:0:0:0:
436,160,112232,6,0,B|340:196|352:132|256:164,1,175.499991966248,4|0,3:2|0:0,0:0:0:0:
197,230,112528,2,0,P|247:257|304:249,1,116.999994644165,0|0,3:0|0:0,0:0:0:0:
128,164,112824,5,0,3:0:0:0:
204,384,112971,2,0,L|200:316,1,67.5000025749208
196,104,113119,1,0,3:0:0:0:
296,384,113267,2,0,L|299:316,1,58.4999973220826
307,171,113415,6,0,L|436:180,1,116.999994644165,0|0,3:0|0:0,0:0:0:0:
464,104,113636,1,0,3:0:0:0:
464,104,113710,2,0,L|405:99,1,58.4999973220826,8|0,0:1|0:0,0:0:0:0:
328,252,113858,2,0,L|269:247,1,58.4999973220826,0|0,3:0|0:0,0:0:0:0:
112,232,114006,5,0,3:0:0:0:
87,195,114080,1,0,3:0:0:0:
81,152,114154,1,0,3:0:0:0:
93,110,114228,1,0,3:0:0:0:
121,78,114301,6,0,L|200:88,1,58.4999973220826,2|0,3:1|0:0,0:0:0:0:
260,144,114449,2,0,L|318:136,1,58.4999973220826
464,104,114597,6,0,L|460:232,1,107.999996704102,2|0,3:2|0:0,0:0:0:0:
372,276,114819,2,0,L|370:218,1,53.9999983520508,2|0,0:0|3:0,0:0:0:0:
179,85,115040,6,0,P|159:141|183:213,1,107.999996704102,2|0,0:0|3:0,0:0:0:0:
275,196,115262,2,0,L|135:184,1,107.999996704102,2|0,0:0|0:0,0:0:0:0:
92,272,115484,2,0,L|232:284,1,107.999996704102,2|0,3:2|0:0,0:0:0:0:
364,248,115779,6,0,P|376:204|352:128,1,125.999996154785,2|0,3:2|0:0,0:0:0:0:
284,68,116001,2,0,L|220:64,1,62.9999980773926,2|0,0:0|3:0,0:0:0:0:
149,188,116223,2,0,L|283:196,1,125.999996154785,2|0,0:0|3:0,0:0:0:0:
352,129,116444,2,0,P|375:186|364:248,1,125.999996154785,2|0,0:0|0:0,0:0:0:0:
292,324,116666,2,0,L|157:315,1,125.999996154785,2|0,3:2|0:0,0:0:0:0:
52,144,116962,6,0,P|104:96|174:90,1,144,2|0,3:2|0:0,0:0:0:0:
219,17,117183,2,0,P|251:25|307:21,1,72,2|0,0:0|3:0,0:0:0:0:
475,182,117405,6,0,P|422:134|352:128,1,144,2|0,0:0|3:0,0:0:0:0:
272,176,117627,2,0,L|288:320,1,144,2|0,0:0|0:0,0:0:0:0:
220,384,117848,2,0,P|149:378|97:330,1,144,2|0,3:2|0:0,0:0:0:0:
110,160,118144,6,0,L|274:176,1,161.999995056153,4|0,3:2|0:0,0:0:0:0:
432,191,118365,2,0,L|268:175,1,161.999995056153,4|0,3:2|0:0,0:0:0:0:
185,46,118587,6,0,B|237:82|237:82|273:182,1,161.999995056153,4|0,3:2|0:0,0:0:0:0:
356,304,118809,2,0,B|304:268|304:268|268:168,1,161.999995056153,4|0,3:2|0:0,0:0:0:0:
384,32,119030,6,0,L|336:96,1,80.9999975280763,0|0,3:0|0:0,0:0:0:0:
222,239,119178,2,0,L|270:175,1,80.9999975280763,0|0,3:0|0:0,0:0:0:0:
335,96,119326,5,2,0:0:0:0:
392,168,120213,1,2,0:0:0:0:
384,264,121099,1,2,0:0:0:0:
296,316,122577,6,0,L|288:128,1,180,2|0,0:0|0:0,0:0:0:0:
216,72,123464,1,0,0:0:0:0:
140,132,123760,1,0,0:0:0:0:
60,80,124055,6,0,P|48:144|128:228,1,180,2|0,0:0|0:0,0:0:0:0:
273,249,124942,2,0,P|200:200|117:226,1,180,2|0,0:0|0:0,0:0:0:0:
67,361,125681,5,0,0:0:0:0:
67,361,125755,1,0,0:0:0:0:
67,361,125828,2,0,B|41:313|68:240|118:225|118:225|127:297|245:318|272:248|273:249,1,360,2|0,0:0|0:0,0:0:0:0:
259,46,127306,6,0,P|198:110|201:197,1,180,2|0,0:0|0:0,0:0:0:0:
272,248,128193,2,0,L|376:236,1,90
496,328,128784,6,0,L|298:350,1,180,2|0,0:0|0:0,0:0:0:0:
380,140,129671,2,0,L|182:162,1,180,2|0,0:0|0:0,0:0:0:0:
104,276,130410,5,0,0:0:0:0:
104,276,130484,1,0,0:0:0:0:
104,276,130558,2,0,B|176:288|224:256|224:256|320:272|320:272|376:232|457:237|457:237|416:248|380:284,1,450,2|2,0:0|0:0,0:0:0:0:
385,278,132627,2,0,L|377:174,2,90,0|2|0,0:0|0:0|0:0,0:0:0:0:
288,348,133513,6,0,P|212:360|140:288,1,180,2|0,0:0|0:0,0:0:0:0:
196,152,134400,2,0,P|272:140|344:212,1,180,2|0,0:0|0:0,0:0:0:0:
240,252,135139,5,0,0:0:0:0:
240,252,135213,1,0,0:0:0:0:
240,252,135287,1,2,0:0:0:0:
256,192,135361,12,0,138095,0:0:0:0:
96,104,138242,6,0,L|102:291,1,175.499991966248,2|0,3:2|0:0,0:0:0:0:
224,232,138833,2,0,L|218:367,1,116.999994644165,0|2,3:0|0:0,0:0:0:0:
340,152,139425,5,4,3:3:0:0:
340,152,139572,2,0,L|346:287,1,116.999994644165,0|2,0:0|0:0,0:0:0:0:
352,276,139942,1,2,0:0:0:0:
352,276,140016,2,0,P|463:260|511:320,1,175.499991966248,2|0,3:2|0:0,0:0:0:0:
419,344,140607,5,0,3:0:0:0:
419,344,141198,1,0,3:0:0:0:
419,344,141789,1,0,3:0:0:0:
351,252,142085,2,0,P|343:212|354:136,2,116.999994644165,2|4|2,0:0|3:0|0:0,0:0:0:0:
419,344,142971,6,0,P|343:368|255:312,1,175.499991966248,2|0,3:2|0:0,0:0:0:0:
183,256,143562,2,0,L|175:376,1,116.999994644165,0|2,3:0|0:0,0:0:0:0:
352,252,144154,5,0,3:0:0:0:
352,252,144301,2,0,L|344:132,1,116.999994644165,0|2,0:0|0:0,0:0:0:0:
352,141,144671,1,2,0:0:0:0:
352,141,144745,2,0,B|257:165|273:113|169:141,1,175.499991966248,2|0,3:2|0:0,0:0:0:0:
80,172,145336,5,0,3:3:0:0:
80,172,145927,1,0,3:3:0:0:
84,176,146223,2,0,P|68:132|76:52,2,116.999994644165,2|2|2,0:0|3:2|0:0,0:0:0:0:
152,252,147109,2,0,P|157:309|140:365,1,116.999994644165,0|2,3:3|0:0,0:0:0:0:
176,148,147700,5,2,3:2:0:0:
176,148,147996,1,0,3:3:0:0:
176,148,148292,1,0,3:3:0:0:
176,148,148587,1,2,3:2:0:0:
336,148,148883,5,0,3:3:0:0:
336,148,149178,1,0,3:3:0:0:
336,148,149474,1,2,3:2:0:0:
336,148,149769,1,0,3:3:0:0:
368,280,150065,5,0,3:3:0:0:
335,286,150213,1,0,3:3:0:0:
303,280,150361,1,0,3:3:0:0:
276,262,150508,1,0,3:3:0:0:
256,236,150656,1,0,3:3:0:0:
236,261,150804,1,0,3:3:0:0:
209,280,150952,1,0,3:3:0:0:
177,286,151099,1,0,3:3:0:0:
145,280,151247,6,0,L|132:212,1,58.4999973220826,0|0,3:3|3:0,0:0:0:0:
366,280,151543,6,0,L|382:200,1,76.5000014591217,2|0,3:2|3:0,0:0:0:0:
112,120,151838,6,0,L|92:19,1,94.499997116089,2|0,3:2|3:0,0:0:0:0:
400,120,152134,6,0,L|423:2,1,112.5,2|0,3:2|3:0,0:0:0:0:
256,60,152429,5,2,1:2:0:0:
229,92,152503,1,0,1:0:0:0:
219,133,152577,1,0,1:0:0:0:
228,173,152651,1,0,1:0:0:0:
254,206,152725,1,0,1:0:0:0:
279,238,152799,1,0,1:0:0:0:
288,279,152873,1,0,1:0:0:0:
279,320,152947,1,0,1:0:0:0:
252,352,153021,5,0,1:2:0:0:
218,375,153095,1,0,1:0:0:0:
178,384,153168,1,0,1:0:0:0:
136,375,153242,1,0,1:0:0:0:
104,349,153316,1,2,1:2:0:0:
81,315,153390,1,0,1:0:0:0:
72,275,153464,1,0,1:2:0:0:
81,233,153538,1,0,1:0:0:0:
107,201,153612,5,0,1:0:0:0:
147,173,153686,1,0,1:0:0:0:
194,162,153760,1,0,1:0:0:0:
244,173,153833,1,0,1:0:0:0:
282,204,153907,1,0,1:0:0:0:
322,232,153981,1,0,1:0:0:0:
369,243,154055,1,0,1:2:0:0:
419,232,154129,1,0,1:2:0:0:
457,201,154203,5,2,1:2:0:0:
485,161,154277,1,0,1:0:0:0:
496,114,154351,1,0,1:0:0:0:
485,64,154425,1,0,1:0:0:0:
454,26,154498,1,0,1:0:0:0:
409,2,154572,1,0,1:0:0:0:
357,2,154646,1,0,1:0:0:0:
314,23,154720,1,0,1:0:0:0:
281,59,154794,6,0,L|284:104,14,33.7500012874604,0|0|0|0|0|0|0|0|0|0|0|0|0|0|0,1:0|1:0|1:0|1:0|1:0|1:0|1:0|1:0|1:0|1:0|1:0|1:0|1:0|1:0|1:0,1:0:0:0:
192,160,155385,2,0,L|189:205,6,33.7500012874604,0|0|0|0|0|0|0,1:0|1:0|1:0|1:0|1:0|1:0|1:0,1:0:0:0:
116,68,155681,5,8,2:3:0:0:
116,68,155976,1,0,3:0:0:0:
116,68,156272,1,0,0:0:0:0:
64,168,156420,2,0,P|52:224|68:308,1,135.000005149842,0|0,3:0|0:0,0:0:0:0:
216,352,156863,2,0,L|144:348,1,67.5000025749208,8|0,0:1|3:0,0:0:0:0:
272,272,157159,6,0,B|268:232|292:216|292:216|312:240|304:280|304:280|292:316|308:356,1,202.500007724762,2|0,3:1|0:0,0:0:0:0:
388,312,157454,5,0,3:0:0:0:
180,192,157602,1,0,3:0:0:0:
356,156,157750,1,8,0:1:0:0:
216,352,157897,1,0,0:0:0:0:
168,100,158045,6,0,B|224:100|260:136|260:136|276:88|332:64,1,202.500007724762,2|0,3:1|0:0,0:0:0:0:
489,186,158341,6,0,B|443:187|443:187|413:211|413:211|396:176|396:176|356:155,1,168.750006437302,2|0,0:0|0:0,0:0:0:0:
248,240,158784,6,0,L|316:252,1,67.5000025749208,0|0,3:0|0:0,0:0:0:0:
216,352,158932,6,2,B|168:368|168:368|132:352|132:352|72:388|4:356|-32:280|20:200|92:204,1,380.249982593537,10|0,1:0|0:0,1:0:0:0:
88,284,159966,1,2,1:0:0:0:
60,116,160114,1,8,0:1:0:0:
60,116,160410,6,2,B|112:108|156:148|156:148|204:184|264:160,1,204.749990627289,2|0,3:1|0:0,0:1:0:0:
256,72,161001,2,0,B|220:44|220:44|220:92,1,87.749995983124,2|0,3:1|0:0,0:0:0:0:
232,252,161296,6,0,P|276:248|372:172,1,157.5,8|0,0:1|0:0,0:0:0:0:
395,93,161888,6,0,B|396:144|366:183|366:183|424:208|446:249,1,202.500007724762,2|0,3:1|0:0,0:0:0:0:
256,312,162183,6,0,B|216:288|216:288|360:272,1,175.499991966248,2|0,0:0|0:0,0:0:0:0:
480,348,162479,2,0,L|320:368,1,148.50000453186,8|0,0:1|0:0,0:0:0:0:
140,344,162774,6,0,B|104:276|148:220|148:220|128:188|130:153,1,202.500007724762,2|0,3:1|0:0,0:0:0:0:
232,64,163070,6,8,L|225:153,2,90.0000034332277,8|8|8,3:0|3:0|3:0,3:0:0:0:
313,190,163661,6,2,B|276:272|184:272|128:216|129:151|129:151|105:213|26:217,1,380.249982593537,10|0,1:1|0:0,1:0:0:0:
40,124,164695,1,0,1:0:0:0:
225,153,164843,1,8,0:1:0:0:
225,153,165139,6,2,L|212:357,1,204.749990627289,2|0,3:1|0:0,0:1:0:0:
312,296,165730,2,0,L|316:220,1,67.5,2|0,3:1|0:0,0:0:0:0:
432,128,166026,6,0,L|436:204,1,67.5000025749208,8|0,0:1|0:0,0:0:0:0:
500,304,166173,1,0,3:0:0:0:
500,304,166247,2,0,B|448:320|448:320|388:312,1,107.999996704102,0|0,0:0|3:1,0:0:0:0:
312,296,166469,1,0,0:0:0:0:
121,164,166617,6,0,B|153:128|153:128|157:244|157:244|125:280,1,202.500007724762,2|0,3:1|0:0,0:0:0:0:
60,328,166912,5,0,3:0:0:0:
233,215,167060,1,0,3:0:0:0:
46,224,167208,1,8,1:0:0:0:
218,323,167356,1,0,0:1:0:0:
208,104,167503,6,0,B|248:68|248:68|232:228,1,202.500007724762,2|0,3:1|0:0,0:0:0:0:
111,331,167799,6,0,L|130:136,1,168.750006437302,2|0,0:0|0:0,0:0:0:0:
233,215,168242,6,0,L|224:298,1,67.5000025749208,0|0,3:0|0:0,0:0:0:0:
344,188,168390,6,2,B|350:126|350:126|387:100|387:100|377:216|377:216|334:246|334:246|326:315|326:315|344:348,1,380.249982593537,10|0,1:0|0:0,1:0:0:0:
412,296,169425,1,2,1:0:0:0:
228,212,169572,1,8,0:1:0:0:
228,212,169868,6,2,B|220:276|220:276|228:300|228:300|223:373|223:373|204:328,1,204.749990627289,2|0,3:1|0:0,0:1:0:0:
144,256,170459,2,0,L|155:169,1,87.749995983124,2|0,3:1|0:0,0:0:0:0:
224,20,170755,6,0,B|248:0|248:0|232:140,1,157.5,2|0,0:0|0:0,0:0:0:0:
144,72,171346,6,0,L|368:96,1,202.500007724762,2|0,3:1|0:0,0:0:0:0:
472,76,171641,6,0,B|460:52|432:32|432:32|468:92|432:160,1,175.499991966248,2|0,0:0|0:0,0:0:0:0:
370,227,171937,2,0,P|333:165|345:93,1,148.50000453186,8|0,0:1|0:0,0:0:0:0:
476,304,172232,6,0,B|464:276|468:232|468:232|460:312|380:328,1,202.500007724762,2|0,3:1|0:0,0:0:0:0:
276,292,172528,6,0,L|172:284,2,101.250003862381,2|2|0,0:0|0:0|3:0,0:0:0:0:
88,340,173119,6,2,B|60:272|109:200|109:200|148:148|120:44|120:44|36:40|20:120|20:120|124:192|236:120|236:120|320:184|432:136,1,877.5,10|0,1:1|0:0,1:0:0:0:
253,33,176075,6,0,B|336:116|420:52|420:52|392:16|341:31,1,270.000010299683,6|0,3:1|0:0,0:0:0:0:
48,36,177848,5,0,1:0:0:0:
52,60,177996,1,0,1:0:0:0:
56,84,178144,1,0,1:0:0:0:
160,100,178292,5,0,1:0:0:0:
153,136,178439,1,0,1:0:0:0:
147,173,178587,1,0,1:0:0:0:
260,148,178735,5,0,1:0:0:0:
271,208,178883,1,0,1:0:0:0:
281,270,179030,1,0,1:0:0:0:
420,200,179178,5,0,1:0:0:0:
403,289,179326,1,0,1:0:0:0:
388,382,179474,1,0,1:0:0:0:
84,337,179622,5,0,1:0:0:0:
90,304,179695,1,0,1:0:0:0:
105,274,179769,1,0,1:0:0:0:
129,250,179843,1,0,1:0:0:0:
159,234,179917,1,0,1:0:0:0:
192,228,179991,1,0,1:0:0:0:
225,233,180065,1,0,1:0:0:0:
256,247,180139,1,0,1:0:0:0:
281,270,180213,6,0,L|273:355,1,78.75,2|0,0:0|0:0,0:0:0:0:
400,228,180804,6,0,B|380:173|380:173|366:318,1,202.500007724762,6|0,3:1|0:0,0:0:0:0:
472,184,181099,6,0,B|448:120|448:120|404:72|328:104,1,175.499991966248,2|0,0:0|0:0,0:0:0:0:
287,200,181395,2,0,L|271:361,1,148.50000453186,8|0,0:1|0:0,0:0:0:0:
160,332,181691,6,0,B|180:387|180:387|194:242,1,202.500007724762,2|0,3:1|0:0,0:0:0:0:
144,152,181986,6,8,L|40:160,2,90.0000034332277,8|8|8,3:0|3:0|3:0,3:0:0:0:
292,64,182577,6,2,B|328:132|288:196|288:196|244:260|272:336|340:368|392:339,1,380.249982593537,10|0,1:0|0:0,1:0:0:0:
360,256,183612,1,2,3:1:0:0:
216,128,183760,1,8,0:1:0:0:
216,128,184055,6,2,P|180:204|192:336,1,204.749990627289,2|0,3:1|0:0,1:0:0:0:
280,372,184646,6,0,P|288:339|289:305,1,67.5,2|0,3:1|0:0,0:0:0:0:
84,160,184942,6,0,P|75:192|74:226,1,67.5000025749208,2|0,1:0|0:0,0:0:0:0:
186,322,185090,1,0,3:0:0:0:
186,322,185163,2,0,L|174:206,1,107.999996704102,0|0,0:0|3:0,0:0:0:0:
160,76,185385,1,0,0:0:0:0:
368,120,185533,6,0,B|304:152|304:152|229:136|229:136|292:100,1,202.500007724762,2|0,3:1|0:0,0:0:0:0:
428,36,185828,5,0,3:0:0:0:
396,208,185976,1,0,3:0:0:0:
328,40,186124,1,8,0:1:0:0:
476,144,186272,1,0,0:0:0:0:
395,303,186420,6,0,B|259:287|259:287|191:319,1,202.500007724762,2|0,3:1|0:0,0:0:0:0:
276,376,186715,6,0,L|343:383,1,58.4999973220826,2|0,0:0|0:0,0:0:0:0:
200,315,186863,2,2,L|157:310,6,29.2499986610413
272,228,187159,6,0,P|276:196|268:156,1,67.5000025749208,0|0,3:0|0:0,0:0:0:0:
145,173,187306,6,2,P|274:108|132:84,1,380.249982593537,10|0,1:1|0:0,1:0:0:0:
200,120,188341,1,2,1:0:0:0:
384,56,188489,1,8,0:1:0:0:
384,56,188784,6,2,P|392:124|360:260,1,204.749990627289,2|0,3:1|0:0,1:0:0:0:
274,261,189375,2,0,L|376:254,1,87.749995983124,2|0,3:1|0:0,0:0:0:0:
245,352,189671,6,2,L|408:341,1,157.5,2|0,0:0|0:0,1:0:0:0:
496,272,190262,6,0,B|508:212|508:212|492:136,1,135.000005149842,6|0,1:0|0:0,0:0:0:0:
489,7,191149,2,0,B|477:67|477:67|492:139,1,135.000005149842,6|0,1:0|0:0,0:0:0:0:
492,139,192035,6,2,B|388:129|388:129|337:157|337:157|238:148|238:148|193:112|193:112|132:128|77:102|77:102|18:133|18:133|36:204|6:269|6:269|59:309|59:309|120:296|175:320|175:320|225:292,1,877.5,2|0,3:1|0:0,1:0:0:0:
132,208,194991,5,2,0:0:0:0:
216,296,195878,1,2,0:0:0:0:
336,252,196617,1,0,0:0:0:0:
336,252,196691,1,0,0:0:0:0:
336,252,196764,2,0,B|320:168|237:159|237:159|229:299|229:299|152:292|130:207,1,431.999986816407,2|0,0:0|0:0,0:0:0:0:
196,60,199720,5,2,0:0:0:0:
312,32,200607,1,2,0:0:0:0:
380,128,201346,1,0,0:0:0:0:
380,128,201420,1,0,0:0:0:0:
380,128,201494,6,0,P|306:307|287:114,1,526.499983932496,2|0,0:0|0:0,0:0:0:0:
320,208,204449,6,0,P|236:240|140:220,1,180,2|0,3:2|0:0,0:0:0:0:
76,164,205188,2,0,L|84:64,1,90,2|0,0:0|0:0,0:0:0:0:
149,224,205631,1,2,0:0:0:0:
149,224,206370,6,0,L|156:313,1,90,2|0,0:0|0:0,0:0:0:0:
228,168,206814,1,2,0:0:0:0:
228,168,207553,6,0,P|272:156|324:160,1,90,2|0,0:0|0:0,0:0:0:0:
400,180,207996,2,0,P|444:182|487:170,1,90,2|0,0:0|0:0,0:0:0:0:
332,244,208439,1,2,0:0:0:0:
332,244,208883,2,0,L|329:260,6,16.8750006437302
388,332,209178,6,0,P|332:356|240:300,1,157.5,2|0,0:0|0:0,0:0:0:0:
188,228,209769,2,0,L|132:224,2,45.0000017166138,2|2|2,0:0|0:0|0:0,0:0:0:0:
328,144,210065,2,0,L|384:140,2,45.0000017166138,2|2|2,0:0|0:0|0:0,0:0:0:0:
188,60,210361,2,0,L|132:56,2,45.0000017166138,2|2|2,0:0|0:0|0:0,0:0:0:0:
188,60,213907,6,0,P|204:124|184:248,1,180,2|0,0:0|0:0,0:0:0:0:
20,272,214646,2,0,P|60:260|116:264,1,90,2|0,0:0|0:0,0:0:0:0:
240,308,215090,1,2,0:0:0:0:
240,308,215828,6,0,P|280:320|336:316,1,90,2|0,0:0|0:0,0:0:0:0:
460,272,216272,1,2,0:0:0:0:
460,272,217011,6,0,L|452:176,1,90,2|0,0:0|0:0,0:0:0:0:
348,92,217454,2,0,L|340:181,1,90,2|0,0:0|0:0,0:0:0:0:
327,318,217897,1,2,0:0:0:0:
327,318,218341,2,0,L|329:345,6,16.8750006437302
268,244,218636,6,0,P|212:236|121:285,1,157.5,2|0,0:0|0:0,0:0:0:0:
48,352,219228,2,0,L|40:292,2,45.0000017166138,2|2|2,0:0|0:0|0:0,0:0:0:0:
136,200,219523,2,0,L|143:139,2,45.0000017166138,2|2|0,0:0|0:0|0:0,0:0:0:0:
36,80,219819,2,0,L|28:20,2,45.0000017166138,2|2|2,0:0|0:0|0:0,0:0:0:0:
48,60,221001,6,0,L|57:129,1,67.5000025749208,2|0,0:0|0:0,0:0:0:0:
256,192,221223,12,0,222479,0:0:0:0:
136,80,222774,6,0,B|140:148|140:148|112:204|112:204|116:284,1,202.500007724762,2|0,0:1|0:0,0:0:0:0:
52,124,223070,6,0,L|49:57,1,67.5000025749208,0|0,3:0|0:0,0:0:0:0:
200,224,223218,2,0,L|203:291,1,67.5000025749208,0|0,3:0|0:0,0:0:0:0:
272,124,223365,6,0,B|348:132|348:132|404:112|404:112|496:120,1,215.999993408203,4|0,3:2|0:0,0:0:0:0:
268,40,223809,6,0,L|348:48,1,67.5000025749208,4|0,3:2|0:0,0:0:0:0:
496,204,224104,2,0,L|428:197,1,67.5000025749208,4|0,3:2|0:0,0:0:0:0:
244,320,224400,2,0,L|311:326,1,67.5000025749208,4|0,3:2|0:0,0:0:0:0:
311,326,225287,6,0,L|167:312,1,135.000005149842,4|0,3:2|0:0,0:0:0:0:
396,384,225730,6,0,B|420:336|404:280|404:280|388:228|412:168,1,215.999993408203,4|0,3:2|0:0,0:0:0:0:
311,326,226173,2,0,L|230:318,1,67.5000025749208,4|0,3:2|0:0,0:0:0:0:
342,166,226395,2,0,L|410:173,1,67.5000025749208,4|0,3:2|0:0,0:0:0:0:
204,240,226617,6,0,B|170:248|170:248|144:232|144:232|79:269|17:217,1,202.500007724762,4|0,3:2|0:0,0:0:0:0:
92,148,226912,5,2,0:0:0:0:
92,148,227356,1,2,0:0:0:0:
160,80,227503,6,0,L|168:12,1,67.5000025749208,2|0,0:0|0:0,0:0:0:0:
99,215,227651,2,0,L|91:147,1,67.5000025749208,2|0,0:0|0:0,0:0:0:0:
175,268,227799,6,0,B|148:302|148:302|91:313|91:313|36:292|36:292|15:255,1,202.500007724762,2|0,0:1|0:0,0:0:0:0:
196,168,228095,6,0,B|280:132|368:168|368:168|304:160|272:196,1,270.000010299683,4|0,3:2|0:0,0:0:0:0:
336,324,228538,2,0,P|344:288|344:252,1,67.5000025749208,4|0,3:2|0:0,0:0:0:0:
187,101,228833,2,0,P|187:134|195:167,1,67.5000025749208,4|0,3:2|0:0,0:0:0:0:
44,324,229129,2,0,P|43:290|35:257,1,67.5000025749208,4|0,3:2|0:0,0:0:0:0:
35,257,230016,6,0,B|95:281|95:281|213:261,1,168.750006437302,4|0,3:2|0:0,0:0:0:0:
133,151,230459,6,0,B|40:168|40:168|104:192|104:192|210:175,1,270.000010299683,4|0,3:2|0:0,0:0:0:0:
397,141,230902,2,0,L|405:65,1,67.5000025749208,4|0,3:2|0:0,0:0:0:0:
216,242,231124,2,0,L|208:174,1,67.5000025749208,4|0,3:2|0:0,0:0:0:0:
293,21,231346,6,0,B|297:73|297:73|309:97|309:97|293:121|293:121|305:145|305:145|313:221,1,202.500007724762,4|0,3:2|0:0,0:0:0:0:
323,301,231641,1,0,0:0:0:0:
323,301,232085,6,0,L|311:209,1,90,2|0,1:0|0:0,0:0:0:0:
208,52,232232,5,0,0:0:0:0:
112,108,232380,1,0,0:0:0:0:
20,48,232528,2,0,L|28:0,6,33.7500012874604,2|0|0|0|0|0|0,0:1|0:0|0:0|0:0|0:0|0:0|0:0,0:0:0:0:
24,140,232824,6,0,B|16:200|16:200|24:240|24:240|12:308,1,161.999995056153,0|0,3:0|0:0,0:0:0:0:
40,384,233119,1,8,0:1:0:0:
164,296,233267,6,0,L|96:304,1,53.9999983520508
260,320,233415,1,0,3:0:0:0:
204,192,233562,6,0,L|136:200,1,53.9999983520508
300,216,233710,1,8,0:1:0:0:
236,88,233858,6,0,L|168:96,1,53.9999983520508
332,112,234006,6,0,B|408:104|408:104|488:52,1,161.999995056153,0|0,3:0|0:0,0:0:0:0:
376,20,234301,1,8,0:1:0:0:
448,204,234449,6,0,L|466:261,1,53.9999983520508
493,346,234597,1,0,3:0:0:0:
332,236,234745,6,0,L|318:295,1,53.9999983520508
299,381,234893,1,8,0:1:0:0:
236,168,235040,6,0,L|195:212,1,53.9999983520508
319,288,235188,6,0,B|327:219|327:219|364:180|364:180|372:112,1,188.999994232178,0|0,3:0|0:0,0:0:0:0:
376,20,235484,1,8,0:1:0:0:
236,168,235631,6,0,P|195:154|159:127,1,62.9999980773926
82,55,235779,1,0,3:0:0:0:
62,245,235927,6,0,P|94:215|135:198,1,62.9999980773926
236,168,236075,1,8,0:1:0:0:
82,55,236223,6,0,P|89:96|84:140,1,62.9999980773926
12,328,236370,6,0,B|104:356|100:296|204:324,1,188.999994232178,0|0,3:0|0:0,0:0:0:0:
276,376,236666,1,8,0:1:0:0:
344,136,236814,6,0,L|328:200,1,62.9999980773926
308,288,236962,1,0,3:0:0:0:
136,44,237109,6,0,L|152:108,1,62.9999980773926
176,224,237257,1,8,0:1:0:0:
380,0,237405,6,0,L|364:64,1,62.9999980773926
328,196,237553,6,0,B|360:220|360:220|484:212,1,135.000005149842,8|0,0:1|0:0,0:0:0:0:
491,79,237774,2,0,B|459:55|459:55|335:63,1,135.000005149842,8|0,0:1|0:0,0:0:0:0:
256,108,237996,2,0,L|240:36,1,67.5000025749208,8|0,0:1|0:0,0:0:0:0:
328,196,238144,6,0,B|348:260|348:260|332:336,1,135.000005149842,8|0,0:1|0:0,0:0:0:0:
177,326,238365,2,0,B|164:260|164:260|184:196,1,135.000005149842,8|0,0:1|0:0,0:0:0:0:
270,42,238587,2,0,L|256:108,1,67.5000025749208,8|0,0:1|0:0,0:0:0:0:
184,196,238735,6,0,P|152:224|56:232,1,135.000005149842,8|0,0:1|0:0,0:0:0:0:
328,196,238957,2,0,P|360:224|456:232,1,135.000005149842,8|0,0:1|0:0,0:0:0:0:
256,344,239178,2,0,L|256:264,1,67.5000025749208,8|0,0:1|0:0,0:0:0:0:
256,28,239326,5,0,3:0:0:0:
256,74,239400,2,0,L|256:154,1,67.5000025749208,8|0,0:1|0:0,0:0:0:0:
256,344,239548,5,0,3:0:0:0:
256,299,239622,1,0,3:0:0:0:
256,254,239695,1,0,3:0:0:0:
256,209,239769,2,0,L|256:129,1,67.5000025749208,8|0,1:0|0:0,0:0:0:0:
156,21,239917,5,2,0:0:0:0:
156,21,240213,1,0,0:0:0:0:
132,109,240361,1,0,0:0:0:0:
100,201,240508,6,0,L|110:324,1,90,2|0,0:0|0:0,0:0:0:0:
200,344,240804,6,0,L|187:182,1,135.000005149842,2|0,0:0|0:0,0:0:0:0:
288,272,241247,6,0,L|295:375,1,90,2|0,0:0|0:0,0:0:0:0:
384,380,241691,6,0,L|379:312,1,67.5000025749208
189,209,241838,2,0,L|193:141,1,67.5000025749208,2|0,0:1|0:0,0:0:0:0:
392,48,241986,5,2,1:0:0:0:
430,79,242060,1,0,1:0:0:0:
446,127,242134,1,0,1:0:0:0:
428,176,242208,1,0,1:0:0:0:
402,212,242282,6,0,B|336:244|332:192|264:220,1,135.000005149842,4|0,3:2|0:0,0:0:0:0:
216,284,242503,2,0,L|228:128,1,135.000005149842
114,96,242725,2,0,P|160:144|226:149,1,135.000005149842,0|0,0:0|3:0,0:0:0:0:
312,8,242947,2,0,P|246:12|199:60,1,135.000005149842
324,204,243168,6,0,L|332:132,1,67.5000025749208,0|0,3:0|0:0,0:0:0:0:
216,284,243316,2,0,L|223:351,1,67.5000025749208
124,251,243464,6,0,P|167:201|232:192,1,135.000005149842,0|0,3:0|0:0,0:0:0:0:
415,236,243686,2,0,P|371:285|306:294,1,135.000005149842
232,192,243907,2,0,L|216:48,1,135.000005149842,0|0,0:0|3:0,0:0:0:0:
416,236,244129,2,0,L|400:379,1,135.000005149842
496,280,244351,6,0,L|504:204,1,67.5000025749208,0|0,3:0|0:0,0:0:0:0:
308,92,244498,2,0,L|316:176,1,67.5000025749208
328,308,244646,6,0,B|288:336|288:336|176:328,1,135.000005149842,0|0,3:0|0:0,0:0:0:0:
136,212,244868,2,0,B|171:245|171:245|283:252,1,135.000005149842
429,131,245090,2,0,B|393:97|393:97|281:90,1,135.000005149842,0|0,0:0|3:0,0:0:0:0:
237,35,245311,2,0,B|277:7|277:7|389:15,1,135.000005149842
360,176,245533,6,0,L|292:171,1,67.5000025749208,0|0,3:0|0:0,0:0:0:0:
201,329,245681,2,0,L|134:334,1,67.5000025749208
60,248,245828,6,0,B|84:200|84:200|80:112,1,135.000005149842,0|0,3:0|0:0,0:0:0:0:
20,64,246050,2,0,P|80:92|164:64,1,135.000005149842
232,48,246272,2,0,P|296:34|357:62,1,135.000005149842,0|0,0:0|3:0,0:0:0:0:
300,200,246494,2,0,B|276:228|276:228|288:116,1,135.000005149842
440,8,246715,5,0,3:0:0:0:
445,58,246789,1,0,0:0:0:0:
450,108,246863,1,0,0:0:0:0:
456,159,246937,1,0,0:0:0:0:
461,209,247011,6,0,L|476:356,1,135.000005149842,0|0,3:0|0:0,0:0:0:0:
376,308,247232,2,0,P|324:300|240:336,1,135.000005149842
123,311,247454,2,0,P|184:340|249:328,1,135.000005149842,0|0,0:0|3:0,0:0:0:0:
212,108,247676,2,0,L|197:255,1,135.000005149842
304,144,247897,6,0,L|312:56,1,67.5000025749208,0|0,3:0|0:0,0:0:0:0:
112,156,248045,2,0,L|104:244,1,67.5000025749208,2|0,1:0|0:0,0:0:0:0:
248,328,248193,6,0,L|400:316,1,135.000005149842,0|0,3:0|0:0,0:0:0:0:
452,368,248415,2,0,B|420:328|420:328|412:232,1,135.000005149842
472,160,248636,2,0,B|504:200|504:200|512:296,1,135.000005149842,0|0,0:0|3:0,0:0:0:0:
413,244,248858,2,0,L|261:232,1,135.000005149842
88,172,249080,6,0,L|207:162,1,101.250003862381,2|0,0:0|0:0,0:0:0:0:
261,103,249375,6,0,B|284:148|284:148|278:233,1,135.000005149842,0|0,3:0|0:0,0:0:0:0:
268,320,249597,2,0,B|220:316|220:316|188:324|188:324|128:320,1,135.000005149842
278,233,249819,2,0,B|326:237|326:237|358:229|358:229|418:233,1,135.000005149842,0|0,0:0|3:0,0:0:0:0:
440,332,250040,6,0,L|342:325,1,67.5000025749208,2|0,0:0|0:0,0:0:0:0:
278,233,250262,6,0,P|272:199|271:166,1,67.5000025749208,0|0,3:0|0:0,0:0:0:0:
404,63,250410,2,0,P|402:97|396:130,1,67.5000025749208
188,107,250558,6,0,P|244:65|314:73,1,144,4|0,3:2|0:0,0:0:0:0:
416,232,250779,1,0,3:0:0:0:
404,202,250853,2,0,P|397:165|397:127,1,72,8|0,1:0|0:0,0:0:0:0:
464,332,251001,6,0,B|396:316|396:316|304:328,1,144,4|0,3:2|0:0,0:0:0:0:
48,248,251223,2,0,B|116:264|116:264|208:252,1,144,4|0,3:2|0:0,0:0:0:0:
336,229,251444,5,6,0:0:0:0:
379,187,251518,1,0,0:0:0:0:
396,130,251592,1,2,0:0:0:0:
380,73,251666,1,0,0:0:0:0:
337,32,251740,6,0,B|252:12|276:64|184:32,1,144,4|0,3:2|0:0,0:0:0:0:
104,12,251962,2,0,P|88:76|116:168,1,144
248,162,252183,2,0,L|100:150,1,144,0|0,0:0|3:0,0:0:0:0:
36,280,252405,2,0,L|184:268,1,144
332,260,252627,6,0,L|320:340,1,72,0|0,3:0|0:0,0:0:0:0:
248,162,252774,2,0,L|238:91,1,72
364,4,252922,6,0,P|424:4|488:60,1,144,0|0,3:0|0:0,0:0:0:0:
484,180,253144,2,0,P|432:228|361:231,1,144
248,162,253365,2,0,L|168:168,1,72
52,228,253513,5,0,3:0:0:0:
161,367,253661,2,0,L|165:315,1,45,2|0,0:0|0:0,0:0:0:0:
241,347,253809,2,0,L|245:295,1,45,2|0,0:0|0:0,0:0:0:0:
321,331,253957,2,0,L|325:279,1,45,2|0,0:0|0:0,0:0:0:0:
400,184,254104,6,0,B|396:232|396:232|408:268|408:268|404:316,1,135.000005149842,4|0,3:2|0:0,0:0:0:0:
480,216,254326,1,0,0:0:0:0:
480,216,254400,2,0,L|490:103,1,67.5000025749208,0|0,3:0|0:0,0:0:0:0:
372,80,254548,2,0,B|328:104|328:104|228:96,1,135.000005149842,0|0,0:0|3:0,0:0:0:0:
148,88,254769,2,0,B|63:81|63:81|19:105,1,135.000005149842
84,164,254991,6,0,L|176:172,1,67.5000025749208,0|0,3:0|0:0,0:0:0:0:
248,16,255139,2,0,L|340:24,1,67.5000025749208
405,154,255287,6,0,L|290:224,1,135.000005149842,0|0,3:0|0:0,0:0:0:0:
292,358,255508,2,0,L|290:224,1,135.000005149842
144,148,255730,2,0,L|203:180,1,67.5000025749208
407,290,255878,6,0,L|290:224,1,135,0|0,3:0|0:0,0:0:0:0:
114,130,256173,6,0,L|203:180,1,101.250003862381,0|0,3:0|0:0,0:0:0:0:
290,223,256469,6,0,L|300:288,1,45,2|0,0:0|0:0,0:0:0:0:
336,140,256691,2,0,L|346:75,1,45,2|0,0:0|0:0,0:0:0:0:
396,216,256912,2,0,L|406:281,1,45,2|0,0:0|0:0,0:0:0:0:
440,128,257134,2,0,L|446:83,1,45,2|0,0:0|0:0,0:0:0:0:
496,208,257356,5,0,0:0:0:0:
496,208,257503,1,2,0:0:0:0:
412,327,257651,6,0,L|400:247,1,67.5000025749208,2|0,0:0|0:0,0:0:0:0:
296,192,257873,2,0,L|291:259,1,67.5000025749208,2|0,0:0|0:0,0:0:0:0:
212,340,258095,2,0,P|187:346|119:343,1,67.5000025749208,2|0,0:0|0:0,0:0:0:0:
92,244,258316,2,0,P|125:244|158:252,1,67.5000025749208,2|0,0:0|0:0,0:0:0:0:
320,364,258538,5,0,0:0:0:0:
320,364,258686,1,2,0:0:0:0:
372,84,258833,6,0,L|276:76,1,90,2|0,0:0|0:0,0:0:0:0:
312,172,259055,2,0,L|408:180,1,90,2|0,0:0|0:0,0:0:0:0:
488,124,259277,2,0,B|500:188|500:188|480:256,1,135,2|0,0:0|0:0,0:0:0:0:
440,352,259572,5,0,3:0:0:0:
395,349,259646,1,0,3:0:0:0:
350,347,259720,1,8,0:1:0:0:
305,344,259794,1,0,3:0:0:0:
260,342,259868,1,0,3:0:0:0:
215,339,259942,1,0,3:0:0:0:
170,337,260016,6,0,L|160:196,1,135.000005149842,0|0,3:0|0:0,0:0:0:0:
100,148,260237,6,0,B|156:160|156:160|216:139,1,116.999994644165,8|0,0:1|0:0,0:0:0:0:
344,100,260459,6,0,L|334:234,1,125.999996154785,0|0,3:0|0:0,0:0:0:0:
264,284,260681,6,0,B|329:268|329:268|402:293,1,135.000005149842,8|0,0:1|0:0,0:0:0:0:
504,324,260902,6,0,L|497:241,1,67.5000025749208,0|0,3:0|0:0,0:0:0:0:
339,167,261050,2,0,L|344:100,1,67.5000025749208,0|0,3:0|0:0,0:0:0:0:
480,32,261198,6,0,B|444:28|412:44|412:44|388:16|344:8,1,135.000005149842,4|2,3:2|0:3,0:0:0:0:
268,48,261420,1,0,0:0:0:0:
268,48,261494,2,0,L|200:52,1,67.5000025749208,0|0,3:0|0:0,0:0:0:0:
48,196,261641,2,0,L|115:200,1,67.5000025749208,2|0,0:3|0:0,0:0:0:0:
288,224,261789,6,0,L|280:144,1,67.5000025749208,0|0,3:0|0:0,0:0:0:0:
268,48,261937,1,2,0:3:0:0:
108,267,262085,6,0,L|116:187,1,67.5000025749208,0|0,3:0|0:0,0:0:0:0:
184,52,262232,2,0,L|190:119,1,67.5000025749208,2|0,0:3|0:0,0:0:0:0:
208,300,262380,6,0,B|252:328|252:328|336:316,1,135.000005149842,0|2,3:0|0:3,0:0:0:0:
428,352,262602,1,0,0:0:0:0:
428,352,262676,2,0,L|432:272,1,67.5000025749208,0|0,3:0|0:0,0:0:0:0:
281,156,262824,2,0,L|284:223,1,67.5000025749208,2|0,0:3|0:0,0:0:0:0:
476,172,262971,6,0,L|388:164,1,67.5000025749208,0|0,3:0|0:0,0:0:0:0:
281,156,263119,1,2,0:3:0:0:
508,64,263267,6,0,L|420:56,1,67.5000025749208,0|0,3:0|0:0,0:0:0:0:
288,44,263415,2,0,L|200:36,1,67.5000025749208,2|0,0:3|0:0,0:0:0:0:
48,24,263562,6,0,L|56:168,1,135.000005149842,0|2,3:0|0:3,0:0:0:0:
24,252,263784,1,0,0:0:0:0:
24,252,263858,2,0,P|60:256|104:244,1,67.5000025749208,0|0,3:0|0:0,0:0:0:0:
227,212,264006,2,0,P|260:207|293:214,1,67.5000025749208,2|0,0:3|0:0,0:0:0:0:
268,360,264154,6,0,L|260:280,1,67.5000025749208,0|0,3:0|0:0,0:0:0:0:
240,120,264301,1,2,0:3:0:0:
424,108,264449,6,0,L|416:188,1,67.5000025749208,0|0,3:0|0:0,0:0:0:0:
380,340,264597,2,0,L|373:272,1,67.5000025749208,2|0,0:3|0:0,0:0:0:0:
316,52,264745,6,0,B|256:28|256:28|180:40,1,135.000005149842,0|2,3:0|0:3,0:0:0:0:
84,96,264966,1,0,0:0:0:0:
84,96,265040,2,0,L|68:20,1,67.5000025749208,0|0,3:0|0:0,0:0:0:0:
160,204,265188,2,0,L|176:128,1,67.5000025749208,2|0,0:3|0:0,0:0:0:0:
216,320,265336,6,0,L|251:250,1,67.5000025749208,0|0,3:0|0:0,0:0:0:0:
332,100,265484,1,2,0:3:0:0:
316,130,265558,1,0,0:0:0:0:
301,160,265631,5,0,3:0:0:0:
339,191,265705,1,0,0:0:0:0:
389,199,265779,1,2,0:3:0:0:
435,181,265853,1,0,0:0:0:0:
466,141,265927,6,0,L|488:304,1,135.000005149842,0|2,3:0|0:3,0:0:0:0:
496,372,266149,1,0,0:0:0:0:
496,372,266223,2,0,L|420:360,1,67.5000025749208,0|0,3:0|0:0,0:0:0:0:
304,304,266370,2,0,L|237:314,1,67.5000025749208,2|0,0:3|0:0,0:0:0:0:
100,330,266518,6,0,P|108:294|112:250,1,67.5000025749208,0|0,3:0|0:0,0:0:0:0:
88,108,266666,1,2,0:3:0:0:
0,318,266814,6,0,P|3:351|11:384,1,67.5000025749208,0|0,3:0|0:0,0:0:0:0:
208,280,266962,2,0,P|204:244|196:209,1,72,2|0,0:3|0:0,0:0:0:0:
88,108,267109,6,0,L|229:115,1,135.000005149842,0|2,3:0|0:3,0:0:0:0:
344,116,267331,1,0,0:0:0:0:
344,116,267405,2,0,L|336:28,1,67.5000025749208,0|0,3:0|0:0,0:0:0:0:
222,114,267553,2,0,L|215:181,1,67.5000025749208,2|0,0:3|0:0,0:0:0:0:
152,300,267700,6,0,L|293:307,1,135.000005149842,0|2,3:0|0:3,0:0:0:0:
387,312,267996,6,0,L|285:306,1,101.250003862381,0|0,3:0|0:0,0:0:0:0:
68,236,268292,6,0,B|52:300|52:300|72:368,1,135.000005149842,0|2,3:0|0:3,0:0:0:0:
152,300,268513,1,0,0:0:0:0:
152,300,268587,2,0,L|231:303,1,67.5000025749208,0|0,3:0|0:0,0:0:0:0:
387,312,268735,2,0,L|466:315,1,67.5000025749208,2|0,0:3|0:0,0:0:0:0:
309,207,268883,6,0,L|301:340,1,101.250003862381,0|0,3:0|0:0,0:0:0:0:
300,376,269178,6,0,L|304:300,1,67.5,0|0,3:0|0:0,0:0:0:0:
388,136,269474,6,0,B|320:108|320:108|248:124,1,144,4|0,3:2|0:0,0:0:0:0:
124,160,269695,1,0,3:0:0:0:
130,191,269769,2,0,L|145:273,1,72,8|0,0:1|0:0,0:0:0:0:
308,192,269917,6,0,B|324:120|324:120|300:40,1,144,4|0,3:2|0:0,0:0:0:0:
130,191,270139,2,0,L|161:359,1,144,4|0,3:2|0:0,0:0:0:0:
340,369,270361,5,6,3:2:0:0:
332,324,270434,1,0,0:0:0:0:
324,280,270508,1,2,0:0:0:0:
316,236,270582,1,0,0:0:0:0:
308,191,270656,6,0,L|392:196,1,67.5000025749208,0|2,3:0|0:0,0:0:0:0:
236,124,270952,5,8,0:1:0:0:
236,124,271247,1,8,0:1:0:0:
236,124,271543,1,8,0:1:0:0:
132,184,271838,5,8,0:1:0:0:
132,184,272134,1,8,0:1:0:0:
132,184,272429,1,8,0:1:0:0:
132,184,272725,5,0,3:0:0:0:
137,225,272799,1,0,3:0:0:0:
143,267,272873,1,0,3:0:0:0:
148,309,272947,1,0,3:0:0:0:
154,351,273021,5,4,3:1:0:0:
252,384,273316,1,8,0:1:0:0:
356,356,273612,1,8,0:1:0:0:
412,272,273907,1,8,0:1:0:0:
400,88,274203,5,8,0:1:0:0:
244,108,274498,1,8,0:1:0:0:
88,124,274794,1,8,0:1:0:0:
152,372,275090,5,8,0:1:0:0:
158,330,275163,1,0,3:0:0:0:
163,288,275237,1,0,3:0:0:0:
169,246,275311,1,0,3:0:0:0:
174,205,275385,6,0,L|200:388,1,161.999995056153,4|0,3:2|0:0,0:0:0:0:
276,300,275681,1,8,0:1:0:0:
104,44,275828,6,0,L|78:227,1,161.999995056153,4|0,3:2|0:0,0:0:0:0:
2,139,276124,1,0,3:2:0:0:
200,12,276272,2,0,L|184:118,1,107.999996704102,4|0,3:2|0:0,0:0:0:0:
276,300,276567,6,0,B|336:316|336:316|448:296,1,161.999995056153,4|0,3:2|0:0,0:0:0:0:
512,336,276863,1,0,3:0:0:0:
336,224,277011,2,0,L|442:205,1,107.999996704102,4|0,3:2|0:0,0:0:0:0:
276,300,277306,6,0,L|191:285,1,53.9999983520508,0|0,3:0|0:0,0:0:0:0:
88,268,277454,2,0,L|107:162,1,107.999996704102,8|0,3:1|0:0,0:0:0:0:
244,80,277750,6,0,B|270:60|270:60|245:187,1,161.999995056153,4|0,3:2|0:0,0:0:0:0:
222,290,278045,1,0,3:0:0:0:
344,160,278193,2,0,L|320:284,1,107.999996704102,4|0,3:2|0:0,0:0:0:0:
128,328,278415,2,0,L|152:204,1,107.999996704102
323,266,278636,6,0,L|335:331,1,53.9999983520508,8|0,0:1|0:0,0:0:0:0:
148,221,278784,2,0,L|137:167,1,53.9999983520508
224,48,278932,6,0,B|284:24|284:24|368:36,1,135.000005149842,8|0,0:1|0:0,0:0:0:0:
376,164,279154,2,0,B|316:188|316:188|232:176,1,135.000005149842,8|0,0:1|0:0,0:0:0:0:
124,101,279375,2,0,L|137:167,1,67.5000025749208,8|0,0:1|0:0,0:0:0:0:
116,328,279523,6,0,P|184:316|264:356,1,135.000005149842,8|0,0:1|0:0,0:0:0:0:
372,349,279745,2,0,P|304:361|224:321,1,135.000005149842,8|0,0:1|0:0,0:0:0:0:
150,233,279966,2,0,L|136:166,1,67.5000025749208,8|0,0:1|0:0,0:0:0:0:
204,48,280114,6,0,B|244:39|244:39|273:68|273:68|329:31|415:39|492:104|484:206|435:259,1,432,6|0,0:0|0:0,0:0:0:0:
440,253,284843,6,0,B|376:248|288:296|332:348|332:348|388:320|344:252|304:221|304:221|224:268|252:368,1,504,2|0,0:0|0:0,0:0:0:0:
32,160,289425,6,0,P|26:144|21:119,1,24.7500007553101
24,56,289572,2,0,B|88:51|176:99|132:151|132:151|76:123|120:55|160:24|160:24|240:72|212:168,1,504,2|0,0:0|0:0,0:0:0:0:
208,328,294301,6,0,B|244:340|288:324|288:324|368:284|428:312|428:312|376:368|292:312|268:256|268:256|328:208|412:224,1,576,2|0,0:0|0:0,0:0:0:0:
256,192,299104,12,2,303612,0:0:0:0:
256,192,303686,12,0,308489,0:0:0:0:
