osu file format v14

[General]
AudioFilename: audio.mp3
AudioLeadIn: 0
PreviewTime: 152657
Countdown: 0
SampleSet: Soft
StackLeniency: 0.7
Mode: 3
LetterboxInBreaks: 0
SpecialStyle: 0
WidescreenStoryboard: 1

[Editor]
Bookmarks: 36637,37203,53052,55316,64373,68901,71165,72722,73429,89278,90976,91543,100599,105127,106826,107392,109090,109656,118712,125505,127769,136826,145882,150410,152675,154231,154939,170788,172203,173052,182109,183241,183807,186637,188335,188901,190599,191165,204750,207014,208146,209774,212816,218901
DistanceSpacing: 1.3
BeatDivisor: 4
GridSize: 8
TimelineZoom: 1.7

[Metadata]
Title:Embracing intelligences
TitleUnicode:Embracing intelligences
Artist:Camellia
ArtistUnicode:かめりあ
Creator:Leniane
Version:Hard
Source:osu!
Tags:Cametek Kamelcamellia かめるかめりあ Heart of Android Featured Artists FA Mappers' Guild MG Hardcore Techno Tropical House Electronic Instrumental
BeatmapID:2205280
BeatmapSetID:1055424

[Difficulty]
HPDrainRate:7.8
CircleSize:4
OverallDifficulty:7.5
ApproachRate:5
SliderMultiplier:1.4
SliderTickRate:1

[Events]
//Background and Video events
0,0,"Background.jpg",0,0
//Break Periods
//Storyboard Layer 0 (Background)
//Storyboard Layer 1 (Fail)
//Storyboard Layer 2 (Pass)
//Storyboard Layer 3 (Foreground)
//Storyboard Layer 4 (Overlay)
//Storyboard Sound Samples

[TimingPoints]
977,283.018867924528,4,2,1,35,1,0
36637,-100,4,2,1,65,0,0
73429,-100,4,2,1,80,0,1
90976,-100,4,2,1,65,0,0
91543,-100,4,2,1,80,0,1
107392,-100,4,2,1,65,0,0
154939,-100,4,2,1,80,0,1
170788,-100,4,2,1,65,0,0
173052,-100,4,2,1,80,0,1
188901,-100,4,2,1,65,0,0
191165,-100,4,2,1,35,0,0

[HitObjects]
192,192,977,5,0,0:0:0:0:
320,192,1012,1,0,0:0:0:0:
448,192,1047,1,0,0:0:0:0:
64,192,3241,1,0,0:0:0:0:
320,192,5505,1,0,0:0:0:0:
192,192,5552,1,0,0:0:0:0:
64,192,5599,1,0,0:0:0:0:
448,192,6637,1,0,0:0:0:0:
64,192,7769,1,0,0:0:0:0:
192,192,7816,1,0,0:0:0:0:
320,192,7863,1,0,0:0:0:0:
448,192,7910,1,0,0:0:0:0:
192,192,10033,1,0,0:0:0:0:
320,192,10068,1,0,0:0:0:0:
448,192,10104,1,0,0:0:0:0:
64,192,12315,1,0,0:0:0:0:
320,192,14561,1,0,0:0:0:0:
192,192,14597,1,0,0:0:0:0:
64,192,14632,1,0,0:0:0:0:
448,192,15693,1,0,0:0:0:0:
64,192,16826,1,0,0:0:0:0:
192,192,16873,1,0,0:0:0:0:
320,192,16920,1,0,0:0:0:0:
448,192,16967,1,0,0:0:0:0:
448,192,18877,1,0,0:0:0:0:
320,192,18948,1,0,0:0:0:0:
192,192,19019,1,0,0:0:0:0:
64,192,19090,1,0,0:0:0:0:
64,192,21354,1,0,0:0:0:0:
448,192,23052,1,0,0:0:0:0:
320,192,23618,1,0,0:0:0:0:
192,192,23665,1,0,0:0:0:0:
64,192,23712,1,0,0:0:0:0:
192,192,24750,1,0,0:0:0:0:
64,192,25741,1,0,0:0:0:0:
192,192,25811,1,0,0:0:0:0:
320,192,25847,1,0,0:0:0:0:
448,192,25882,1,0,0:0:0:0:
64,192,26006,1,0,0:0:0:0:
64,192,28146,1,0,0:0:0:0:
192,192,28193,1,0,0:0:0:0:
320,192,28306,1,0,0:0:0:0:
320,192,32675,1,0,0:0:0:0:
448,192,32710,1,0,0:0:0:0:
64,192,32745,1,0,0:0:0:0:
192,192,32816,1,0,0:0:0:0:
448,192,32958,1,0,0:0:0:0:
320,192,34939,1,0,0:0:0:0:
448,192,36071,1,0,0:0:0:0:
448,192,36637,128,0,36708:0:0:0:0:
320,192,37203,128,4,37274:0:0:0:0:
448,192,37203,1,2,0:0:0:0:
192,192,37344,1,0,0:0:0:0:
64,192,37627,1,0,0:0:0:0:
192,192,37910,1,0,0:0:0:0:
320,192,38193,1,0,0:0:0:0:
448,192,38476,1,0,0:0:0:0:
192,192,38760,1,0,0:0:0:0:
320,192,38901,128,0,38972:0:0:0:0:
64,192,39043,1,0,0:0:0:0:
448,192,39326,1,0,0:0:0:0:
192,192,39467,128,0,39538:0:0:0:0:
320,192,39609,1,0,0:0:0:0:
64,192,39892,1,0,0:0:0:0:
192,192,40175,1,0,0:0:0:0:
320,192,40458,1,0,0:0:0:0:
448,192,40741,1,0,0:0:0:0:
192,192,41024,1,0,0:0:0:0:
64,192,41165,128,0,41236:0:0:0:0:
320,192,41307,1,0,0:0:0:0:
192,192,41448,1,0,0:0:0:0:
64,192,41590,1,0,0:0:0:0:
192,192,41731,128,0,41802:0:0:0:0:
320,192,41873,1,0,0:0:0:0:
192,192,42156,1,0,0:0:0:0:
320,192,42439,1,0,0:0:0:0:
448,192,42722,1,0,0:0:0:0:
320,192,43005,1,0,0:0:0:0:
192,192,43288,1,0,0:0:0:0:
320,192,43571,1,0,0:0:0:0:
192,192,43854,1,0,0:0:0:0:
64,192,44137,1,0,0:0:0:0:
64,192,44420,1,0,0:0:0:0:
448,192,44703,1,0,0:0:0:0:
448,192,44986,1,0,0:0:0:0:
320,192,45269,1,0,0:0:0:0:
320,192,45552,1,0,0:0:0:0:
448,192,45693,128,0,45764:0:0:0:0:
192,192,45835,1,0,0:0:0:0:
64,192,45976,1,0,0:0:0:0:
320,192,46260,128,0,46330:0:0:0:0:
192,192,46401,1,0,0:0:0:0:
64,192,46684,1,0,0:0:0:0:
192,192,46967,1,0,0:0:0:0:
320,192,47250,1,0,0:0:0:0:
448,192,47533,1,0,0:0:0:0:
192,192,47816,1,0,0:0:0:0:
320,192,47958,128,0,48028:0:0:0:0:
64,192,48099,1,0,0:0:0:0:
448,192,48382,1,0,0:0:0:0:
192,192,48524,128,0,48594:0:0:0:0:
320,192,48665,1,0,0:0:0:0:
64,192,48948,1,0,0:0:0:0:
192,192,49231,1,0,0:0:0:0:
320,192,49514,1,0,0:0:0:0:
448,192,49797,1,0,0:0:0:0:
192,192,50080,1,0,0:0:0:0:
64,192,50222,128,0,50293:0:0:0:0:
320,192,50363,1,0,0:0:0:0:
192,192,50505,1,0,0:0:0:0:
64,192,50646,1,0,0:0:0:0:
192,192,50788,128,0,50859:0:0:0:0:
320,192,50929,1,0,0:0:0:0:
192,192,51212,1,0,0:0:0:0:
320,192,51495,1,0,0:0:0:0:
448,192,51778,1,0,0:0:0:0:
320,192,52061,1,0,0:0:0:0:
192,192,52344,1,0,0:0:0:0:
320,192,52627,1,0,0:0:0:0:
192,192,52910,1,0,0:0:0:0:
448,192,53052,128,0,53123:0:0:0:0:
64,192,53193,1,0,0:0:0:0:
448,192,53335,1,0,0:0:0:70:tom01.wav
320,192,53406,1,0,0:0:0:70:tom02.wav
64,192,53476,1,0,0:0:0:70:tom01.wav
192,192,53547,1,0,0:0:0:70:tom02.wav
320,192,53618,1,0,0:0:0:70:tom01.wav
448,192,53618,1,0,0:0:0:0:
192,192,53760,1,0,0:0:0:70:tom02.wav
192,192,54043,1,0,0:0:0:70:tom03.wav
320,192,54113,1,0,0:0:0:70:tom04.wav
64,192,54184,128,0,54255:0:0:0:70:tom03.wav
192,192,54255,1,0,0:0:0:70:tom04.wav
320,192,54326,1,0,0:0:0:70:tom03.wav
448,192,54326,1,0,0:0:0:0:
192,192,54467,1,0,0:0:0:70:tom03.wav
448,192,54609,1,0,0:0:0:70:tom04.wav
64,192,54750,1,0,0:0:0:70:tom04.wav
192,192,54750,1,0,0:0:0:0:
320,192,54892,1,0,0:0:0:50:tom03.wav
64,192,54962,128,0,55033:0:0:0:0:
192,192,55033,1,0,0:0:0:50:tom01.wav
448,192,55139,128,0,55210:0:0:0:0:
64,192,55316,1,4,0:0:0:0:
320,192,55316,128,2,55387:0:0:0:0:
192,192,55458,1,0,0:0:0:0:
448,192,55599,1,0,0:0:0:0:
320,192,55741,1,0,0:0:0:0:
64,192,55882,1,2,0:0:0:0:
192,192,55882,1,0,0:0:0:0:
448,192,56024,1,0,0:0:0:0:
192,192,56165,1,0,0:0:0:0:
320,192,56307,1,0,0:0:0:0:
64,192,56448,1,2,0:0:0:0:
448,192,56448,1,0,0:0:0:0:
192,192,56590,1,0,0:0:0:0:
448,192,56731,1,0,0:0:0:0:
192,192,56873,1,0,0:0:0:0:
320,192,57014,128,2,57085:0:0:0:0:
448,192,57014,1,0,0:0:0:0:
64,192,57156,1,0,0:0:0:0:
320,192,57297,1,0,0:0:0:0:
448,192,57439,1,0,0:0:0:0:
64,192,57580,1,2,0:0:0:0:
192,192,57580,128,0,57651:0:0:0:0:
320,192,57722,1,0,0:0:0:0:
448,192,57863,1,0,0:0:0:0:
192,192,58005,1,0,0:0:0:0:
320,192,58146,1,2,0:0:0:0:
448,192,58146,1,0,0:0:0:0:
64,192,58288,1,0,0:0:0:0:
320,192,58429,1,0,0:0:0:0:
192,192,58571,1,0,0:0:0:0:
64,192,58712,1,2,0:0:0:0:
448,192,58712,1,0,0:0:0:0:
320,192,58854,1,0,0:0:0:0:
192,192,58995,1,0,0:0:0:0:
448,192,59137,1,0,0:0:0:0:
64,192,59278,128,2,59349:0:0:0:0:
320,192,59278,1,0,0:0:0:0:
192,192,59420,1,0,0:0:0:0:
448,192,59561,1,0,0:0:0:0:
64,192,59703,1,0,0:0:0:0:
192,192,59844,128,2,59915:0:0:0:0:
320,192,59844,1,0,0:0:0:0:
448,192,59986,1,0,0:0:0:0:
64,192,60127,1,0,0:0:0:0:
192,192,60269,1,0,0:0:0:0:
320,192,60410,1,2,0:0:0:0:
448,192,60410,1,0,0:0:0:0:
64,192,60552,1,0,0:0:0:0:
320,192,60693,1,0,0:0:0:0:
192,192,60835,1,0,0:0:0:0:
64,192,60976,1,2,0:0:0:0:
448,192,60976,128,0,61047:0:0:0:0:
320,192,61118,1,0,0:0:0:0:
64,192,61260,1,0,0:0:0:0:
320,192,61401,1,0,0:0:0:0:
192,192,61543,1,2,0:0:0:0:
448,192,61543,1,0,0:0:0:0:
64,192,61684,1,0,0:0:0:0:
448,192,61826,1,0,0:0:0:0:
192,192,61967,1,0,0:0:0:0:
320,192,62109,128,2,62179:0:0:0:0:
448,192,62109,1,0,0:0:0:0:
64,192,62250,1,0,0:0:0:0:
192,192,62392,1,0,0:0:0:0:
320,192,62533,1,0,0:0:0:0:
192,192,62675,1,2,0:0:0:0:
448,192,62675,1,0,0:0:0:0:
64,192,62816,1,0,0:0:0:0:
448,192,62958,1,0,0:0:0:0:
320,192,63099,1,0,0:0:0:0:
64,192,63241,1,2,0:0:0:0:
192,192,63241,128,0,63311:0:0:0:0:
448,192,63382,1,0,0:0:0:0:
192,192,63524,1,0,0:0:0:0:
320,192,63665,1,0,0:0:0:0:
64,192,63807,1,2,0:0:0:0:
448,192,63807,1,0,0:0:0:0:
192,192,63948,1,0,0:0:0:0:
320,192,64090,1,0,0:0:0:0:
192,192,64231,1,0,0:0:0:0:
64,192,64373,128,2,64443:0:0:0:0:
448,192,64373,1,4,0:0:0:0:
320,192,64443,1,0,0:0:0:0:
192,192,64514,1,0,0:0:0:0:
64,192,64585,1,0,0:0:0:0:
448,192,64656,1,0,0:0:0:0:
192,192,64797,1,0,0:0:0:0:
64,192,64939,1,2,0:0:0:0:
448,192,64939,1,0,0:0:0:0:
192,192,65010,1,0,0:0:0:0:
320,192,65080,1,0,0:0:0:0:
448,192,65151,1,0,0:0:0:0:
64,192,65222,1,0,0:0:0:0:
192,192,65363,1,0,0:0:0:0:
320,192,65505,1,2,0:0:0:0:
448,192,65505,1,0,0:0:0:0:
192,192,65576,1,0,0:0:0:0:
64,192,65646,1,0,0:0:0:0:
448,192,65717,1,0,0:0:0:0:
320,192,65788,1,0,0:0:0:0:
448,192,65929,1,0,0:0:0:0:
64,192,66071,1,2,0:0:0:0:
192,192,66071,1,0,0:0:0:0:
320,192,66142,1,0,0:0:0:0:
448,192,66212,1,0,0:0:0:0:
64,192,66283,1,0,0:0:0:0:
192,192,66354,1,0,0:0:0:0:
64,192,66495,1,0,0:0:0:0:
192,192,66637,1,2,0:0:0:0:
448,192,66637,1,0,0:0:0:0:
64,192,66708,1,0,0:0:0:0:
320,192,66778,1,0,0:0:0:0:
192,192,66849,1,0,0:0:0:0:
448,192,66920,1,0,0:0:0:0:
192,192,67061,1,0,0:0:0:0:
64,192,67203,1,2,0:0:0:0:
320,192,67203,1,0,0:0:0:0:
448,192,67274,1,0,0:0:0:0:
192,192,67344,1,0,0:0:0:0:
320,192,67415,1,0,0:0:0:0:
64,192,67486,1,0,0:0:0:0:
320,192,67627,1,0,0:0:0:0:
64,192,67769,1,2,0:0:0:0:
448,192,67769,128,0,67840:0:0:0:0:
192,192,67840,1,0,0:0:0:0:
320,192,67910,1,0,0:0:0:0:
448,192,67981,1,0,0:0:0:0:
64,192,68052,1,0,0:0:0:0:
192,192,68193,1,0,0:0:0:0:
64,192,68335,1,2,0:0:0:0:
448,192,68335,1,0,0:0:0:0:
320,192,68406,1,0,0:0:0:0:
192,192,68476,1,0,0:0:0:0:
64,192,68547,1,0,0:0:0:0:
448,192,68618,1,0,0:0:0:0:
320,192,68760,1,0,0:0:0:0:
64,192,68901,128,2,68972:0:0:0:0:
192,192,68901,1,0,0:0:0:0:
448,192,68972,1,0,0:0:0:0:
320,192,69043,1,0,0:0:0:0:
192,192,69184,1,0,0:0:0:0:
64,192,69326,1,0,0:0:0:0:
448,192,69467,1,0,0:0:0:0:
320,192,69538,1,0,0:0:0:0:
192,192,69609,1,0,0:0:0:0:
64,192,69750,1,0,0:0:0:0:
448,192,69892,1,0,0:0:0:0:
320,192,70033,1,0,0:0:0:0:
64,192,70104,1,0,0:0:0:0:
192,192,70175,1,0,0:0:0:0:
320,192,70316,1,0,0:0:0:0:
448,192,70458,1,0,0:0:0:0:
64,192,70599,1,0,0:0:0:0:
192,192,70670,1,0,0:0:0:0:
320,192,70741,1,0,0:0:0:0:
448,192,70882,1,0,0:0:0:0:
64,192,71024,1,0,0:0:0:0:
192,192,71165,128,0,71448:0:0:0:0:
320,192,71590,128,0,71873:0:0:0:0:
192,192,72014,128,0,72297:0:0:0:0:
320,192,72439,128,0,72722:0:0:0:0:
192,192,72722,1,2,0:0:0:0:
320,192,72793,1,2,0:0:0:0:
64,192,72863,1,8,0:0:0:0:
448,192,72863,1,0,0:0:0:0:
320,192,73005,1,0,0:0:0:70:tom01.wav
192,192,73146,1,0,0:0:0:70:tom03.wav
64,192,73288,1,0,0:0:0:70:tom04.wav
192,192,73429,128,2,73500:0:0:0:0:
448,192,73429,1,4,0:0:0:0:
320,192,73571,1,0,0:0:0:0:
64,192,73854,1,0,0:0:0:0:
192,192,73854,128,0,73925:0:0:0:0:
320,192,73995,1,2,0:0:0:0:
448,192,73995,1,0,0:0:0:0:
192,192,74137,1,0,0:0:0:0:
320,192,74420,1,0,0:0:0:0:
64,192,74561,1,2,0:0:0:0:
192,192,74561,1,0,0:0:0:0:
448,192,74703,1,0,0:0:0:0:
64,192,74986,1,0,0:0:0:0:
192,192,75127,1,2,0:0:0:0:
320,192,75127,1,0,0:0:0:0:
448,192,75269,1,0,0:0:0:0:
320,192,75552,1,0,0:0:0:0:
64,192,75693,1,2,0:0:0:0:
192,192,75693,128,0,75764:0:0:0:0:
320,192,75835,1,0,0:0:0:0:
64,192,76118,1,0,0:0:0:0:
192,192,76118,128,0,76189:0:0:0:0:
320,192,76260,1,2,0:0:0:0:
448,192,76260,1,0,0:0:0:0:
192,192,76401,1,0,0:0:0:0:
320,192,76684,1,0,0:0:0:0:
64,192,76826,1,2,0:0:0:0:
192,192,76826,1,0,0:0:0:0:
448,192,76967,1,0,0:0:0:0:
64,192,77250,1,0,0:0:0:0:
320,192,77392,1,2,0:0:0:0:
448,192,77392,1,0,0:0:0:0:
192,192,77533,1,0,0:0:0:0:
64,192,77675,1,0,0:0:0:0:
448,192,77816,1,0,0:0:0:0:
64,192,77958,1,2,0:0:0:0:
320,192,77958,128,0,78028:0:0:0:0:
192,192,78099,1,0,0:0:0:0:
320,192,78382,128,0,78453:0:0:0:0:
448,192,78382,1,0,0:0:0:0:
64,192,78524,1,2,0:0:0:0:
192,192,78524,1,0,0:0:0:0:
320,192,78665,1,0,0:0:0:0:
448,192,78948,1,0,0:0:0:0:
64,192,79090,1,2,0:0:0:0:
320,192,79090,1,0,0:0:0:0:
192,192,79231,1,0,0:0:0:0:
64,192,79514,1,0,0:0:0:0:
320,192,79656,1,2,0:0:0:0:
448,192,79656,1,0,0:0:0:0:
192,192,79797,1,0,0:0:0:0:
64,192,80080,1,0,0:0:0:0:
192,192,80222,1,2,0:0:0:0:
320,192,80222,128,0,80293:0:0:0:0:
448,192,80363,1,0,0:0:0:0:
320,192,80646,128,0,80717:0:0:0:0:
448,192,80646,1,0,0:0:0:0:
64,192,80788,1,2,0:0:0:0:
192,192,80788,1,0,0:0:0:0:
320,192,80929,1,0,0:0:0:0:
192,192,81071,128,0,81142:0:0:0:0:
320,192,81212,1,0,0:0:0:0:
192,192,81354,1,2,0:0:0:0:
448,192,81354,1,0,0:0:0:0:
64,192,81495,128,0,81566:0:0:0:0:
320,192,81495,1,0,0:0:0:0:
192,192,81778,1,0,0:0:0:0:
64,192,81920,128,8,81991:0:0:0:0:
448,192,81920,128,2,81991:0:0:0:0:
320,192,82061,1,0,0:0:0:0:
64,192,82203,1,0,0:0:0:0:
192,192,82486,128,2,82557:0:0:0:0:
448,192,82486,1,0,0:0:0:0:
320,192,82627,1,0,0:0:0:0:
64,192,82910,1,0,0:0:0:0:
192,192,82910,128,0,82981:0:0:0:0:
320,192,83052,1,2,0:0:0:0:
448,192,83052,1,0,0:0:0:0:
192,192,83193,1,0,0:0:0:0:
320,192,83476,1,0,0:0:0:0:
64,192,83618,1,2,0:0:0:0:
192,192,83618,1,0,0:0:0:0:
448,192,83760,1,0,0:0:0:0:
192,192,84043,1,0,0:0:0:0:
320,192,84184,1,2,0:0:0:0:
448,192,84184,1,0,0:0:0:0:
64,192,84326,1,0,0:0:0:0:
448,192,84609,1,0,0:0:0:0:
64,192,84750,1,2,0:0:0:0:
192,192,84750,128,0,84821:0:0:0:0:
320,192,84892,1,0,0:0:0:0:
64,192,85175,1,0,0:0:0:0:
192,192,85175,128,0,85245:0:0:0:0:
320,192,85316,1,2,0:0:0:0:
448,192,85316,1,0,0:0:0:0:
192,192,85458,1,0,0:0:0:0:
320,192,85741,1,0,0:0:0:0:
64,192,85882,1,2,0:0:0:0:
192,192,85882,1,0,0:0:0:0:
448,192,86024,1,0,0:0:0:0:
64,192,86307,1,0,0:0:0:0:
192,192,86448,1,2,0:0:0:0:
320,192,86448,1,0,0:0:0:0:
448,192,86590,1,0,0:0:0:0:
320,192,86731,1,0,0:0:0:0:
192,192,86873,1,0,0:0:0:0:
320,192,87014,128,2,87085:0:0:0:0:
448,192,87014,1,0,0:0:0:0:
64,192,87156,1,0,0:0:0:0:
320,192,87439,128,0,87510:0:0:0:0:
448,192,87439,1,0,0:0:0:0:
64,192,87580,1,2,0:0:0:0:
192,192,87580,1,0,0:0:0:0:
320,192,87722,1,0,0:0:0:0:
448,192,88005,1,0,0:0:0:0:
64,192,88146,1,2,0:0:0:0:
192,192,88146,1,0,0:0:0:0:
320,192,88288,1,0,0:0:0:0:
192,192,88571,1,0,0:0:0:0:
64,192,88712,1,2,0:0:0:0:
448,192,88712,1,0,0:0:0:0:
320,192,88854,1,0,0:0:0:0:
192,192,89137,1,0,0:0:0:0:
64,192,89278,1,2,0:0:0:0:
320,192,89278,128,0,89349:0:0:0:0:
448,192,89420,1,0,0:0:0:0:
192,192,89703,1,0,0:0:0:0:
320,192,89703,128,0,89774:0:0:0:0:
64,192,89986,1,0,0:0:0:0:
320,192,90127,128,0,90198:0:0:0:0:
448,192,90269,1,0,0:0:0:0:
64,192,90410,1,0,0:0:0:0:
192,192,90481,1,0,0:0:0:0:
320,192,90552,128,0,90623:0:0:0:0:
448,192,90693,1,0,0:0:0:0:
192,192,90764,1,0,0:0:0:0:
64,192,90835,1,0,0:0:0:0:
320,192,90976,128,0,91047:0:0:0:0:
448,192,90976,1,0,0:0:0:0:
64,192,91142,1,0,0:0:0:0:
192,192,91260,1,0,0:0:0:0:
320,192,91425,1,0,0:0:0:0:
64,192,91543,128,2,91613:0:0:0:0:
192,192,91543,128,4,91613:0:0:0:0:
448,192,91684,1,0,0:0:0:0:
64,192,91967,128,0,92038:0:0:0:0:
192,192,91967,128,0,92038:0:0:0:0:
320,192,92109,1,2,0:0:0:0:
448,192,92109,1,0,0:0:0:0:
192,192,92250,1,0,0:0:0:0:
320,192,92533,1,0,0:0:0:0:
64,192,92675,1,2,0:0:0:0:
192,192,92675,1,0,0:0:0:0:
448,192,92816,1,0,0:0:0:0:
64,192,93099,1,0,0:0:0:0:
192,192,93241,1,2,0:0:0:0:
320,192,93241,1,0,0:0:0:0:
448,192,93382,1,0,0:0:0:0:
320,192,93665,1,0,0:0:0:0:
64,192,93807,128,2,93877:0:0:0:0:
192,192,93807,128,0,93877:0:0:0:0:
448,192,93948,1,0,0:0:0:0:
64,192,94231,128,0,94302:0:0:0:0:
192,192,94231,128,0,94302:0:0:0:0:
320,192,94373,1,2,0:0:0:0:
448,192,94373,1,0,0:0:0:0:
192,192,94514,1,0,0:0:0:0:
320,192,94797,1,0,0:0:0:0:
64,192,94939,1,2,0:0:0:0:
192,192,94939,1,0,0:0:0:0:
448,192,95080,1,0,0:0:0:0:
64,192,95363,1,0,0:0:0:0:
192,192,95505,1,2,0:0:0:0:
320,192,95505,1,0,0:0:0:0:
448,192,95646,1,0,0:0:0:0:
320,192,95788,1,0,0:0:0:0:
64,192,95929,1,0,0:0:0:0:
192,192,96071,128,2,96142:0:0:0:0:
320,192,96071,128,0,96142:0:0:0:0:
448,192,96212,1,0,0:0:0:0:
192,192,96495,128,0,96566:0:0:0:0:
320,192,96495,128,0,96566:0:0:0:0:
64,192,96637,1,2,0:0:0:0:
448,192,96637,1,0,0:0:0:0:
192,192,96778,1,0,0:0:0:0:
448,192,97061,1,0,0:0:0:0:
64,192,97203,1,2,0:0:0:0:
192,192,97203,1,0,0:0:0:0:
320,192,97344,1,0,0:0:0:0:
192,192,97627,1,0,0:0:0:0:
64,192,97769,1,2,0:0:0:0:
448,192,97769,1,0,0:0:0:0:
320,192,97910,1,0,0:0:0:0:
64,192,98193,1,0,0:0:0:0:
192,192,98335,128,2,98406:0:0:0:0:
320,192,98335,128,0,98406:0:0:0:0:
448,192,98476,1,0,0:0:0:0:
192,192,98760,128,0,98830:0:0:0:0:
320,192,98760,128,0,98830:0:0:0:0:
64,192,98901,1,2,0:0:0:0:
448,192,98901,1,0,0:0:0:0:
192,192,99043,1,0,0:0:0:0:
320,192,99184,128,0,99255:0:0:0:0:
448,192,99184,128,0,99255:0:0:0:0:
64,192,99326,1,0,0:0:0:0:
64,192,99467,1,2,0:0:0:0:
192,192,99467,1,0,0:0:0:0:
320,192,99609,128,0,99679:0:0:0:0:
448,192,99609,128,0,99679:0:0:0:0:
192,192,99892,1,0,0:0:0:0:
320,192,100033,128,8,100104:0:0:0:0:
448,192,100033,128,2,100104:0:0:0:0:
192,192,100175,1,0,0:0:0:0:
64,192,100316,1,0,0:0:0:0:
64,192,100599,1,2,0:0:0:0:
192,192,100599,128,0,100670:0:0:0:0:
320,192,100670,1,0,0:0:0:0:
448,192,100741,1,0,0:0:0:0:
192,192,101024,128,0,101094:0:0:0:0:
64,192,101024,1,0,0:0:0:0:
320,192,101165,1,2,0:0:0:0:
448,192,101165,1,0,0:0:0:0:
64,192,101307,1,0,0:0:0:0:
192,192,101448,128,0,101519:0:0:0:0:
320,192,101590,1,0,0:0:0:0:
64,192,101731,1,2,0:0:0:0:
448,192,101731,1,0,0:0:0:0:
320,192,101802,1,0,0:0:0:0:
192,192,101873,128,0,101943:0:0:0:0:
320,192,102156,1,0,0:0:0:0:
448,192,102156,1,0,0:0:0:0:
64,192,102297,1,2,0:0:0:0:
192,192,102297,1,0,0:0:0:0:
320,192,102368,1,0,0:0:0:0:
448,192,102439,1,0,0:0:0:0:
320,192,102580,1,0,0:0:0:0:
192,192,102651,1,0,0:0:0:0:
64,192,102722,1,0,0:0:0:0:
320,192,102863,1,2,0:0:0:0:
448,192,102863,1,0,0:0:0:0:
192,192,102934,1,0,0:0:0:0:
64,192,103005,1,0,0:0:0:0:
192,192,103288,128,0,103359:0:0:0:0:
448,192,103288,1,0,0:0:0:0:
64,192,103429,1,2,0:0:0:0:
320,192,103429,1,0,0:0:0:0:
448,192,103571,1,0,0:0:0:0:
192,192,103712,128,0,103783:0:0:0:0:
320,192,103854,1,0,0:0:0:0:
64,192,103995,1,2,0:0:0:0:
448,192,103995,1,0,0:0:0:0:
320,192,104066,1,0,0:0:0:0:
192,192,104137,128,0,104208:0:0:0:0:
64,192,104420,1,0,0:0:0:0:
192,192,104420,1,0,0:0:0:0:
320,192,104561,1,2,0:0:0:0:
448,192,104561,1,0,0:0:0:0:
192,192,104703,1,0,0:0:0:0:
64,192,104844,1,0,0:0:0:0:
448,192,104986,1,0,0:0:0:0:
64,192,105127,1,2,0:0:0:0:
192,192,105127,1,0,0:0:0:0:
320,192,105198,1,0,0:0:0:0:
448,192,105269,1,0,0:0:0:0:
64,192,105340,1,0,0:0:0:0:
192,192,105410,1,0,0:0:0:0:
320,192,105552,1,0,0:0:0:0:
448,192,105552,1,0,0:0:0:0:
64,192,105693,1,2,0:0:0:0:
192,192,105693,1,0,0:0:0:0:
320,192,105764,1,0,0:0:0:0:
448,192,105835,1,0,0:0:0:0:
64,192,105906,1,0,0:0:0:0:
192,192,105976,1,0,0:0:0:0:
64,192,106118,1,0,0:0:0:0:
320,192,106260,1,2,0:0:0:0:
448,192,106260,1,0,0:0:0:0:
192,192,106330,1,0,0:0:0:0:
64,192,106401,1,0,0:0:0:0:
448,192,106472,1,0,0:0:0:0:
320,192,106543,1,0,0:0:0:0:
64,192,106684,1,0,0:0:0:0:
192,192,106684,1,0,0:0:0:0:
320,192,106826,1,2,0:0:0:0:
448,192,106826,1,0,0:0:0:0:
192,192,106896,1,0,0:0:0:0:
64,192,106967,1,0,0:0:0:0:
448,192,107038,1,0,0:0:0:0:
320,192,107109,1,0,0:0:0:0:
448,192,107250,1,0,0:0:0:0:
320,192,107392,1,2,0:0:0:0:
192,192,107533,1,0,0:0:0:0:
64,192,107816,1,0,0:0:0:0:
192,192,108099,1,0,0:0:0:0:
448,192,108382,1,0,0:0:0:0:
320,192,108665,1,0,0:0:0:0:
192,192,108807,1,0,0:0:0:0:
64,192,108948,1,0,0:0:0:0:
448,192,109090,128,0,109656:0:0:0:0:
64,192,109656,1,2,0:0:0:0:
320,192,109656,1,4,0:0:0:0:
320,192,109939,1,0,0:0:0:0:
320,192,110222,1,0,0:0:0:0:
320,192,110505,1,0,0:0:0:0:
320,192,110788,1,0,0:0:0:0:
320,192,111071,1,0,0:0:0:0:
320,192,111354,1,0,0:0:0:0:
320,192,111637,1,0,0:0:0:0:
192,192,111920,1,0,0:0:0:0:
192,192,112203,1,0,0:0:0:0:
192,192,112486,1,0,0:0:0:0:
192,192,112769,1,0,0:0:0:0:
192,192,113052,1,0,0:0:0:0:
192,192,113335,1,0,0:0:0:0:
192,192,113618,1,0,0:0:0:0:
192,192,113901,1,0,0:0:0:0:
64,192,114184,1,0,0:0:0:0:
64,192,114467,1,0,0:0:0:0:
64,192,114750,1,0,0:0:0:0:
64,192,115033,1,0,0:0:0:0:
64,192,115316,1,0,0:0:0:0:
64,192,115599,1,0,0:0:0:0:
64,192,115882,1,0,0:0:0:0:
64,192,116165,1,0,0:0:0:0:
448,192,116448,1,0,0:0:0:0:
448,192,116731,1,0,0:0:0:0:
448,192,117014,1,0,0:0:0:0:
448,192,117297,1,0,0:0:0:0:
448,192,117580,1,0,0:0:0:0:
448,192,117863,1,0,0:0:0:0:
448,192,118146,1,0,0:0:0:0:
192,192,118217,1,0,0:0:0:0:
64,192,118288,1,0,0:0:0:0:
448,192,118429,1,0,0:0:0:0:
320,192,118500,1,0,0:0:0:0:
192,192,118571,1,0,0:0:0:0:
64,192,118712,1,2,0:0:0:0:
320,192,118712,1,0,0:0:0:0:
320,192,118995,1,0,0:0:0:0:
64,192,119278,1,2,0:0:0:0:
320,192,119278,1,0,0:0:0:0:
320,192,119561,1,0,0:0:0:0:
64,192,119844,1,2,0:0:0:0:
320,192,119844,1,0,0:0:0:0:
320,192,120127,1,0,0:0:0:0:
64,192,120410,1,2,0:0:0:0:
320,192,120410,1,0,0:0:0:0:
320,192,120693,1,0,0:0:0:0:
192,192,120976,1,2,0:0:0:0:
448,192,120976,1,0,0:0:0:0:
192,192,121260,1,0,0:0:0:0:
192,192,121543,1,2,0:0:0:0:
448,192,121543,1,0,0:0:0:0:
192,192,121826,1,0,0:0:0:0:
64,192,122109,1,2,0:0:0:0:
448,192,122109,1,0,0:0:0:0:
448,192,122392,1,0,0:0:0:0:
64,192,122675,1,2,0:0:0:0:
448,192,122675,1,0,0:0:0:0:
448,192,122958,1,0,0:0:0:0:
192,192,123241,1,2,0:0:0:0:
448,192,123241,1,0,0:0:0:0:
448,192,123524,1,0,0:0:0:0:
192,192,123807,1,2,0:0:0:0:
448,192,123807,1,0,0:0:0:0:
448,192,124090,1,0,0:0:0:0:
64,192,124373,1,2,0:0:0:0:
320,192,124373,1,0,0:0:0:0:
64,192,124656,1,0,0:0:0:0:
64,192,124939,1,2,0:0:0:0:
320,192,124939,1,0,0:0:0:0:
64,192,125222,1,0,0:0:0:0:
192,192,125505,1,2,0:0:0:0:
320,192,125505,1,0,0:0:0:0:
320,192,125788,1,0,0:0:0:70:tom01.wav
192,192,125859,1,0,0:0:0:70:tom02.wav
64,192,125929,1,0,0:0:0:70:tom01.wav
448,192,126000,1,0,0:0:0:70:tom02.wav
192,192,126071,1,0,0:0:0:70:tom03.wav
320,192,126071,1,2,0:0:0:0:
64,192,126212,1,0,0:0:0:70:tom03.wav
320,192,126354,1,0,0:0:0:0:
64,192,126495,1,0,0:0:0:70:tom04.wav
192,192,126566,1,0,0:0:0:70:tom03.wav
448,192,126637,1,0,0:0:0:70:tom02.wav
320,192,126708,1,0,0:0:0:70:tom01.wav
192,192,126778,1,0,0:0:0:70:tom02.wav
448,192,126920,1,0,0:0:0:70:tom03.wav
64,192,127061,1,0,0:0:0:70:tom03.wav
192,192,127203,1,0,0:0:0:70:tom04.wav
320,192,127203,1,2,0:0:0:0:
64,192,127415,128,0,127592:0:0:0:0:
448,192,127592,128,0,127769:0:0:0:0:
64,192,127769,1,4,0:0:0:0:
320,192,127769,128,2,127910:0:0:0:0:
192,192,128193,1,0,0:0:0:0:
320,192,128335,1,2,0:0:0:0:
448,192,128335,1,0,0:0:0:0:
64,192,128618,1,0,0:0:0:0:
192,192,128901,1,2,0:0:0:0:
448,192,128901,1,0,0:0:0:0:
448,192,129326,1,0,0:0:0:0:
64,192,129467,1,2,0:0:0:0:
192,192,129467,1,0,0:0:0:0:
320,192,129538,128,0,129679:0:0:0:0:
448,192,129750,1,0,0:0:0:0:
192,192,130033,128,2,130175:0:0:0:0:
448,192,130033,1,0,0:0:0:0:
320,192,130458,1,0,0:0:0:0:
64,192,130599,1,2,0:0:0:0:
192,192,130599,1,0,0:0:0:0:
448,192,130882,1,0,0:0:0:0:
64,192,131165,1,2,0:0:0:0:
320,192,131165,1,0,0:0:0:0:
192,192,131590,1,0,0:0:0:0:
320,192,131731,1,2,0:0:0:0:
448,192,131731,1,0,0:0:0:0:
64,192,131802,128,0,131943:0:0:0:0:
320,192,132014,1,0,0:0:0:0:
192,192,132297,128,2,132439:0:0:0:0:
448,192,132297,1,0,0:0:0:0:
320,192,132722,1,0,0:0:0:0:
64,192,132863,1,2,0:0:0:0:
192,192,132863,1,0,0:0:0:0:
448,192,133146,1,0,0:0:0:0:
64,192,133429,1,2,0:0:0:0:
320,192,133429,128,0,133571:0:0:0:0:
320,192,133854,1,0,0:0:0:0:
64,192,133995,1,2,0:0:0:0:
192,192,133995,128,0,134137:0:0:0:0:
448,192,134278,1,0,0:0:0:0:
64,192,134561,128,2,134703:0:0:0:0:
448,192,134561,1,0,0:0:0:0:
320,192,134951,128,0,135127:0:0:0:0:
64,192,135127,1,2,0:0:0:0:
192,192,135127,1,0,0:0:0:0:
192,192,135340,128,0,135481:0:0:0:0:
64,192,135693,1,2,0:0:0:0:
448,192,135693,128,0,135835:0:0:0:0:
320,192,136047,128,0,136118:0:0:0:0:
64,192,136118,1,0,0:0:0:0:
320,192,136260,1,2,0:0:0:0:
448,192,136260,1,0,0:0:0:0:
192,192,136436,128,0,136507:0:0:0:0:
448,192,136543,1,0,0:0:0:0:
64,192,136826,1,2,0:0:0:0:
192,192,136826,1,0,0:0:0:0:
320,192,136896,1,0,0:0:0:0:
448,192,136967,1,0,0:0:0:0:
192,192,137109,1,0,0:0:0:0:
320,192,137250,1,0,0:0:0:0:
64,192,137392,1,2,0:0:0:0:
448,192,137392,1,0,0:0:0:0:
192,192,137675,1,0,0:0:0:0:
320,192,137958,1,2,0:0:0:0:
448,192,137958,1,0,0:0:0:0:
192,192,138028,1,0,0:0:0:0:
64,192,138099,1,0,0:0:0:0:
320,192,138241,1,0,0:0:0:0:
192,192,138382,1,0,0:0:0:0:
64,192,138524,1,2,0:0:0:0:
448,192,138524,1,0,0:0:0:0:
320,192,138807,1,0,0:0:0:0:
64,192,139090,1,2,0:0:0:0:
192,192,139090,1,0,0:0:0:0:
448,192,139160,1,0,0:0:0:0:
320,192,139231,1,0,0:0:0:0:
64,192,139373,1,0,0:0:0:0:
192,192,139514,1,0,0:0:0:0:
320,192,139656,1,2,0:0:0:0:
448,192,139656,1,0,0:0:0:0:
64,192,139939,1,0,0:0:0:0:
320,192,140222,1,2,0:0:0:0:
448,192,140222,1,0,0:0:0:0:
64,192,140293,1,0,0:0:0:0:
192,192,140363,1,0,0:0:0:0:
448,192,140505,1,0,0:0:0:0:
320,192,140646,1,0,0:0:0:0:
64,192,140788,1,2,0:0:0:0:
192,192,140788,1,0,0:0:0:0:
448,192,141071,1,0,0:0:0:0:
64,192,141354,1,2,0:0:0:0:
192,192,141354,1,0,0:0:0:0:
320,192,141425,1,0,0:0:0:0:
448,192,141495,1,0,0:0:0:0:
192,192,141637,1,0,0:0:0:0:
64,192,141778,1,0,0:0:0:0:
320,192,141920,1,2,0:0:0:0:
448,192,141920,1,0,0:0:0:0:
192,192,142203,1,0,0:0:0:0:
320,192,142486,1,2,0:0:0:0:
448,192,142486,1,0,0:0:0:0:
192,192,142557,1,0,0:0:0:0:
64,192,142627,1,0,0:0:0:0:
320,192,142769,1,0,0:0:0:0:
448,192,142910,1,0,0:0:0:0:
64,192,143052,1,2,0:0:0:0:
192,192,143052,1,0,0:0:0:0:
320,192,143335,1,0,0:0:0:0:
64,192,143618,1,2,0:0:0:0:
192,192,143618,1,0,0:0:0:0:
448,192,143689,1,0,0:0:0:0:
320,192,143760,1,0,0:0:0:0:
192,192,143901,1,0,0:0:0:0:
64,192,144043,1,0,0:0:0:0:
320,192,144184,1,2,0:0:0:0:
448,192,144184,1,0,0:0:0:0:
64,192,144467,1,0,0:0:0:0:
320,192,144750,1,2,0:0:0:0:
448,192,144750,1,0,0:0:0:0:
64,192,144821,1,0,0:0:0:0:
192,192,144892,1,0,0:0:0:0:
320,192,145033,1,0,0:0:0:0:
448,192,145175,1,0,0:0:0:0:
64,192,145316,1,2,0:0:0:0:
192,192,145316,1,0,0:0:0:0:
448,192,145599,1,0,0:0:0:0:
64,192,145882,1,2,0:0:0:0:
192,192,145882,1,0,0:0:0:0:
320,192,145953,1,2,0:0:0:0:
192,192,146024,1,2,0:0:0:0:
320,192,146094,1,2,0:0:0:0:
64,192,146165,1,2,0:0:0:0:
448,192,146165,1,0,0:0:0:0:
192,192,146307,1,0,0:0:0:0:
320,192,146448,1,2,0:0:0:0:
448,192,146448,1,0,0:0:0:0:
192,192,146519,1,2,0:0:0:0:
320,192,146590,1,2,0:0:0:0:
192,192,146660,1,2,0:0:0:0:
64,192,146731,1,2,0:0:0:0:
448,192,146731,1,0,0:0:0:0:
320,192,146873,1,0,0:0:0:0:
64,192,147014,1,2,0:0:0:0:
192,192,147014,1,0,0:0:0:0:
320,192,147085,1,2,0:0:0:0:
192,192,147156,1,2,0:0:0:0:
320,192,147226,1,2,0:0:0:0:
64,192,147297,1,2,0:0:0:0:
448,192,147297,1,0,0:0:0:0:
192,192,147439,1,0,0:0:0:0:
320,192,147580,1,2,0:0:0:0:
448,192,147580,1,0,0:0:0:0:
192,192,147651,1,2,0:0:0:0:
320,192,147722,1,2,0:0:0:0:
192,192,147793,1,2,0:0:0:0:
64,192,147863,1,2,0:0:0:0:
448,192,147863,1,0,0:0:0:0:
320,192,148005,1,0,0:0:0:0:
64,192,148146,1,2,0:0:0:0:
192,192,148146,1,0,0:0:0:0:
320,192,148217,1,2,0:0:0:0:
192,192,148288,1,2,0:0:0:0:
320,192,148359,1,2,0:0:0:0:
64,192,148429,1,2,0:0:0:0:
448,192,148429,1,0,0:0:0:0:
192,192,148571,1,0,0:0:0:0:
320,192,148712,1,2,0:0:0:0:
448,192,148712,1,0,0:0:0:0:
192,192,148783,1,2,0:0:0:0:
320,192,148854,1,2,0:0:0:0:
192,192,148925,1,2,0:0:0:0:
64,192,148995,1,2,0:0:0:0:
448,192,148995,1,0,0:0:0:0:
320,192,149137,1,0,0:0:0:0:
64,192,149278,1,2,0:0:0:0:
192,192,149278,1,0,0:0:0:0:
320,192,149349,1,2,0:0:0:0:
192,192,149420,1,2,0:0:0:0:
320,192,149491,1,2,0:0:0:0:
64,192,149561,1,2,0:0:0:0:
448,192,149561,1,0,0:0:0:0:
192,192,149703,1,0,0:0:0:0:
320,192,149844,1,2,0:0:0:0:
448,192,149844,1,0,0:0:0:0:
192,192,149915,1,2,0:0:0:0:
320,192,149986,1,2,0:0:0:0:
192,192,150057,1,2,0:0:0:0:
64,192,150127,1,2,0:0:0:0:
448,192,150127,1,0,0:0:0:0:
320,192,150269,1,0,0:0:0:0:
64,192,150410,1,0,0:0:0:0:
192,192,150481,1,0,0:0:0:0:
320,192,150552,1,0,0:0:0:0:
448,192,150552,1,0,0:0:0:0:
192,192,150693,1,0,0:0:0:0:
320,192,150764,1,0,0:0:0:0:
64,192,150835,1,0,0:0:0:0:
448,192,150976,1,0,0:0:0:0:
320,192,151047,1,0,0:0:0:0:
64,192,151118,1,0,0:0:0:0:
192,192,151118,1,0,0:0:0:0:
320,192,151260,1,0,0:0:0:0:
192,192,151330,1,0,0:0:0:0:
448,192,151401,1,0,0:0:0:0:
64,192,151543,1,0,0:0:0:0:
192,192,151613,1,0,0:0:0:0:
320,192,151684,1,0,0:0:0:0:
448,192,151684,1,0,0:0:0:0:
64,192,151826,1,0,0:0:0:0:
320,192,151896,1,0,0:0:0:0:
192,192,151967,1,0,0:0:0:0:
448,192,152109,1,0,0:0:0:0:
320,192,152179,1,0,0:0:0:0:
64,192,152250,1,0,0:0:0:0:
192,192,152250,1,0,0:0:0:0:
448,192,152392,1,0,0:0:0:0:
192,192,152462,1,0,0:0:0:0:
320,192,152533,1,0,0:0:0:0:
64,192,152675,128,0,152958:0:0:0:0:
448,192,152675,1,0,0:0:0:0:
448,192,153099,128,0,153382:0:0:0:0:
192,192,153524,128,0,153807:0:0:0:0:
320,192,153948,128,0,154231:0:0:0:0:
64,192,154231,1,0,0:0:0:0:
192,192,154302,1,0,0:0:0:0:
320,192,154373,1,8,0:0:0:0:
448,192,154373,128,0,154939:0:0:0:0:
64,192,154656,1,8,0:0:0:0:
192,192,154656,1,0,0:0:0:0:
64,192,154939,1,4,0:0:0:0:
320,192,154939,128,2,156354:0:0:0:0:
192,192,155080,1,0,0:0:0:0:
448,192,155363,1,0,0:0:0:0:
64,192,155505,1,2,0:0:0:0:
192,192,155505,1,0,0:0:0:0:
448,192,155646,1,0,0:0:0:0:
64,192,155929,1,0,0:0:0:0:
192,192,156071,1,2,0:0:0:0:
448,192,156071,1,0,0:0:0:0:
64,192,156212,1,0,0:0:0:0:
192,192,156495,1,0,0:0:0:0:
320,192,156637,128,2,157203:0:0:0:0:
448,192,156637,1,0,0:0:0:0:
192,192,156778,1,0,0:0:0:0:
64,192,157061,1,0,0:0:0:0:
192,192,157203,128,2,158618:0:0:0:0:
448,192,157203,1,0,0:0:0:0:
320,192,157344,1,0,0:0:0:0:
64,192,157627,1,0,0:0:0:0:
320,192,157769,1,2,0:0:0:0:
448,192,157769,1,0,0:0:0:0:
64,192,157910,1,0,0:0:0:0:
320,192,158193,1,0,0:0:0:0:
64,192,158335,1,2,0:0:0:0:
448,192,158335,1,0,0:0:0:0:
320,192,158476,1,0,0:0:0:0:
448,192,158760,1,0,0:0:0:0:
64,192,158901,128,2,159467:0:0:0:0:
320,192,158901,1,0,0:0:0:0:
192,192,159043,1,0,0:0:0:0:
448,192,159184,1,0,0:0:0:0:
320,192,159326,1,0,0:0:0:0:
192,192,159467,128,2,161731:0:0:0:0:
448,192,159467,1,0,0:0:0:0:
64,192,159609,1,0,0:0:0:0:
320,192,159892,1,0,0:0:0:0:
64,192,160033,1,2,0:0:0:0:
448,192,160033,1,0,0:0:0:0:
320,192,160175,1,0,0:0:0:0:
448,192,160458,1,0,0:0:0:0:
64,192,160599,1,2,0:0:0:0:
320,192,160599,1,0,0:0:0:0:
448,192,160741,1,0,0:0:0:0:
64,192,161024,1,0,0:0:0:0:
320,192,161165,1,2,0:0:0:0:
448,192,161165,1,0,0:0:0:0:
64,192,161307,1,0,0:0:0:0:
448,192,161590,1,0,0:0:0:0:
64,192,161731,1,2,0:0:0:0:
320,192,161731,1,0,0:0:0:0:
192,192,161873,1,0,0:0:0:0:
192,192,162156,1,0,0:0:0:0:
64,192,162297,1,2,0:0:0:0:
320,192,162297,1,0,0:0:0:0:
448,192,162439,1,0,0:0:0:0:
448,192,162722,1,0,0:0:0:0:
64,192,162863,1,2,0:0:0:0:
192,192,162863,1,0,0:0:0:0:
320,192,163005,1,0,0:0:0:0:
320,192,163288,1,0,0:0:0:0:
64,192,163429,1,8,0:0:0:0:
448,192,163429,128,2,163995:0:0:0:0:
192,192,163571,1,0,0:0:0:0:
64,192,163712,1,0,0:0:0:0:
192,192,163995,1,2,0:0:0:0:
320,192,163995,128,0,165410:0:0:0:0:
64,192,164137,1,0,0:0:0:0:
192,192,164420,1,0,0:0:0:0:
64,192,164561,1,2,0:0:0:0:
448,192,164561,1,0,0:0:0:0:
192,192,164703,1,0,0:0:0:0:
448,192,164986,1,0,0:0:0:0:
64,192,165127,1,2,0:0:0:0:
192,192,165127,1,0,0:0:0:0:
448,192,165269,1,0,0:0:0:0:
64,192,165552,1,0,0:0:0:0:
320,192,165693,128,2,166260:0:0:0:0:
448,192,165693,1,0,0:0:0:0:
192,192,165835,1,0,0:0:0:0:
64,192,166118,1,0,0:0:0:0:
192,192,166260,128,2,167675:0:0:0:0:
448,192,166260,1,0,0:0:0:0:
64,192,166401,1,0,0:0:0:0:
448,192,166684,1,0,0:0:0:0:
64,192,166826,1,2,0:0:0:0:
320,192,166826,1,0,0:0:0:0:
448,192,166967,1,0,0:0:0:0:
320,192,167250,1,0,0:0:0:0:
64,192,167392,1,2,0:0:0:0:
448,192,167392,1,0,0:0:0:0:
320,192,167533,1,0,0:0:0:0:
448,192,167816,1,0,0:0:0:0:
64,192,167958,128,2,168524:0:0:0:0:
320,192,167958,1,0,0:0:0:0:
192,192,168099,1,0,0:0:0:0:
448,192,168241,1,0,0:0:0:0:
320,192,168382,1,0,0:0:0:0:
192,192,168524,128,2,170788:0:0:0:0:
448,192,168524,1,0,0:0:0:0:
320,192,168665,1,0,0:0:0:0:
64,192,168948,1,0,0:0:0:0:
320,192,169090,1,2,0:0:0:0:
448,192,169090,1,0,0:0:0:0:
64,192,169231,1,0,0:0:0:0:
448,192,169514,1,0,0:0:0:0:
64,192,169656,1,2,0:0:0:0:
320,192,169656,1,0,0:0:0:0:
448,192,169797,1,0,0:0:0:0:
320,192,170080,1,0,0:0:0:0:
64,192,170222,1,2,0:0:0:0:
448,192,170222,1,0,0:0:0:0:
320,192,170363,1,0,0:0:0:0:
64,192,170646,1,0,0:0:0:0:
320,192,170788,128,2,171495:0:0:0:0:
448,192,170788,1,0,0:0:0:0:
64,192,170929,1,0,0:0:0:0:
192,192,171212,1,0,0:0:0:0:
64,192,171495,128,0,171637:0:0:0:0:
192,192,171637,128,0,171778:0:0:0:0:
320,192,171778,128,0,171920:0:0:0:0:
448,192,171920,128,0,172486:0:0:0:0:
64,192,172061,1,0,0:0:0:0:
320,192,172203,1,0,0:0:0:0:
64,192,172486,1,8,0:0:0:0:
192,192,172486,128,0,172627:0:0:0:0:
448,192,172627,1,0,0:0:0:0:
64,192,172769,128,8,172910:0:0:0:0:
192,192,172769,1,0,0:0:0:0:
320,192,172910,1,0,0:0:0:0:
192,192,173052,1,2,0:0:0:0:
448,192,173052,1,4,0:0:0:0:
64,192,173193,1,0,0:0:0:0:
64,192,173476,1,0,0:0:0:0:
320,192,173618,1,2,0:0:0:0:
448,192,173618,1,0,0:0:0:0:
192,192,173760,1,0,0:0:0:0:
320,192,174043,1,0,0:0:0:0:
64,192,174184,1,2,0:0:0:0:
192,192,174184,1,0,0:0:0:0:
448,192,174326,1,0,0:0:0:0:
64,192,174609,1,0,0:0:0:0:
192,192,174750,1,2,0:0:0:0:
320,192,174750,1,0,0:0:0:0:
448,192,174892,1,0,0:0:0:0:
320,192,175175,1,0,0:0:0:0:
64,192,175316,1,2,0:0:0:0:
448,192,175316,1,0,0:0:0:0:
192,192,175458,1,0,0:0:0:0:
64,192,175741,1,0,0:0:0:0:
320,192,175882,1,2,0:0:0:0:
448,192,175882,1,0,0:0:0:0:
192,192,176024,1,0,0:0:0:0:
320,192,176307,1,0,0:0:0:0:
64,192,176448,1,2,0:0:0:0:
192,192,176448,1,0,0:0:0:0:
448,192,176590,1,0,0:0:0:0:
64,192,176873,1,0,0:0:0:0:
192,192,177014,1,2,0:0:0:0:
320,192,177014,1,0,0:0:0:0:
448,192,177156,1,0,0:0:0:0:
320,192,177297,1,0,0:0:0:0:
192,192,177439,1,0,0:0:0:0:
64,192,177580,1,2,0:0:0:0:
448,192,177580,1,0,0:0:0:0:
192,192,177722,1,0,0:0:0:0:
64,192,178005,1,0,0:0:0:0:
320,192,178146,1,2,0:0:0:0:
448,192,178146,1,0,0:0:0:0:
192,192,178288,1,0,0:0:0:0:
448,192,178571,1,0,0:0:0:0:
64,192,178712,1,2,0:0:0:0:
192,192,178712,1,0,0:0:0:0:
320,192,178854,1,0,0:0:0:0:
192,192,179137,1,0,0:0:0:0:
64,192,179278,1,2,0:0:0:0:
448,192,179278,1,0,0:0:0:0:
320,192,179420,1,0,0:0:0:0:
192,192,179703,1,0,0:0:0:0:
320,192,179844,1,2,0:0:0:0:
448,192,179844,1,0,0:0:0:0:
64,192,179986,1,0,0:0:0:0:
64,192,180269,1,0,0:0:0:0:
192,192,180410,1,2,0:0:0:0:
320,192,180410,1,0,0:0:0:0:
448,192,180552,1,0,0:0:0:0:
448,192,180835,1,0,0:0:0:0:
64,192,180976,1,2,0:0:0:0:
192,192,180976,1,0,0:0:0:0:
320,192,181118,1,0,0:0:0:0:
320,192,181401,1,2,0:0:0:0:
448,192,181401,1,0,0:0:0:0:
64,192,181543,1,2,0:0:0:0:
192,192,181543,1,0,0:0:0:0:
448,192,181684,1,2,0:0:0:0:
64,192,181826,1,2,0:0:0:0:
320,192,182109,1,0,0:0:0:70:tom01.wav
448,192,182109,1,0,0:0:0:0:
192,192,182297,1,0,0:0:0:70:tom02.wav
448,192,182297,1,0,0:0:0:0:
192,192,182486,1,0,0:0:0:70:tom03.wav
320,192,182486,1,0,0:0:0:0:
64,192,182675,1,0,0:0:0:70:tom04.wav
320,192,182675,1,0,0:0:0:0:
192,192,182863,1,0,0:0:0:70:tom03.wav
448,192,182863,1,0,0:0:0:0:
64,192,183052,1,0,0:0:0:70:tom02.wav
192,192,183052,1,0,0:0:0:0:
320,192,183241,1,0,0:0:0:70:tom01.wav
448,192,183241,1,0,0:0:0:0:
64,192,183524,1,0,0:0:0:70:tom02.wav
192,192,183524,1,0,0:0:0:0:
64,192,183807,1,2,0:0:0:0:
448,192,183807,1,4,0:0:0:0:
192,192,184090,1,0,0:0:0:0:
64,192,184231,1,0,0:0:0:0:
320,192,184373,1,2,0:0:0:0:
448,192,184373,1,0,0:0:0:0:
192,192,184514,1,0,0:0:0:0:
448,192,184797,1,0,0:0:0:0:
192,192,184939,1,2,0:0:0:0:
320,192,184939,1,0,0:0:0:0:
64,192,185080,1,0,0:0:0:0:
192,192,185363,1,0,0:0:0:0:
64,192,185505,1,2,0:0:0:0:
448,192,185505,1,0,0:0:0:0:
320,192,185646,1,0,0:0:0:0:
448,192,185929,1,0,0:0:0:0:
64,192,186071,1,2,0:0:0:0:
192,192,186071,1,0,0:0:0:0:
320,192,186212,1,0,0:0:0:0:
192,192,186354,1,0,0:0:0:0:
64,192,186495,1,0,0:0:0:0:
320,192,186637,1,2,0:0:0:0:
448,192,186637,1,0,0:0:0:0:
192,192,186708,1,2,0:0:0:0:
64,192,186778,1,2,0:0:0:0:
320,192,186920,1,2,0:0:0:0:
448,192,187061,1,0,0:0:0:0:
64,192,187203,1,2,0:0:0:0:
192,192,187203,1,0,0:0:0:0:
320,192,187274,1,2,0:0:0:0:
448,192,187344,1,2,0:0:0:0:
192,192,187486,1,2,0:0:0:0:
64,192,187627,1,0,0:0:0:0:
320,192,187769,1,2,0:0:0:0:
448,192,187769,1,0,0:0:0:0:
192,192,187840,1,2,0:0:0:0:
64,192,187910,1,2,0:0:0:0:
320,192,188052,1,2,0:0:0:0:
448,192,188193,1,0,0:0:0:0:
64,192,188335,1,2,0:0:0:0:
192,192,188335,1,0,0:0:0:0:
320,192,188406,1,2,0:0:0:0:
448,192,188476,1,2,0:0:0:0:
192,192,188618,1,2,0:0:0:0:
64,192,188760,1,0,0:0:0:0:
448,192,188901,1,2,0:0:0:0:
192,192,189043,1,0,0:0:0:0:
64,192,189326,1,0,0:0:0:0:
192,192,189609,1,0,0:0:0:0:
448,192,189892,1,0,0:0:0:0:
320,192,190175,1,0,0:0:0:0:
192,192,190316,1,0,0:0:0:0:
64,192,190458,1,0,0:0:0:0:
320,192,190599,1,8,0:0:0:0:
448,192,190599,1,0,0:0:0:0:
320,192,190882,1,8,0:0:0:0:
448,192,190882,1,0,0:0:0:0:
64,192,191165,1,0,0:0:0:0:
192,192,191201,1,0,0:0:0:0:
320,192,191236,1,0,0:0:0:0:
448,192,193429,1,0,0:0:0:0:
192,192,193465,1,0,0:0:0:0:
320,192,195693,1,0,0:0:0:0:
448,192,195741,1,0,0:0:0:0:
64,192,195788,1,0,0:0:0:0:
320,192,196826,1,0,0:0:0:0:
64,192,197981,1,0,0:0:0:0:
192,192,198028,1,0,0:0:0:0:
320,192,198076,1,0,0:0:0:0:
448,192,198123,1,0,0:0:0:0:
64,192,200239,1,0,0:0:0:0:
448,192,200310,1,0,0:0:0:0:
320,192,200346,1,0,0:0:0:0:
64,192,204785,1,0,0:0:0:0:
320,192,204856,1,0,0:0:0:0:
192,192,204892,1,0,0:0:0:0:
448,192,205033,1,0,0:0:0:0:
320,192,207014,1,0,0:0:0:0:
448,192,207050,1,0,0:0:0:0:
64,192,208199,1,0,0:0:0:0:
448,192,208306,1,0,0:0:0:0:
64,192,209774,1,0,0:0:0:0:
192,192,209844,1,0,0:0:0:0:
320,192,209915,1,0,0:0:0:0:
448,192,209986,1,0,0:0:0:0:
64,192,210092,1,0,0:0:0:0:
192,192,210198,1,0,0:0:0:0:
320,192,210375,1,0,0:0:0:0:
448,192,210658,1,0,0:0:0:0:
64,192,210941,1,0,0:0:0:0:
192,192,211189,1,0,0:0:0:0:
448,192,211507,1,0,0:0:0:0:
320,192,211826,1,0,0:0:0:0:
448,192,212533,1,0,0:0:0:0:
64,192,212816,1,0,0:0:0:0:
192,192,215646,128,0,218901:0:0:0:0:
448,192,217840,128,0,218901:0:0:0:0:
