osu file format v14

[General]
AudioFilename: audio.ogg
AudioLeadIn: 0
PreviewTime: 4581
Countdown: 0
SampleSet: Soft
StackLeniency: 1
Mode: 3
LetterboxInBreaks: 0
EpilepsyWarning: 1
SpecialStyle: 0
WidescreenStoryboard: 1

[Editor]
Bookmarks: 4501,19046,33592,48137,60994,61035,61124,61254,61384,61579,61644,61774,62683,77228,91774,106319,120864,121887,131774,135410,148251,149955,164501,179046,194428,209400,209556,209712,209867,210023,210257,210335,210491,210569,210647,210725,211582,229036,246491,263945,281400
DistanceSpacing: 0.8
BeatDivisor: 4
GridSize: 32
TimelineZoom: 1.8

[Metadata]
Title:Electromagnetic Stealth Girl Born In Philadelphia
TitleUnicode:Electromagnetic Stealth Girl Born In Philadelphia
Artist:Camellia
ArtistUnicode:かめりあ
Creator:lovely_hyahya
Version:Eldridge Philadelphia Experiment. // hyafissh's Expert
Source:
Tags:alexdunk saltedfissh famoss marathon hybrid sv collab electronic instrumental hardcore techno かめるかめりあ kamelcamellia cametek 大箭将也 Masaya Oya u.u.f.o. uufo ctcd-021/022 featured artist dubstep fa
BeatmapID:3648804
BeatmapSetID:1608630

[Difficulty]
HPDrainRate:8.2
CircleSize:4
OverallDifficulty:7.5
ApproachRate:5
SliderMultiplier:1.4
SliderTickRate:1

[Events]
//Background and Video events
0,0,"BG.jpg",0,0
//Break Periods
//Storyboard Layer 0 (Background)
//Storyboard Layer 1 (Fail)
//Storyboard Layer 2 (Pass)
//Storyboard Layer 3 (Foreground)
//Storyboard Layer 4 (Overlay)
//Storyboard Sound Samples
Sample,98601,0,"Percussion Hey sound a#.wav",100
Sample,113146,0,"Percussion Hey sound a#.wav",100
Sample,113601,0,"push_scratch.wav",70

[TimingPoints]
874,454.545454545455,4,2,1,60,1,0
55419,-21.50537634,4,2,1,60,0,0
55426,-232.3707186,4,2,1,60,0,0
55476,-21.50537634,4,2,1,60,0,0
55483,-232.3707186,4,2,1,60,0,0
55533,-21.50537634,4,2,1,60,0,0
55540,-232.3707186,4,2,1,60,0,0
55589,-21.50537634,4,2,1,60,0,0
55596,-232.3707186,4,2,1,60,0,0
55646,-100,4,2,1,60,0,0
57237,-21.50537634,4,2,1,60,0,0
57244,-232.3707186,4,2,1,60,0,0
57294,-21.50537634,4,2,1,60,0,0
57301,-232.3707186,4,2,1,60,0,0
57351,-21.50537634,4,2,1,60,0,0
57358,-232.3707186,4,2,1,60,0,0
57407,-21.50537634,4,2,1,60,0,0
57414,-232.3707186,4,2,1,60,0,0
57464,-100,4,2,1,60,0,0
59055,-21.50537634,4,2,1,60,0,0
59062,-232.3707186,4,2,1,60,0,0
59112,-21.50537634,4,2,1,60,0,0
59119,-232.3707186,4,2,1,60,0,0
59169,-21.50537634,4,2,1,60,0,0
59176,-232.3707186,4,2,1,60,0,0
59226,-21.50537634,4,2,1,60,0,0
59233,-232.3707186,4,2,1,60,0,0
59283,-100,4,2,1,60,0,0
60980,-113.8949121,4,2,1,60,0,0
61084,-130.4438923,4,2,1,60,0,0
61185,-150.1879317,4,2,1,60,0,0
61283,-173.7135634,4,2,1,60,0,0
61379,-201.5736649,4,2,1,60,0,0
61472,-234.1145284,4,2,1,60,0,0
61563,-271.1536082,4,2,1,60,0,0
61651,-311.4717291,4,2,1,60,0,0
61736,-352.2035848,4,2,1,60,0,0
61818,-388.4921479,4,2,1,60,0,0
61898,-414.0911603,4,2,1,60,0,0
61975,-423.3906907,4,2,1,60,0,0
62049,-414.0911603,4,2,1,60,0,0
62121,-388.4921479,4,2,1,60,0,0
62190,-352.2035848,4,2,1,60,0,0
62257,-311.4717291,4,2,1,60,0,0
62320,-271.1536082,4,2,1,60,0,0
62381,-234.1145284,4,2,1,60,0,0
62440,-201.5736649,4,2,1,60,0,0
62495,-173.7135634,4,2,1,60,0,0
62548,-150.1879317,4,2,1,60,0,0
62599,-130.4438923,4,2,1,60,0,0
62647,-113.8949121,4,2,1,60,0,0
62692,-33.33333333,4,2,1,60,0,0
62714,-46.54723664,4,2,1,60,0,0
62736,-68.77266739,4,2,1,60,0,0
62760,-109.0354854,4,2,1,60,0,0
62784,-186.0275659,4,2,1,60,0,0
62810,-317.1255717,4,2,1,60,0,0
62836,-399.2558996,4,2,1,60,0,0
62862,-291.583475,4,2,1,60,0,0
62890,-168.6910539,4,2,1,60,0,0
62919,-100,4,2,1,60,0,0
63601,-33.33333333,4,2,1,60,0,0
63605,-43.56071055,4,2,1,60,0,0
63611,-58.83460105,4,2,1,60,0,0
63618,-82.50143369,4,2,1,60,0,0
63627,-120.0614548,4,2,1,60,0,0
63637,-177.9042519,4,2,1,60,0,0
63649,-250.2000926,4,2,1,60,0,0
63662,-289.3127251,4,2,1,60,0,0
63677,-249.9999963,4,2,1,60,0,0
63691,-271.0648282,4,2,1,60,0,0
63704,-204.261159,4,2,1,60,0,0
63716,-131.2401925,4,2,1,60,0,0
63726,-84.31045668,4,2,1,60,0,0
63735,-56.7549227,4,2,1,60,0,0
63742,-40.16758841,4,2,1,60,0,0
63747,-29.68314233,4,2,1,60,0,0
63752,-100,4,2,1,60,0,0
63828,-33.33333333,4,2,1,60,0,0
63832,-43.56071055,4,2,1,60,0,0
63838,-58.83460105,4,2,1,60,0,0
63845,-82.50143369,4,2,1,60,0,0
63854,-120.0614548,4,2,1,60,0,0
63864,-177.9042519,4,2,1,60,0,0
63876,-250.2000926,4,2,1,60,0,0
63889,-289.3127251,4,2,1,60,0,0
63904,-249.9999963,4,2,1,60,0,0
63918,-271.0648282,4,2,1,60,0,0
63931,-204.261159,4,2,1,60,0,0
63943,-131.2401925,4,2,1,60,0,0
63953,-84.31045668,4,2,1,60,0,0
63962,-56.7549227,4,2,1,60,0,0
63969,-40.16758841,4,2,1,60,0,0
63974,-29.68314233,4,2,1,60,0,0
63979,-100,4,2,1,60,0,0
64055,-33.33333333,4,2,1,60,0,0
64059,-43.56071055,4,2,1,60,0,0
64065,-58.83460105,4,2,1,60,0,0
64072,-82.50143369,4,2,1,60,0,0
64081,-120.0614548,4,2,1,60,0,0
64091,-177.9042519,4,2,1,60,0,0
64103,-250.2000926,4,2,1,60,0,0
64116,-289.3127251,4,2,1,60,0,0
64131,-249.9999963,4,2,1,60,0,0
64145,-271.0648282,4,2,1,60,0,0
64158,-204.261159,4,2,1,60,0,0
64170,-131.2401925,4,2,1,60,0,0
64180,-84.31045668,4,2,1,60,0,0
64189,-56.7549227,4,2,1,60,0,0
64196,-40.16758841,4,2,1,60,0,0
64201,-29.68314233,4,2,1,60,0,0
64206,-100,4,2,1,60,0,0
64510,-33.33333333,4,2,1,60,0,0
64528,-49.10061889,4,2,1,60,0,0
64548,-78.30319529,4,2,1,60,0,0
64568,-138.6272501,4,2,1,60,0,0
64589,-270.6729905,4,2,1,60,0,0
64611,-451.7550554,4,2,1,60,0,0
64633,-360.8973207,4,2,1,60,0,0
64656,-186.3466955,4,2,1,60,0,0
64680,-100,4,2,1,60,0,0
64964,-28.08988764,4,2,1,60,0,0
64973,-193.7966633,4,2,1,60,0,0
65021,-28.08988764,4,2,1,60,0,0
65030,-193.7966633,4,2,1,60,0,0
65078,-28.08988764,4,2,1,60,0,0
65086,-193.7966633,4,2,1,60,0,0
65134,-28.08988764,4,2,1,60,0,0
65143,-193.7966633,4,2,1,60,0,0
65192,-33.33333333,4,2,1,60,0,0
65210,-49.10061889,4,2,1,60,0,0
65230,-78.30319529,4,2,1,60,0,0
65250,-138.6272501,4,2,1,60,0,0
65271,-270.6729905,4,2,1,60,0,0
65293,-451.7550554,4,2,1,60,0,0
65315,-360.8973207,4,2,1,60,0,0
65338,-186.3466955,4,2,1,60,0,0
65362,-100,4,2,1,60,0,0
65419,-28.08988764,4,2,1,60,0,0
65428,-193.7966633,4,2,1,60,0,0
65476,-28.08988764,4,2,1,60,0,0
65485,-193.7966633,4,2,1,60,0,0
65533,-28.08988764,4,2,1,60,0,0
65541,-193.7966633,4,2,1,60,0,0
65589,-28.08988764,4,2,1,60,0,0
65598,-193.7966633,4,2,1,60,0,0
65646,-33.33333333,4,2,1,60,0,0
65664,-49.10061889,4,2,1,60,0,0
65684,-78.30319529,4,2,1,60,0,0
65704,-138.6272501,4,2,1,60,0,0
65725,-270.6729905,4,2,1,60,0,0
65747,-451.7550554,4,2,1,60,0,0
65769,-360.8973207,4,2,1,60,0,0
65792,-186.3466955,4,2,1,60,0,0
65816,-100,4,2,1,60,0,0
66328,-33.33333333,4,2,1,60,0,0
66350,-46.54723664,4,2,1,60,0,0
66372,-68.77266739,4,2,1,60,0,0
66396,-109.0354854,4,2,1,60,0,0
66420,-186.0275659,4,2,1,60,0,0
66446,-317.1255717,4,2,1,60,0,0
66472,-399.2558996,4,2,1,60,0,0
66498,-291.583475,4,2,1,60,0,0
66526,-168.6910539,4,2,1,60,0,0
66555,-100,4,2,1,60,0,0
67237,-33.33333333,4,2,1,60,0,0
67241,-43.56071055,4,2,1,60,0,0
67247,-58.83460105,4,2,1,60,0,0
67254,-82.50143369,4,2,1,60,0,0
67263,-120.0614548,4,2,1,60,0,0
67273,-177.9042519,4,2,1,60,0,0
67285,-250.2000926,4,2,1,60,0,0
67298,-289.3127251,4,2,1,60,0,0
67313,-249.9999963,4,2,1,60,0,0
67327,-271.0648282,4,2,1,60,0,0
67340,-204.261159,4,2,1,60,0,0
67352,-131.2401925,4,2,1,60,0,0
67362,-84.31045668,4,2,1,60,0,0
67371,-56.7549227,4,2,1,60,0,0
67378,-40.16758841,4,2,1,60,0,0
67383,-29.68314233,4,2,1,60,0,0
67388,-100,4,2,1,60,0,0
67464,-33.33333333,4,2,1,60,0,0
67468,-43.56071055,4,2,1,60,0,0
67474,-58.83460105,4,2,1,60,0,0
67481,-82.50143369,4,2,1,60,0,0
67490,-120.0614548,4,2,1,60,0,0
67500,-177.9042519,4,2,1,60,0,0
67512,-250.2000926,4,2,1,60,0,0
67525,-289.3127251,4,2,1,60,0,0
67540,-249.9999963,4,2,1,60,0,0
67554,-271.0648282,4,2,1,60,0,0
67567,-204.261159,4,2,1,60,0,0
67579,-131.2401925,4,2,1,60,0,0
67589,-84.31045668,4,2,1,60,0,0
67598,-56.7549227,4,2,1,60,0,0
67605,-40.16758841,4,2,1,60,0,0
67610,-29.68314233,4,2,1,60,0,0
67615,-100,4,2,1,60,0,0
67691,-33.33333333,4,2,1,60,0,0
67695,-43.56071055,4,2,1,60,0,0
67701,-58.83460105,4,2,1,60,0,0
67708,-82.50143369,4,2,1,60,0,0
67717,-120.0614548,4,2,1,60,0,0
67727,-177.9042519,4,2,1,60,0,0
67739,-250.2000926,4,2,1,60,0,0
67752,-289.3127251,4,2,1,60,0,0
67767,-249.9999963,4,2,1,60,0,0
67781,-271.0648282,4,2,1,60,0,0
67794,-204.261159,4,2,1,60,0,0
67806,-131.2401925,4,2,1,60,0,0
67816,-84.31045668,4,2,1,60,0,0
67825,-56.7549227,4,2,1,60,0,0
67832,-40.16758841,4,2,1,60,0,0
67837,-29.68314233,4,2,1,60,0,0
67842,-100,4,2,1,60,0,0
68601,-416.6666667,4,2,1,60,0,0
68647,-22.41035857,4,2,1,60,0,0
68658,-416.6666667,4,2,1,60,0,0
68703,-22.41035857,4,2,1,60,0,0
68714,-416.6666667,4,2,1,60,0,0
68760,-22.41035857,4,2,1,60,0,0
68771,-416.6666667,4,2,1,60,0,0
68817,-22.41035857,4,2,1,60,0,0
68828,-370.3703704,4,2,1,60,0,0
68880,-10.64395955,4,2,1,60,0,0
68885,-370.3703704,4,2,1,60,0,0
68937,-10.64395955,4,2,1,60,0,0
68942,-370.3703704,4,2,1,60,0,0
68993,-10.64395955,4,2,1,60,0,0
68998,-370.3703704,4,2,1,60,0,0
69050,-10.64395955,4,2,1,60,0,0
69055,-100,4,2,1,60,0,0
69964,-33.33333333,4,2,1,60,0,0
69986,-46.54723664,4,2,1,60,0,0
70009,-68.77266739,4,2,1,60,0,0
70032,-109.0354854,4,2,1,60,0,0
70057,-186.0275659,4,2,1,60,0,0
70082,-317.1255717,4,2,1,60,0,0
70108,-399.2558996,4,2,1,60,0,0
70135,-291.583475,4,2,1,60,0,0
70163,-168.6910539,4,2,1,60,0,0
70192,-100,4,2,1,60,0,0
70873,-33.33333333,4,2,1,60,0,0
70877,-43.56071055,4,2,1,60,0,0
70883,-58.83460105,4,2,1,60,0,0
70890,-82.50143369,4,2,1,60,0,0
70899,-120.0614548,4,2,1,60,0,0
70909,-177.9042519,4,2,1,60,0,0
70921,-250.2000926,4,2,1,60,0,0
70934,-289.3127251,4,2,1,60,0,0
70949,-249.9999963,4,2,1,60,0,0
70963,-271.0648282,4,2,1,60,0,0
70976,-204.261159,4,2,1,60,0,0
70988,-131.2401925,4,2,1,60,0,0
70998,-84.31045668,4,2,1,60,0,0
71007,-56.7549227,4,2,1,60,0,0
71014,-40.16758841,4,2,1,60,0,0
71019,-29.68314233,4,2,1,60,0,0
71024,-100,4,2,1,60,0,0
71100,-33.33333333,4,2,1,60,0,0
71104,-43.56071055,4,2,1,60,0,0
71110,-58.83460105,4,2,1,60,0,0
71117,-82.50143369,4,2,1,60,0,0
71126,-120.0614548,4,2,1,60,0,0
71136,-177.9042519,4,2,1,60,0,0
71148,-250.2000926,4,2,1,60,0,0
71161,-289.3127251,4,2,1,60,0,0
71176,-249.9999963,4,2,1,60,0,0
71190,-271.0648282,4,2,1,60,0,0
71203,-204.261159,4,2,1,60,0,0
71215,-131.2401925,4,2,1,60,0,0
71225,-84.31045668,4,2,1,60,0,0
71234,-56.7549227,4,2,1,60,0,0
71241,-40.16758841,4,2,1,60,0,0
71246,-29.68314233,4,2,1,60,0,0
71251,-100,4,2,1,60,0,0
71327,-33.33333333,4,2,1,60,0,0
71331,-43.56071055,4,2,1,60,0,0
71337,-58.83460105,4,2,1,60,0,0
71344,-82.50143369,4,2,1,60,0,0
71353,-120.0614548,4,2,1,60,0,0
71363,-177.9042519,4,2,1,60,0,0
71375,-250.2000926,4,2,1,60,0,0
71388,-289.3127251,4,2,1,60,0,0
71403,-249.9999963,4,2,1,60,0,0
71417,-271.0648282,4,2,1,60,0,0
71430,-204.261159,4,2,1,60,0,0
71442,-131.2401925,4,2,1,60,0,0
71452,-84.31045668,4,2,1,60,0,0
71461,-56.7549227,4,2,1,60,0,0
71468,-40.16758841,4,2,1,60,0,0
71473,-29.68314233,4,2,1,60,0,0
71478,-100,4,2,1,60,0,0
71783,-33.33333333,4,2,1,60,0,0
71801,-49.10061889,4,2,1,60,0,0
71821,-78.30319529,4,2,1,60,0,0
71841,-138.6272501,4,2,1,60,0,0
71862,-270.6729905,4,2,1,60,0,0
71884,-451.7550554,4,2,1,60,0,0
71906,-360.8973207,4,2,1,60,0,0
71929,-186.3466955,4,2,1,60,0,0
71953,-100,4,2,1,60,0,0
72010,-33.33333333,4,2,1,60,0,0
72028,-49.10061889,4,2,1,60,0,0
72048,-78.30319529,4,2,1,60,0,0
72068,-138.6272501,4,2,1,60,0,0
72089,-270.6729905,4,2,1,60,0,0
72111,-451.7550554,4,2,1,60,0,0
72133,-360.8973207,4,2,1,60,0,0
72156,-186.3466955,4,2,1,60,0,0
72180,-100,4,2,1,60,0,0
72237,-28.08988764,4,2,1,60,0,0
72246,-193.7966633,4,2,1,60,0,0
72294,-28.08988764,4,2,1,60,0,0
72303,-193.7966633,4,2,1,60,0,0
72351,-28.08988764,4,2,1,60,0,0
72359,-193.7966633,4,2,1,60,0,0
72407,-28.08988764,4,2,1,60,0,0
72416,-193.7966633,4,2,1,60,0,0
72464,-33.33333333,4,2,1,60,0,0
72482,-49.10061889,4,2,1,60,0,0
72502,-78.30319529,4,2,1,60,0,0
72522,-138.6272501,4,2,1,60,0,0
72543,-270.6729905,4,2,1,60,0,0
72565,-451.7550554,4,2,1,60,0,0
72587,-360.8973207,4,2,1,60,0,0
72610,-186.3466955,4,2,1,60,0,0
72634,-100,4,2,1,60,0,0
73601,-33.33333333,4,2,1,60,0,0
73623,-46.54723664,4,2,1,60,0,0
73646,-68.77266739,4,2,1,60,0,0
73669,-109.0354854,4,2,1,60,0,0
73694,-186.0275659,4,2,1,60,0,0
73719,-317.1255717,4,2,1,60,0,0
73745,-399.2558996,4,2,1,60,0,0
73772,-291.583475,4,2,1,60,0,0
73800,-168.6910539,4,2,1,60,0,0
73829,-100,4,2,1,60,0,0
74283,-227.2727273,4,2,1,60,0,0
74320,-46.79523539,4,2,1,60,0,0
74339,-227.2727273,4,2,1,60,0,0
74377,-46.79523539,4,2,1,60,0,0
74396,-227.2727273,4,2,1,60,0,0
74434,-46.79523539,4,2,1,60,0,0
74453,-227.2727273,4,2,1,60,0,0
74491,-46.79523539,4,2,1,60,0,0
74510,-227.2727273,4,2,1,60,0,0
74586,-46.79523539,4,2,1,60,0,0
74624,-227.2727273,4,2,1,60,0,0
74699,-46.79523539,4,2,1,60,0,0
74737,-227.2727273,4,2,1,60,0,0
74813,-46.79523539,4,2,1,60,0,0
74851,-227.2727273,4,2,1,60,0,0
74926,-46.79523539,4,2,1,60,0,0
74964,-49.75124378,4,2,1,60,0,0
74976,-141.4879051,4,2,1,60,0,0
75021,-49.75124378,4,2,1,60,0,0
75033,-141.4879051,4,2,1,60,0,0
75078,-49.75124378,4,2,1,60,0,0
75090,-141.4879051,4,2,1,60,0,0
75135,-49.75124378,4,2,1,60,0,0
75147,-141.4879051,4,2,1,60,0,0
75192,-49.75124378,4,2,1,60,0,0
75217,-141.4879051,4,2,1,60,0,0
75305,-49.75124378,4,2,1,60,0,0
75330,-141.4879051,4,2,1,60,0,0
75419,-100,4,2,1,60,0,0
77294,-33.33333333,4,2,1,60,0,0
77310,-46.54723664,4,2,1,60,0,0
77327,-68.77266739,4,2,1,60,0,0
77345,-109.0354854,4,2,1,60,0,0
77363,-186.0275659,4,2,1,60,0,0
77382,-317.1255717,4,2,1,60,0,0
77401,-399.2558996,4,2,1,60,0,0
77422,-291.583475,4,2,1,60,0,0
77442,-168.6910539,4,2,1,60,0,0
77464,-100,4,2,1,60,0,0
78146,-33.33333333,4,2,1,60,0,0
78150,-43.56071055,4,2,1,60,0,0
78156,-58.83460105,4,2,1,60,0,0
78163,-82.50143369,4,2,1,60,0,0
78172,-120.0614548,4,2,1,60,0,0
78182,-177.9042519,4,2,1,60,0,0
78194,-250.2000926,4,2,1,60,0,0
78207,-289.3127251,4,2,1,60,0,0
78222,-249.9999963,4,2,1,60,0,0
78236,-271.0648282,4,2,1,60,0,0
78249,-204.261159,4,2,1,60,0,0
78261,-131.2401925,4,2,1,60,0,0
78271,-84.31045668,4,2,1,60,0,0
78280,-56.7549227,4,2,1,60,0,0
78287,-40.16758841,4,2,1,60,0,0
78292,-29.68314233,4,2,1,60,0,0
78297,-100,4,2,1,60,0,0
78373,-33.33333333,4,2,1,60,0,0
78377,-43.56071055,4,2,1,60,0,0
78383,-58.83460105,4,2,1,60,0,0
78390,-82.50143369,4,2,1,60,0,0
78399,-120.0614548,4,2,1,60,0,0
78409,-177.9042519,4,2,1,60,0,0
78421,-250.2000926,4,2,1,60,0,0
78434,-289.3127251,4,2,1,60,0,0
78449,-249.9999963,4,2,1,60,0,0
78463,-271.0648282,4,2,1,60,0,0
78476,-204.261159,4,2,1,60,0,0
78488,-131.2401925,4,2,1,60,0,0
78498,-84.31045668,4,2,1,60,0,0
78507,-56.7549227,4,2,1,60,0,0
78514,-40.16758841,4,2,1,60,0,0
78519,-29.68314233,4,2,1,60,0,0
78524,-100,4,2,1,60,0,0
78600,-33.33333333,4,2,1,60,0,0
78604,-43.56071055,4,2,1,60,0,0
78610,-58.83460105,4,2,1,60,0,0
78617,-82.50143369,4,2,1,60,0,0
78626,-120.0614548,4,2,1,60,0,0
78636,-177.9042519,4,2,1,60,0,0
78648,-250.2000926,4,2,1,60,0,0
78661,-289.3127251,4,2,1,60,0,0
78676,-249.9999963,4,2,1,60,0,0
78690,-271.0648282,4,2,1,60,0,0
78703,-204.261159,4,2,1,60,0,0
78715,-131.2401925,4,2,1,60,0,0
78725,-84.31045668,4,2,1,60,0,0
78734,-56.7549227,4,2,1,60,0,0
78741,-40.16758841,4,2,1,60,0,0
78746,-29.68314233,4,2,1,60,0,0
78751,-100,4,2,1,60,0,0
79055,-33.33333333,4,2,1,60,0,0
79074,-49.10061889,4,2,1,60,0,0
79093,-78.30319529,4,2,1,60,0,0
79114,-138.6272501,4,2,1,60,0,0
79135,-270.6729905,4,2,1,60,0,0
79156,-451.7550554,4,2,1,60,0,0
79179,-360.8973207,4,2,1,60,0,0
79202,-186.3466955,4,2,1,60,0,0
79226,-100,4,2,1,60,0,0
79510,-28.08988764,4,2,1,60,0,0
79519,-193.7966633,4,2,1,60,0,0
79567,-28.08988764,4,2,1,60,0,0
79576,-193.7966633,4,2,1,60,0,0
79624,-28.08988764,4,2,1,60,0,0
79632,-193.7966633,4,2,1,60,0,0
79680,-28.08988764,4,2,1,60,0,0
79689,-193.7966633,4,2,1,60,0,0
79737,-33.33333333,4,2,1,60,0,0
79743,-49.10061889,4,2,1,60,0,0
79749,-78.30319529,4,2,1,60,0,0
79756,-138.6272501,4,2,1,60,0,0
79762,-270.6729905,4,2,1,60,0,0
79769,-451.7550554,4,2,1,60,0,0
79776,-360.8973207,4,2,1,60,0,0
79784,-186.3466955,4,2,1,60,0,0
79792,-100,4,2,1,60,0,0
79794,-33.33333333,4,2,1,60,0,0
79806,-49.10061889,4,2,1,60,0,0
79819,-78.30319529,4,2,1,60,0,0
79833,-138.6272501,4,2,1,60,0,0
79847,-270.6729905,4,2,1,60,0,0
79861,-451.7550554,4,2,1,60,0,0
79876,-360.8973207,4,2,1,60,0,0
79892,-186.3466955,4,2,1,60,0,0
79908,-100,4,2,1,60,0,0
79964,-28.08988764,4,2,1,60,0,0
79973,-193.7966633,4,2,1,60,0,0
80021,-28.08988764,4,2,1,60,0,0
80030,-193.7966633,4,2,1,60,0,0
80078,-28.08988764,4,2,1,60,0,0
80086,-193.7966633,4,2,1,60,0,0
80134,-28.08988764,4,2,1,60,0,0
80143,-193.7966633,4,2,1,60,0,0
80192,-100,4,2,1,60,0,0
80930,-33.33333333,4,2,1,60,0,0
80946,-46.54723664,4,2,1,60,0,0
80963,-68.77266739,4,2,1,60,0,0
80981,-109.0354854,4,2,1,60,0,0
81000,-186.0275659,4,2,1,60,0,0
81019,-317.1255717,4,2,1,60,0,0
81038,-399.2558996,4,2,1,60,0,0
81058,-291.583475,4,2,1,60,0,0
81079,-168.6910539,4,2,1,60,0,0
81101,-100,4,2,1,60,0,0
81783,-33.33333333,4,2,1,60,0,0
81787,-43.56071055,4,2,1,60,0,0
81793,-58.83460105,4,2,1,60,0,0
81800,-82.50143369,4,2,1,60,0,0
81809,-120.0614548,4,2,1,60,0,0
81819,-177.9042519,4,2,1,60,0,0
81831,-250.2000926,4,2,1,60,0,0
81844,-289.3127251,4,2,1,60,0,0
81859,-249.9999963,4,2,1,60,0,0
81873,-271.0648282,4,2,1,60,0,0
81886,-204.261159,4,2,1,60,0,0
81898,-131.2401925,4,2,1,60,0,0
81908,-84.31045668,4,2,1,60,0,0
81917,-56.7549227,4,2,1,60,0,0
81924,-40.16758841,4,2,1,60,0,0
81929,-29.68314233,4,2,1,60,0,0
81934,-100,4,2,1,60,0,0
82010,-33.33333333,4,2,1,60,0,0
82014,-43.56071055,4,2,1,60,0,0
82020,-58.83460105,4,2,1,60,0,0
82027,-82.50143369,4,2,1,60,0,0
82036,-120.0614548,4,2,1,60,0,0
82046,-177.9042519,4,2,1,60,0,0
82058,-250.2000926,4,2,1,60,0,0
82071,-289.3127251,4,2,1,60,0,0
82086,-249.9999963,4,2,1,60,0,0
82100,-271.0648282,4,2,1,60,0,0
82113,-204.261159,4,2,1,60,0,0
82125,-131.2401925,4,2,1,60,0,0
82135,-84.31045668,4,2,1,60,0,0
82144,-56.7549227,4,2,1,60,0,0
82151,-40.16758841,4,2,1,60,0,0
82156,-29.68314233,4,2,1,60,0,0
82161,-100,4,2,1,60,0,0
82237,-33.33333333,4,2,1,60,0,0
82241,-43.56071055,4,2,1,60,0,0
82247,-58.83460105,4,2,1,60,0,0
82254,-82.50143369,4,2,1,60,0,0
82263,-120.0614548,4,2,1,60,0,0
82273,-177.9042519,4,2,1,60,0,0
82285,-250.2000926,4,2,1,60,0,0
82298,-289.3127251,4,2,1,60,0,0
82313,-249.9999963,4,2,1,60,0,0
82327,-271.0648282,4,2,1,60,0,0
82340,-204.261159,4,2,1,60,0,0
82352,-131.2401925,4,2,1,60,0,0
82362,-84.31045668,4,2,1,60,0,0
82371,-56.7549227,4,2,1,60,0,0
82378,-40.16758841,4,2,1,60,0,0
82383,-29.68314233,4,2,1,60,0,0
82388,-100,4,2,1,60,0,0
82805,-16.66666667,4,2,1,60,0,0
82811,-314.2857143,4,2,1,60,0,0
82862,-100,4,2,1,60,0,0
82919,-16.66666667,4,2,1,60,0,0
82925,-314.2857143,4,2,1,60,0,0
82976,-100,4,2,1,60,0,0
83146,-38.75968992,4,2,1,60,0,0
83156,-151.4705341,4,2,1,60,0,0
83203,-38.75968992,4,2,1,60,0,0
83213,-151.4705341,4,2,1,60,0,0
83260,-38.75968992,4,2,1,60,0,0
83270,-151.4705341,4,2,1,60,0,0
83317,-38.75968992,4,2,1,60,0,0
83327,-151.4705341,4,2,1,60,0,0
83373,-16.66666667,4,2,1,60,0,0
83379,-314.2857143,4,2,1,60,0,0
83430,-100,4,2,1,60,0,0
83487,-16.66666667,4,2,1,60,0,0
83493,-314.2857143,4,2,1,60,0,0
83544,-100,4,2,1,60,0,0
84567,-33.33333333,4,2,1,60,0,0
84583,-46.54723664,4,2,1,60,0,0
84600,-68.77266739,4,2,1,60,0,0
84618,-109.0354854,4,2,1,60,0,0
84636,-186.0275659,4,2,1,60,0,0
84655,-317.1255717,4,2,1,60,0,0
84674,-399.2558996,4,2,1,60,0,0
84695,-291.583475,4,2,1,60,0,0
84715,-168.6910539,4,2,1,60,0,0
84737,-100,4,2,1,60,0,0
85419,-33.33333333,4,2,1,60,0,0
85423,-43.56071055,4,2,1,60,0,0
85429,-58.83460105,4,2,1,60,0,0
85436,-82.50143369,4,2,1,60,0,0
85445,-120.0614548,4,2,1,60,0,0
85455,-177.9042519,4,2,1,60,0,0
85467,-250.2000926,4,2,1,60,0,0
85480,-289.3127251,4,2,1,60,0,0
85495,-249.9999963,4,2,1,60,0,0
85509,-271.0648282,4,2,1,60,0,0
85522,-204.261159,4,2,1,60,0,0
85534,-131.2401925,4,2,1,60,0,0
85544,-84.31045668,4,2,1,60,0,0
85553,-56.7549227,4,2,1,60,0,0
85560,-40.16758841,4,2,1,60,0,0
85565,-29.68314233,4,2,1,60,0,0
85570,-100,4,2,1,60,0,0
85646,-33.33333333,4,2,1,60,0,0
85650,-43.56071055,4,2,1,60,0,0
85656,-58.83460105,4,2,1,60,0,0
85663,-82.50143369,4,2,1,60,0,0
85672,-120.0614548,4,2,1,60,0,0
85682,-177.9042519,4,2,1,60,0,0
85694,-250.2000926,4,2,1,60,0,0
85707,-289.3127251,4,2,1,60,0,0
85722,-249.9999963,4,2,1,60,0,0
85736,-271.0648282,4,2,1,60,0,0
85749,-204.261159,4,2,1,60,0,0
85761,-131.2401925,4,2,1,60,0,0
85771,-84.31045668,4,2,1,60,0,0
85780,-56.7549227,4,2,1,60,0,0
85787,-40.16758841,4,2,1,60,0,0
85792,-29.68314233,4,2,1,60,0,0
85797,-100,4,2,1,60,0,0
85873,-33.33333333,4,2,1,60,0,0
85877,-43.56071055,4,2,1,60,0,0
85883,-58.83460105,4,2,1,60,0,0
85890,-82.50143369,4,2,1,60,0,0
85899,-120.0614548,4,2,1,60,0,0
85909,-177.9042519,4,2,1,60,0,0
85921,-250.2000926,4,2,1,60,0,0
85934,-289.3127251,4,2,1,60,0,0
85949,-249.9999963,4,2,1,60,0,0
85963,-271.0648282,4,2,1,60,0,0
85976,-204.261159,4,2,1,60,0,0
85988,-131.2401925,4,2,1,60,0,0
85998,-84.31045668,4,2,1,60,0,0
86007,-56.7549227,4,2,1,60,0,0
86014,-40.16758841,4,2,1,60,0,0
86019,-29.68314233,4,2,1,60,0,0
86024,-100,4,2,1,60,0,0
86328,-33.33333333,4,2,1,60,0,0
86347,-49.10061889,4,2,1,60,0,0
86366,-78.30319529,4,2,1,60,0,0
86387,-138.6272501,4,2,1,60,0,0
86408,-270.6729905,4,2,1,60,0,0
86429,-451.7550554,4,2,1,60,0,0
86452,-360.8973207,4,2,1,60,0,0
86475,-186.3466955,4,2,1,60,0,0
86499,-100,4,2,1,60,0,0
86783,-28.08988764,4,2,1,60,0,0
86792,-193.7966633,4,2,1,60,0,0
86840,-28.08988764,4,2,1,60,0,0
86849,-193.7966633,4,2,1,60,0,0
86897,-28.08988764,4,2,1,60,0,0
86905,-193.7966633,4,2,1,60,0,0
86953,-28.08988764,4,2,1,60,0,0
86962,-193.7966633,4,2,1,60,0,0
87010,-42.01680672,4,2,1,60,0,0
87020,-148.7919859,4,2,1,60,0,0
87067,-100,4,2,1,60,0,0
87069,-33.33333333,4,2,1,60,0,0
87081,-49.10061889,4,2,1,60,0,0
87094,-78.30319529,4,2,1,60,0,0
87107,-138.6272501,4,2,1,60,0,0
87121,-270.6729905,4,2,1,60,0,0
87135,-451.7550554,4,2,1,60,0,0
87149,-360.8973207,4,2,1,60,0,0
87164,-186.3466955,4,2,1,60,0,0
87180,-100,4,2,1,60,0,0
89055,-24.69135802,4,2,1,60,0,0
89064,-257.3767959,4,2,1,60,0,0
89112,-24.69135802,4,2,1,60,0,0
89121,-257.3767959,4,2,1,60,0,0
89169,-24.69135802,4,2,1,60,0,0
89178,-257.3767959,4,2,1,60,0,0
89226,-24.69135802,4,2,1,60,0,0
89235,-257.3767959,4,2,1,60,0,0
89283,-100,4,2,1,60,0,0
89510,-24.69135802,4,2,1,60,0,0
89519,-257.3767959,4,2,1,60,0,0
89567,-24.69135802,4,2,1,60,0,0
89576,-257.3767959,4,2,1,60,0,0
89624,-24.69135802,4,2,1,60,0,0
89633,-257.3767959,4,2,1,60,0,0
89680,-24.69135802,4,2,1,60,0,0
89689,-257.3767959,4,2,1,60,0,0
89737,-100,4,2,1,60,0,0
90192,-24.69135802,4,2,1,60,0,0
90201,-257.3767959,4,2,1,60,0,0
90249,-24.69135802,4,2,1,60,0,0
90258,-257.3767959,4,2,1,60,0,0
90305,-24.69135802,4,2,1,60,0,0
90314,-257.3767959,4,2,1,60,0,0
90362,-24.69135802,4,2,1,60,0,0
90371,-257.3767959,4,2,1,60,0,0
90419,-100,4,2,1,60,0,0
90533,-24.69135802,4,2,1,60,0,0
90542,-257.3767959,4,2,1,60,0,0
90589,-24.69135802,4,2,1,60,0,0
90598,-257.3767959,4,2,1,60,0,0
90646,-24.69135802,4,2,1,60,0,0
90655,-257.3767959,4,2,1,60,0,0
90703,-24.69135802,4,2,1,60,0,0
90712,-257.3767959,4,2,1,60,0,0
90760,-24.69135802,4,2,1,60,0,0
90769,-257.3767959,4,2,1,60,0,0
90817,-24.69135802,4,2,1,60,0,0
90826,-257.3767959,4,2,1,60,0,0
90874,-100,4,2,1,60,0,0
91328,-333.3333201,4,2,1,60,0,0
91384,-249.9999963,4,2,1,60,0,0
91441,-200,4,2,1,60,0,0
91498,-166.66666,4,2,1,60,0,0
91555,-142.8571453,4,2,1,60,0,0
91612,-124.9999981,4,2,1,60,0,0
91669,-111.1111141,4,2,1,60,0,0
91726,-100,4,2,1,60,0,0
91783,-33.33333333,4,2,1,60,0,1
91805,-46.54723664,4,2,1,60,0,1
91827,-68.77266739,4,2,1,60,0,1
91851,-109.0354854,4,2,1,60,0,1
91875,-186.0275659,4,2,1,60,0,1
91901,-317.1255717,4,2,1,60,0,1
91927,-399.2558996,4,2,1,60,0,1
91953,-291.583475,4,2,1,60,0,1
91981,-168.6910539,4,2,1,60,0,1
92010,-100,4,2,1,60,0,1
92243,-46.01812943,4,2,1,60,0,1
92257,-49.12678031,4,2,1,60,0,1
92277,-75.1465646,4,2,1,60,0,1
92300,-166.0802178,4,2,1,60,0,1
92325,-516.8533871,4,2,1,60,0,1
92350,-401.8609152,4,2,1,60,0,1
92372,-140.3510345,4,2,1,60,0,1
92390,-75.24472047,4,2,1,60,0,1
92402,-60.85901335,4,2,1,60,0,1
92408,-100,4,2,1,60,0,1
92919,-30.76923077,4,2,1,60,0,1
92929,-214.893617,4,2,1,60,0,1
92976,-30.76923077,4,2,1,60,0,1
92986,-214.893617,4,2,1,60,0,1
93033,-30.76923077,4,2,1,60,0,1
93043,-214.893617,4,2,1,60,0,1
93089,-30.76923077,4,2,1,60,0,1
93099,-214.893617,4,2,1,60,0,1
93146,-100,4,2,1,60,0,1
93152,-46.01812943,4,2,1,60,0,1
93166,-49.12678031,4,2,1,60,0,1
93186,-75.1465646,4,2,1,60,0,1
93209,-166.0802178,4,2,1,60,0,1
93234,-516.8533871,4,2,1,60,0,1
93259,-401.8609152,4,2,1,60,0,1
93281,-140.3510345,4,2,1,60,0,1
93299,-75.24472047,4,2,1,60,0,1
93311,-60.85901335,4,2,1,60,0,1
93317,-100,4,2,1,60,0,1
93828,-30.76923077,4,2,1,60,0,1
93838,-214.893617,4,2,1,60,0,1
93885,-30.76923077,4,2,1,60,0,1
93895,-214.893617,4,2,1,60,0,1
93942,-30.76923077,4,2,1,60,0,1
93952,-214.893617,4,2,1,60,0,1
93999,-30.76923077,4,2,1,60,0,1
94009,-214.893617,4,2,1,60,0,1
94055,-100,4,2,1,60,0,1
94061,-46.01812943,4,2,1,60,0,1
94075,-49.12678031,4,2,1,60,0,1
94095,-75.1465646,4,2,1,60,0,1
94118,-166.0802178,4,2,1,60,0,1
94143,-516.8533871,4,2,1,60,0,1
94168,-401.8609152,4,2,1,60,0,1
94190,-140.3510345,4,2,1,60,0,1
94208,-75.24472047,4,2,1,60,0,1
94220,-60.85901335,4,2,1,60,0,1
94226,-100,4,2,1,60,0,1
94737,-30.76923077,4,2,1,60,0,1
94747,-214.893617,4,2,1,60,0,1
94794,-30.76923077,4,2,1,60,0,1
94804,-214.893617,4,2,1,60,0,1
94851,-30.76923077,4,2,1,60,0,1
94861,-214.893617,4,2,1,60,0,1
94908,-30.76923077,4,2,1,60,0,1
94918,-214.893617,4,2,1,60,0,1
94964,-100,4,2,1,60,0,1
94970,-46.01812943,4,2,1,60,0,1
94984,-49.12678031,4,2,1,60,0,1
95004,-75.1465646,4,2,1,60,0,1
95027,-166.0802178,4,2,1,60,0,1
95052,-516.8533871,4,2,1,60,0,1
95077,-401.8609152,4,2,1,60,0,1
95099,-140.3510345,4,2,1,60,0,1
95117,-75.24472047,4,2,1,60,0,1
95129,-60.85901335,4,2,1,60,0,1
95135,-100,4,2,1,60,0,1
95192,-30.76923077,4,2,1,60,0,1
95202,-214.893617,4,2,1,60,0,1
95249,-30.76923077,4,2,1,60,0,1
95259,-214.893617,4,2,1,60,0,1
95305,-30.76923077,4,2,1,60,0,1
95315,-214.893617,4,2,1,60,0,1
95362,-30.76923077,4,2,1,60,0,1
95372,-214.893617,4,2,1,60,0,1
95419,-33.33333333,4,2,1,60,0,1
95441,-46.54723664,4,2,1,60,0,1
95463,-68.77266739,4,2,1,60,0,1
95487,-109.0354854,4,2,1,60,0,1
95511,-186.0275659,4,2,1,60,0,1
95537,-317.1255717,4,2,1,60,0,1
95563,-399.2558996,4,2,1,60,0,1
95589,-291.583475,4,2,1,60,0,1
95617,-168.6910539,4,2,1,60,0,1
95646,-100,4,2,1,60,0,1
95880,-46.01812943,4,2,1,60,0,1
95894,-49.12678031,4,2,1,60,0,1
95914,-75.1465646,4,2,1,60,0,1
95937,-166.0802178,4,2,1,60,0,1
95962,-516.8533871,4,2,1,60,0,1
95987,-401.8609152,4,2,1,60,0,1
96009,-140.3510345,4,2,1,60,0,1
96027,-75.24472047,4,2,1,60,0,1
96039,-60.85901335,4,2,1,60,0,1
96045,-100,4,2,1,60,0,1
96555,-30.76923077,4,2,1,60,0,1
96565,-214.893617,4,2,1,60,0,1
96612,-30.76923077,4,2,1,60,0,1
96622,-214.893617,4,2,1,60,0,1
96669,-30.76923077,4,2,1,60,0,1
96679,-214.893617,4,2,1,60,0,1
96726,-30.76923077,4,2,1,60,0,1
96736,-214.893617,4,2,1,60,0,1
96783,-100,4,2,1,60,0,1
96789,-46.01812943,4,2,1,60,0,1
96803,-49.12678031,4,2,1,60,0,1
96823,-75.1465646,4,2,1,60,0,1
96846,-166.0802178,4,2,1,60,0,1
96871,-516.8533871,4,2,1,60,0,1
96896,-401.8609152,4,2,1,60,0,1
96918,-140.3510345,4,2,1,60,0,1
96936,-75.24472047,4,2,1,60,0,1
96948,-60.85901335,4,2,1,60,0,1
96954,-100,4,2,1,60,0,1
97464,-30.76923077,4,2,1,60,0,1
97474,-214.893617,4,2,1,60,0,1
97521,-30.76923077,4,2,1,60,0,1
97531,-214.893617,4,2,1,60,0,1
97578,-30.76923077,4,2,1,60,0,1
97588,-214.893617,4,2,1,60,0,1
97635,-30.76923077,4,2,1,60,0,1
97645,-214.893617,4,2,1,60,0,1
97692,-100,4,2,1,60,0,1
97698,-46.01812943,4,2,1,60,0,1
97712,-49.12678031,4,2,1,60,0,1
97732,-75.1465646,4,2,1,60,0,1
97755,-166.0802178,4,2,1,60,0,1
97780,-516.8533871,4,2,1,60,0,1
97805,-401.8609152,4,2,1,60,0,1
97827,-140.3510345,4,2,1,60,0,1
97845,-75.24472047,4,2,1,60,0,1
97857,-60.85901335,4,2,1,60,0,1
97863,-100,4,2,1,60,0,1
99057,-25,4,2,1,60,0,1
99071,-35.05121419,4,2,1,60,0,1
99087,-52.37354591,4,2,1,60,0,1
99107,-85.5301578,4,2,1,60,0,1
99129,-158.1227061,4,2,1,60,0,1
99154,-334.3509879,4,2,1,60,0,1
99182,-591.0926441,4,2,1,60,0,1
99212,-412.0412134,4,2,1,60,0,1
99245,-192.4428526,4,2,1,60,0,1
99281,-100,4,2,1,60,0,1
99510,-526.3157895,4,2,1,60,0,0
99556,-22.00298105,4,2,1,60,0,0
99567,-526.3157895,4,2,1,60,0,0
99612,-22.00298105,4,2,1,60,0,0
99623,-526.3157895,4,2,1,60,0,0
99669,-22.00298105,4,2,1,60,0,0
99680,-526.3157895,4,2,1,60,0,0
99726,-22.00298105,4,2,1,60,0,0
99737,-526.3157895,4,2,1,60,0,0
99783,-22.00298105,4,2,1,60,0,0
99794,-526.3157895,4,2,1,60,0,0
99840,-22.00298105,4,2,1,60,0,0
99851,-526.3157895,4,2,1,60,0,0
99897,-22.00298105,4,2,1,60,0,0
99908,-100,4,2,1,60,0,0
100092,-16.66666667,4,2,1,60,0,0
100104,-891.8232866,4,2,1,60,0,0
100140,-387.4363427,4,2,1,60,0,0
100172,-193.1912839,4,2,1,60,0,0
100192,-100,4,2,1,60,0,0
100322,-16.66666667,4,2,1,60,0,0
100334,-891.8232866,4,2,1,60,0,0
100370,-387.4363427,4,2,1,60,0,0
100402,-193.1912839,4,2,1,60,0,0
100422,-100,4,2,1,60,0,0
100549,-16.66666667,4,2,1,60,0,0
100561,-891.8232866,4,2,1,60,0,0
100597,-387.4363427,4,2,1,60,0,0
100629,-193.1912839,4,2,1,60,0,0
100649,-100,4,2,1,60,0,0
100776,-16.66666667,4,2,1,60,0,0
100788,-891.8232866,4,2,1,60,0,0
100824,-387.4363427,4,2,1,60,0,0
100856,-193.1912839,4,2,1,60,0,0
100876,-100,4,2,1,60,0,0
101003,-16.66666667,4,2,1,60,0,0
101015,-891.8232866,4,2,1,60,0,0
101051,-387.4363427,4,2,1,60,0,0
101083,-193.1912839,4,2,1,60,0,0
101103,-100,4,2,1,60,0,0
101231,-16.66666667,4,2,1,60,0,0
101243,-891.8232866,4,2,1,60,0,0
101279,-387.4363427,4,2,1,60,0,0
101311,-193.1912839,4,2,1,60,0,0
101331,-100,4,2,1,60,0,0
101458,-16.66666667,4,2,1,60,0,0
101470,-891.8232866,4,2,1,60,0,0
101506,-387.4363427,4,2,1,60,0,0
101538,-193.1912839,4,2,1,60,0,0
101558,-100,4,2,1,60,0,0
101685,-16.66666667,4,2,1,60,0,0
101697,-891.8232866,4,2,1,60,0,0
101733,-387.4363427,4,2,1,60,0,0
101765,-193.1912839,4,2,1,60,0,0
101785,-100,4,2,1,60,0,0
102692,-500,4,2,1,60,0,0
102778,-27.41020794,4,2,1,60,0,0
102805,-500,4,2,1,60,0,0
102848,-27.41020794,4,2,1,60,0,0
102862,-500,4,2,1,60,0,0
102905,-27.41020794,4,2,1,60,0,0
102919,-500,4,2,1,60,0,0
103006,-27.41020794,4,2,1,60,0,0
103033,-500,4,2,1,60,0,0
103119,-27.41020794,4,2,1,60,0,0
103146,-500,4,2,1,60,0,0
103189,-27.41020794,4,2,1,60,0,0
103203,-500,4,2,1,60,0,0
103246,-27.41020794,4,2,1,60,0,0
103260,-500,4,2,1,60,0,0
103347,-27.41020794,4,2,1,60,0,0
103374,-500,4,2,1,60,0,0
103460,-27.41020794,4,2,1,60,0,0
103487,-500,4,2,1,60,0,0
103530,-27.41020794,4,2,1,60,0,0
103544,-500,4,2,1,60,0,0
103587,-27.41020794,4,2,1,60,0,0
103601,-500,4,2,1,60,0,0
103687,-27.41020794,4,2,1,60,0,0
103714,-500,4,2,1,60,0,0
103801,-27.41020794,4,2,1,60,0,0
103828,-500,4,2,1,60,0,0
103871,-27.41020794,4,2,1,60,0,0
103885,-500,4,2,1,60,0,0
103928,-27.41020794,4,2,1,60,0,0
103942,-500,4,2,1,60,0,0
104028,-27.41020794,4,2,1,60,0,0
104055,-500,4,2,1,60,0,0
104142,-27.41020794,4,2,1,60,0,0
104169,-500,4,2,1,60,0,0
104212,-27.41020794,4,2,1,60,0,0
104226,-500,4,2,1,60,0,0
104269,-27.41020794,4,2,1,60,0,0
104283,-500,4,2,1,60,0,0
104369,-27.41020794,4,2,1,60,0,0
104396,-500,4,2,1,60,0,0
104483,-27.41020794,4,2,1,60,0,0
104510,-100,4,2,1,60,0,0
106328,-33.33333333,4,2,1,60,0,1
106350,-46.54723664,4,2,1,60,0,1
106372,-68.77266739,4,2,1,60,0,1
106396,-109.0354854,4,2,1,60,0,1
106420,-186.0275659,4,2,1,60,0,1
106446,-317.1255717,4,2,1,60,0,1
106472,-399.2558996,4,2,1,60,0,1
106498,-291.583475,4,2,1,60,0,1
106526,-168.6910539,4,2,1,60,0,1
106555,-100,4,2,1,60,0,1
106789,-46.01812943,4,2,1,60,0,1
106803,-49.12678031,4,2,1,60,0,1
106823,-75.1465646,4,2,1,60,0,1
106846,-166.0802178,4,2,1,60,0,1
106871,-516.8533871,4,2,1,60,0,1
106896,-401.8609152,4,2,1,60,0,1
106918,-140.3510345,4,2,1,60,0,1
106936,-75.24472047,4,2,1,60,0,1
106948,-60.85901335,4,2,1,60,0,1
106954,-100,4,2,1,60,0,1
107464,-30.76923077,4,2,1,60,0,1
107474,-214.893617,4,2,1,60,0,1
107521,-30.76923077,4,2,1,60,0,1
107531,-214.893617,4,2,1,60,0,1
107578,-30.76923077,4,2,1,60,0,1
107588,-214.893617,4,2,1,60,0,1
107635,-30.76923077,4,2,1,60,0,1
107645,-214.893617,4,2,1,60,0,1
107692,-100,4,2,1,60,0,1
107698,-46.01812943,4,2,1,60,0,1
107712,-49.12678031,4,2,1,60,0,1
107732,-75.1465646,4,2,1,60,0,1
107755,-166.0802178,4,2,1,60,0,1
107780,-516.8533871,4,2,1,60,0,1
107805,-401.8609152,4,2,1,60,0,1
107827,-140.3510345,4,2,1,60,0,1
107845,-75.24472047,4,2,1,60,0,1
107857,-60.85901335,4,2,1,60,0,1
107863,-100,4,2,1,60,0,1
108374,-30.76923077,4,2,1,60,0,1
108384,-214.893617,4,2,1,60,0,1
108431,-30.76923077,4,2,1,60,0,1
108441,-214.893617,4,2,1,60,0,1
108488,-30.76923077,4,2,1,60,0,1
108498,-214.893617,4,2,1,60,0,1
108545,-30.76923077,4,2,1,60,0,1
108555,-214.893617,4,2,1,60,0,1
108601,-100,4,2,1,60,0,1
108607,-46.01812943,4,2,1,60,0,1
108621,-49.12678031,4,2,1,60,0,1
108641,-75.1465646,4,2,1,60,0,1
108664,-166.0802178,4,2,1,60,0,1
108689,-516.8533871,4,2,1,60,0,1
108714,-401.8609152,4,2,1,60,0,1
108736,-140.3510345,4,2,1,60,0,1
108754,-75.24472047,4,2,1,60,0,1
108766,-60.85901335,4,2,1,60,0,1
108772,-100,4,2,1,60,0,1
109283,-30.76923077,4,2,1,60,0,1
109293,-214.893617,4,2,1,60,0,1
109340,-30.76923077,4,2,1,60,0,1
109350,-214.893617,4,2,1,60,0,1
109397,-30.76923077,4,2,1,60,0,1
109407,-214.893617,4,2,1,60,0,1
109454,-30.76923077,4,2,1,60,0,1
109464,-214.893617,4,2,1,60,0,1
109510,-100,4,2,1,60,0,1
109516,-46.01812943,4,2,1,60,0,1
109530,-49.12678031,4,2,1,60,0,1
109550,-75.1465646,4,2,1,60,0,1
109573,-166.0802178,4,2,1,60,0,1
109598,-516.8533871,4,2,1,60,0,1
109623,-401.8609152,4,2,1,60,0,1
109645,-140.3510345,4,2,1,60,0,1
109663,-75.24472047,4,2,1,60,0,1
109675,-60.85901335,4,2,1,60,0,1
109681,-100,4,2,1,60,0,1
109737,-30.76923077,4,2,1,60,0,1
109747,-214.893617,4,2,1,60,0,1
109794,-30.76923077,4,2,1,60,0,1
109804,-214.893617,4,2,1,60,0,1
109851,-30.76923077,4,2,1,60,0,1
109861,-214.893617,4,2,1,60,0,1
109908,-30.76923077,4,2,1,60,0,1
109918,-214.893617,4,2,1,60,0,1
109964,-33.33333333,4,2,1,60,0,1
109986,-46.54723664,4,2,1,60,0,1
110008,-68.77266739,4,2,1,60,0,1
110032,-109.0354854,4,2,1,60,0,1
110056,-186.0275659,4,2,1,60,0,1
110082,-317.1255717,4,2,1,60,0,1
110108,-399.2558996,4,2,1,60,0,1
110134,-291.583475,4,2,1,60,0,1
110162,-168.6910539,4,2,1,60,0,1
110191,-100,4,2,1,60,0,1
110425,-46.01812943,4,2,1,60,0,1
110439,-49.12678031,4,2,1,60,0,1
110459,-75.1465646,4,2,1,60,0,1
110482,-166.0802178,4,2,1,60,0,1
110507,-516.8533871,4,2,1,60,0,1
110532,-401.8609152,4,2,1,60,0,1
110554,-140.3510345,4,2,1,60,0,1
110572,-75.24472047,4,2,1,60,0,1
110584,-60.85901335,4,2,1,60,0,1
110590,-100,4,2,1,60,0,1
111101,-30.76923077,4,2,1,60,0,1
111111,-214.893617,4,2,1,60,0,1
111158,-30.76923077,4,2,1,60,0,1
111168,-214.893617,4,2,1,60,0,1
111214,-30.76923077,4,2,1,60,0,1
111224,-214.893617,4,2,1,60,0,1
111271,-30.76923077,4,2,1,60,0,1
111281,-214.893617,4,2,1,60,0,1
111328,-100,4,2,1,60,0,1
111334,-46.01812943,4,2,1,60,0,1
111348,-49.12678031,4,2,1,60,0,1
111368,-75.1465646,4,2,1,60,0,1
111391,-166.0802178,4,2,1,60,0,1
111416,-516.8533871,4,2,1,60,0,1
111441,-401.8609152,4,2,1,60,0,1
111463,-140.3510345,4,2,1,60,0,1
111481,-75.24472047,4,2,1,60,0,1
111493,-60.85901335,4,2,1,60,0,1
111499,-100,4,2,1,60,0,1
112010,-30.76923077,4,2,1,60,0,1
112020,-214.893617,4,2,1,60,0,1
112067,-30.76923077,4,2,1,60,0,1
112077,-214.893617,4,2,1,60,0,1
112124,-30.76923077,4,2,1,60,0,1
112134,-214.893617,4,2,1,60,0,1
112180,-30.76923077,4,2,1,60,0,1
112190,-214.893617,4,2,1,60,0,1
112237,-100,4,2,1,60,0,1
112243,-46.01812943,4,2,1,60,0,1
112257,-49.12678031,4,2,1,60,0,1
112277,-75.1465646,4,2,1,60,0,1
112300,-166.0802178,4,2,1,60,0,1
112325,-516.8533871,4,2,1,60,0,1
112350,-401.8609152,4,2,1,60,0,1
112372,-140.3510345,4,2,1,60,0,1
112390,-75.24472047,4,2,1,60,0,1
112402,-60.85901335,4,2,1,60,0,1
112408,-100,4,2,1,60,0,1
113603,-25,4,2,1,60,0,1
113617,-35.05121419,4,2,1,60,0,1
113633,-52.37354591,4,2,1,60,0,1
113653,-85.5301578,4,2,1,60,0,1
113675,-158.1227061,4,2,1,60,0,1
113700,-334.3509879,4,2,1,60,0,1
113728,-591.0926441,4,2,1,60,0,1
113758,-412.0412134,4,2,1,60,0,1
113791,-192.4428526,4,2,1,60,0,1
113827,-100,4,2,1,60,0,1
114055,-526.3157895,4,2,1,60,0,0
114102,-22.00298105,4,2,1,60,0,0
114113,-526.3157895,4,2,1,60,0,0
114158,-22.00298105,4,2,1,60,0,0
114169,-526.3157895,4,2,1,60,0,0
114215,-22.00298105,4,2,1,60,0,0
114226,-526.3157895,4,2,1,60,0,0
114272,-22.00298105,4,2,1,60,0,0
114283,-526.3157895,4,2,1,60,0,0
114329,-22.00298105,4,2,1,60,0,0
114340,-526.3157895,4,2,1,60,0,0
114386,-22.00298105,4,2,1,60,0,0
114397,-526.3157895,4,2,1,60,0,0
114443,-22.00298105,4,2,1,60,0,0
114454,-100,4,2,1,60,0,0
114637,-16.66666667,4,2,1,60,0,0
114649,-891.8232866,4,2,1,60,0,0
114685,-387.4363427,4,2,1,60,0,0
114717,-193.1912839,4,2,1,60,0,0
114737,-100,4,2,1,60,0,0
114867,-16.66666667,4,2,1,60,0,0
114879,-891.8232866,4,2,1,60,0,0
114915,-387.4363427,4,2,1,60,0,0
114947,-193.1912839,4,2,1,60,0,0
114967,-100,4,2,1,60,0,0
115094,-16.66666667,4,2,1,60,0,0
115106,-891.8232866,4,2,1,60,0,0
115142,-387.4363427,4,2,1,60,0,0
115174,-193.1912839,4,2,1,60,0,0
115194,-100,4,2,1,60,0,0
115321,-16.66666667,4,2,1,60,0,0
115333,-891.8232866,4,2,1,60,0,0
115369,-387.4363427,4,2,1,60,0,0
115401,-193.1912839,4,2,1,60,0,0
115421,-100,4,2,1,60,0,0
115548,-16.66666667,4,2,1,60,0,0
115560,-891.8232866,4,2,1,60,0,0
115596,-387.4363427,4,2,1,60,0,0
115628,-193.1912839,4,2,1,60,0,0
115648,-100,4,2,1,60,0,0
115776,-16.66666667,4,2,1,60,0,0
115788,-891.8232866,4,2,1,60,0,0
115824,-387.4363427,4,2,1,60,0,0
115856,-193.1912839,4,2,1,60,0,0
115876,-100,4,2,1,60,0,0
116003,-16.66666667,4,2,1,60,0,0
116015,-891.8232866,4,2,1,60,0,0
116051,-387.4363427,4,2,1,60,0,0
116083,-193.1912839,4,2,1,60,0,0
116103,-100,4,2,1,60,0,0
116230,-16.66666667,4,2,1,60,0,0
116242,-891.8232866,4,2,1,60,0,0
116278,-387.4363427,4,2,1,60,0,0
116310,-193.1912839,4,2,1,60,0,0
116330,-100,4,2,1,60,0,0
117237,-20.5338809,4,2,1,60,0,0
117251,-237.1218316,4,2,1,60,0,0
117351,-100,4,2,1,60,0,0
117464,-20.5338809,4,2,1,60,0,0
117478,-237.1218316,4,2,1,60,0,0
117578,-100,4,2,1,60,0,0
117692,-20.5338809,4,2,1,60,0,0
117706,-237.1218316,4,2,1,60,0,0
117806,-100,4,2,1,60,0,0
117919,-20.5338809,4,2,1,60,0,0
117933,-237.1218316,4,2,1,60,0,0
118033,-100,4,2,1,60,0,0
118146,-20.5338809,4,2,1,60,0,0
118160,-237.1218316,4,2,1,60,0,0
118260,-100,4,2,1,60,0,0
118374,-20.5338809,4,2,1,60,0,0
118388,-237.1218316,4,2,1,60,0,0
118488,-100,4,2,1,60,0,0
118601,-20.5338809,4,2,1,60,0,0
118615,-237.1218316,4,2,1,60,0,0
118715,-100,4,2,1,60,0,0
118828,-20.5338809,4,2,1,60,0,0
118835,-237.1218316,4,2,1,60,0,0
118885,-20.5338809,4,2,1,60,0,0
118892,-237.1218316,4,2,1,60,0,0
118942,-20.5338809,4,2,1,60,0,0
118949,-237.1218316,4,2,1,60,0,0
118999,-20.5338809,4,2,1,60,0,0
119006,-237.1218316,4,2,1,60,0,0
119055,-100,4,2,1,60,0,0
121328,-20,4,2,1,60,0,0
121342,-36.73374015,4,2,1,60,0,0
121358,-120.8580153,4,2,1,60,0,0
121392,-304.9868628,4,2,1,60,0,0
121435,-438.417294,4,2,1,60,0,0
121487,-982.504348,4,2,1,60,0,0
121531,-125.8712082,4,2,1,60,0,0
121539,-34.05418949,4,2,1,60,0,0
121555,-100,4,2,1,60,0,0
122180,-20,4,2,1,60,0,0
122198,-36.73374015,4,2,1,60,0,0
122218,-120.8580153,4,2,1,60,0,0
122261,-304.9868628,4,2,1,60,0,0
122314,-438.417294,4,2,1,60,0,0
122379,-982.504348,4,2,1,60,0,0
122434,-125.8712082,4,2,1,60,0,0
122445,-34.05418949,4,2,1,60,0,0
122464,-100,4,2,1,60,0,0
123089,-20,4,2,1,60,0,0
123107,-36.73374015,4,2,1,60,0,0
123127,-120.8580153,4,2,1,60,0,0
123170,-304.9868628,4,2,1,60,0,0
123223,-438.417294,4,2,1,60,0,0
123288,-982.504348,4,2,1,60,0,0
123343,-125.8712082,4,2,1,60,0,0
123354,-34.05418949,4,2,1,60,0,0
123373,-100,4,2,1,60,0,0
124964,-20,4,2,1,60,0,0
124978,-36.73374015,4,2,1,60,0,0
124994,-120.8580153,4,2,1,60,0,0
125028,-304.9868628,4,2,1,60,0,0
125071,-438.417294,4,2,1,60,0,0
125123,-982.504348,4,2,1,60,0,0
125167,-125.8712082,4,2,1,60,0,0
125175,-34.05418949,4,2,1,60,0,0
125191,-100,4,2,1,60,0,0
125817,-20,4,2,1,60,0,0
125835,-36.73374015,4,2,1,60,0,0
125855,-120.8580153,4,2,1,60,0,0
125898,-304.9868628,4,2,1,60,0,0
125951,-438.417294,4,2,1,60,0,0
126016,-982.504348,4,2,1,60,0,0
126071,-125.8712082,4,2,1,60,0,0
126082,-34.05418949,4,2,1,60,0,0
126101,-100,4,2,1,60,0,0
126726,-20,4,2,1,60,0,0
126736,-36.73374015,4,2,1,60,0,0
126748,-120.8580153,4,2,1,60,0,0
126774,-304.9868628,4,2,1,60,0,0
126806,-438.417294,4,2,1,60,0,0
126845,-982.504348,4,2,1,60,0,0
126878,-125.8712082,4,2,1,60,0,0
126884,-34.05418949,4,2,1,60,0,0
126896,-100,4,2,1,60,0,0
128601,-20,4,2,1,60,0,0
128615,-36.73374015,4,2,1,60,0,0
128631,-120.8580153,4,2,1,60,0,0
128665,-304.9868628,4,2,1,60,0,0
128708,-438.417294,4,2,1,60,0,0
128760,-982.504348,4,2,1,60,0,0
128804,-125.8712082,4,2,1,60,0,0
128812,-34.05418949,4,2,1,60,0,0
128828,-100,4,2,1,60,0,0
129453,-20,4,2,1,60,0,0
129471,-36.73374015,4,2,1,60,0,0
129491,-120.8580153,4,2,1,60,0,0
129534,-304.9868628,4,2,1,60,0,0
129587,-438.417294,4,2,1,60,0,0
129652,-982.504348,4,2,1,60,0,0
129707,-125.8712082,4,2,1,60,0,0
129718,-34.05418949,4,2,1,60,0,0
129737,-100,4,2,1,60,0,0
130362,-20,4,2,1,60,0,0
130380,-36.73374015,4,2,1,60,0,0
130400,-120.8580153,4,2,1,60,0,0
130443,-304.9868628,4,2,1,60,0,0
130496,-438.417294,4,2,1,60,0,0
130561,-982.504348,4,2,1,60,0,0
130616,-125.8712082,4,2,1,60,0,0
130627,-34.05418949,4,2,1,60,0,0
130646,-100,4,2,1,60,0,0
132237,-20,4,2,1,60,0,0
132251,-36.73374015,4,2,1,60,0,0
132267,-120.8580153,4,2,1,60,0,0
132301,-304.9868628,4,2,1,60,0,0
132344,-438.417294,4,2,1,60,0,0
132396,-982.504348,4,2,1,60,0,0
132440,-125.8712082,4,2,1,60,0,0
132448,-34.05418949,4,2,1,60,0,0
132464,-100,4,2,1,60,0,0
133146,-20,4,2,1,60,0,0
133156,-36.73374015,4,2,1,60,0,0
133168,-120.8580153,4,2,1,60,0,0
133194,-304.9868628,4,2,1,60,0,0
133226,-438.417294,4,2,1,60,0,0
133265,-982.504348,4,2,1,60,0,0
133298,-125.8712082,4,2,1,60,0,0
133304,-34.05418949,4,2,1,60,0,0
133316,-100,4,2,1,60,0,0
133324,-125.8712082,4,2,1,60,0,0
133331,-34.05418949,4,2,1,60,0,0
133345,-100,4,2,1,60,0,0
134510,-16.94915227,4,2,1,60,0,0
134516,-24.25492075,4,2,1,60,0,0
134526,-37.49064031,4,2,1,60,0,0
134540,-65.21566879,4,2,1,60,0,0
134557,-138.6965044,4,2,1,60,0,0
134578,-434.3917196,4,2,1,60,0,0
134602,-1639.380086,4,2,1,60,0,0
134630,-468.6610788,4,2,1,60,0,0
134661,-145.490015,4,2,1,60,0,0
134696,-67.43659506,4,2,1,60,0,0
134735,-38.46153987,4,2,1,60,0,0
134737,-100,4,2,1,60,0,0
134964,-19.60784314,4,2,1,60,0,0
134971,-265.6058752,4,2,1,60,0,0
135021,-19.60784314,4,2,1,60,0,0
135028,-265.6058752,4,2,1,60,0,0
135078,-19.60784314,4,2,1,60,0,0
135085,-265.6058752,4,2,1,60,0,0
135135,-19.60784314,4,2,1,60,0,0
135142,-265.6058752,4,2,1,60,0,0
135192,-19.60784314,4,2,1,60,0,0
135199,-265.6058752,4,2,1,60,0,0
135249,-19.60784314,4,2,1,60,0,0
135256,-265.6058752,4,2,1,60,0,0
135305,-19.60784314,4,2,1,60,0,0
135312,-265.6058752,4,2,1,60,0,0
135362,-19.60784314,4,2,1,60,0,0
135369,-265.6058752,4,2,1,60,0,0
135419,-100,4,2,1,60,0,0
149037,-121.0522412,4,2,1,60,0,0
149095,-148.0675653,4,2,1,60,0,0
149154,-182.5373507,4,2,1,60,0,0
149213,-225.4858191,4,2,1,60,0,0
149273,-275.9924835,4,2,1,60,0,0
149333,-328.5597959,4,2,1,60,0,0
149394,-370.9521886,4,2,1,60,0,0
149455,-387.6232028,4,2,1,60,0,0
149517,-370.9521886,4,2,1,60,0,0
149579,-328.5597959,4,2,1,60,0,0
149642,-275.9924835,4,2,1,60,0,0
149705,-225.4858191,4,2,1,60,0,0
149769,-182.5373507,4,2,1,60,0,0
149833,-148.0675653,4,2,1,60,0,0
149898,-121.0522412,4,2,1,60,0,0
149964,-100,4,2,1,60,0,0
167237,-29.41176471,4,2,1,60,0,0
167256,-560.1503759,4,2,1,60,0,0
167313,-29.41176471,4,2,1,60,0,0
167332,-560.1503759,4,2,1,60,0,0
167388,-29.41176471,4,2,1,60,0,0
167407,-560.1503759,4,2,1,60,0,0
167494,-24.03509591,4,2,1,60,0,0
167502,-555.5555556,4,2,1,60,0,0
167532,-24.03509591,4,2,1,60,0,0
167540,-555.5555556,4,2,1,60,0,0
167570,-24.03509591,4,2,1,60,0,0
167578,-555.5555556,4,2,1,60,0,0
167608,-24.03509591,4,2,1,60,0,0
167616,-555.5555556,4,2,1,60,0,0
167646,-24.03509591,4,2,1,60,0,0
167654,-555.5555556,4,2,1,60,0,0
167683,-24.03509591,4,2,1,60,0,0
167692,-29.41176471,4,2,1,60,0,0
167711,-560.1503759,4,2,1,60,0,0
167768,-29.41176471,4,2,1,60,0,0
167787,-560.1503759,4,2,1,60,0,0
167843,-29.41176471,4,2,1,60,0,0
167862,-560.1503759,4,2,1,60,0,0
167919,-555.5555556,4,2,1,60,0,0
167928,-560.1503759,4,2,1,60,0,0
167949,-24.03509591,4,2,1,60,0,0
167957,-555.5555556,4,2,1,60,0,0
167987,-24.03509591,4,2,1,60,0,0
167995,-555.5555556,4,2,1,60,0,0
168025,-24.03509591,4,2,1,60,0,0
168033,-555.5555556,4,2,1,60,0,0
168063,-24.03509591,4,2,1,60,0,0
168071,-555.5555556,4,2,1,60,0,0
168101,-24.03509591,4,2,1,60,0,0
168109,-555.5555556,4,2,1,60,0,0
168138,-24.03509591,4,2,1,60,0,0
168146,-100,4,2,1,60,0,0
170873,-16.94915227,4,2,1,60,0,0
170887,-24.25492075,4,2,1,60,0,0
170907,-37.49064031,4,2,1,60,0,0
170934,-65.21566879,4,2,1,60,0,0
170968,-138.6965044,4,2,1,60,0,0
171010,-434.3917196,4,2,1,60,0,0
171058,-1639.380086,4,2,1,60,0,0
171114,-468.6610788,4,2,1,60,0,0
171177,-145.490015,4,2,1,60,0,0
171247,-67.43659506,4,2,1,60,0,0
171324,-38.46153987,4,2,1,60,0,0
171328,-27.17391304,4,2,1,60,0,0
171335,-171.899841,4,2,1,60,0,0
171385,-27.17391304,4,2,1,60,0,0
171392,-171.899841,4,2,1,60,0,0
171442,-27.17391304,4,2,1,60,0,0
171449,-171.899841,4,2,1,60,0,0
171499,-27.17391304,4,2,1,60,0,0
171506,-171.899841,4,2,1,60,0,0
171555,-27.17391304,4,2,1,60,0,0
171562,-171.899841,4,2,1,60,0,0
171612,-27.17391304,4,2,1,60,0,0
171619,-171.899841,4,2,1,60,0,0
171669,-27.17391304,4,2,1,60,0,0
171676,-171.899841,4,2,1,60,0,0
171726,-27.17391304,4,2,1,60,0,0
171733,-171.899841,4,2,1,60,0,0
171783,-100,4,2,1,60,0,0
174510,-29.41176471,4,2,1,60,0,0
174529,-560.1503759,4,2,1,60,0,0
174586,-29.41176471,4,2,1,60,0,0
174605,-560.1503759,4,2,1,60,0,0
174661,-29.41176471,4,2,1,60,0,0
174680,-560.1503759,4,2,1,60,0,0
174737,-29.41176471,4,2,1,60,0,0
174746,-560.1503759,4,2,1,60,0,0
174767,-24.03509591,4,2,1,60,0,0
174775,-555.5555556,4,2,1,60,0,0
174805,-24.03509591,4,2,1,60,0,0
174813,-555.5555556,4,2,1,60,0,0
174843,-24.03509591,4,2,1,60,0,0
174851,-555.5555556,4,2,1,60,0,0
174881,-24.03509591,4,2,1,60,0,0
174889,-555.5555556,4,2,1,60,0,0
174919,-24.03509591,4,2,1,60,0,0
174927,-555.5555556,4,2,1,60,0,0
174956,-24.03509591,4,2,1,60,0,0
174964,-29.41176471,4,2,1,60,0,0
174983,-560.1503759,4,2,1,60,0,0
175040,-29.41176471,4,2,1,60,0,0
175059,-560.1503759,4,2,1,60,0,0
175115,-29.41176471,4,2,1,60,0,0
175134,-560.1503759,4,2,1,60,0,0
175191,-29.41176471,4,2,1,60,0,0
175200,-560.1503759,4,2,1,60,0,0
175221,-24.03509591,4,2,1,60,0,0
175229,-555.5555556,4,2,1,60,0,0
175259,-24.03509591,4,2,1,60,0,0
175267,-555.5555556,4,2,1,60,0,0
175297,-24.03509591,4,2,1,60,0,0
175305,-555.5555556,4,2,1,60,0,0
175335,-24.03509591,4,2,1,60,0,0
175343,-555.5555556,4,2,1,60,0,0
175373,-24.03509591,4,2,1,60,0,0
175381,-555.5555556,4,2,1,60,0,0
175410,-24.03509591,4,2,1,60,0,0
175419,-100,4,2,1,60,0,0
179055,458.0152672,4,2,1,60,1,0
179055,-98.4848484852961,4,2,1,60,0,0
180887,461.5384616,4,2,1,60,1,0
180887,-96.296296296439,4,2,1,60,0,0
182733,472.4409448,4,2,1,60,1,0
182733,-95.4545454544587,4,2,1,60,0,0
186512,487.804878,4,2,1,60,1,0
186512,-94.6969696969697,4,2,1,60,0,0
190414,495.8677686,4,2,1,60,1,0
190414,-91.6666666665903,4,2,1,60,0,0
192397,512.8205128,4,2,1,60,1,0
192397,-90.1515151514332,4,2,1,60,0,0
194437,508.4745762,4,2,1,60,1,0
194437,-21.78649237,4,2,1,60,0,0
194445,-169.4915254,4,2,1,60,0,0
194500,-21.78649237,4,2,1,60,0,0
194508,-169.4915254,4,2,1,60,0,0
194564,-21.78649237,4,2,1,60,0,0
194572,-169.4915254,4,2,1,60,0,0
194627,-21.78649237,4,2,1,60,0,0
194635,-169.4915254,4,2,1,60,0,0
194691,-88.49557522,4,2,1,60,0,0
196470,521.7391304,4,2,1,60,1,0
196470,-21.78649237,4,2,1,60,0,0
196478,-163.0998397,4,2,1,60,0,0
196535,-21.78649237,4,2,1,60,0,0
196543,-163.0998397,4,2,1,60,0,0
196600,-21.78649237,4,2,1,60,0,0
196608,-163.0998397,4,2,1,60,0,0
196665,-21.78649237,4,2,1,60,0,0
196673,-163.0998397,4,2,1,60,0,0
196730,-86.95652174,4,2,1,60,0,0
198568,530.9734514,4,2,1,60,1,0
198568,-21.88183807,4,2,1,60,0,0
198576,-156.4053883,4,2,1,60,0,0
198634,-21.88183807,4,2,1,60,0,0
198642,-156.4053883,4,2,1,60,0,0
198700,-21.88183807,4,2,1,60,0,0
198709,-156.4053883,4,2,1,60,0,0
198767,-21.88183807,4,2,1,60,0,0
198775,-156.4053883,4,2,1,60,0,0
198833,-85.47008547,4,2,1,60,0,0
200695,542.9864254,4,2,1,60,1,0
200695,-21.92982456,4,2,1,60,0,0
200704,-150.591922,4,2,1,60,0,0
200762,-21.92982456,4,2,1,60,0,0
200771,-150.591922,4,2,1,60,0,0
200830,-21.92982456,4,2,1,60,0,0
200839,-150.591922,4,2,1,60,0,0
200898,-21.92982456,4,2,1,60,0,0
200907,-150.591922,4,2,1,60,0,0
200966,-84.03361345,4,2,1,60,0,0
202864,545.454545454546,4,2,1,60,1,0
202864,-21.69197397,4,2,1,60,0,0
202873,-149.7446551,4,2,1,60,0,0
202932,-21.69197397,4,2,1,60,0,0
202941,-149.7446551,4,2,1,60,0,0
203000,-21.69197397,4,2,1,60,0,0
203009,-149.7446551,4,2,1,60,0,0
203068,-21.69197397,4,2,1,60,0,0
203077,-149.7446551,4,2,1,60,0,0
203136,-83.33333333,4,2,1,60,0,0
203954,-21.69197397,4,2,1,60,0,0
203963,-149.7446551,4,2,1,60,0,0
204023,-21.69197397,4,2,1,60,0,0
204032,-149.7446551,4,2,1,60,0,0
204091,-21.69197397,4,2,1,60,0,0
204100,-149.7446551,4,2,1,60,0,0
204159,-21.69197397,4,2,1,60,0,0
204168,-149.7446551,4,2,1,60,0,0
204227,-83.33333333,4,2,1,60,0,0
205045,-21.69197397,4,2,1,60,0,0
205054,-149.7446551,4,2,1,60,0,0
205114,-21.69197397,4,2,1,60,0,0
205123,-149.7446551,4,2,1,60,0,0
205182,-21.69197397,4,2,1,60,0,0
205191,-149.7446551,4,2,1,60,0,0
205250,-21.69197397,4,2,1,60,0,0
205259,-149.7446551,4,2,1,60,0,0
205318,-83.33333333,4,2,1,60,0,0
206136,-21.69197397,4,2,1,60,0,0
206145,-149.7446551,4,2,1,60,0,0
206204,-21.69197397,4,2,1,60,0,0
206213,-149.7446551,4,2,1,60,0,0
206273,-21.69197397,4,2,1,60,0,0
206282,-149.7446551,4,2,1,60,0,0
206341,-21.69197397,4,2,1,60,0,0
206350,-149.7446551,4,2,1,60,0,0
206409,-83.33333333,4,2,1,60,0,0
209409,-83.33333002,4,2,1,60,0,0
209536,-94.15928131,4,2,1,60,0,0
209661,-106.8310295,4,2,1,60,0,0
209782,-121.6422897,4,2,1,60,0,0
209901,-138.8686847,4,2,1,60,0,0
210016,-158.6988245,4,2,1,60,0,0
210127,-181.1130369,4,2,1,60,0,0
210236,-205.6953851,4,2,1,60,0,0
210341,-231.3917316,4,2,1,60,0,0
210443,-256.2941266,4,2,1,60,0,0
210542,-277.6364386,4,2,1,60,0,0
210638,-292.2377025,4,2,1,60,0,0
210731,-297.4521777,4,2,1,60,0,0
210820,-292.2377025,4,2,1,60,0,0
210906,-277.6364386,4,2,1,60,0,0
210989,-256.2941266,4,2,1,60,0,0
211069,-231.3917316,4,2,1,60,0,0
211145,-205.6953851,4,2,1,60,0,0
211218,-181.1130369,4,2,1,60,0,0
211288,-158.6988245,4,2,1,60,0,0
211355,-138.8686847,4,2,1,60,0,0
211419,-121.6422897,4,2,1,60,0,0
211479,-106.8310295,4,2,1,60,0,0
211537,-94.15928131,4,2,1,60,0,0
211591,-83.33333002,4,2,1,60,0,1
212136,-13.26259947,4,2,1,60,0,1
212139,-201.793722,4,2,1,60,0,1
212170,-13.26259947,4,2,1,60,0,1
212180,-201.793722,4,2,1,60,0,1
212273,-13.26259947,4,2,1,60,0,1
212276,-201.793722,4,2,1,60,0,1
212307,-13.26259947,4,2,1,60,0,1
212317,-201.793722,4,2,1,60,0,1
212409,-13.26259947,4,2,1,60,0,1
212412,-201.793722,4,2,1,60,0,1
212443,-13.26259947,4,2,1,60,0,1
212453,-201.793722,4,2,1,60,0,1
212545,-13.26259947,4,2,1,60,0,1
212548,-201.793722,4,2,1,60,0,1
212579,-13.26259947,4,2,1,60,0,1
212589,-201.793722,4,2,1,60,0,1
212682,-13.26259947,4,2,1,60,0,1
212685,-201.793722,4,2,1,60,0,1
212716,-13.26259947,4,2,1,60,0,1
212726,-201.793722,4,2,1,60,0,1
212818,-13.26259947,4,2,1,60,0,1
212821,-201.793722,4,2,1,60,0,1
212852,-13.26259947,4,2,1,60,0,1
212862,-201.793722,4,2,1,60,0,1
212954,-13.26259947,4,2,1,60,0,1
212957,-201.793722,4,2,1,60,0,1
212988,-13.26259947,4,2,1,60,0,1
212998,-201.793722,4,2,1,60,0,1
213091,-13.26259947,4,2,1,60,0,1
213094,-201.793722,4,2,1,60,0,1
213125,-13.26259947,4,2,1,60,0,1
213135,-201.793722,4,2,1,60,0,1
213227,-83.33333333,4,2,1,60,0,1
216500,-21.92982456,4,2,1,60,0,1
216509,-148.0150582,4,2,1,60,0,1
216568,-21.92982456,4,2,1,60,0,1
216577,-148.0150582,4,2,1,60,0,1
216636,-21.92982456,4,2,1,60,0,1
216645,-148.0150582,4,2,1,60,0,1
216704,-21.92982456,4,2,1,60,0,1
216713,-148.0150582,4,2,1,60,0,1
216773,-21.92982456,4,2,1,60,0,1
216782,-148.0150582,4,2,1,60,0,1
216841,-21.92982456,4,2,1,60,0,1
216850,-148.0150582,4,2,1,60,0,1
216909,-21.92982456,4,2,1,60,0,1
216918,-148.0150582,4,2,1,60,0,1
216977,-21.92982456,4,2,1,60,0,1
216986,-148.0150582,4,2,1,60,0,1
217045,-21.92982456,4,2,1,60,0,1
217054,-148.0150582,4,2,1,60,0,1
217114,-21.92982456,4,2,1,60,0,1
217123,-148.0150582,4,2,1,60,0,1
217182,-21.92982456,4,2,1,60,0,1
217191,-148.0150582,4,2,1,60,0,1
217250,-21.92982456,4,2,1,60,0,1
217259,-148.0150582,4,2,1,60,0,1
217318,-21.92982456,4,2,1,60,0,1
217327,-148.0150582,4,2,1,60,0,1
217386,-21.92982456,4,2,1,60,0,1
217395,-148.0150582,4,2,1,60,0,1
217454,-21.92982456,4,2,1,60,0,1
217463,-148.0150582,4,2,1,60,0,1
217523,-21.92982456,4,2,1,60,0,1
217532,-148.0150582,4,2,1,60,0,1
217591,-83.33333333,4,2,1,60,0,1
220864,-13.26259947,4,2,1,60,0,1
220867,-201.793722,4,2,1,60,0,1
220898,-13.26259947,4,2,1,60,0,1
220908,-201.793722,4,2,1,60,0,1
221001,-13.26259947,4,2,1,60,0,1
221004,-201.793722,4,2,1,60,0,1
221035,-13.26259947,4,2,1,60,0,1
221045,-201.793722,4,2,1,60,0,1
221137,-13.26259947,4,2,1,60,0,1
221140,-201.793722,4,2,1,60,0,1
221171,-13.26259947,4,2,1,60,0,1
221181,-201.793722,4,2,1,60,0,1
221273,-13.26259947,4,2,1,60,0,1
221276,-201.793722,4,2,1,60,0,1
221307,-13.26259947,4,2,1,60,0,1
221317,-201.793722,4,2,1,60,0,1
221410,-13.26259947,4,2,1,60,0,1
221413,-201.793722,4,2,1,60,0,1
221444,-13.26259947,4,2,1,60,0,1
221454,-201.793722,4,2,1,60,0,1
221546,-13.26259947,4,2,1,60,0,1
221549,-201.793722,4,2,1,60,0,1
221580,-13.26259947,4,2,1,60,0,1
221590,-201.793722,4,2,1,60,0,1
221682,-13.26259947,4,2,1,60,0,1
221685,-201.793722,4,2,1,60,0,1
221716,-13.26259947,4,2,1,60,0,1
221726,-201.793722,4,2,1,60,0,1
221819,-13.26259947,4,2,1,60,0,1
221822,-201.793722,4,2,1,60,0,1
221853,-13.26259947,4,2,1,60,0,1
221863,-201.793722,4,2,1,60,0,1
221955,-83.33333333,4,2,1,60,0,1
225227,-21.92982456,4,2,1,60,0,1
225236,-148.0150582,4,2,1,60,0,1
225295,-21.92982456,4,2,1,60,0,1
225304,-148.0150582,4,2,1,60,0,1
225364,-21.92982456,4,2,1,60,0,1
225373,-148.0150582,4,2,1,60,0,1
225432,-21.92982456,4,2,1,60,0,1
225441,-148.0150582,4,2,1,60,0,1
225500,-21.92982456,4,2,1,60,0,1
225509,-148.0150582,4,2,1,60,0,1
225568,-21.92982456,4,2,1,60,0,1
225577,-148.0150582,4,2,1,60,0,1
225636,-21.92982456,4,2,1,60,0,1
225645,-148.0150582,4,2,1,60,0,1
225704,-21.92982456,4,2,1,60,0,1
225713,-148.0150582,4,2,1,60,0,1
225773,-21.92982456,4,2,1,60,0,1
225782,-148.0150582,4,2,1,60,0,1
225841,-21.92982456,4,2,1,60,0,1
225850,-148.0150582,4,2,1,60,0,1
225909,-21.92982456,4,2,1,60,0,1
225918,-148.0150582,4,2,1,60,0,1
225977,-21.92982456,4,2,1,60,0,1
225986,-148.0150582,4,2,1,60,0,1
226045,-21.92982456,4,2,1,60,0,1
226054,-148.0150582,4,2,1,60,0,1
226114,-21.92982456,4,2,1,60,0,1
226123,-148.0150582,4,2,1,60,0,1
226182,-21.92982456,4,2,1,60,0,1
226191,-148.0150582,4,2,1,60,0,1
226250,-21.92982456,4,2,1,60,0,1
226259,-148.0150582,4,2,1,60,0,1
226318,-83.33333333,4,2,1,60,0,1
226864,-83.33333333,4,2,1,60,0,0
229045,-83.3333333333333,4,2,1,60,0,1
229591,-13.26259947,4,2,1,60,0,1
229594,-201.793722,4,2,1,60,0,1
229625,-13.26259947,4,2,1,60,0,1
229628,-201.793722,4,2,1,60,0,1
229659,-13.26259947,4,2,1,60,0,1
229665,-201.793722,4,2,1,60,0,1
229727,-13.26259947,4,2,1,60,0,1
229730,-201.793722,4,2,1,60,0,1
229761,-13.26259947,4,2,1,60,0,1
229771,-201.793722,4,2,1,60,0,1
229863,-13.26259947,4,2,1,60,0,1
229866,-201.793722,4,2,1,60,0,1
229898,-13.26259947,4,2,1,60,0,1
229908,-201.793722,4,2,1,60,0,1
230000,-13.26259947,4,2,1,60,0,1
230003,-201.793722,4,2,1,60,0,1
230034,-13.26259947,4,2,1,60,0,1
230044,-201.793722,4,2,1,60,0,1
230136,-13.26259947,4,2,1,60,0,1
230139,-201.793722,4,2,1,60,0,1
230170,-13.26259947,4,2,1,60,0,1
230180,-201.793722,4,2,1,60,0,1
230273,-13.26259947,4,2,1,60,0,1
230276,-201.793722,4,2,1,60,0,1
230307,-13.26259947,4,2,1,60,0,1
230317,-201.793722,4,2,1,60,0,1
230409,-13.26259947,4,2,1,60,0,1
230412,-201.793722,4,2,1,60,0,1
230443,-13.26259947,4,2,1,60,0,1
230446,-201.793722,4,2,1,60,0,1
230477,-13.26259947,4,2,1,60,0,1
230483,-201.793722,4,2,1,60,0,1
230545,-13.26259947,4,2,1,60,0,1
230548,-201.793722,4,2,1,60,0,1
230579,-13.26259947,4,2,1,60,0,1
230589,-201.793722,4,2,1,60,0,1
230682,-83.33333333,4,2,1,60,0,1
233954,-21.92982456,4,2,1,60,0,1
233963,-148.0150582,4,2,1,60,0,1
234023,-21.92982456,4,2,1,60,0,1
234032,-148.0150582,4,2,1,60,0,1
234091,-21.92982456,4,2,1,60,0,1
234100,-148.0150582,4,2,1,60,0,1
234159,-21.92982456,4,2,1,60,0,1
234168,-148.0150582,4,2,1,60,0,1
234227,-21.92982456,4,2,1,60,0,1
234236,-148.0150582,4,2,1,60,0,1
234295,-21.92982456,4,2,1,60,0,1
234304,-148.0150582,4,2,1,60,0,1
234364,-21.92982456,4,2,1,60,0,1
234373,-148.0150582,4,2,1,60,0,1
234432,-21.92982456,4,2,1,60,0,1
234441,-148.0150582,4,2,1,60,0,1
234500,-21.92982456,4,2,1,60,0,1
234509,-148.0150582,4,2,1,60,0,1
234568,-21.92982456,4,2,1,60,0,1
234577,-148.0150582,4,2,1,60,0,1
234636,-21.92982456,4,2,1,60,0,1
234645,-148.0150582,4,2,1,60,0,1
234704,-21.92982456,4,2,1,60,0,1
234713,-148.0150582,4,2,1,60,0,1
234773,-21.92982456,4,2,1,60,0,1
234782,-148.0150582,4,2,1,60,0,1
234841,-21.92982456,4,2,1,60,0,1
234850,-148.0150582,4,2,1,60,0,1
234909,-21.92982456,4,2,1,60,0,1
234918,-148.0150582,4,2,1,60,0,1
234977,-21.92982456,4,2,1,60,0,1
234986,-148.0150582,4,2,1,60,0,1
235045,-83.33333333,4,2,1,60,0,1
237773,-29.41176388,4,2,1,60,0,1
237786,-40.53713513,4,2,1,60,0,1
237799,-58.61946628,4,2,1,60,0,1
237814,-89.51488328,4,2,1,60,0,1
237828,-142.751565,4,2,1,60,0,1
237843,-219.2630077,4,2,1,60,0,1
237859,-260.5528566,4,2,1,60,0,1
237875,-206.7415332,4,2,1,60,0,1
237891,-132.3166657,4,2,1,60,0,1
237909,-83.33333002,4,2,1,60,0,1
238864,-29.41176388,4,2,1,60,0,1
238877,-40.53713513,4,2,1,60,0,1
238890,-58.61946628,4,2,1,60,0,1
238905,-89.51488328,4,2,1,60,0,1
238919,-142.751565,4,2,1,60,0,1
238934,-219.2630077,4,2,1,60,0,1
238950,-260.5528566,4,2,1,60,0,1
238966,-206.7415332,4,2,1,60,0,1
238982,-132.3166657,4,2,1,60,0,1
239000,-83.33333002,4,2,1,60,0,1
239954,-29.41176388,4,2,1,60,0,1
239967,-40.53713513,4,2,1,60,0,1
239980,-58.61946628,4,2,1,60,0,1
239995,-89.51488328,4,2,1,60,0,1
240009,-142.751565,4,2,1,60,0,1
240024,-219.2630077,4,2,1,60,0,1
240040,-260.5528566,4,2,1,60,0,1
240056,-206.7415332,4,2,1,60,0,1
240072,-132.3166657,4,2,1,60,0,1
240090,-83.33333002,4,2,1,60,0,1
241045,-29.41176388,4,2,1,60,0,1
241058,-40.53713513,4,2,1,60,0,1
241071,-58.61946628,4,2,1,60,0,1
241086,-89.51488328,4,2,1,60,0,1
241100,-142.751565,4,2,1,60,0,1
241115,-219.2630077,4,2,1,60,0,1
241131,-260.5528566,4,2,1,60,0,1
241147,-206.7415332,4,2,1,60,0,1
241163,-132.3166657,4,2,1,60,0,1
241181,-83.33333002,4,2,1,60,0,1
242136,-25.06265664,4,2,1,60,0,1
242144,-127.6970498,4,2,1,60,0,1
242204,-25.06265664,4,2,1,60,0,1
242212,-127.6970498,4,2,1,60,0,1
242273,-25.06265664,4,2,1,60,0,1
242281,-127.6970498,4,2,1,60,0,1
242341,-25.06265664,4,2,1,60,0,1
242349,-127.6970498,4,2,1,60,0,1
242409,-25.06265664,4,2,1,60,0,1
242417,-127.6970498,4,2,1,60,0,1
242477,-25.06265664,4,2,1,60,0,1
242485,-127.6970498,4,2,1,60,0,1
242545,-25.06265664,4,2,1,60,0,1
242553,-127.6970498,4,2,1,60,0,1
242614,-25.06265664,4,2,1,60,0,1
242622,-127.6970498,4,2,1,60,0,1
242682,-25.06265664,4,2,1,60,0,1
242690,-127.6970498,4,2,1,60,0,1
242750,-25.06265664,4,2,1,60,0,1
242758,-127.6970498,4,2,1,60,0,1
242818,-25.06265664,4,2,1,60,0,1
242826,-127.6970498,4,2,1,60,0,1
242886,-25.06265664,4,2,1,60,0,1
242894,-127.6970498,4,2,1,60,0,1
242954,-25.06265664,4,2,1,60,0,1
242962,-127.6970498,4,2,1,60,0,1
243023,-25.06265664,4,2,1,60,0,1
243031,-127.6970498,4,2,1,60,0,1
243091,-25.06265664,4,2,1,60,0,1
243099,-127.6970498,4,2,1,60,0,1
243159,-25.06265664,4,2,1,60,0,1
243167,-127.6970498,4,2,1,60,0,1
243227,-20,4,2,1,60,0,1
243235,-158.1818182,4,2,1,60,0,1
243295,-20,4,2,1,60,0,1
243303,-158.1818182,4,2,1,60,0,1
243364,-20,4,2,1,60,0,1
243372,-158.1818182,4,2,1,60,0,1
243432,-20,4,2,1,60,0,1
243440,-158.1818182,4,2,1,60,0,1
243500,-20,4,2,1,60,0,1
243508,-158.1818182,4,2,1,60,0,1
243568,-20,4,2,1,60,0,1
243576,-158.1818182,4,2,1,60,0,1
243636,-20,4,2,1,60,0,1
243644,-158.1818182,4,2,1,60,0,1
243704,-20,4,2,1,60,0,1
243712,-158.1818182,4,2,1,60,0,1
243773,-16.66666667,4,2,1,60,0,1
243781,-207.1428571,4,2,1,60,0,1
243841,-16.66666667,4,2,1,60,0,1
243849,-207.1428571,4,2,1,60,0,1
243909,-16.66666667,4,2,1,60,0,1
243917,-207.1428571,4,2,1,60,0,1
243977,-16.66666667,4,2,1,60,0,1
243985,-207.1428571,4,2,1,60,0,1
244045,-16.66666667,4,2,1,60,0,1
244053,-207.1428571,4,2,1,60,0,1
244114,-16.66666667,4,2,1,60,0,1
244122,-207.1428571,4,2,1,60,0,1
244182,-16.66666667,4,2,1,60,0,1
244190,-207.1428571,4,2,1,60,0,1
244250,-16.66666667,4,2,1,60,0,1
244258,-207.1428571,4,2,1,60,0,1
244318,-83.33333333,4,2,1,60,0,0
246500,-16.66666667,4,2,1,60,0,1
246510,-89.43239069,4,2,1,60,0,1
246516,-469.6583991,4,2,1,60,0,1
246544,-382.4586919,4,2,1,60,0,1
246561,-161.3025874,4,2,1,60,0,1
246568,-83.33333002,4,2,1,60,0,1
247045,-16.66666667,4,2,1,60,0,1
247055,-89.43239069,4,2,1,60,0,1
247061,-469.6583991,4,2,1,60,0,1
247089,-382.4586919,4,2,1,60,0,1
247106,-161.3025874,4,2,1,60,0,1
247113,-83.33333002,4,2,1,60,0,1
247591,-16.66666667,4,2,1,60,0,1
247601,-89.43239069,4,2,1,60,0,1
247607,-469.6583991,4,2,1,60,0,1
247635,-382.4586919,4,2,1,60,0,1
247652,-161.3025874,4,2,1,60,0,1
247659,-83.33333002,4,2,1,60,0,1
248136,-16.66666667,4,2,1,60,0,1
248146,-89.43239069,4,2,1,60,0,1
248152,-469.6583991,4,2,1,60,0,1
248180,-382.4586919,4,2,1,60,0,1
248197,-161.3025874,4,2,1,60,0,1
248204,-83.33333002,4,2,1,60,0,1
248682,-16.66666667,4,2,1,60,0,1
248692,-89.43239069,4,2,1,60,0,1
248698,-469.6583991,4,2,1,60,0,1
248726,-382.4586919,4,2,1,60,0,1
248743,-161.3025874,4,2,1,60,0,1
248750,-83.33333002,4,2,1,60,0,1
249227,-16.66666667,4,2,1,60,0,1
249237,-89.43239069,4,2,1,60,0,1
249243,-469.6583991,4,2,1,60,0,1
249271,-382.4586919,4,2,1,60,0,1
249288,-161.3025874,4,2,1,60,0,1
249295,-83.33333002,4,2,1,60,0,1
249773,-16.66666667,4,2,1,60,0,1
249783,-89.43239069,4,2,1,60,0,1
249789,-469.6583991,4,2,1,60,0,1
249817,-382.4586919,4,2,1,60,0,1
249834,-161.3025874,4,2,1,60,0,1
249841,-83.33333002,4,2,1,60,0,1
250318,-16.66666667,4,2,1,60,0,1
250328,-89.43239069,4,2,1,60,0,1
250334,-469.6583991,4,2,1,60,0,1
250362,-382.4586919,4,2,1,60,0,1
250379,-161.3025874,4,2,1,60,0,1
250386,-83.33333002,4,2,1,60,0,1
250864,-16.66666667,4,2,1,60,0,1
250874,-89.43239069,4,2,1,60,0,1
250880,-469.6583991,4,2,1,60,0,1
250908,-382.4586919,4,2,1,60,0,1
250925,-161.3025874,4,2,1,60,0,1
250932,-83.33333002,4,2,1,60,0,1
251409,-16.66666667,4,2,1,60,0,1
251419,-89.43239069,4,2,1,60,0,1
251425,-469.6583991,4,2,1,60,0,1
251453,-382.4586919,4,2,1,60,0,1
251470,-161.3025874,4,2,1,60,0,1
251477,-83.33333002,4,2,1,60,0,1
251954,-16.66666667,4,2,1,60,0,1
251964,-89.43239069,4,2,1,60,0,1
251970,-469.6583991,4,2,1,60,0,1
251998,-382.4586919,4,2,1,60,0,1
252015,-161.3025874,4,2,1,60,0,1
252022,-83.33333002,4,2,1,60,0,1
252500,-16.66666667,4,2,1,60,0,1
252510,-89.43239069,4,2,1,60,0,1
252516,-469.6583991,4,2,1,60,0,1
252544,-382.4586919,4,2,1,60,0,1
252561,-161.3025874,4,2,1,60,0,1
252568,-83.33333002,4,2,1,60,0,1
253045,-16.66666667,4,2,1,60,0,1
253055,-89.43239069,4,2,1,60,0,1
253061,-469.6583991,4,2,1,60,0,1
253089,-382.4586919,4,2,1,60,0,1
253106,-161.3025874,4,2,1,60,0,1
253113,-83.33333002,4,2,1,60,0,1
253591,-16.66666667,4,2,1,60,0,1
253601,-89.43239069,4,2,1,60,0,1
253607,-469.6583991,4,2,1,60,0,1
253635,-382.4586919,4,2,1,60,0,1
253652,-161.3025874,4,2,1,60,0,1
253659,-83.33333002,4,2,1,60,0,1
254136,-16.66666667,4,2,1,60,0,1
254146,-89.43239069,4,2,1,60,0,1
254152,-469.6583991,4,2,1,60,0,1
254180,-382.4586919,4,2,1,60,0,1
254197,-161.3025874,4,2,1,60,0,1
254204,-83.33333002,4,2,1,60,0,1
254682,-16.66666667,4,2,1,60,0,1
254692,-89.43239069,4,2,1,60,0,1
254698,-469.6583991,4,2,1,60,0,1
254726,-382.4586919,4,2,1,60,0,1
254743,-161.3025874,4,2,1,60,0,1
254750,-83.33333002,4,2,1,60,0,1
255227,-16.66666667,4,2,1,60,0,1
255237,-89.43239069,4,2,1,60,0,1
255243,-469.6583991,4,2,1,60,0,1
255271,-382.4586919,4,2,1,60,0,1
255288,-161.3025874,4,2,1,60,0,1
255295,-83.33333002,4,2,1,60,0,1
255500,-16.66666667,4,2,1,60,0,1
255510,-89.43239069,4,2,1,60,0,1
255516,-469.6583991,4,2,1,60,0,1
255544,-382.4586919,4,2,1,60,0,1
255561,-161.3025874,4,2,1,60,0,1
255568,-83.33333002,4,2,1,60,0,1
255773,-16.66666667,4,2,1,60,0,1
255783,-89.43239069,4,2,1,60,0,1
255789,-469.6583991,4,2,1,60,0,1
255817,-382.4586919,4,2,1,60,0,1
255834,-161.3025874,4,2,1,60,0,1
255841,-83.33333002,4,2,1,60,0,1
256318,-16.66666667,4,2,1,60,0,1
256328,-89.43239069,4,2,1,60,0,1
256334,-469.6583991,4,2,1,60,0,1
256362,-382.4586919,4,2,1,60,0,1
256379,-161.3025874,4,2,1,60,0,1
256386,-83.33333002,4,2,1,60,0,1
256864,-16.66666667,4,2,1,60,0,1
256874,-89.43239069,4,2,1,60,0,1
256880,-469.6583991,4,2,1,60,0,1
256908,-382.4586919,4,2,1,60,0,1
256925,-161.3025874,4,2,1,60,0,1
256932,-83.33333002,4,2,1,60,0,1
257409,-16.66666667,4,2,1,60,0,1
257419,-89.43239069,4,2,1,60,0,1
257425,-469.6583991,4,2,1,60,0,1
257453,-382.4586919,4,2,1,60,0,1
257470,-161.3025874,4,2,1,60,0,1
257477,-83.33333002,4,2,1,60,0,1
257954,-16.66666667,4,2,1,60,0,1
257964,-89.43239069,4,2,1,60,0,1
257970,-469.6583991,4,2,1,60,0,1
257998,-382.4586919,4,2,1,60,0,1
258015,-161.3025874,4,2,1,60,0,1
258022,-83.33333002,4,2,1,60,0,1
258500,-16.66666667,4,2,1,60,0,1
258510,-89.43239069,4,2,1,60,0,1
258516,-469.6583991,4,2,1,60,0,1
258544,-382.4586919,4,2,1,60,0,1
258561,-161.3025874,4,2,1,60,0,1
258568,-83.33333002,4,2,1,60,0,1
259045,-16.66666667,4,2,1,60,0,1
259055,-89.43239069,4,2,1,60,0,1
259061,-469.6583991,4,2,1,60,0,1
259089,-382.4586919,4,2,1,60,0,1
259106,-161.3025874,4,2,1,60,0,1
259113,-83.33333002,4,2,1,60,0,1
259591,-16.66666667,4,2,1,60,0,1
259601,-89.43239069,4,2,1,60,0,1
259607,-469.6583991,4,2,1,60,0,1
259635,-382.4586919,4,2,1,60,0,1
259652,-161.3025874,4,2,1,60,0,1
259659,-83.33333002,4,2,1,60,0,1
260000,-16.66666667,4,2,1,60,0,1
260010,-89.43239069,4,2,1,60,0,1
260016,-469.6583991,4,2,1,60,0,1
260044,-382.4586919,4,2,1,60,0,1
260061,-161.3025874,4,2,1,60,0,1
260068,-83.33333002,4,2,1,60,0,1
260409,-20,4,2,1,60,0,1
260419,-163.8946742,4,2,1,60,0,1
260427,-223.9531324,4,2,1,60,0,1
260445,-593.9727956,4,2,1,60,0,1
260465,-161.7261414,4,2,1,60,0,1
260474,-30.82114618,4,2,1,60,0,1
260477,-83.33333002,4,2,1,60,0,1
260545,-20,4,2,1,60,0,1
260555,-163.8946742,4,2,1,60,0,1
260563,-223.9531324,4,2,1,60,0,1
260581,-593.9727956,4,2,1,60,0,1
260601,-161.7261414,4,2,1,60,0,1
260610,-30.82114618,4,2,1,60,0,1
260613,-83.33333002,4,2,1,60,0,1
260682,-16.66666667,4,2,1,60,0,1
260692,-89.43239069,4,2,1,60,0,1
260698,-469.6583991,4,2,1,60,0,1
260726,-382.4586919,4,2,1,60,0,1
260743,-161.3025874,4,2,1,60,0,1
260750,-83.33333002,4,2,1,60,0,1
261091,-16.66666667,4,2,1,60,0,1
261101,-89.43239069,4,2,1,60,0,1
261107,-469.6583991,4,2,1,60,0,1
261135,-382.4586919,4,2,1,60,0,1
261152,-161.3025874,4,2,1,60,0,1
261159,-83.33333002,4,2,1,60,0,1
261500,-20,4,2,1,60,0,1
261510,-163.8946742,4,2,1,60,0,1
261518,-223.9531324,4,2,1,60,0,1
261536,-593.9727956,4,2,1,60,0,1
261556,-161.7261414,4,2,1,60,0,1
261565,-30.82114618,4,2,1,60,0,1
261568,-294.1176471,4,2,1,60,0,1
261623,-20.34808209,4,2,1,60,0,1
261636,-20,4,2,1,60,0,1
261646,-163.8946742,4,2,1,60,0,1
261654,-223.9531324,4,2,1,60,0,1
261672,-593.9727956,4,2,1,60,0,1
261692,-161.7261414,4,2,1,60,0,1
261701,-30.82114618,4,2,1,60,0,1
261704,-294.1176471,4,2,1,60,0,1
261760,-20.34808209,4,2,1,60,0,1
261773,-16.66666667,4,2,1,60,0,1
261783,-89.43239069,4,2,1,60,0,1
261789,-469.6583991,4,2,1,60,0,1
261817,-382.4586919,4,2,1,60,0,1
261834,-161.3025874,4,2,1,60,0,1
261841,-83.33333002,4,2,1,60,0,1
262045,-20,4,2,1,60,0,1
262055,-163.8946742,4,2,1,60,0,1
262063,-223.9531324,4,2,1,60,0,1
262081,-593.9727956,4,2,1,60,0,1
262101,-161.7261414,4,2,1,60,0,1
262110,-30.82114618,4,2,1,60,0,1
262113,-83.33333002,4,2,1,60,0,1
262182,-16.66666667,4,2,1,60,0,1
262192,-89.43239069,4,2,1,60,0,1
262198,-469.6583991,4,2,1,60,0,1
262226,-382.4586919,4,2,1,60,0,1
262243,-161.3025874,4,2,1,60,0,1
262250,-83.33333002,4,2,1,60,0,1
262454,-20,4,2,1,60,0,1
262464,-163.8946742,4,2,1,60,0,1
262472,-223.9531324,4,2,1,60,0,1
262490,-593.9727956,4,2,1,60,0,1
262510,-161.7261414,4,2,1,60,0,1
262519,-30.82114618,4,2,1,60,0,1
262522,-83.33333002,4,2,1,60,0,1
262591,-16.66666667,4,2,1,60,0,1
262601,-89.43239069,4,2,1,60,0,1
262607,-469.6583991,4,2,1,60,0,1
262635,-382.4586919,4,2,1,60,0,1
262652,-161.3025874,4,2,1,60,0,1
262659,-83.33333002,4,2,1,60,0,1
262727,-20,4,2,1,60,0,1
262737,-163.8946742,4,2,1,60,0,1
262745,-223.9531324,4,2,1,60,0,1
262763,-593.9727956,4,2,1,60,0,1
262783,-161.7261414,4,2,1,60,0,1
262792,-30.82114618,4,2,1,60,0,1
262795,-83.33333002,4,2,1,60,0,1
262863,-13.28021248,4,2,1,60,0,1
262872,-421.2774219,4,2,1,60,0,1
262932,-13.28021248,4,2,1,60,0,1
262940,-421.2774219,4,2,1,60,0,1
263000,-13.28021248,4,2,1,60,0,1
263008,-421.2774219,4,2,1,60,0,1
263068,-13.28021248,4,2,1,60,0,1
263076,-421.2774219,4,2,1,60,0,1
263136,-20,4,2,1,60,0,1
263156,-163.8946742,4,2,1,60,0,1
263174,-223.9531324,4,2,1,60,0,1
263210,-593.9727956,4,2,1,60,0,1
263249,-161.7261414,4,2,1,60,0,1
263267,-30.82114618,4,2,1,60,0,1
263273,-20,4,2,1,60,0,1
263293,-163.8946742,4,2,1,60,0,1
263311,-223.9531324,4,2,1,60,0,1
263347,-593.9727956,4,2,1,60,0,1
263386,-161.7261414,4,2,1,60,0,1
263404,-30.82114618,4,2,1,60,0,1
263409,-20,4,2,1,60,0,1
263419,-163.8946742,4,2,1,60,0,1
263427,-223.9531324,4,2,1,60,0,1
263445,-593.9727956,4,2,1,60,0,1
263465,-161.7261414,4,2,1,60,0,1
263474,-30.82114618,4,2,1,60,0,1
263477,-83.33333002,4,2,1,60,0,1
263545,-20,4,2,1,60,0,1
263565,-163.8946742,4,2,1,60,0,1
263583,-223.9531324,4,2,1,60,0,1
263619,-593.9727956,4,2,1,60,0,1
263658,-161.7261414,4,2,1,60,0,1
263676,-30.82114618,4,2,1,60,0,1
263682,-20,4,2,1,60,0,1
263702,-163.8946742,4,2,1,60,0,1
263720,-223.9531324,4,2,1,60,0,1
263756,-593.9727956,4,2,1,60,0,1
263795,-161.7261414,4,2,1,60,0,1
263813,-30.82114618,4,2,1,60,0,1
263818,-13.28021248,4,2,1,60,0,1
263826,-421.2774219,4,2,1,60,0,1
263886,-13.28021248,4,2,1,60,0,1
263894,-421.2774219,4,2,1,60,0,1
263954,-83.33333333,4,2,1,60,0,1
264500,-10.07049345,4,2,1,60,0,1
264505,-10476.19048,4,2,1,60,0,1
264545,-10.07049345,4,2,1,60,0,1
264550,-10476.19048,4,2,1,60,0,1
264591,-10.07049345,4,2,1,60,0,1
264596,-10476.19048,4,2,1,60,0,1
264636,-10.07049345,4,2,1,60,0,1
264641,-10476.19048,4,2,1,60,0,1
264681,-83.33333333,4,2,1,60,0,1
265045,-16.66666667,4,2,1,60,0,1
265055,-89.43239069,4,2,1,60,0,1
265061,-469.6583991,4,2,1,60,0,1
265089,-382.4586919,4,2,1,60,0,1
265106,-161.3025874,4,2,1,60,0,1
265113,-83.33333002,4,2,1,60,0,1
265591,-10.07049345,4,2,1,60,0,1
265596,-10476.19048,4,2,1,60,0,1
265636,-10.07049345,4,2,1,60,0,1
265641,-10476.19048,4,2,1,60,0,1
265682,-10.07049345,4,2,1,60,0,1
265687,-10476.19048,4,2,1,60,0,1
265727,-10.07049345,4,2,1,60,0,1
265732,-10476.19048,4,2,1,60,0,1
265772,-83.33333333,4,2,1,60,0,1
266136,-16.66666667,4,2,1,60,0,1
266146,-89.43239069,4,2,1,60,0,1
266152,-469.6583991,4,2,1,60,0,1
266180,-382.4586919,4,2,1,60,0,1
266197,-161.3025874,4,2,1,60,0,1
266204,-83.33333002,4,2,1,60,0,1
266682,-10.07049345,4,2,1,60,0,1
266687,-10476.19048,4,2,1,60,0,1
266727,-10.07049345,4,2,1,60,0,1
266732,-10476.19048,4,2,1,60,0,1
266773,-10.07049345,4,2,1,60,0,1
266778,-10476.19048,4,2,1,60,0,1
266818,-10.07049345,4,2,1,60,0,1
266823,-10476.19048,4,2,1,60,0,1
266863,-83.33333333,4,2,1,60,0,1
267091,-10.07049345,4,2,1,60,0,1
267099,-10476.19047,4,2,1,60,0,1
267159,-10.07049345,4,2,1,60,0,1
267167,-10476.19047,4,2,1,60,0,1
267227,-16.66666667,4,2,1,60,0,1
267237,-89.43239069,4,2,1,60,0,1
267243,-469.6583991,4,2,1,60,0,1
267271,-382.4586919,4,2,1,60,0,1
267288,-161.3025874,4,2,1,60,0,1
267295,-83.33333002,4,2,1,60,0,1
267773,-10.07049345,4,2,1,60,0,1
267778,-10476.19048,4,2,1,60,0,1
267818,-10.07049345,4,2,1,60,0,1
267823,-10476.19048,4,2,1,60,0,1
267864,-10.07049345,4,2,1,60,0,1
267869,-10476.19048,4,2,1,60,0,1
267909,-10.07049345,4,2,1,60,0,1
267914,-10476.19048,4,2,1,60,0,1
267954,-83.33333333,4,2,1,60,0,1
268318,-20,4,2,1,60,0,1
268328,-89.43239069,4,2,1,60,0,1
268334,-469.6583991,4,2,1,60,0,1
268348,-163.8946742,4,2,1,60,0,1
268362,-382.4586919,4,2,1,60,0,1
268375,-223.9531324,4,2,1,60,0,1
268429,-593.9727956,4,2,1,60,0,1
268487,-161.7261414,4,2,1,60,0,1
268515,-30.82114618,4,2,1,60,0,1
268523,-20,4,2,1,60,0,1
268553,-163.8946742,4,2,1,60,0,1
268579,-223.9531324,4,2,1,60,0,1
268633,-593.9727956,4,2,1,60,0,1
268691,-161.7261414,4,2,1,60,0,1
268719,-30.82114618,4,2,1,60,0,1
268727,-20,4,2,1,60,0,1
268747,-163.8946742,4,2,1,60,0,1
268764,-223.9531324,4,2,1,60,0,1
268800,-593.9727956,4,2,1,60,0,1
268839,-161.7261414,4,2,1,60,0,1
268857,-30.82114618,4,2,1,60,0,1
268864,-10.07049345,4,2,1,60,0,1
268869,-10476.19048,4,2,1,60,0,1
268909,-10.07049345,4,2,1,60,0,1
268914,-10476.19048,4,2,1,60,0,1
268955,-10.07049345,4,2,1,60,0,1
268960,-10476.19048,4,2,1,60,0,1
269000,-10.07049345,4,2,1,60,0,1
269005,-10476.19048,4,2,1,60,0,1
269045,-83.33333333,4,2,1,60,0,1
269409,-16.66666667,4,2,1,60,0,1
269419,-89.43239069,4,2,1,60,0,1
269425,-469.6583991,4,2,1,60,0,1
269453,-382.4586919,4,2,1,60,0,1
269470,-161.3025874,4,2,1,60,0,1
269477,-83.33333002,4,2,1,60,0,1
269954,-10.07049345,4,2,1,60,0,1
269959,-10476.19048,4,2,1,60,0,1
269999,-10.07049345,4,2,1,60,0,1
270004,-10476.19048,4,2,1,60,0,1
270045,-10.07049345,4,2,1,60,0,1
270050,-10476.19048,4,2,1,60,0,1
270090,-10.07049345,4,2,1,60,0,1
270095,-10476.19048,4,2,1,60,0,1
270135,-83.33333333,4,2,1,60,0,1
270500,-16.66666667,4,2,1,60,0,1
270510,-89.43239069,4,2,1,60,0,1
270516,-469.6583991,4,2,1,60,0,1
270544,-382.4586919,4,2,1,60,0,1
270561,-161.3025874,4,2,1,60,0,1
270568,-83.33333002,4,2,1,60,0,1
271045,-10.07049345,4,2,1,60,0,1
271050,-10476.19048,4,2,1,60,0,1
271090,-10.07049345,4,2,1,60,0,1
271095,-10476.19048,4,2,1,60,0,1
271136,-10.07049345,4,2,1,60,0,1
271141,-10476.19048,4,2,1,60,0,1
271181,-10.07049345,4,2,1,60,0,1
271186,-10476.19048,4,2,1,60,0,1
271226,-83.33333333,4,2,1,60,0,1
271318,-10.07049345,4,2,1,60,0,1
271326,-10476.19047,4,2,1,60,0,1
271386,-10.07049345,4,2,1,60,0,1
271394,-10476.19047,4,2,1,60,0,1
271454,-10.07049345,4,2,1,60,0,1
271462,-10476.19048,4,2,1,60,0,1
271523,-10.07049345,4,2,1,60,0,1
271531,-10476.19047,4,2,1,60,0,1
271591,-20,4,2,1,60,0,1
271621,-163.8946742,4,2,1,60,0,1
271647,-223.9531324,4,2,1,60,0,1
271701,-593.9727956,4,2,1,60,0,1
271759,-161.7261414,4,2,1,60,0,1
271787,-30.82114618,4,2,1,60,0,1
271795,-20,4,2,1,60,0,1
271825,-163.8946742,4,2,1,60,0,1
271852,-223.9531324,4,2,1,60,0,1
271906,-593.9727956,4,2,1,60,0,1
271964,-161.7261414,4,2,1,60,0,1
271992,-30.82114618,4,2,1,60,0,1
272000,-20,4,2,1,60,0,1
272030,-163.8946742,4,2,1,60,0,1
272056,-223.9531324,4,2,1,60,0,1
272110,-593.9727956,4,2,1,60,0,1
272168,-161.7261414,4,2,1,60,0,1
272196,-30.82114618,4,2,1,60,0,1
272204,-20,4,2,1,60,0,1
272234,-163.8946742,4,2,1,60,0,1
272261,-223.9531324,4,2,1,60,0,1
272315,-593.9727956,4,2,1,60,0,1
272373,-161.7261414,4,2,1,60,0,1
272401,-30.82114618,4,2,1,60,0,1
272409,-20,4,2,1,60,0,1
272429,-163.8946742,4,2,1,60,0,1
272446,-223.9531324,4,2,1,60,0,1
272482,-593.9727956,4,2,1,60,0,1
272521,-161.7261414,4,2,1,60,0,1
272539,-30.82114618,4,2,1,60,0,1
272545,-20,4,2,1,60,0,1
272565,-163.8946742,4,2,1,60,0,1
272583,-223.9531324,4,2,1,60,0,1
272619,-593.9727956,4,2,1,60,0,1
272658,-161.7261414,4,2,1,60,0,1
272676,-30.82114618,4,2,1,60,0,1
272682,-16.66666667,4,2,1,60,0,1
272692,-89.43239069,4,2,1,60,0,1
272698,-469.6583991,4,2,1,60,0,1
272726,-382.4586919,4,2,1,60,0,1
272743,-161.3025874,4,2,1,60,0,1
272750,-83.33333002,4,2,1,60,0,1
272954,-16.66666667,4,2,1,60,0,1
272964,-89.43239069,4,2,1,60,0,1
272970,-469.6583991,4,2,1,60,0,1
272998,-382.4586919,4,2,1,60,0,1
273016,-161.3025874,4,2,1,60,0,1
273023,-83.33333002,4,2,1,60,0,1
273227,-16.66666667,4,2,1,60,0,1
273237,-89.43239069,4,2,1,60,0,1
273243,-469.6583991,4,2,1,60,0,1
273271,-382.4586919,4,2,1,60,0,1
273288,-161.3025874,4,2,1,60,0,1
273295,-83.33333002,4,2,1,60,0,1
273500,-16.66666667,4,2,1,60,0,1
273510,-89.43239069,4,2,1,60,0,1
273516,-469.6583991,4,2,1,60,0,1
273544,-382.4586919,4,2,1,60,0,1
273562,-161.3025874,4,2,1,60,0,1
273569,-83.33333002,4,2,1,60,0,1
273773,-16.66666667,4,2,1,60,0,1
273783,-89.43239069,4,2,1,60,0,1
273789,-469.6583991,4,2,1,60,0,1
273817,-382.4586919,4,2,1,60,0,1
273834,-161.3025874,4,2,1,60,0,1
273841,-83.33333002,4,2,1,60,0,1
274045,-16.66666667,4,2,1,60,0,1
274055,-89.43239069,4,2,1,60,0,1
274061,-469.6583991,4,2,1,60,0,1
274089,-382.4586919,4,2,1,60,0,1
274107,-161.3025874,4,2,1,60,0,1
274114,-83.33333002,4,2,1,60,0,1
274318,-16.66666667,4,2,1,60,0,1
274328,-89.43239069,4,2,1,60,0,1
274334,-469.6583991,4,2,1,60,0,1
274362,-382.4586919,4,2,1,60,0,1
274379,-161.3025874,4,2,1,60,0,1
274386,-83.33333002,4,2,1,60,0,1
274591,-16.66666667,4,2,1,60,0,1
274601,-89.43239069,4,2,1,60,0,1
274607,-469.6583991,4,2,1,60,0,1
274635,-382.4586919,4,2,1,60,0,1
274653,-161.3025874,4,2,1,60,0,1
274660,-83.33333002,4,2,1,60,0,1
274727,-20,4,2,1,60,0,1
274737,-163.8946742,4,2,1,60,0,1
274745,-223.9531324,4,2,1,60,0,1
274763,-593.9727956,4,2,1,60,0,1
274783,-161.7261414,4,2,1,60,0,1
274792,-30.82114618,4,2,1,60,0,1
274795,-83.33333002,4,2,1,60,0,1
274864,-16.66666667,4,2,1,60,0,1
274874,-89.43239069,4,2,1,60,0,1
274880,-469.6583991,4,2,1,60,0,1
274908,-382.4586919,4,2,1,60,0,1
274925,-161.3025874,4,2,1,60,0,1
274932,-83.33333002,4,2,1,60,0,1
275136,-16.66666667,4,2,1,60,0,1
275146,-89.43239069,4,2,1,60,0,1
275152,-469.6583991,4,2,1,60,0,1
275180,-382.4586919,4,2,1,60,0,1
275198,-161.3025874,4,2,1,60,0,1
275205,-83.33333002,4,2,1,60,0,1
275409,-16.66666667,4,2,1,60,0,1
275419,-89.43239069,4,2,1,60,0,1
275425,-469.6583991,4,2,1,60,0,1
275453,-382.4586919,4,2,1,60,0,1
275470,-161.3025874,4,2,1,60,0,1
275477,-83.33333002,4,2,1,60,0,1
275682,-16.66666667,4,2,1,60,0,1
275692,-89.43239069,4,2,1,60,0,1
275698,-469.6583991,4,2,1,60,0,1
275726,-382.4586919,4,2,1,60,0,1
275744,-161.3025874,4,2,1,60,0,1
275751,-83.33333002,4,2,1,60,0,1
275954,-16.66666667,4,2,1,60,0,1
275964,-89.43239069,4,2,1,60,0,1
275970,-469.6583991,4,2,1,60,0,1
275998,-382.4586919,4,2,1,60,0,1
276015,-161.3025874,4,2,1,60,0,1
276022,-83.33333002,4,2,1,60,0,1
276227,-16.66666667,4,2,1,60,0,1
276237,-89.43239069,4,2,1,60,0,1
276243,-469.6583991,4,2,1,60,0,1
276271,-382.4586919,4,2,1,60,0,1
276289,-161.3025874,4,2,1,60,0,1
276296,-83.33333002,4,2,1,60,0,1
276500,-16.66666667,4,2,1,60,0,1
276510,-89.43239069,4,2,1,60,0,1
276516,-469.6583991,4,2,1,60,0,1
276544,-382.4586919,4,2,1,60,0,1
276561,-161.3025874,4,2,1,60,0,1
276568,-83.33333002,4,2,1,60,0,1
276704,-20,4,2,1,60,0,1
276714,-163.8946742,4,2,1,60,0,1
276723,-223.9531324,4,2,1,60,0,1
276741,-593.9727956,4,2,1,60,0,1
276760,-161.7261414,4,2,1,60,0,1
276770,-30.82114618,4,2,1,60,0,1
276773,-16.66666667,4,2,1,60,0,1
276783,-89.43239069,4,2,1,60,0,1
276789,-469.6583991,4,2,1,60,0,1
276817,-382.4586919,4,2,1,60,0,1
276835,-161.3025874,4,2,1,60,0,1
276842,-83.33333002,4,2,1,60,0,1
277045,-16.66666667,4,2,1,60,0,1
277055,-89.43239069,4,2,1,60,0,1
277061,-469.6583991,4,2,1,60,0,1
277089,-382.4586919,4,2,1,60,0,1
277106,-161.3025874,4,2,1,60,0,1
277113,-83.33333002,4,2,1,60,0,1
277318,-16.66666667,4,2,1,60,0,1
277328,-89.43239069,4,2,1,60,0,1
277334,-469.6583991,4,2,1,60,0,1
277362,-382.4586919,4,2,1,60,0,1
277380,-161.3025874,4,2,1,60,0,1
277387,-83.33333002,4,2,1,60,0,1
277591,-16.66666667,4,2,1,60,0,1
277601,-89.43239069,4,2,1,60,0,1
277607,-469.6583991,4,2,1,60,0,1
277635,-382.4586919,4,2,1,60,0,1
277652,-161.3025874,4,2,1,60,0,1
277659,-83.33333002,4,2,1,60,0,1
277864,-16.66666667,4,2,1,60,0,1
277874,-89.43239069,4,2,1,60,0,1
277880,-469.6583991,4,2,1,60,0,1
277908,-382.4586919,4,2,1,60,0,1
277926,-161.3025874,4,2,1,60,0,1
277933,-83.33333002,4,2,1,60,0,1
278136,-16.66666667,4,2,1,60,0,1
278146,-89.43239069,4,2,1,60,0,1
278152,-469.6583991,4,2,1,60,0,1
278180,-382.4586919,4,2,1,60,0,1
278197,-161.3025874,4,2,1,60,0,1
278204,-83.33333002,4,2,1,60,0,1
278409,-16.66666667,4,2,1,60,0,1
278419,-89.43239069,4,2,1,60,0,1
278425,-469.6583991,4,2,1,60,0,1
278453,-382.4586919,4,2,1,60,0,1
278471,-161.3025874,4,2,1,60,0,1
278478,-83.33333002,4,2,1,60,0,1
278682,-16.66666667,4,2,1,60,0,1
278692,-89.43239069,4,2,1,60,0,1
278698,-469.6583991,4,2,1,60,0,1
278726,-382.4586919,4,2,1,60,0,1
278743,-161.3025874,4,2,1,60,0,1
278750,-83.33333002,4,2,1,60,0,1
278954,-16.66666667,4,2,1,60,0,1
278964,-89.43239069,4,2,1,60,0,1
278970,-469.6583991,4,2,1,60,0,1
278998,-382.4586919,4,2,1,60,0,1
279016,-161.3025874,4,2,1,60,0,1
279023,-83.33333002,4,2,1,60,0,1
281409,-125,4,2,1,60,0,0

[HitObjects]
64,192,4510,5,0,0:0:0:50:LR_Drum Kick Low.wav
192,192,4510,128,0,4586:0:0:0:0:
320,192,4510,128,0,4586:0:0:0:0:
448,192,4586,1,0,0:0:0:0:
64,192,4661,1,0,0:0:0:0:
320,192,4737,1,0,0:0:0:0:
64,192,4813,1,0,0:0:0:0:
320,192,4889,1,0,0:0:0:0:
192,192,4964,1,0,0:0:0:0:
448,192,5040,1,0,0:0:0:0:
192,192,5116,1,0,0:0:0:0:
64,192,5192,1,0,0:0:0:0:
192,192,5267,1,0,0:0:0:0:
64,192,5343,1,0,0:0:0:0:
320,192,5419,1,0,0:0:0:0:
192,192,5495,1,0,0:0:0:0:
320,192,5570,1,0,0:0:0:0:
64,192,5646,1,0,0:0:0:0:
320,192,5722,1,0,0:0:0:0:
64,192,5798,1,0,0:0:0:0:
448,192,5874,1,0,0:0:0:0:
192,192,5949,1,0,0:0:0:0:
448,192,6025,1,0,0:0:0:0:
320,192,6101,1,0,0:0:0:0:
448,192,6177,1,0,0:0:0:0:
320,192,6252,1,0,0:0:0:0:
192,192,6328,1,0,0:0:0:0:
64,192,6404,1,0,0:0:0:0:
320,192,6480,1,0,0:0:0:0:
192,192,6555,1,0,0:0:0:0:
64,192,6631,1,0,0:0:0:0:
192,192,6707,1,0,0:0:0:0:
320,192,6783,1,0,0:0:0:0:
192,192,6858,1,0,0:0:0:0:
448,192,6934,1,0,0:0:0:0:
320,192,7010,1,0,0:0:0:0:
192,192,7086,1,0,0:0:0:0:
320,192,7161,1,0,0:0:0:0:
192,192,7237,1,0,0:0:0:0:
64,192,7313,1,0,0:0:0:0:
320,192,7389,1,0,0:0:0:0:
192,192,7464,1,0,0:0:0:0:
64,192,7540,1,0,0:0:0:0:
192,192,7616,1,0,0:0:0:0:
320,192,7692,1,0,0:0:0:0:
192,192,7767,1,0,0:0:0:0:
448,192,7843,1,0,0:0:0:0:
320,192,7919,1,0,0:0:0:0:
192,192,7995,1,0,0:0:0:0:
320,192,8070,1,0,0:0:0:0:
64,192,8146,1,0,0:0:0:50:LR_Drum Kick Low.wav
192,192,8146,128,0,8222:0:0:0:0:
448,192,8146,128,0,8222:0:0:0:0:
320,192,8222,1,0,0:0:0:0:
192,192,8298,1,0,0:0:0:0:
448,192,8374,1,0,0:0:0:0:
192,192,8449,1,0,0:0:0:0:
320,192,8525,1,0,0:0:0:0:
448,192,8601,1,0,0:0:0:0:
64,192,8677,1,0,0:0:0:0:
320,192,8752,1,0,0:0:0:0:
448,192,8828,1,0,0:0:0:0:
64,192,8904,1,0,0:0:0:0:
192,192,8980,1,0,0:0:0:0:
448,192,9055,1,0,0:0:0:0:
192,192,9131,1,0,0:0:0:0:
320,192,9207,1,0,0:0:0:0:
64,192,9283,1,0,0:0:0:0:
320,192,9358,1,0,0:0:0:0:
448,192,9434,1,0,0:0:0:0:
192,192,9510,1,0,0:0:0:0:
448,192,9586,1,0,0:0:0:0:
64,192,9661,1,0,0:0:0:0:
320,192,9737,1,0,0:0:0:0:
64,192,9813,1,0,0:0:0:0:
192,192,9889,1,0,0:0:0:0:
320,192,9964,1,0,0:0:0:0:
448,192,10040,1,0,0:0:0:0:
320,192,10116,1,0,0:0:0:0:
192,192,10192,1,0,0:0:0:0:
448,192,10267,1,0,0:0:0:0:
192,192,10343,1,0,0:0:0:0:
320,192,10419,1,0,0:0:0:0:
64,192,10495,1,0,0:0:0:0:
320,192,10570,1,0,0:0:0:0:
64,192,10646,1,0,0:0:0:0:
192,192,10722,1,0,0:0:0:0:
64,192,10798,1,0,0:0:0:0:
192,192,10874,1,0,0:0:0:0:
320,192,10949,1,0,0:0:0:0:
448,192,11025,1,0,0:0:0:0:
192,192,11101,1,0,0:0:0:0:
448,192,11177,1,0,0:0:0:0:
192,192,11252,1,0,0:0:0:0:
320,192,11328,1,0,0:0:0:0:
192,192,11404,1,0,0:0:0:0:
448,192,11480,1,0,0:0:0:0:
320,192,11555,1,0,0:0:0:0:
192,192,11631,1,0,0:0:0:0:
64,192,11707,1,0,0:0:0:0:
192,192,11783,1,0,0:0:0:50:LR_Drum Kick Low.wav
320,192,11783,128,0,11858:0:0:0:0:
448,192,11783,128,0,11858:0:0:0:0:
64,192,11858,1,0,0:0:0:0:
192,192,11934,1,0,0:0:0:0:
320,192,12010,1,0,0:0:0:0:
64,192,12086,1,0,0:0:0:0:
320,192,12161,1,0,0:0:0:0:
192,192,12237,1,0,0:0:0:0:
448,192,12313,1,0,0:0:0:0:
192,192,12389,1,0,0:0:0:0:
320,192,12464,1,0,0:0:0:0:
448,192,12540,1,0,0:0:0:0:
320,192,12616,1,0,0:0:0:0:
64,192,12692,1,0,0:0:0:0:
192,192,12767,1,0,0:0:0:0:
320,192,12843,1,0,0:0:0:0:
448,192,12919,1,0,0:0:0:0:
192,192,12995,1,0,0:0:0:0:
64,192,13070,1,0,0:0:0:0:
448,192,13146,1,0,0:0:0:0:
320,192,13222,1,0,0:0:0:0:
192,192,13298,1,0,0:0:0:0:
448,192,13374,1,0,0:0:0:0:
320,192,13449,1,0,0:0:0:0:
64,192,13525,1,0,0:0:0:0:
448,192,13601,1,0,0:0:0:0:
320,192,13677,1,0,0:0:0:0:
192,192,13752,1,0,0:0:0:0:
64,192,13828,1,0,0:0:0:0:
320,192,13904,1,0,0:0:0:0:
192,192,13980,1,0,0:0:0:0:
64,192,14055,1,0,0:0:0:0:
192,192,14131,1,0,0:0:0:0:
448,192,14207,1,0,0:0:0:0:
320,192,14283,1,0,0:0:0:0:
64,192,14358,1,0,0:0:0:0:
192,192,14434,1,0,0:0:0:0:
64,192,14510,1,0,0:0:0:0:
320,192,14586,1,0,0:0:0:0:
448,192,14661,1,0,0:0:0:0:
320,192,14737,1,0,0:0:0:0:
64,192,14813,1,0,0:0:0:0:
192,192,14889,1,0,0:0:0:0:
320,192,14964,1,0,0:0:0:0:
192,192,15040,1,0,0:0:0:0:
64,192,15116,1,0,0:0:0:0:
320,192,15192,1,0,0:0:0:0:
192,192,15267,1,0,0:0:0:0:
448,192,15343,1,0,0:0:0:0:
64,192,15419,1,0,0:0:0:50:LR_Drum Kick Low.wav
192,192,15419,128,0,15495:0:0:0:0:
320,192,15419,128,0,15495:0:0:0:0:
448,192,15495,1,0,0:0:0:0:
192,192,15570,1,0,0:0:0:0:
64,192,15646,1,0,0:0:0:0:
320,192,15722,1,0,0:0:0:0:
192,192,15798,1,0,0:0:0:0:
64,192,15874,1,0,0:0:0:0:
192,192,15949,1,0,0:0:0:0:
320,192,16025,1,0,0:0:0:0:
448,192,16101,1,0,0:0:0:0:
320,192,16177,1,0,0:0:0:0:
192,192,16252,1,0,0:0:0:0:
320,192,16328,1,0,0:0:0:0:
448,192,16404,1,0,0:0:0:0:
192,192,16480,1,0,0:0:0:0:
64,192,16555,1,0,0:0:0:0:
320,192,16631,1,0,0:0:0:0:
192,192,16707,1,0,0:0:0:0:
448,192,16783,1,0,0:0:0:0:
320,192,16858,1,0,0:0:0:0:
192,192,16934,1,0,0:0:0:0:
320,192,17010,1,0,0:0:0:0:
192,192,17086,1,0,0:0:0:0:
64,192,17161,1,0,0:0:0:0:
192,192,17237,1,0,0:0:0:50:LR_Drum Kick Low.wav
320,192,17237,128,0,17313:0:0:0:0:
448,192,17237,128,0,17313:0:0:0:0:
64,192,17313,1,0,0:0:0:0:
320,192,17389,1,0,0:0:0:0:
192,192,17464,1,0,0:0:0:0:
448,192,17540,1,0,0:0:0:0:
64,192,17616,1,0,0:0:0:0:
320,192,17692,1,0,0:0:0:0:
192,192,17767,1,0,0:0:0:0:
64,192,17843,1,0,0:0:0:0:
192,192,17919,1,0,0:0:0:0:
448,192,17995,1,0,0:0:0:0:
320,192,18070,1,0,0:0:0:0:
64,192,18146,1,0,0:0:0:0:
192,192,18222,1,0,0:0:0:0:
64,192,18298,1,0,0:0:0:0:
320,192,18374,1,0,0:0:0:0:
448,192,18449,1,0,0:0:0:0:
320,192,18525,1,0,0:0:0:0:
64,192,18601,1,0,0:0:0:0:
320,192,18677,1,0,0:0:0:0:
192,192,18752,1,0,0:0:0:0:
448,192,18828,1,0,0:0:0:0:
320,192,18904,1,0,0:0:0:0:
192,192,18980,1,0,0:0:0:0:
64,192,19055,1,0,0:0:0:50:LR_Drum Kick Low.wav
320,192,19055,128,0,19131:0:0:0:0:
448,192,19055,128,0,19131:0:0:0:0:
192,192,19131,1,0,0:0:0:0:
64,192,19207,1,0,0:0:0:0:
320,192,19283,1,0,0:0:0:0:
64,192,19358,1,0,0:0:0:0:
320,192,19434,1,0,0:0:0:0:
192,192,19510,1,0,0:0:0:0:
448,192,19586,1,0,0:0:0:0:
192,192,19661,1,0,0:0:0:0:
64,192,19737,1,0,0:0:0:0:
192,192,19813,1,0,0:0:0:0:
64,192,19889,1,0,0:0:0:0:
320,192,19964,1,0,0:0:0:0:
192,192,20040,1,0,0:0:0:0:
320,192,20116,1,0,0:0:0:0:
64,192,20192,1,0,0:0:0:0:
320,192,20267,1,0,0:0:0:0:
64,192,20343,1,0,0:0:0:0:
448,192,20419,1,0,0:0:0:0:
192,192,20495,1,0,0:0:0:0:
448,192,20570,1,0,0:0:0:0:
320,192,20646,1,0,0:0:0:0:
448,192,20722,1,0,0:0:0:0:
320,192,20798,1,0,0:0:0:0:
192,192,20874,1,0,0:0:0:0:
64,192,20949,1,0,0:0:0:0:
320,192,21025,1,0,0:0:0:0:
192,192,21101,1,0,0:0:0:0:
64,192,21177,1,0,0:0:0:0:
192,192,21252,1,0,0:0:0:0:
320,192,21328,1,0,0:0:0:0:
192,192,21404,1,0,0:0:0:0:
448,192,21480,1,0,0:0:0:0:
320,192,21555,1,0,0:0:0:0:
192,192,21631,1,0,0:0:0:0:
320,192,21707,1,0,0:0:0:0:
192,192,21783,1,0,0:0:0:0:
64,192,21858,1,0,0:0:0:0:
320,192,21934,1,0,0:0:0:0:
192,192,22010,1,0,0:0:0:0:
64,192,22086,1,0,0:0:0:0:
192,192,22161,1,0,0:0:0:0:
320,192,22237,1,0,0:0:0:0:
192,192,22313,1,0,0:0:0:0:
448,192,22389,1,0,0:0:0:0:
320,192,22464,1,0,0:0:0:0:
192,192,22540,1,0,0:0:0:0:
320,192,22616,1,0,0:0:0:0:
64,192,22692,1,0,0:0:0:50:LR_Drum Kick Low.wav
192,192,22692,128,0,22767:0:0:0:0:
448,192,22692,128,0,22767:0:0:0:0:
320,192,22767,1,0,0:0:0:0:
192,192,22843,1,0,0:0:0:0:
448,192,22919,1,0,0:0:0:0:
192,192,22995,1,0,0:0:0:0:
320,192,23070,1,0,0:0:0:0:
448,192,23146,1,0,0:0:0:0:
64,192,23222,1,0,0:0:0:0:
320,192,23298,1,0,0:0:0:0:
448,192,23374,1,0,0:0:0:0:
64,192,23449,1,0,0:0:0:0:
192,192,23525,1,0,0:0:0:0:
448,192,23601,1,0,0:0:0:0:
192,192,23677,1,0,0:0:0:0:
320,192,23752,1,0,0:0:0:0:
64,192,23828,1,0,0:0:0:0:
320,192,23904,1,0,0:0:0:0:
448,192,23980,1,0,0:0:0:0:
192,192,24055,1,0,0:0:0:0:
448,192,24131,1,0,0:0:0:0:
64,192,24207,1,0,0:0:0:0:
320,192,24283,1,0,0:0:0:0:
64,192,24358,1,0,0:0:0:0:
192,192,24434,1,0,0:0:0:0:
320,192,24510,1,0,0:0:0:0:
448,192,24586,1,0,0:0:0:0:
320,192,24661,1,0,0:0:0:0:
192,192,24737,1,0,0:0:0:0:
448,192,24813,1,0,0:0:0:0:
192,192,24889,1,0,0:0:0:0:
320,192,24964,1,0,0:0:0:0:
64,192,25040,1,0,0:0:0:0:
320,192,25116,1,0,0:0:0:0:
64,192,25192,1,0,0:0:0:0:
192,192,25267,1,0,0:0:0:0:
64,192,25343,1,0,0:0:0:0:
192,192,25419,1,0,0:0:0:0:
320,192,25495,1,0,0:0:0:0:
448,192,25570,1,0,0:0:0:0:
192,192,25646,1,0,0:0:0:0:
448,192,25722,1,0,0:0:0:0:
192,192,25798,1,0,0:0:0:0:
320,192,25874,1,0,0:0:0:0:
192,192,25949,1,0,0:0:0:0:
448,192,26025,1,0,0:0:0:0:
320,192,26101,1,0,0:0:0:0:
192,192,26177,1,0,0:0:0:0:
64,192,26252,1,0,0:0:0:0:
192,192,26328,1,0,0:0:0:50:LR_Drum Kick Low.wav
320,192,26328,128,0,26404:0:0:0:0:
448,192,26328,128,0,26404:0:0:0:0:
64,192,26404,1,0,0:0:0:0:
192,192,26480,1,0,0:0:0:0:
320,192,26555,1,0,0:0:0:0:
64,192,26631,1,0,0:0:0:0:
320,192,26707,1,0,0:0:0:0:
192,192,26783,1,0,0:0:0:0:
448,192,26858,1,0,0:0:0:0:
192,192,26934,1,0,0:0:0:0:
320,192,27010,1,0,0:0:0:0:
448,192,27086,1,0,0:0:0:0:
320,192,27161,1,0,0:0:0:0:
64,192,27237,1,0,0:0:0:0:
192,192,27313,1,0,0:0:0:0:
320,192,27389,1,0,0:0:0:0:
448,192,27464,1,0,0:0:0:0:
192,192,27540,1,0,0:0:0:0:
64,192,27616,1,0,0:0:0:0:
448,192,27692,1,0,0:0:0:0:
320,192,27767,1,0,0:0:0:0:
192,192,27843,1,0,0:0:0:0:
448,192,27919,1,0,0:0:0:0:
320,192,27995,1,0,0:0:0:0:
64,192,28070,1,0,0:0:0:0:
448,192,28146,1,0,0:0:0:0:
320,192,28222,1,0,0:0:0:0:
192,192,28298,1,0,0:0:0:0:
64,192,28374,1,0,0:0:0:0:
320,192,28449,1,0,0:0:0:0:
192,192,28525,1,0,0:0:0:0:
64,192,28601,1,0,0:0:0:0:
192,192,28677,1,0,0:0:0:0:
448,192,28752,1,0,0:0:0:0:
320,192,28828,1,0,0:0:0:0:
64,192,28904,1,0,0:0:0:0:
192,192,28980,1,0,0:0:0:0:
64,192,29055,1,0,0:0:0:0:
320,192,29131,1,0,0:0:0:0:
448,192,29207,1,0,0:0:0:0:
320,192,29283,1,0,0:0:0:0:
64,192,29358,1,0,0:0:0:0:
192,192,29434,1,0,0:0:0:0:
320,192,29510,1,0,0:0:0:0:
192,192,29586,1,0,0:0:0:0:
64,192,29661,1,0,0:0:0:0:
320,192,29737,1,0,0:0:0:0:
192,192,29813,1,0,0:0:0:0:
448,192,29889,1,0,0:0:0:0:
64,192,29964,1,0,0:0:0:50:LR_Drum Kick Low.wav
192,192,29964,128,0,30040:0:0:0:0:
320,192,29964,128,0,30040:0:0:0:0:
448,192,30040,1,0,0:0:0:0:
192,192,30116,1,0,0:0:0:0:
64,192,30192,1,0,0:0:0:0:
320,192,30267,1,0,0:0:0:0:
192,192,30343,1,0,0:0:0:0:
64,192,30419,1,0,0:0:0:0:
192,192,30495,1,0,0:0:0:0:
320,192,30570,1,0,0:0:0:0:
448,192,30646,1,0,0:0:0:0:
320,192,30722,1,0,0:0:0:0:
192,192,30798,1,0,0:0:0:0:
320,192,30874,1,0,0:0:0:0:
448,192,30949,1,0,0:0:0:0:
192,192,31025,1,0,0:0:0:0:
64,192,31101,1,0,0:0:0:0:
320,192,31177,1,0,0:0:0:0:
192,192,31252,1,0,0:0:0:0:
448,192,31328,1,0,0:0:0:0:
320,192,31404,1,0,0:0:0:0:
192,192,31480,1,0,0:0:0:0:
320,192,31555,1,0,0:0:0:0:
192,192,31631,1,0,0:0:0:0:
64,192,31707,1,0,0:0:0:0:
320,192,31783,1,0,0:0:0:50:LR_Drum Kick Low.wav
448,192,31783,128,0,31839:0:0:0:0:
192,192,31839,1,0,0:0:0:0:
320,192,31896,1,0,0:0:0:0:
192,192,31953,1,0,0:0:0:0:
320,192,32010,1,0,0:0:0:0:
64,192,32067,1,0,0:0:0:0:
320,192,32124,1,0,0:0:0:0:
64,192,32180,1,0,0:0:0:0:
192,192,32237,1,0,0:0:0:0:
448,192,32294,1,0,0:0:0:0:
192,192,32351,1,0,0:0:0:0:
448,192,32408,1,0,0:0:0:0:
192,192,32464,1,0,0:0:0:0:
320,192,32521,1,0,0:0:0:0:
192,192,32578,1,0,0:0:0:0:
320,192,32635,1,0,0:0:0:0:
448,192,32692,1,0,0:0:0:0:
64,192,32749,1,0,0:0:0:0:
448,192,32805,1,0,0:0:0:0:
64,192,32862,1,0,0:0:0:0:
448,192,32919,1,0,0:0:0:0:
192,192,32976,1,0,0:0:0:0:
448,192,33033,1,0,0:0:0:0:
192,192,33089,1,0,0:0:0:0:
64,192,33146,1,0,0:0:0:0:
320,192,33203,1,0,0:0:0:0:
64,192,33260,1,0,0:0:0:0:
320,192,33317,1,0,0:0:0:0:
64,192,33374,1,0,0:0:0:0:
448,192,33430,1,0,0:0:0:0:
192,192,33487,1,0,0:0:0:0:
448,192,33544,1,0,0:0:0:0:
64,192,33601,128,0,33828:0:0:0:50:kick.wav
192,192,33601,1,0,0:0:0:50:cymbal.wav
320,192,33601,1,0,0:0:0:70:push_scratch.wav
448,192,33714,1,0,0:0:0:0:
320,192,33828,1,0,0:0:0:0:
64,192,33942,1,0,0:0:0:50:LR_Drum Rpd x2.wav
192,192,33942,1,0,0:0:0:0:
320,192,34055,1,0,0:0:0:50:kick.wav
448,192,34055,128,0,34283:0:0:0:0:
64,192,34169,1,0,0:0:0:0:
192,192,34283,1,0,0:0:0:50:LR_Drum Rpd x2.wav
320,192,34283,1,0,0:0:0:0:
448,192,34396,1,0,0:0:0:0:
64,192,34510,128,0,34737:0:0:0:50:kick.wav
192,192,34510,1,0,0:0:0:0:
320,192,34624,1,0,0:0:0:0:
448,192,34737,1,0,0:0:0:0:
64,192,34851,1,0,0:0:0:50:LR_Drum Rpd x2.wav
320,192,34851,1,0,0:0:0:0:
192,192,34964,1,0,0:0:0:50:kick.wav
448,192,34964,128,0,35192:0:0:0:0:
64,192,35078,128,0,35192:0:0:0:0:
192,192,35192,1,0,0:0:0:50:LR_Drum Rpd x2.wav
320,192,35192,1,0,0:0:0:0:
448,192,35305,1,0,0:0:0:0:
64,192,35419,128,0,35646:0:0:0:50:kick.wav
320,192,35419,1,0,0:0:0:0:
192,192,35533,1,0,0:0:0:0:
448,192,35646,1,0,0:0:0:0:
64,192,35760,1,0,0:0:0:50:LR_Drum Rpd x2.wav
320,192,35760,1,0,0:0:0:0:
192,192,35874,1,0,0:0:0:50:kick.wav
448,192,35874,128,0,36101:0:0:0:0:
64,192,35987,1,0,0:0:0:0:
192,192,36101,1,0,0:0:0:50:LR_Drum Rpd x2.wav
320,192,36101,1,0,0:0:0:0:
448,192,36214,1,0,0:0:0:0:
64,192,36328,128,0,36555:0:0:0:50:kick.wav
320,192,36328,1,0,0:0:0:0:
192,192,36442,1,0,0:0:0:0:
448,192,36555,1,0,0:0:0:0:
192,192,36669,1,0,0:0:0:50:LR_Drum Rpd x2.wav
320,192,36669,1,0,0:0:0:0:
64,192,36783,128,0,36896:0:0:0:50:kick.wav
448,192,36783,128,0,37010:0:0:0:0:
192,192,36896,128,0,37010:0:0:0:0:
64,192,37010,1,0,0:0:0:50:LR_Drum Rpd x2.wav
320,192,37010,1,0,0:0:0:0:
448,192,37124,1,0,0:0:0:0:
64,192,37237,128,0,37464:0:0:0:50:kick.wav
192,192,37237,1,0,0:0:0:0:
320,192,37351,1,0,0:0:0:0:
448,192,37464,1,0,0:0:0:0:
192,192,37578,1,0,0:0:0:50:LR_Drum Rpd x2.wav
320,192,37578,1,0,0:0:0:0:
64,192,37692,1,0,0:0:0:50:kick.wav
448,192,37692,128,0,37919:0:0:0:0:
320,192,37805,1,0,0:0:0:0:
64,192,37919,1,0,0:0:0:50:LR_Drum Rpd x2.wav
192,192,37919,1,0,0:0:0:0:
448,192,38033,1,0,0:0:0:0:
64,192,38146,128,0,38374:0:0:0:50:kick.wav
192,192,38146,1,0,0:0:0:0:
320,192,38260,1,0,0:0:0:0:
448,192,38374,1,0,0:0:0:0:
64,192,38487,1,0,0:0:0:50:LR_Drum Rpd x2.wav
320,192,38487,1,0,0:0:0:0:
192,192,38601,1,0,0:0:0:50:kick.wav
448,192,38601,128,0,38828:0:0:0:0:
64,192,38714,128,0,38828:0:0:0:0:
192,192,38828,1,0,0:0:0:50:LR_Drum Rpd x2.wav
320,192,38828,1,0,0:0:0:0:
448,192,38942,1,0,0:0:0:0:
64,192,39055,128,0,39283:0:0:0:50:kick.wav
320,192,39055,1,0,0:0:0:0:
192,192,39169,128,0,39283:0:0:0:0:
320,192,39283,1,0,0:0:0:0:
64,192,39396,128,0,39510:0:0:0:50:LR_Drum Rpd x2.wav
448,192,39396,1,0,0:0:0:0:
192,192,39510,128,0,39624:0:0:0:50:kick.wav
320,192,39510,1,0,0:0:0:0:
448,192,39624,1,0,0:0:0:0:
192,192,39737,128,0,39851:0:0:0:50:LR_Drum Rpd x2.wav
320,192,39737,1,0,0:0:0:0:
64,192,39851,128,0,39964:0:0:0:0:
192,192,39964,1,0,0:0:0:50:kick.wav
448,192,39964,1,0,0:0:0:0:
320,192,40078,128,0,40192:0:0:0:0:
448,192,40192,128,0,40305:0:0:0:0:
192,192,40305,1,0,0:0:0:50:LR_Drum Rpd x2.wav
320,192,40305,1,0,0:0:0:0:
64,192,40419,1,0,0:0:0:50:kick.wav
448,192,40419,128,0,40533:0:0:0:0:
320,192,40533,128,0,40646:0:0:0:0:
64,192,40646,1,0,0:0:0:50:LR_Drum Rpd x2.wav
192,192,40646,128,0,40760:0:0:0:0:
320,192,40760,1,0,0:0:0:0:
64,192,40874,128,0,41101:0:0:0:50:kick.wav
192,192,40874,1,0,0:0:0:0:
320,192,40987,1,0,0:0:0:0:
448,192,41101,1,0,0:0:0:0:
192,192,41214,1,0,0:0:0:60:LR_Drum Rpd x2.wav
320,192,41214,1,0,0:0:0:0:
64,192,41328,1,0,0:0:0:50:kick.wav
448,192,41328,128,0,41555:0:0:0:0:
320,192,41442,1,0,0:0:0:0:
64,192,41555,1,0,0:0:0:60:LR_Drum Rpd x2.wav
192,192,41555,1,0,0:0:0:0:
448,192,41669,1,0,0:0:0:0:
64,192,41783,128,0,42010:0:0:0:50:kick.wav
192,192,41783,1,0,0:0:0:0:
320,192,41896,1,0,0:0:0:0:
448,192,42010,1,0,0:0:0:0:
64,192,42124,1,0,0:0:0:60:LR_Drum Rpd x2.wav
320,192,42124,1,0,0:0:0:0:
192,192,42237,1,0,0:0:0:50:kick.wav
448,192,42237,128,0,42464:0:0:0:0:
64,192,42351,128,0,42464:0:0:0:0:
192,192,42464,1,0,0:0:0:60:LR_Drum Rpd x2.wav
320,192,42464,1,0,0:0:0:0:
448,192,42578,1,0,0:0:0:0:
64,192,42692,128,0,42919:0:0:0:50:kick.wav
320,192,42692,1,0,0:0:0:0:
448,192,42805,1,0,0:0:0:0:
192,192,42919,1,0,0:0:0:0:
64,192,43033,1,0,0:0:0:60:LR_Drum Rpd x2.wav
320,192,43033,1,0,0:0:0:0:
192,192,43146,1,0,0:0:0:50:kick.wav
448,192,43146,128,0,43374:0:0:0:0:
320,192,43260,1,0,0:0:0:0:
64,192,43374,1,0,0:0:0:60:LR_Drum Rpd x2.wav
192,192,43374,1,0,0:0:0:0:
448,192,43487,1,0,0:0:0:0:
64,192,43601,128,0,43828:0:0:0:50:kick.wav
192,192,43601,1,0,0:0:0:0:
320,192,43714,1,0,0:0:0:0:
448,192,43828,1,0,0:0:0:0:
192,192,43942,1,0,0:0:0:60:LR_Drum Rpd x2.wav
320,192,43942,1,0,0:0:0:0:
64,192,44055,128,0,44169:0:0:0:50:kick.wav
448,192,44055,128,0,44283:0:0:0:0:
320,192,44169,128,0,44283:0:0:0:0:
64,192,44283,1,0,0:0:0:60:LR_Drum Rpd x2.wav
192,192,44283,1,0,0:0:0:0:
448,192,44396,1,0,0:0:0:0:
64,192,44510,128,0,44737:0:0:0:50:kick.wav
192,192,44510,1,0,0:0:0:0:
320,192,44624,1,0,0:0:0:0:
448,192,44737,1,0,0:0:0:0:
192,192,44851,1,0,0:0:0:60:LR_Drum Rpd x2.wav
320,192,44851,1,0,0:0:0:0:
64,192,44964,1,0,0:0:0:50:kick.wav
448,192,44964,128,0,45192:0:0:0:0:
320,192,45078,1,0,0:0:0:0:
64,192,45192,1,0,0:0:0:60:LR_Drum Rpd x2.wav
192,192,45192,1,0,0:0:0:0:
448,192,45305,1,0,0:0:0:0:
64,192,45419,128,0,45646:0:0:0:50:kick.wav
192,192,45419,1,0,0:0:0:0:
320,192,45533,1,0,0:0:0:0:
448,192,45646,1,0,0:0:0:0:
64,192,45760,1,0,0:0:0:60:LR_Drum Rpd x2.wav
320,192,45760,1,0,0:0:0:0:
192,192,45874,1,0,0:0:0:50:kick.wav
448,192,45874,128,0,46101:0:0:0:0:
64,192,45987,128,0,46101:0:0:0:0:
192,192,46101,1,0,0:0:0:60:LR_Drum Rpd x2.wav
320,192,46101,1,0,0:0:0:0:
448,192,46214,1,0,0:0:0:0:
64,192,46328,128,0,46555:0:0:0:50:kick.wav
192,192,46328,1,0,0:0:0:0:
320,192,46442,128,0,46555:0:0:0:0:
448,192,46555,1,0,0:0:0:0:
192,192,46669,1,0,0:0:0:60:LR_Drum Rpd x2.wav
320,192,46669,128,0,46783:0:0:0:0:
64,192,46783,1,0,0:0:0:50:kick.wav
448,192,46783,128,0,46896:0:0:0:0:
320,192,46896,1,0,0:0:0:0:
192,192,47010,128,0,47124:0:0:0:60:LR_Drum Rpd x2.wav
448,192,47010,1,0,0:0:0:0:
64,192,47124,128,0,47237:0:0:0:0:
320,192,47237,1,0,0:0:0:0:
448,192,47237,128,0,47408:0:0:0:0:
64,192,47351,128,0,47464:0:0:0:0:
192,192,47464,128,0,47578:0:0:0:0:
448,192,47464,128,0,47635:0:0:0:0:
64,192,47578,1,0,0:0:0:0:
320,192,47692,128,0,47805:0:0:0:0:
448,192,47692,128,0,47862:0:0:0:0:
192,192,47805,128,0,47919:0:0:0:0:
64,192,47919,128,0,48033:0:0:0:0:
448,192,47919,128,0,48089:0:0:0:0:
192,192,48033,1,0,0:0:0:0:
64,192,48146,1,0,0:0:0:50:kick.wav
320,192,48146,1,0,0:0:0:50:cymbal.wav
448,192,48146,1,0,0:0:0:0:
192,192,48260,1,0,0:0:0:0:
448,192,48374,1,0,0:0:0:0:
64,192,48487,1,0,0:0:0:70:LR_Drum Rpd x2.wav
320,192,48487,1,0,0:0:0:0:
64,192,48601,1,0,0:0:0:50:kick.wav
192,192,48601,1,0,0:0:0:0:
320,192,48601,1,0,0:0:0:0:
448,192,48714,1,0,0:0:0:0:
64,192,48828,1,0,0:0:0:70:LR_Drum Rpd x2.wav
192,192,48828,1,0,0:0:0:0:
320,192,48942,1,0,0:0:0:0:
64,192,49055,1,0,0:0:0:50:kick.wav
192,192,49055,1,0,0:0:0:0:
448,192,49055,1,0,0:0:0:0:
320,192,49112,1,0,0:0:0:0:
448,192,49169,1,0,0:0:0:0:
192,192,49226,1,0,0:0:0:0:
320,192,49283,1,0,0:0:0:0:
64,192,49396,1,0,0:0:0:70:LR_Drum Rpd x2.wav
448,192,49396,1,0,0:0:0:0:
64,192,49510,1,0,0:0:0:50:kick.wav
192,192,49510,1,0,0:0:0:0:
448,192,49510,1,0,0:0:0:0:
192,192,49624,1,0,0:0:0:0:
320,192,49624,1,0,0:0:0:0:
64,192,49737,128,0,49908:0:0:0:70:LR_Drum Rpd x2.wav
448,192,49737,1,0,0:0:0:0:
192,192,49851,1,0,0:0:0:0:
64,192,49964,1,0,0:0:0:50:kick.wav
320,192,49964,1,0,0:0:0:0:
448,192,49964,1,0,0:0:0:0:
192,192,50078,128,0,50249:0:0:0:0:
320,192,50192,1,0,0:0:0:0:
192,192,50305,128,0,50419:0:0:0:70:LR_Drum Rpd x2.wav
448,192,50305,1,0,0:0:0:0:
64,192,50419,1,0,0:0:0:50:kick.wav
320,192,50419,1,0,0:0:0:0:
448,192,50419,1,0,0:0:0:0:
192,192,50533,1,0,0:0:0:0:
64,192,50646,1,0,0:0:0:70:LR_Drum Rpd x2.wav
320,192,50646,128,0,50817:0:0:0:0:
192,192,50760,1,0,0:0:0:0:
64,192,50874,1,0,0:0:0:50:kick.wav
320,192,50874,1,0,0:0:0:0:
448,192,50874,128,0,51044:0:0:0:0:
192,192,50987,1,0,0:0:0:0:
320,192,51101,1,0,0:0:0:0:
448,192,51101,128,0,51214:0:0:0:0:
64,192,51214,1,0,0:0:0:70:LR_Drum Rpd x2.wav
192,192,51214,1,0,0:0:0:0:
64,192,51328,1,0,0:0:0:50:kick.wav
192,192,51328,1,0,0:0:0:0:
320,192,51328,1,0,0:0:0:0:
320,192,51442,1,0,0:0:0:0:
448,192,51442,128,0,51612:0:0:0:0:
64,192,51555,1,0,0:0:0:70:LR_Drum Rpd x2.wav
192,192,51555,1,0,0:0:0:0:
448,192,51669,128,0,51783:0:0:0:0:
64,192,51783,1,0,0:0:0:50:kick.wav
192,192,51783,1,0,0:0:0:0:
320,192,51783,1,0,0:0:0:0:
448,192,51896,1,0,0:0:0:0:
64,192,52010,1,0,0:0:0:0:
192,192,52124,1,0,0:0:0:70:LR_Drum Rpd x2.wav
448,192,52124,1,0,0:0:0:0:
192,192,52237,1,0,0:0:0:50:kick.wav
320,192,52237,1,0,0:0:0:0:
448,192,52237,1,0,0:0:0:0:
64,192,52351,1,0,0:0:0:0:
320,192,52464,1,0,0:0:0:70:LR_Drum Rpd x2.wav
448,192,52464,1,0,0:0:0:0:
192,192,52578,1,0,0:0:0:0:
64,192,52692,1,0,0:0:0:50:kick.wav
320,192,52692,1,0,0:0:0:0:
448,192,52692,1,0,0:0:0:0:
192,192,52749,1,0,0:0:0:0:
448,192,52805,1,0,0:0:0:0:
320,192,52862,1,0,0:0:0:0:
192,192,52919,1,0,0:0:0:0:
64,192,53033,1,0,0:0:0:70:LR_Drum Rpd x2.wav
448,192,53033,1,0,0:0:0:0:
64,192,53146,1,0,0:0:0:50:kick.wav
320,192,53146,1,0,0:0:0:0:
448,192,53146,1,0,0:0:0:0:
192,192,53260,1,0,0:0:0:0:
320,192,53260,1,0,0:0:0:0:
64,192,53374,1,0,0:0:0:70:LR_Drum Rpd x2.wav
448,192,53374,128,0,53544:0:0:0:0:
320,192,53487,1,0,0:0:0:0:
64,192,53601,1,0,0:0:0:50:kick.wav
192,192,53601,1,0,0:0:0:0:
448,192,53601,1,0,0:0:0:0:
320,192,53714,128,0,53885:0:0:0:0:
192,192,53828,1,0,0:0:0:0:
64,192,53942,1,0,0:0:0:70:LR_Drum Rpd x2.wav
320,192,53942,128,0,54055:0:0:0:0:
64,192,54055,1,0,0:0:0:50:kick.wav
192,192,54055,1,0,0:0:0:0:
448,192,54055,1,0,0:0:0:0:
320,192,54169,1,0,0:0:0:0:
192,192,54283,1,0,0:0:0:70:LR_Drum Rpd x2.wav
448,192,54283,128,0,54453:0:0:0:0:
64,192,54396,1,0,0:0:0:0:
192,192,54510,1,0,0:0:0:50:kick.wav
320,192,54510,128,0,54680:0:0:0:0:
448,192,54510,1,0,0:0:0:0:
64,192,54624,1,0,0:0:0:0:
320,192,54737,128,0,54851:0:0:0:0:
64,192,54851,1,0,0:0:0:70:LR_Drum Rpd x2.wav
448,192,54851,1,0,0:0:0:0:
64,192,54964,1,0,0:0:0:50:kick.wav
192,192,54964,1,0,0:0:0:0:
320,192,54964,1,0,0:0:0:0:
448,192,55078,128,0,55249:0:0:0:0:
64,192,55192,1,0,0:0:0:0:
192,192,55305,1,0,0:0:0:0:
448,192,55305,128,0,55419:0:0:0:0:
64,192,55419,1,0,0:0:0:50:kick.wav
192,192,55419,1,0,0:0:0:70:LR_Drum Rpd x2.wav
320,192,55476,1,0,0:0:0:50:kick.wav
448,192,55476,1,0,0:0:0:0:
64,192,55533,1,0,0:0:0:50:kick.wav
192,192,55533,1,0,0:0:0:0:
320,192,55589,1,0,0:0:0:50:kick.wav
448,192,55589,1,0,0:0:0:0:
64,192,55646,1,0,0:0:0:50:kick.wav
192,192,55646,1,0,0:0:0:0:
320,192,55760,1,0,0:0:0:50:kick.wav
448,192,55760,1,0,0:0:0:0:
192,192,55874,1,0,0:0:0:50:kick.wav
64,192,55874,1,0,0:0:0:70:LR_Drum Rpd x2.wav
448,192,55874,1,0,0:0:0:0:
64,192,55987,1,0,0:0:0:50:kick.wav
320,192,55987,1,0,0:0:0:0:
192,192,56101,1,0,0:0:0:50:kick.wav
448,192,56101,1,0,0:0:0:0:
64,192,56214,1,0,0:0:0:50:kick.wav
320,192,56214,1,0,0:0:0:0:
64,192,56328,1,0,0:0:0:50:kick.wav
192,192,56328,1,0,0:0:0:70:LR_Drum Rpd x2.wav
448,192,56328,1,0,0:0:0:0:
320,192,56442,1,0,0:0:0:50:kick.wav
448,192,56442,1,0,0:0:0:0:
64,192,56555,1,0,0:0:0:50:kick.wav
192,192,56555,1,0,0:0:0:0:
320,192,56669,1,0,0:0:0:50:kick.wav
448,192,56669,1,0,0:0:0:0:
64,192,56783,1,0,0:0:0:50:kick.wav
192,192,56783,1,0,0:0:0:70:LR_Drum Rpd x2.wav
320,192,56783,1,0,0:0:0:0:
192,192,56896,1,0,0:0:0:50:kick.wav
448,192,56896,1,0,0:0:0:0:
64,192,57010,1,0,0:0:0:50:kick.wav
320,192,57010,1,0,0:0:0:0:
192,192,57124,1,0,0:0:0:50:kick.wav
448,192,57124,1,0,0:0:0:0:
320,192,57237,1,0,0:0:0:50:kick.wav
448,192,57237,1,0,0:0:0:70:LR_Drum Rpd x2.wav
64,192,57294,1,0,0:0:0:50:kick.wav
192,192,57294,1,0,0:0:0:0:
320,192,57351,1,0,0:0:0:50:kick.wav
448,192,57351,1,0,0:0:0:0:
64,192,57408,1,0,0:0:0:50:kick.wav
192,192,57408,1,0,0:0:0:0:
320,192,57464,1,0,0:0:0:50:kick.wav
448,192,57464,1,0,0:0:0:0:
64,192,57578,1,0,0:0:0:50:kick.wav
192,192,57578,1,0,0:0:0:0:
448,192,57692,1,0,0:0:0:50:kick.wav
320,192,57692,1,0,0:0:0:0:
64,192,57692,1,0,0:0:0:70:LR_Drum Rpd x2.wav
192,192,57805,1,0,0:0:0:50:kick.wav
448,192,57805,1,0,0:0:0:0:
64,192,57919,1,0,0:0:0:50:kick.wav
320,192,57919,1,0,0:0:0:0:
192,192,58033,1,0,0:0:0:50:kick.wav
448,192,58033,1,0,0:0:0:0:
64,192,58146,1,0,0:0:0:50:kick.wav
320,192,58146,1,0,0:0:0:70:LR_Drum Rpd x2.wav
448,192,58146,1,0,0:0:0:0:
64,192,58260,1,0,0:0:0:50:kick.wav
192,192,58260,1,0,0:0:0:0:
320,192,58374,1,0,0:0:0:50:kick.wav
448,192,58374,1,0,0:0:0:0:
64,192,58487,1,0,0:0:0:50:kick.wav
192,192,58487,1,0,0:0:0:0:
192,192,58601,1,0,0:0:0:50:kick.wav
320,192,58601,1,0,0:0:0:70:LR_Drum Rpd x2.wav
448,192,58601,1,0,0:0:0:0:
64,192,58714,1,0,0:0:0:50:kick.wav
320,192,58714,1,0,0:0:0:0:
192,192,58828,1,0,0:0:0:50:kick.wav
448,192,58828,1,0,0:0:0:0:
64,192,58942,1,0,0:0:0:50:kick.wav
320,192,58942,1,0,0:0:0:0:
64,192,59055,1,0,0:0:0:50:kick.wav
192,192,59055,1,0,0:0:0:70:LR_Drum Rpd x2.wav
320,192,59112,1,0,0:0:0:50:kick.wav
448,192,59112,1,0,0:0:0:0:
64,192,59169,1,0,0:0:0:50:kick.wav
192,192,59169,1,0,0:0:0:0:
320,192,59226,1,0,0:0:0:50:kick.wav
448,192,59226,1,0,0:0:0:0:
64,192,59283,1,0,0:0:0:50:kick.wav
192,192,59283,1,0,0:0:0:70:LR_Drum Rpd x2.wav
320,192,59396,1,0,0:0:0:50:kick.wav
448,192,59396,1,0,0:0:0:0:
64,192,59510,1,0,0:0:0:50:kick.wav
192,192,59510,1,0,0:0:0:70:LR_Drum Rpd x2.wav
448,192,59510,1,0,0:0:0:0:
192,192,59624,1,0,0:0:0:50:kick.wav
320,192,59624,1,0,0:0:0:0:
64,192,59737,1,0,0:0:0:50:kick.wav
320,192,59737,1,0,0:0:0:70:LR_Drum Rpd x2.wav
448,192,59737,1,0,0:0:0:0:
64,192,59851,1,0,0:0:0:50:kick.wav
192,192,59851,1,0,0:0:0:0:
192,192,59964,1,0,0:0:0:50:kick.wav
320,192,59964,1,0,0:0:0:70:LR_Drum Rpd x2.wav
448,192,59964,1,0,0:0:0:0:
64,192,60078,1,0,0:0:0:50:kick.wav
192,192,60078,1,0,0:0:0:0:
448,192,60078,1,0,0:0:0:0:
64,192,60192,1,0,0:0:0:50:kick.wav
320,192,60192,1,0,0:0:0:70:LR_Drum Rpd x2.wav
448,192,60192,1,0,0:0:0:0:
64,192,60305,1,0,0:0:0:50:kick.wav
192,192,60305,1,0,0:0:0:0:
320,192,60305,1,0,0:0:0:0:
192,192,60419,1,0,0:0:0:50:kick.wav
320,192,60419,1,0,0:0:0:70:LR_Drum Rpd x2.wav
448,192,60419,1,0,0:0:0:0:
64,192,60533,1,0,0:0:0:50:kick.wav
192,192,60533,1,0,0:0:0:0:
448,192,60533,1,0,0:0:0:0:
64,192,60646,1,0,0:0:0:50:kick.wav
320,192,60646,1,0,0:0:0:70:LR_Drum Rpd x2.wav
448,192,60646,1,0,0:0:0:0:
64,192,60760,1,0,0:0:0:50:kick.wav
192,192,60760,1,0,0:0:0:0:
320,192,60760,1,0,0:0:0:0:
320,192,60874,1,0,0:0:0:50:kick.wav
448,192,60874,1,0,0:0:0:0:
64,192,62692,128,0,63070:0:0:0:50:kick.wav
320,192,62692,1,0,0:0:0:50:cymbal.wav
448,192,62692,1,0,0:0:0:0:
192,192,62919,1,0,0:0:0:0:
320,192,62957,1,0,0:0:0:0:
448,192,62995,1,0,0:0:0:0:
320,192,63070,1,0,0:0:0:0:
64,192,63146,128,0,63374:0:0:0:50:kick.wav
192,192,63146,128,0,63260:0:0:0:70:clap02.wav
448,192,63146,1,0,0:0:0:0:
448,192,63260,128,0,63374:0:0:0:0:
320,192,63317,128,0,63487:0:0:0:0:
192,192,63374,128,0,63544:0:0:0:0:
448,192,63430,128,0,63544:0:0:0:0:
64,192,63487,128,0,63544:0:0:0:0:
64,192,63601,1,0,0:0:0:50:kick.wav
320,192,63601,128,0,63752:0:0:0:0:
448,192,63601,1,0,0:0:0:0:
192,192,63677,128,0,63828:0:0:0:0:
320,192,63828,128,0,63980:0:0:0:0:
64,192,63904,128,0,63980:0:0:0:0:
64,192,64055,1,0,0:0:0:50:kick.wav
192,192,64055,1,0,0:0:0:70:clap02.wav
320,192,64055,128,0,64207:0:0:0:0:
448,192,64131,128,0,64283:0:0:0:0:
64,192,64283,1,0,0:0:0:0:
192,192,64311,1,0,0:0:0:0:
320,192,64339,1,0,0:0:0:0:
448,192,64368,1,0,0:0:0:0:
64,192,64396,1,0,0:0:0:0:
192,192,64510,128,0,64680:0:0:0:50:kick.wav
320,192,64510,128,0,64737:0:0:0:0:
448,192,64510,1,0,0:0:0:0:
64,192,64680,128,0,64737:0:0:0:0:
192,192,64851,1,0,0:0:0:50:kick.wav
448,192,64851,1,0,0:0:0:0:
192,192,64964,1,0,0:0:0:50:kick.wav
320,192,64964,1,0,0:0:0:70:clap02.wav
448,192,64964,1,0,0:0:0:0:
64,192,65021,1,0,0:0:0:0:
320,192,65078,1,0,0:0:0:0:
192,192,65135,1,0,0:0:0:0:
64,192,65192,128,0,65362:0:0:0:0:
448,192,65192,128,0,65419:0:0:0:0:
64,192,65419,1,0,0:0:0:50:kick.wav
192,192,65419,1,0,0:0:0:0:
320,192,65419,1,0,0:0:0:0:
448,192,65476,1,0,0:0:0:0:
192,192,65533,1,0,0:0:0:0:
320,192,65589,1,0,0:0:0:0:
64,192,65646,128,0,65874:0:0:0:0:
448,192,65646,128,0,65817:0:0:0:0:
192,192,65874,128,0,66328:0:0:0:50:kick.wav
320,192,65874,128,0,66044:0:0:0:70:clap02.wav
448,192,65874,1,0,0:0:0:0:
320,192,66101,128,0,66271:0:0:0:0:
64,192,66328,1,0,0:0:0:50:kick.wav
320,192,66328,1,0,0:0:0:0:
448,192,66328,128,0,66707:0:0:0:0:
320,192,66555,1,0,0:0:0:0:
192,192,66593,1,0,0:0:0:0:
64,192,66631,1,0,0:0:0:0:
192,192,66707,1,0,0:0:0:0:
64,192,66783,1,0,0:0:0:50:kick.wav
320,192,66783,128,0,66896:0:0:0:70:clap02.wav
448,192,66783,128,0,67010:0:0:0:0:
64,192,66896,128,0,67010:0:0:0:0:
192,192,66953,128,0,67124:0:0:0:0:
320,192,67010,128,0,67180:0:0:0:0:
64,192,67067,128,0,67180:0:0:0:0:
448,192,67124,128,0,67180:0:0:0:0:
64,192,67237,1,0,0:0:0:50:kick.wav
192,192,67237,128,0,67389:0:0:0:0:
448,192,67237,1,0,0:0:0:0:
320,192,67313,128,0,67464:0:0:0:0:
192,192,67464,128,0,67616:0:0:0:0:
448,192,67540,128,0,67616:0:0:0:0:
192,192,67692,128,0,67843:0:0:0:50:kick.wav
320,192,67692,1,0,0:0:0:70:clap02.wav
448,192,67692,1,0,0:0:0:0:
64,192,67767,128,0,67919:0:0:0:0:
448,192,67919,1,0,0:0:0:0:
320,192,67947,1,0,0:0:0:0:
192,192,67976,1,0,0:0:0:0:
64,192,68004,1,0,0:0:0:0:
448,192,68033,1,0,0:0:0:0:
320,192,68089,1,0,0:0:0:0:
64,192,68146,128,0,68487:0:0:0:50:kick.wav
192,192,68146,128,0,68374:0:0:0:0:
448,192,68146,128,0,68260:0:0:0:0:
448,192,68374,1,0,0:0:0:0:
320,192,68487,128,0,68544:0:0:0:0:
64,192,68601,1,0,0:0:0:50:kick.wav
192,192,68601,1,0,0:0:0:70:clap02.wav
448,192,68601,1,0,0:0:0:0:
320,192,68658,1,0,0:0:0:0:
64,192,68714,1,0,0:0:0:0:
192,192,68771,1,0,0:0:0:0:
320,192,68828,128,0,68885:0:0:0:0:
320,192,68942,128,0,68999:0:0:0:0:
64,192,69055,1,0,0:0:0:50:kick.wav
192,192,69055,128,0,69396:0:0:0:0:
448,192,69055,128,0,69396:0:0:0:0:
64,192,69396,128,0,69453:0:0:0:0:
320,192,69396,128,0,69737:0:0:0:0:
64,192,69510,128,0,69737:0:0:0:50:kick.wav
192,192,69510,1,0,0:0:0:70:clap02.wav
448,192,69510,1,0,0:0:0:0:
192,192,69737,128,0,69908:0:0:0:0:
448,192,69737,128,0,69908:0:0:0:0:
64,192,69964,128,0,70343:0:0:0:50:kick.wav
192,192,69964,1,0,0:0:0:0:
448,192,69964,1,0,0:0:0:0:
192,192,70192,1,0,0:0:0:0:
320,192,70230,1,0,0:0:0:0:
448,192,70267,1,0,0:0:0:0:
320,192,70343,1,0,0:0:0:0:
64,192,70419,128,0,70646:0:0:0:50:kick.wav
192,192,70419,128,0,70533:0:0:0:70:clap02.wav
448,192,70419,1,0,0:0:0:0:
320,192,70533,128,0,70646:0:0:0:0:
448,192,70589,128,0,70760:0:0:0:0:
192,192,70646,128,0,70817:0:0:0:0:
320,192,70703,128,0,70817:0:0:0:0:
64,192,70760,128,0,70817:0:0:0:0:
64,192,70874,128,0,71025:0:0:0:50:kick.wav
192,192,70874,1,0,0:0:0:0:
320,192,70874,1,0,0:0:0:0:
448,192,70949,128,0,71101:0:0:0:0:
64,192,71101,128,0,71252:0:0:0:0:
320,192,71177,128,0,71252:0:0:0:0:
64,192,71328,128,0,71480:0:0:0:50:kick.wav
320,192,71328,1,0,0:0:0:70:clap02.wav
448,192,71328,1,0,0:0:0:0:
192,192,71404,128,0,71555:0:0:0:0:
320,192,71555,128,0,71612:0:0:0:0:
320,192,71707,128,0,71745:0:0:0:0:
64,192,71783,128,0,71953:0:0:0:50:kick.wav
192,192,71783,1,0,0:0:0:0:
448,192,71783,128,0,71953:0:0:0:0:
64,192,72010,128,0,72180:0:0:0:0:
448,192,72010,128,0,72180:0:0:0:0:
64,192,72237,1,0,0:0:0:50:kick.wav
320,192,72237,1,0,0:0:0:70:clap02.wav
448,192,72237,1,0,0:0:0:0:
192,192,72294,1,0,0:0:0:0:
320,192,72351,1,0,0:0:0:0:
192,192,72408,1,0,0:0:0:0:
64,192,72464,128,0,72635:0:0:0:0:
448,192,72464,128,0,72635:0:0:0:0:
64,192,72692,1,0,0:0:0:50:kick.wav
192,192,72692,1,0,0:0:0:0:
448,192,72692,1,0,0:0:0:0:
320,192,72749,1,0,0:0:0:0:
192,192,72805,1,0,0:0:0:0:
448,192,72862,1,0,0:0:0:0:
64,192,72919,1,0,0:0:0:0:
320,192,72976,1,0,0:0:0:0:
64,192,73033,1,0,0:0:0:0:
320,192,73089,1,0,0:0:0:0:
64,192,73146,128,0,73374:0:0:0:50:kick.wav
192,192,73146,128,0,73374:0:0:0:70:clap02.wav
448,192,73146,128,0,73260:0:0:0:0:
448,192,73374,128,0,73544:0:0:0:0:
320,192,73430,128,0,73544:0:0:0:0:
192,192,73487,128,0,73544:0:0:0:0:
64,192,73544,1,0,0:0:0:0:
192,192,73601,1,0,0:0:0:50:kick.wav
320,192,73601,1,0,0:0:0:0:
448,192,73601,128,0,73980:0:0:0:0:
320,192,73828,1,0,0:0:0:0:
192,192,73866,1,0,0:0:0:0:
64,192,73904,1,0,0:0:0:0:
192,192,73980,1,0,0:0:0:0:
64,192,74055,128,0,74283:0:0:0:50:kick.wav
320,192,74055,128,0,74226:0:0:0:70:clap02.wav
448,192,74055,128,0,74169:0:0:0:0:
192,192,74283,1,0,0:0:0:0:
320,192,74339,1,0,0:0:0:0:
192,192,74396,1,0,0:0:0:0:
320,192,74453,1,0,0:0:0:0:
64,192,74510,1,0,0:0:0:50:kick.wav
192,192,74510,1,0,0:0:0:0:
448,192,74510,1,0,0:0:0:0:
320,192,74624,1,0,0:0:0:0:
320,192,74737,1,0,0:0:0:0:
320,192,74851,1,0,0:0:0:0:
64,192,74964,1,0,0:0:0:50:kick.wav
192,192,74964,1,0,0:0:0:70:clap02.wav
448,192,74964,128,0,75021:0:0:0:0:
320,192,75021,128,0,75078:0:0:0:0:
192,192,75078,128,0,75135:0:0:0:0:
320,192,75135,128,0,75192:0:0:0:0:
64,192,75192,128,0,75249:0:0:0:0:
64,192,75305,128,0,75362:0:0:0:0:
64,192,75419,128,0,75533:0:0:0:50:kick.wav
192,192,75419,128,0,75533:0:0:0:50:cymbal.wav
320,192,75419,1,0,0:0:0:0:
64,192,75646,128,0,75760:0:0:0:0:
192,192,75646,128,0,75760:0:0:0:0:
64,192,75874,128,0,75987:0:0:0:70:snare06.wav
192,192,75874,128,0,75987:0:0:0:0:
448,192,75874,1,0,0:0:0:0:
320,192,76101,128,0,76214:0:0:0:0:
448,192,76101,128,0,76214:0:0:0:0:
64,192,76328,1,0,0:0:0:70:snare06.wav
192,192,76328,128,0,76783:0:0:0:0:
320,192,76328,1,0,0:0:0:0:
320,192,76669,1,0,0:0:0:70:LR_Drum Rpd x2.wav
448,192,76669,1,0,0:0:0:0:
64,192,76783,1,0,0:0:0:70:LR_Drum Rpd x2.wav
448,192,76783,1,0,0:0:0:0:
192,192,76896,1,0,0:0:0:70:LR_Drum Rpd x2.wav
320,192,76896,1,0,0:0:0:0:
448,192,77010,1,0,0:0:0:70:tom01.wav
192,192,77124,1,0,0:0:0:70:tom02.wav
64,192,77237,128,0,77294:0:0:0:50:kick.wav
320,192,77237,1,0,0:0:0:50:cymbal.wav
448,192,77237,128,0,77616:0:0:0:0:
320,192,77464,1,0,0:0:0:0:
192,192,77502,1,0,0:0:0:0:
64,192,77540,1,0,0:0:0:0:
192,192,77616,1,0,0:0:0:0:
64,192,77692,1,0,0:0:0:50:kick.wav
320,192,77692,128,0,77805:0:0:0:70:clap02.wav
448,192,77692,128,0,77919:0:0:0:0:
64,192,77805,128,0,77919:0:0:0:0:
192,192,77862,128,0,78033:0:0:0:0:
320,192,77919,128,0,78089:0:0:0:0:
64,192,77976,128,0,78089:0:0:0:0:
448,192,78033,128,0,78089:0:0:0:0:
64,192,78146,1,0,0:0:0:50:kick.wav
320,192,78146,128,0,78298:0:0:0:0:
448,192,78146,1,0,0:0:0:0:
192,192,78222,128,0,78374:0:0:0:0:
320,192,78374,128,0,78525:0:0:0:0:
448,192,78374,128,0,78449:0:0:0:0:
64,192,78449,128,0,78525:0:0:0:0:
64,192,78601,128,0,78677:0:0:0:50:kick.wav
192,192,78601,1,0,0:0:0:70:clap02.wav
320,192,78601,128,0,78752:0:0:0:0:
448,192,78677,128,0,78828:0:0:0:0:
64,192,78828,128,0,78885:0:0:0:0:
192,192,78856,1,0,0:0:0:0:
320,192,78885,1,0,0:0:0:0:
448,192,78913,1,0,0:0:0:0:
64,192,78942,1,0,0:0:0:0:
192,192,79055,128,0,79283:0:0:0:50:kick.wav
320,192,79055,128,0,79226:0:0:0:0:
448,192,79055,1,0,0:0:0:0:
64,192,79226,128,0,79283:0:0:0:0:
448,192,79283,128,0,79339:0:0:0:0:
320,192,79396,1,0,0:0:0:50:kick.wav
448,192,79396,128,0,79453:0:0:0:0:
64,192,79510,1,0,0:0:0:50:kick.wav
192,192,79510,1,0,0:0:0:70:clap02.wav
320,192,79510,1,0,0:0:0:0:
448,192,79567,1,0,0:0:0:0:
64,192,79624,128,0,79680:0:0:0:0:
192,192,79624,1,0,0:0:0:0:
320,192,79680,1,0,0:0:0:0:
64,192,79737,128,0,79794:0:0:0:0:
448,192,79737,128,0,79908:0:0:0:0:
64,192,79964,1,0,0:0:0:50:kick.wav
320,192,79964,1,0,0:0:0:0:
448,192,79964,1,0,0:0:0:0:
192,192,80021,128,0,80078:0:0:0:0:
448,192,80078,1,0,0:0:0:0:
320,192,80135,1,0,0:0:0:0:
64,192,80192,128,0,80305:0:0:0:0:
448,192,80192,128,0,80249:0:0:0:0:
192,192,80249,128,0,80362:0:0:0:0:
320,192,80305,128,0,80362:0:0:0:0:
64,192,80362,1,0,0:0:0:0:
192,192,80419,1,0,0:0:0:50:kick.wav
320,192,80419,128,0,80646:0:0:0:70:clap02.wav
448,192,80419,128,0,80533:0:0:0:0:
64,192,80533,128,0,80703:0:0:0:0:
192,192,80589,128,0,80760:0:0:0:0:
448,192,80646,128,0,80817:0:0:0:0:
320,192,80760,128,0,80817:0:0:0:0:
64,192,80874,128,0,81252:0:0:0:50:kick.wav
192,192,80874,1,0,0:0:0:0:
448,192,80874,128,0,80930:0:0:0:0:
192,192,81101,1,0,0:0:0:0:
320,192,81139,1,0,0:0:0:0:
448,192,81177,1,0,0:0:0:0:
320,192,81252,1,0,0:0:0:0:
64,192,81328,128,0,81555:0:0:0:50:kick.wav
192,192,81328,128,0,81442:0:0:0:70:clap02.wav
448,192,81328,1,0,0:0:0:0:
448,192,81442,128,0,81555:0:0:0:0:
320,192,81499,128,0,81669:0:0:0:0:
192,192,81555,128,0,81726:0:0:0:0:
448,192,81612,128,0,81726:0:0:0:0:
64,192,81669,128,0,81726:0:0:0:0:
64,192,81783,1,0,0:0:0:50:kick.wav
192,192,81783,128,0,81934:0:0:0:0:
448,192,81783,1,0,0:0:0:0:
320,192,81858,128,0,82010:0:0:0:0:
64,192,82010,128,0,82086:0:0:0:0:
192,192,82010,128,0,82161:0:0:0:0:
448,192,82086,128,0,82161:0:0:0:0:
192,192,82237,128,0,82389:0:0:0:50:kick.wav
320,192,82237,1,0,0:0:0:70:clap02.wav
448,192,82237,128,0,82313:0:0:0:0:
64,192,82313,128,0,82464:0:0:0:0:
448,192,82464,128,0,82521:0:0:0:0:
320,192,82493,1,0,0:0:0:0:
192,192,82521,1,0,0:0:0:0:
64,192,82550,1,0,0:0:0:0:
448,192,82578,1,0,0:0:0:0:
320,192,82635,1,0,0:0:0:0:
192,192,82692,128,0,82805:0:0:0:0:
448,192,82692,128,0,82805:0:0:0:0:
64,192,82805,128,0,82862:0:0:0:50:kick.wav
320,192,82805,1,0,0:0:0:0:
192,192,82862,1,0,0:0:0:0:
64,192,82919,128,0,82976:0:0:0:50:kick.wav
320,192,82919,1,0,0:0:0:0:
192,192,83033,1,0,0:0:0:0:
448,192,83033,1,0,0:0:0:0:
64,192,83146,1,0,0:0:0:50:kick.wav
192,192,83146,128,0,83203:0:0:0:70:clap02.wav
320,192,83203,128,0,83260:0:0:0:50:kick.wav
448,192,83203,1,0,0:0:0:0:
64,192,83260,1,0,0:0:0:50:kick.wav
192,192,83260,128,0,83317:0:0:0:0:
320,192,83317,128,0,83374:0:0:0:50:kick.wav
448,192,83317,1,0,0:0:0:0:
64,192,83374,1,0,0:0:0:50:kick.wav
192,192,83374,128,0,83430:0:0:0:0:
320,192,83487,1,0,0:0:0:50:kick.wav
448,192,83487,1,0,0:0:0:0:
64,192,83601,1,0,0:0:0:50:kick.wav
192,192,83601,128,0,83885:0:0:0:50:cymbal_s.wav
448,192,83601,128,0,83885:0:0:0:0:
64,192,83942,128,0,83999:0:0:0:50:kick.wav
192,192,83942,1,0,0:0:0:50:cymbal_s.wav
320,192,83942,128,0,84283:0:0:0:0:
64,192,84055,128,0,84226:0:0:0:70:LR_Drum Rpd x2.wav
448,192,84055,1,0,0:0:0:0:
192,192,84169,1,0,0:0:0:70:LR_Drum Rpd x2.wav
64,192,84283,1,0,0:0:0:50:kick.wav
192,192,84283,128,0,84453:0:0:0:50:cymbal_s.wav
448,192,84283,128,0,84453:0:0:0:0:
320,192,84396,1,0,0:0:0:70:tom03.wav
64,192,84510,128,0,84889:0:0:0:50:kick.wav
192,192,84510,1,0,0:0:0:50:cymbal.wav
448,192,84510,128,0,84567:0:0:0:0:
192,192,84737,1,0,0:0:0:0:
320,192,84775,1,0,0:0:0:0:
448,192,84813,1,0,0:0:0:0:
320,192,84889,1,0,0:0:0:0:
64,192,84964,128,0,85192:0:0:0:50:kick.wav
192,192,84964,128,0,85078:0:0:0:0:
448,192,84964,1,0,0:0:0:0:
448,192,85078,128,0,85192:0:0:0:0:
320,192,85135,128,0,85305:0:0:0:0:
192,192,85192,128,0,85362:0:0:0:0:
448,192,85249,128,0,85362:0:0:0:0:
64,192,85305,128,0,85362:0:0:0:0:
64,192,85419,128,0,85570:0:0:0:50:kick.wav
192,192,85419,1,0,0:0:0:0:
320,192,85419,1,0,0:0:0:0:
448,192,85495,128,0,85646:0:0:0:0:
64,192,85646,128,0,85817:0:0:0:0:
192,192,85646,128,0,85722:0:0:0:0:
320,192,85722,128,0,85798:0:0:0:0:
64,192,85874,128,0,86025:0:0:0:50:kick.wav
320,192,85874,1,0,0:0:0:0:
448,192,85874,128,0,85949:0:0:0:0:
192,192,85949,128,0,86101:0:0:0:0:
64,192,86101,128,0,86177:0:0:0:0:
320,192,86101,128,0,86158:0:0:0:0:
320,192,86252,128,0,86290:0:0:0:0:
64,192,86328,1,0,0:0:0:50:kick.wav
192,192,86328,128,0,86499:0:0:0:0:
448,192,86328,128,0,86499:0:0:0:0:
64,192,86555,128,0,86612:0:0:0:0:
192,192,86555,128,0,86726:0:0:0:0:
448,192,86555,128,0,86726:0:0:0:0:
64,192,86669,128,0,86726:0:0:0:0:
192,192,86783,1,0,0:0:0:50:kick.wav
320,192,86783,1,0,0:0:0:0:
448,192,86783,1,0,0:0:0:0:
64,192,86839,1,0,0:0:0:0:
192,192,86896,1,0,0:0:0:0:
448,192,86896,128,0,86953:0:0:0:0:
320,192,86953,1,0,0:0:0:0:
64,192,87010,128,0,87180:0:0:0:0:
192,192,87010,128,0,87180:0:0:0:0:
448,192,87010,128,0,87067:0:0:0:0:
64,192,87237,1,0,0:0:0:50:kick.wav
320,192,87237,1,0,0:0:0:0:
448,192,87237,1,0,0:0:0:0:
192,192,87294,128,0,87351:0:0:0:0:
448,192,87351,1,0,0:0:0:0:
320,192,87408,1,0,0:0:0:0:
64,192,87464,128,0,87578:0:0:0:0:
448,192,87464,128,0,87521:0:0:0:0:
192,192,87521,128,0,87635:0:0:0:0:
320,192,87578,128,0,87635:0:0:0:0:
64,192,87635,1,0,0:0:0:0:
192,192,87692,128,0,87919:0:0:0:50:kick.wav
320,192,87692,128,0,87805:0:0:0:0:
448,192,87692,1,0,0:0:0:0:
448,192,87805,128,0,87919:0:0:0:0:
64,192,87862,128,0,88033:0:0:0:0:
320,192,87919,128,0,88033:0:0:0:0:
192,192,87976,128,0,88033:0:0:0:0:
448,192,88033,128,0,88089:0:0:0:0:
320,192,88089,128,0,88146:0:0:0:0:
64,192,88146,128,0,88317:0:0:0:50:kick.wav
192,192,88146,128,0,88317:0:0:0:50:cymbal_s.wav
448,192,88146,128,0,88203:0:0:0:0:
64,192,88374,128,0,88544:0:0:0:50:kick.wav
192,192,88374,128,0,88544:0:0:0:50:cymbal_s.wav
320,192,88374,128,0,88430:0:0:0:0:
192,192,88601,128,0,88714:0:0:0:70:LR_Drum Rpd x2.wav
320,192,88601,128,0,88828:0:0:0:70:clap02.wav
448,192,88601,128,0,88771:0:0:0:0:
64,192,88828,1,0,0:0:0:50:kick.wav
192,192,88828,1,0,0:0:0:0:
448,192,88828,1,0,0:0:0:0:
320,192,88885,1,0,0:0:0:0:
192,192,88942,1,0,0:0:0:0:
320,192,88999,1,0,0:0:0:0:
64,192,89055,128,0,89112:0:0:0:70:LR_Drum Rpd x2.wav
192,192,89055,1,0,0:0:0:0:
448,192,89055,1,0,0:0:0:0:
64,192,89169,128,0,89226:0:0:0:0:
320,192,89169,1,0,0:0:0:0:
64,192,89283,1,0,0:0:0:50:kick.wav
192,192,89283,1,0,0:0:0:0:
448,192,89283,1,0,0:0:0:0:
320,192,89339,1,0,0:0:0:0:
192,192,89396,128,0,89453:0:0:0:0:
64,192,89510,1,0,0:0:0:70:LR_Drum Rpd x2.wav
320,192,89510,1,0,0:0:0:70:clap02.wav
448,192,89510,128,0,89567:0:0:0:0:
192,192,89624,1,0,0:0:0:0:
448,192,89624,128,0,89680:0:0:0:0:
64,192,89737,1,0,0:0:0:50:kick.wav
320,192,89737,1,0,0:0:0:0:
448,192,89737,1,0,0:0:0:0:
192,192,89794,1,0,0:0:0:0:
320,192,89851,128,0,89908:0:0:0:0:
64,192,89964,1,0,0:0:0:50:kick.wav
192,192,89964,1,0,0:0:0:0:
448,192,89964,1,0,0:0:0:0:
192,192,90192,128,0,90249:0:0:0:0:
192,192,90305,128,0,90362:0:0:0:0:
64,192,90419,128,0,90817:0:0:0:70:snare06.wav
320,192,90419,1,0,0:0:0:0:
448,192,90419,128,0,90817:0:0:0:0:
192,192,90533,128,0,90589:0:0:0:0:
320,192,90646,128,0,90703:0:0:0:0:
192,192,90703,128,0,90760:0:0:0:0:
320,192,90760,128,0,90817:0:0:0:0:
192,192,90817,128,0,90874:0:0:0:0:
64,192,90874,128,0,91271:0:0:0:70:snare06.wav
320,192,90874,128,0,91271:0:0:0:0:
448,192,90874,128,0,91271:0:0:0:0:
192,192,91101,128,0,91271:0:0:0:0:
64,192,91328,128,0,91726:0:0:0:70:LR_Drum Rpd x2.wav
192,192,91328,128,0,91726:0:0:0:0:
448,192,91328,128,0,91726:0:0:0:0:
64,192,91783,128,0,92161:0:0:0:50:kick.wav
192,192,91783,1,0,0:0:0:50:cymbal.wav
320,192,91783,1,0,0:0:0:0:
192,192,92010,1,0,0:0:0:0:
320,192,92048,1,0,0:0:0:0:
448,192,92086,1,0,0:0:0:0:
320,192,92161,1,0,0:0:0:0:
64,192,92237,128,0,92464:0:0:0:50:kick.wav
192,192,92237,128,0,92464:0:0:0:70:clap02.wav
448,192,92237,128,0,92464:0:0:0:100:Percussion Hey sound a#.wav
320,192,92464,128,0,92692:0:0:0:0:
64,192,92692,1,0,0:0:0:50:kick.wav
192,192,92692,1,0,0:0:0:0:
448,192,92692,1,0,0:0:0:0:
320,192,92749,1,0,0:0:0:0:
448,192,92805,1,0,0:0:0:0:
192,192,92919,1,0,0:0:0:0:
320,192,92976,1,0,0:0:0:0:
192,192,93033,1,0,0:0:0:0:
320,192,93089,1,0,0:0:0:0:
64,192,93146,128,0,93317:0:0:0:50:kick.wav
192,192,93146,128,0,93317:0:0:0:70:clap02.wav
448,192,93146,128,0,93317:0:0:0:100:Percussion Hey sound a#.wav
64,192,93374,128,0,93544:0:0:0:0:
320,192,93374,128,0,93544:0:0:0:0:
64,192,93601,1,0,0:0:0:50:kick.wav
320,192,93601,1,0,0:0:0:0:
448,192,93601,1,0,0:0:0:0:
192,192,93658,1,0,0:0:0:0:
64,192,93714,1,0,0:0:0:0:
320,192,93828,1,0,0:0:0:0:
192,192,93885,1,0,0:0:0:0:
320,192,93942,1,0,0:0:0:0:
192,192,93999,1,0,0:0:0:0:
64,192,94055,128,0,94226:0:0:0:50:kick.wav
320,192,94055,128,0,94226:0:0:0:70:clap02.wav
448,192,94055,128,0,94226:0:0:0:100:Percussion Hey sound a#.wav
64,192,94283,128,0,94453:0:0:0:0:
192,192,94283,128,0,94453:0:0:0:0:
448,192,94283,128,0,94453:0:0:0:0:
64,192,94510,1,0,0:0:0:50:kick.wav
192,192,94510,1,0,0:0:0:0:
448,192,94510,1,0,0:0:0:0:
320,192,94567,1,0,0:0:0:0:
448,192,94624,1,0,0:0:0:0:
320,192,94737,1,0,0:0:0:0:
64,192,94794,1,0,0:0:0:0:
320,192,94851,1,0,0:0:0:0:
64,192,94908,1,0,0:0:0:0:
192,192,94964,128,0,95192:0:0:0:50:kick.wav
320,192,94964,128,0,95192:0:0:0:70:clap02.wav
448,192,94964,128,0,95192:0:0:0:100:Percussion Hey sound a#.wav
64,192,95192,1,0,0:0:0:0:
320,192,95249,1,0,0:0:0:0:
64,192,95305,1,0,0:0:0:0:
320,192,95362,1,0,0:0:0:0:
64,192,95419,1,0,0:0:0:50:kick.wav
192,192,95419,1,0,0:0:0:0:
448,192,95419,128,0,95798:0:0:0:0:
320,192,95646,1,0,0:0:0:0:
192,192,95684,1,0,0:0:0:0:
64,192,95722,1,0,0:0:0:0:
192,192,95798,1,0,0:0:0:0:
64,192,95874,128,0,96101:0:0:0:50:kick.wav
320,192,95874,128,0,96101:0:0:0:70:clap02.wav
448,192,95874,128,0,96101:0:0:0:100:Percussion Hey sound a#.wav
192,192,96101,128,0,96328:0:0:0:0:
64,192,96328,1,0,0:0:0:50:kick.wav
320,192,96328,1,0,0:0:0:0:
448,192,96328,1,0,0:0:0:0:
192,192,96385,1,0,0:0:0:0:
64,192,96442,1,0,0:0:0:0:
192,192,96555,1,0,0:0:0:0:
448,192,96612,1,0,0:0:0:0:
192,192,96669,1,0,0:0:0:0:
448,192,96726,1,0,0:0:0:0:
64,192,96783,128,0,96953:0:0:0:50:kick.wav
192,192,96783,128,0,96953:0:0:0:70:clap02.wav
320,192,96783,128,0,96953:0:0:0:100:Percussion Hey sound a#.wav
64,192,97010,128,0,97180:0:0:0:0:
448,192,97010,128,0,97180:0:0:0:0:
64,192,97237,1,0,0:0:0:50:kick.wav
192,192,97237,1,0,0:0:0:0:
448,192,97237,1,0,0:0:0:0:
320,192,97294,1,0,0:0:0:0:
448,192,97351,1,0,0:0:0:0:
64,192,97464,1,0,0:0:0:0:
320,192,97521,1,0,0:0:0:0:
64,192,97578,1,0,0:0:0:0:
320,192,97635,1,0,0:0:0:0:
64,192,97692,128,0,97862:0:0:0:50:kick.wav
192,192,97692,128,0,97862:0:0:0:70:clap02.wav
448,192,97692,128,0,97862:0:0:0:100:Percussion Hey sound a#.wav
320,192,97919,1,0,0:0:0:0:
64,192,97957,1,0,0:0:0:0:
192,192,98004,1,0,0:0:0:0:
448,192,98033,1,0,0:0:0:0:
320,192,98070,1,0,0:0:0:0:
64,192,98118,1,0,0:0:0:0:
192,192,98146,1,0,0:0:0:50:kick.wav
448,192,98146,1,0,0:0:0:0:
320,192,98203,1,0,0:0:0:0:
64,192,98260,1,0,0:0:0:0:
320,192,98317,1,0,0:0:0:0:
192,192,98374,1,0,0:0:0:0:
448,192,98430,1,0,0:0:0:0:
320,192,98487,1,0,0:0:0:0:
192,192,98544,1,0,0:0:0:0:
64,192,98601,128,0,98771:0:0:0:50:kick.wav
448,192,98601,128,0,98771:0:0:0:70:clap02.wav
320,192,98658,1,0,0:0:0:0:
192,192,98714,1,0,0:0:0:0:
320,192,98771,1,0,0:0:0:0:
448,192,98828,1,0,0:0:0:0:
64,192,98885,1,0,0:0:0:0:
192,192,98942,1,0,0:0:0:0:
320,192,98999,1,0,0:0:0:0:
64,192,99055,128,0,99434:0:0:0:50:kick.wav
192,192,99055,1,0,0:0:0:50:cymbal.wav
448,192,99055,1,0,0:0:0:0:
192,192,99283,1,0,0:0:0:0:
320,192,99320,1,0,0:0:0:0:
448,192,99358,1,0,0:0:0:0:
320,192,99434,1,0,0:0:0:0:
64,192,99510,1,0,0:0:0:50:kick.wav
192,192,99510,1,0,0:0:0:0:
448,192,99510,128,0,99624:0:0:0:0:
320,192,99567,128,0,99851:0:0:0:0:
192,192,99624,128,0,99737:0:0:0:0:
64,192,99680,128,0,99737:0:0:0:0:
448,192,99737,128,0,99851:0:0:0:0:
64,192,99794,128,0,99851:0:0:0:0:
192,192,99851,128,0,99908:0:0:0:0:
64,192,99964,1,0,0:0:0:50:kick.wav
320,192,99964,1,0,0:0:0:0:
448,192,99964,1,0,0:0:0:0:
192,192,100029,1,0,0:0:0:0:
64,192,100094,1,0,0:0:0:0:
320,192,100192,1,0,0:0:0:0:
192,192,100257,1,0,0:0:0:0:
320,192,100322,1,0,0:0:0:0:
64,192,100419,1,0,0:0:0:50:kick.wav
192,192,100419,1,0,0:0:0:0:
448,192,100419,1,0,0:0:0:0:
320,192,100484,1,0,0:0:0:0:
448,192,100549,1,0,0:0:0:0:
192,192,100646,1,0,0:0:0:0:
320,192,100711,1,0,0:0:0:0:
192,192,100776,1,0,0:0:0:0:
64,192,100874,1,0,0:0:0:50:kick.wav
320,192,100874,1,0,0:0:0:0:
448,192,100874,1,0,0:0:0:0:
192,192,100938,1,0,0:0:0:0:
64,192,101003,1,0,0:0:0:0:
320,192,101101,1,0,0:0:0:0:
192,192,101166,1,0,0:0:0:0:
320,192,101231,1,0,0:0:0:0:
64,192,101328,1,0,0:0:0:50:kick.wav
192,192,101328,1,0,0:0:0:0:
448,192,101328,1,0,0:0:0:0:
320,192,101393,1,0,0:0:0:0:
448,192,101458,1,0,0:0:0:0:
192,192,101555,1,0,0:0:0:0:
320,192,101620,1,0,0:0:0:0:
192,192,101685,1,0,0:0:0:0:
64,192,101783,1,0,0:0:0:50:kick.wav
320,192,101783,1,0,0:0:0:0:
448,192,101783,1,0,0:0:0:0:
192,192,101858,1,0,0:0:0:0:
320,192,101934,1,0,0:0:0:0:
448,192,102010,1,0,0:0:0:0:
64,192,102048,1,0,0:0:0:0:
192,192,102086,1,0,0:0:0:0:
320,192,102124,1,0,0:0:0:0:
64,192,102161,1,0,0:0:0:0:
192,192,102199,1,0,0:0:0:0:
320,192,102237,1,0,0:0:0:50:kick.wav
448,192,102237,1,0,0:0:0:0:
192,192,102294,1,0,0:0:0:0:
64,192,102351,1,0,0:0:0:0:
320,192,102408,1,0,0:0:0:0:
192,192,102464,1,0,0:0:0:0:
448,192,102502,1,0,0:0:0:0:
320,192,102540,1,0,0:0:0:0:
64,192,102578,1,0,0:0:0:0:
448,192,102616,1,0,0:0:0:0:
320,192,102654,1,0,0:0:0:0:
64,192,102692,1,0,0:0:0:50:kick.wav
192,192,102692,1,0,0:0:0:0:
448,192,102805,1,0,0:0:0:0:
192,192,102862,1,0,0:0:0:0:
448,192,102919,1,0,0:0:0:0:
448,192,103033,1,0,0:0:0:0:
64,192,103146,1,0,0:0:0:50:kick.wav
192,192,103146,1,0,0:0:0:0:
320,192,103146,1,0,0:0:0:0:
448,192,103203,1,0,0:0:0:0:
192,192,103260,1,0,0:0:0:0:
192,192,103374,1,0,0:0:0:0:
192,192,103487,1,0,0:0:0:0:
320,192,103544,1,0,0:0:0:0:
64,192,103601,1,0,0:0:0:50:kick.wav
192,192,103601,1,0,0:0:0:0:
448,192,103601,1,0,0:0:0:0:
320,192,103714,1,0,0:0:0:0:
320,192,103828,1,0,0:0:0:0:
64,192,103885,1,0,0:0:0:0:
320,192,103942,1,0,0:0:0:0:
64,192,104055,1,0,0:0:0:50:kick.wav
192,192,104055,1,0,0:0:0:0:
448,192,104055,1,0,0:0:0:0:
64,192,104169,1,0,0:0:0:0:
320,192,104226,1,0,0:0:0:0:
64,192,104283,1,0,0:0:0:0:
64,192,104396,1,0,0:0:0:0:
192,192,104510,1,0,0:0:0:50:kick.wav
320,192,104510,1,0,0:0:0:0:
448,192,104510,128,0,104624:0:0:0:0:
448,192,104737,128,0,104851:0:0:0:0:
448,192,104964,128,0,105078:0:0:0:0:
448,192,105192,128,0,105305:0:0:0:0:
64,192,105419,1,0,0:0:0:70:snare06.wav
320,192,105419,1,0,0:0:0:0:
448,192,105419,128,0,105533:0:0:0:0:
320,192,105646,128,0,105760:0:0:0:0:
192,192,105760,1,0,0:0:0:70:LR_Drum Rpd x2.wav
448,192,105760,1,0,0:0:0:0:
64,192,105874,1,0,0:0:0:70:LR_Drum Rpd x2.wav
192,192,105874,128,0,105987:0:0:0:0:
320,192,105987,1,0,0:0:0:70:LR_Drum Rpd x2.wav
448,192,105987,1,0,0:0:0:0:
64,192,106101,128,0,106214:0:0:0:70:tom01.wav
320,192,106101,1,0,0:0:0:0:
192,192,106214,1,0,0:0:0:70:tom02.wav
64,192,106328,128,0,106707:0:0:0:50:kick.wav
320,192,106328,1,0,0:0:0:50:cymbal.wav
448,192,106328,1,0,0:0:0:0:
192,192,106555,1,0,0:0:0:0:
320,192,106593,1,0,0:0:0:0:
448,192,106631,1,0,0:0:0:0:
320,192,106707,1,0,0:0:0:0:
64,192,106783,128,0,107010:0:0:0:50:kick.wav
192,192,106783,128,0,107010:0:0:0:70:clap02.wav
448,192,106783,128,0,107010:0:0:0:100:Percussion Hey sound a#.wav
320,192,107010,128,0,107237:0:0:0:0:
64,192,107237,1,0,0:0:0:50:kick.wav
192,192,107237,1,0,0:0:0:0:
448,192,107237,1,0,0:0:0:0:
320,192,107294,1,0,0:0:0:0:
448,192,107351,1,0,0:0:0:0:
192,192,107464,1,0,0:0:0:0:
448,192,107521,1,0,0:0:0:0:
192,192,107578,1,0,0:0:0:0:
448,192,107635,1,0,0:0:0:0:
64,192,107692,128,0,107862:0:0:0:50:kick.wav
192,192,107692,128,0,107862:0:0:0:70:clap02.wav
320,192,107692,128,0,107862:0:0:0:100:Percussion Hey sound a#.wav
64,192,107919,128,0,108089:0:0:0:0:
448,192,107919,128,0,108089:0:0:0:0:
64,192,108146,1,0,0:0:0:50:kick.wav
320,192,108146,1,0,0:0:0:0:
448,192,108146,1,0,0:0:0:0:
192,192,108203,1,0,0:0:0:0:
64,192,108260,1,0,0:0:0:0:
320,192,108374,1,0,0:0:0:0:
192,192,108430,1,0,0:0:0:0:
320,192,108487,1,0,0:0:0:0:
192,192,108544,1,0,0:0:0:0:
64,192,108601,128,0,108771:0:0:0:50:kick.wav
320,192,108601,128,0,108771:0:0:0:70:clap02.wav
448,192,108601,128,0,108771:0:0:0:100:Percussion Hey sound a#.wav
64,192,108828,128,0,108999:0:0:0:0:
192,192,108828,128,0,108999:0:0:0:0:
448,192,108828,128,0,108999:0:0:0:0:
64,192,109055,1,0,0:0:0:50:kick.wav
192,192,109055,1,0,0:0:0:0:
448,192,109055,1,0,0:0:0:0:
320,192,109112,1,0,0:0:0:0:
448,192,109169,1,0,0:0:0:0:
64,192,109283,1,0,0:0:0:0:
320,192,109339,1,0,0:0:0:0:
64,192,109396,1,0,0:0:0:0:
320,192,109453,1,0,0:0:0:0:
64,192,109510,128,0,109737:0:0:0:50:kick.wav
192,192,109510,128,0,109737:0:0:0:70:clap02.wav
448,192,109510,128,0,109737:0:0:0:100:Percussion Hey sound a#.wav
320,192,109737,1,0,0:0:0:0:
64,192,109794,1,0,0:0:0:0:
320,192,109851,1,0,0:0:0:0:
64,192,109908,1,0,0:0:0:0:
192,192,109964,1,0,0:0:0:50:kick.wav
320,192,109964,1,0,0:0:0:0:
448,192,109964,128,0,110343:0:0:0:0:
320,192,110192,1,0,0:0:0:0:
192,192,110230,1,0,0:0:0:0:
64,192,110267,1,0,0:0:0:0:
192,192,110343,1,0,0:0:0:0:
64,192,110419,128,0,110646:0:0:0:50:kick.wav
320,192,110419,128,0,110646:0:0:0:70:clap02.wav
448,192,110419,128,0,110646:0:0:0:100:Percussion Hey sound a#.wav
192,192,110646,128,0,110874:0:0:0:0:
64,192,110874,1,0,0:0:0:50:kick.wav
320,192,110874,1,0,0:0:0:0:
448,192,110874,1,0,0:0:0:0:
192,192,110930,1,0,0:0:0:0:
64,192,110987,1,0,0:0:0:0:
448,192,111101,1,0,0:0:0:0:
192,192,111158,1,0,0:0:0:0:
448,192,111214,1,0,0:0:0:0:
192,192,111271,1,0,0:0:0:0:
64,192,111328,128,0,111499:0:0:0:50:kick.wav
320,192,111328,128,0,111499:0:0:0:70:clap02.wav
448,192,111328,128,0,111499:0:0:0:100:Percussion Hey sound a#.wav
64,192,111555,128,0,111726:0:0:0:0:
192,192,111555,128,0,111726:0:0:0:0:
64,192,111783,1,0,0:0:0:50:kick.wav
192,192,111783,1,0,0:0:0:0:
448,192,111783,1,0,0:0:0:0:
320,192,111839,1,0,0:0:0:0:
448,192,111896,1,0,0:0:0:0:
64,192,112010,1,0,0:0:0:0:
448,192,112067,1,0,0:0:0:0:
64,192,112124,1,0,0:0:0:0:
448,192,112180,1,0,0:0:0:0:
64,192,112237,128,0,112408:0:0:0:50:kick.wav
192,192,112237,128,0,112408:0:0:0:70:clap02.wav
320,192,112237,128,0,112408:0:0:0:100:Percussion Hey sound a#.wav
448,192,112464,1,0,0:0:0:0:
320,192,112502,1,0,0:0:0:0:
64,192,112540,1,0,0:0:0:0:
448,192,112578,1,0,0:0:0:0:
192,192,112616,1,0,0:0:0:0:
64,192,112654,1,0,0:0:0:0:
320,192,112692,1,0,0:0:0:50:kick.wav
448,192,112692,1,0,0:0:0:0:
192,192,112749,1,0,0:0:0:0:
448,192,112805,1,0,0:0:0:0:
64,192,112862,1,0,0:0:0:50:kick.wav
320,192,112862,1,0,0:0:0:0:
192,192,112919,1,0,0:0:0:0:
448,192,112976,1,0,0:0:0:0:
64,192,113033,1,0,0:0:0:50:kick.wav
192,192,113033,1,0,0:0:0:0:
448,192,113089,1,0,0:0:0:0:
64,192,113146,1,0,0:0:0:50:kick.wav
192,192,113146,128,0,113260:0:0:0:70:clap02.wav
320,192,113203,1,0,0:0:0:0:
64,192,113260,1,0,0:0:0:0:
192,192,113317,1,0,0:0:0:50:kick.wav
448,192,113317,1,0,0:0:0:0:
320,192,113374,1,0,0:0:0:0:
64,192,113430,1,0,0:0:0:0:
320,192,113487,1,0,0:0:0:50:kick.wav
448,192,113487,1,0,0:0:0:0:
64,192,113544,1,0,0:0:0:0:
192,192,113601,1,0,0:0:0:50:kick.wav
320,192,113601,1,0,0:0:0:50:cymbal.wav
448,192,113601,128,0,113980:0:0:0:70:LR_Drum Rpd x2.wav
320,192,113828,1,0,0:0:0:70:LR_Drum Rpd x2.wav
192,192,113866,1,0,0:0:0:0:
64,192,113904,1,0,0:0:0:0:
192,192,113980,1,0,0:0:0:0:
64,192,114055,128,0,114169:0:0:0:50:kick.wav
320,192,114055,1,0,0:0:0:70:LR_Drum Rpd x2.wav
448,192,114055,1,0,0:0:0:0:
192,192,114112,128,0,114396:0:0:0:0:
320,192,114169,128,0,114283:0:0:0:70:LR_Drum Rpd x2.wav
448,192,114226,128,0,114283:0:0:0:0:
64,192,114283,128,0,114396:0:0:0:0:
448,192,114339,128,0,114396:0:0:0:0:
320,192,114396,128,0,114453:0:0:0:70:LR_Drum Rpd x2.wav
64,192,114510,1,0,0:0:0:50:kick.wav
192,192,114510,1,0,0:0:0:70:LR_Drum Rpd x2.wav
448,192,114510,1,0,0:0:0:0:
320,192,114575,1,0,0:0:0:0:
448,192,114640,1,0,0:0:0:0:
64,192,114737,1,0,0:0:0:70:LR_Drum Rpd x2.wav
192,192,114737,1,0,0:0:0:0:
320,192,114802,1,0,0:0:0:0:
192,192,114867,1,0,0:0:0:0:
64,192,114964,1,0,0:0:0:50:kick.wav
320,192,114964,1,0,0:0:0:70:LR_Drum Rpd x2.wav
192,192,115029,1,0,0:0:0:0:
64,192,115094,1,0,0:0:0:0:
320,192,115192,1,0,0:0:0:70:LR_Drum Rpd x2.wav
448,192,115192,1,0,0:0:0:0:
192,192,115257,1,0,0:0:0:0:
320,192,115322,1,0,0:0:0:0:
64,192,115419,1,0,0:0:0:50:kick.wav
192,192,115419,1,0,0:0:0:70:LR_Drum Rpd x2.wav
448,192,115419,1,0,0:0:0:0:
320,192,115484,1,0,0:0:0:0:
448,192,115549,1,0,0:0:0:0:
64,192,115646,1,0,0:0:0:70:LR_Drum Rpd x2.wav
192,192,115646,1,0,0:0:0:0:
320,192,115711,1,0,0:0:0:0:
192,192,115776,1,0,0:0:0:0:
64,192,115874,1,0,0:0:0:70:LR_Drum Rpd x2.wav
320,192,115874,1,0,0:0:0:0:
192,192,115938,1,0,0:0:0:0:
64,192,116003,1,0,0:0:0:0:
320,192,116101,1,0,0:0:0:70:LR_Drum Rpd x2.wav
448,192,116101,1,0,0:0:0:0:
192,192,116166,1,0,0:0:0:0:
320,192,116231,1,0,0:0:0:0:
64,192,116328,1,0,0:0:0:50:kick.wav
192,192,116328,1,0,0:0:0:70:LR_Drum Rpd x2.wav
448,192,116328,1,0,0:0:0:0:
320,192,116442,1,0,0:0:0:0:
64,192,116555,1,0,0:0:0:70:LR_Drum Rpd x2.wav
448,192,116555,1,0,0:0:0:0:
64,192,116669,1,0,0:0:0:70:LR_Drum Rpd x2.wav
448,192,116669,1,0,0:0:0:0:
64,192,116783,128,0,116896:0:0:0:70:snare06.wav
192,192,116783,128,0,116839:0:0:0:0:
320,192,116783,1,0,0:0:0:0:
448,192,116839,128,0,116896:0:0:0:0:
320,192,116896,128,0,116953:0:0:0:0:
192,192,116953,128,0,117010:0:0:0:0:
64,192,117010,1,0,0:0:0:70:LR_Drum Rpd x2.wav
448,192,117010,128,0,117067:0:0:0:0:
320,192,117067,128,0,117124:0:0:0:0:
64,192,117124,1,0,0:0:0:70:LR_Drum Rpd x2.wav
192,192,117124,128,0,117180:0:0:0:0:
448,192,117180,128,0,117237:0:0:0:0:
64,192,117237,1,0,0:0:0:50:kick.wav
192,192,117237,1,0,0:0:0:50:cymbal.wav
320,192,117237,1,0,0:0:0:70:LR_Drum Rpd x2.wav
320,192,117351,1,0,0:0:0:70:LR_Drum Rpd x2.wav
64,192,117464,1,0,0:0:0:50:kick.wav
192,192,117464,1,0,0:0:0:70:LR_Drum Rpd x2.wav
448,192,117464,1,0,0:0:0:0:
448,192,117578,1,0,0:0:0:70:LR_Drum Rpd x2.wav
64,192,117692,1,0,0:0:0:50:kick.wav
192,192,117692,1,0,0:0:0:70:LR_Drum Rpd x2.wav
320,192,117692,1,0,0:0:0:0:
320,192,117805,1,0,0:0:0:70:LR_Drum Rpd x2.wav
64,192,117919,1,0,0:0:0:50:kick.wav
192,192,117919,1,0,0:0:0:70:LR_Drum Rpd x2.wav
448,192,117919,1,0,0:0:0:0:
64,192,118033,1,0,0:0:0:70:LR_Drum Rpd x2.wav
192,192,118089,1,0,0:0:0:0:
64,192,118146,1,0,0:0:0:50:kick.wav
320,192,118146,1,0,0:0:0:70:LR_Drum Rpd x2.wav
448,192,118146,1,0,0:0:0:0:
192,192,118260,1,0,0:0:0:70:LR_Drum Rpd x2.wav
64,192,118374,1,0,0:0:0:50:kick.wav
320,192,118374,1,0,0:0:0:70:LR_Drum Rpd x2.wav
448,192,118374,1,0,0:0:0:0:
64,192,118487,1,0,0:0:0:70:LR_Drum Rpd x2.wav
192,192,118601,1,0,0:0:0:50:kick.wav
320,192,118601,1,0,0:0:0:70:LR_Drum Rpd x2.wav
448,192,118601,1,0,0:0:0:0:
448,192,118714,1,0,0:0:0:70:LR_Drum Rpd x2.wav
320,192,118771,1,0,0:0:0:0:
64,192,118828,1,0,0:0:0:50:kick.wav
192,192,118828,1,0,0:0:0:0:
320,192,118885,1,0,0:0:0:50:kick.wav
448,192,118885,1,0,0:0:0:0:
64,192,118942,1,0,0:0:0:50:kick.wav
192,192,118942,1,0,0:0:0:0:
320,192,118999,1,0,0:0:0:50:kick.wav
448,192,118999,1,0,0:0:0:0:
64,192,119055,1,0,0:0:0:50:kick.wav
192,192,119055,128,0,119226:0:0:0:0:
320,192,119169,128,0,119226:0:0:0:0:
448,192,119283,128,0,119396:0:0:0:0:
64,192,119510,128,0,119680:0:0:0:0:
192,192,119510,128,0,119908:0:0:0:0:
64,192,119737,128,0,119908:0:0:0:0:
64,192,119964,1,0,0:0:0:70:snare06.wav
320,192,119964,128,0,120362:0:0:0:0:
448,192,119964,128,0,120135:0:0:0:0:
64,192,120192,1,0,0:0:0:0:
448,192,120192,128,0,120362:0:0:0:0:
192,192,120305,1,0,0:0:0:70:LR_Drum Rpd x2.wav
192,192,120419,128,0,120589:0:0:0:70:LR_Drum Rpd x2.wav
320,192,120419,1,0,0:0:0:0:
448,192,120419,128,0,120817:0:0:0:0:
64,192,120533,1,0,0:0:0:70:LR_Drum Rpd x2.wav
64,192,120646,128,0,120817:0:0:0:70:tom01.wav
192,192,120646,1,0,0:0:0:0:
320,192,120760,1,0,0:0:0:70:tom02.wav
64,192,120874,1,0,0:0:0:50:kick.wav
192,192,120874,1,0,0:0:0:50:cymbal_s.wav
448,192,120874,1,0,0:0:0:0:
320,192,120930,1,0,0:0:0:0:
448,192,120987,1,0,0:0:0:0:
192,192,121044,1,0,0:0:0:0:
320,192,121101,1,0,0:0:0:0:
64,192,121139,1,0,0:0:0:0:
192,192,121177,1,0,0:0:0:0:
448,192,121214,1,0,0:0:0:0:
320,192,121252,1,0,0:0:0:0:
64,192,121290,1,0,0:0:0:0:
192,192,121328,1,0,0:0:0:0:
64,192,121555,1,0,0:0:0:0:
320,192,121555,1,0,0:0:0:0:
192,192,121612,1,0,0:0:0:0:
64,192,121669,1,0,0:0:0:0:
192,192,121783,1,0,0:0:0:70:electronic_neurofunk.wav
320,192,121783,1,0,0:0:0:0:
448,192,121783,1,0,0:0:0:0:
64,192,121839,1,0,0:0:0:0:
320,192,121896,1,0,0:0:0:0:
448,192,121953,1,0,0:0:0:0:
192,192,122010,1,0,0:0:0:0:
320,192,122048,1,0,0:0:0:0:
448,192,122086,1,0,0:0:0:0:
64,192,122124,1,0,0:0:0:0:
192,192,122152,1,0,0:0:0:0:
320,192,122180,1,0,0:0:0:0:
448,192,122464,1,0,0:0:0:0:
64,192,122521,1,0,0:0:0:0:
448,192,122578,1,0,0:0:0:0:
64,192,122635,1,0,0:0:0:0:
192,192,122692,1,0,0:0:0:50:kick.wav
320,192,122692,1,0,0:0:0:0:
448,192,122692,1,0,0:0:0:0:
64,192,122749,1,0,0:0:0:0:
320,192,122805,1,0,0:0:0:0:
448,192,122862,1,0,0:0:0:0:
192,192,122919,1,0,0:0:0:0:
320,192,122957,1,0,0:0:0:0:
448,192,122995,1,0,0:0:0:0:
64,192,123033,1,0,0:0:0:0:
192,192,123061,1,0,0:0:0:0:
320,192,123089,1,0,0:0:0:0:
64,192,123374,1,0,0:0:0:0:
320,192,123374,1,0,0:0:0:0:
192,192,123430,1,0,0:0:0:0:
320,192,123487,1,0,0:0:0:0:
64,192,123601,1,0,0:0:0:70:electronic_neurofunk.wav
192,192,123601,1,0,0:0:0:0:
448,192,123601,1,0,0:0:0:0:
320,192,123658,1,0,0:0:0:0:
448,192,123714,1,0,0:0:0:0:
64,192,123771,1,0,0:0:0:0:
192,192,123828,1,0,0:0:0:0:
320,192,123828,1,0,0:0:0:0:
192,192,123942,1,0,0:0:0:0:
320,192,123942,1,0,0:0:0:0:
64,192,124055,1,0,0:0:0:0:
448,192,124055,1,0,0:0:0:0:
192,192,124112,1,0,0:0:0:0:
64,192,124169,1,0,0:0:0:0:
192,192,124283,1,0,0:0:0:0:
448,192,124283,1,0,0:0:0:0:
320,192,124339,1,0,0:0:0:0:
448,192,124396,1,0,0:0:0:0:
64,192,124510,1,0,0:0:0:50:kick.wav
320,192,124510,1,0,0:0:0:50:cymbal_s.wav
448,192,124510,1,0,0:0:0:0:
192,192,124567,1,0,0:0:0:0:
64,192,124624,1,0,0:0:0:0:
320,192,124680,1,0,0:0:0:0:
192,192,124737,1,0,0:0:0:0:
448,192,124775,1,0,0:0:0:0:
320,192,124813,1,0,0:0:0:0:
64,192,124851,1,0,0:0:0:0:
192,192,124889,1,0,0:0:0:0:
448,192,124927,1,0,0:0:0:0:
320,192,124964,1,0,0:0:0:0:
192,192,125192,1,0,0:0:0:0:
448,192,125192,1,0,0:0:0:0:
320,192,125249,1,0,0:0:0:0:
448,192,125305,1,0,0:0:0:0:
64,192,125419,1,0,0:0:0:70:electronic_neurofunk.wav
192,192,125419,1,0,0:0:0:0:
320,192,125419,1,0,0:0:0:0:
448,192,125476,1,0,0:0:0:0:
192,192,125533,1,0,0:0:0:0:
64,192,125589,1,0,0:0:0:0:
320,192,125646,1,0,0:0:0:0:
192,192,125684,1,0,0:0:0:0:
64,192,125722,1,0,0:0:0:0:
448,192,125760,1,0,0:0:0:0:
320,192,125788,1,0,0:0:0:0:
192,192,125817,1,0,0:0:0:0:
64,192,126101,1,0,0:0:0:0:
448,192,126158,1,0,0:0:0:0:
64,192,126214,1,0,0:0:0:0:
448,192,126271,1,0,0:0:0:0:
64,192,126328,1,0,0:0:0:50:kick.wav
192,192,126328,1,0,0:0:0:0:
320,192,126328,1,0,0:0:0:0:
448,192,126385,1,0,0:0:0:0:
192,192,126442,1,0,0:0:0:0:
64,192,126499,1,0,0:0:0:0:
320,192,126555,1,0,0:0:0:0:
192,192,126593,1,0,0:0:0:0:
64,192,126631,1,0,0:0:0:0:
448,192,126669,1,0,0:0:0:0:
320,192,126697,1,0,0:0:0:0:
192,192,126726,1,0,0:0:0:0:
64,192,126896,1,0,0:0:0:0:
320,192,126896,1,0,0:0:0:0:
192,192,126953,1,0,0:0:0:0:
320,192,127010,1,0,0:0:0:0:
192,192,127124,1,0,0:0:0:0:
448,192,127124,1,0,0:0:0:0:
64,192,127237,1,0,0:0:0:70:electronic_neurofunk.wav
192,192,127237,1,0,0:0:0:0:
320,192,127237,1,0,0:0:0:0:
448,192,127294,1,0,0:0:0:0:
64,192,127351,1,0,0:0:0:0:
320,192,127408,1,0,0:0:0:0:
192,192,127464,1,0,0:0:0:0:
448,192,127502,1,0,0:0:0:0:
64,192,127540,1,0,0:0:0:0:
320,192,127578,1,0,0:0:0:0:
448,192,127616,1,0,0:0:0:0:
192,192,127654,1,0,0:0:0:0:
64,192,127692,1,0,0:0:0:0:
320,192,127730,1,0,0:0:0:0:
192,192,127767,1,0,0:0:0:0:
448,192,127805,1,0,0:0:0:0:
64,192,127843,1,0,0:0:0:0:
320,192,127881,1,0,0:0:0:0:
448,192,127919,1,0,0:0:0:0:
192,192,127976,1,0,0:0:0:0:
320,192,128033,1,0,0:0:0:0:
64,192,128089,1,0,0:0:0:0:
192,192,128146,1,0,0:0:0:50:kick.wav
320,192,128146,1,0,0:0:0:50:cymbal_s.wav
448,192,128146,1,0,0:0:0:0:
64,192,128203,1,0,0:0:0:0:
192,192,128260,1,0,0:0:0:0:
320,192,128317,1,0,0:0:0:0:
64,192,128374,1,0,0:0:0:0:
448,192,128411,1,0,0:0:0:0:
320,192,128449,1,0,0:0:0:0:
192,192,128487,1,0,0:0:0:0:
64,192,128525,1,0,0:0:0:0:
448,192,128563,1,0,0:0:0:0:
320,192,128601,1,0,0:0:0:0:
64,192,128828,1,0,0:0:0:0:
320,192,128828,1,0,0:0:0:0:
192,192,128885,1,0,0:0:0:0:
64,192,128942,1,0,0:0:0:0:
192,192,129055,1,0,0:0:0:70:electronic_neurofunk.wav
320,192,129055,1,0,0:0:0:0:
448,192,129055,1,0,0:0:0:0:
64,192,129112,1,0,0:0:0:0:
320,192,129169,1,0,0:0:0:0:
448,192,129226,1,0,0:0:0:0:
192,192,129283,1,0,0:0:0:0:
320,192,129320,1,0,0:0:0:0:
448,192,129358,1,0,0:0:0:0:
64,192,129396,1,0,0:0:0:0:
192,192,129425,1,0,0:0:0:0:
320,192,129453,1,0,0:0:0:0:
448,192,129737,1,0,0:0:0:0:
64,192,129794,1,0,0:0:0:0:
448,192,129851,1,0,0:0:0:0:
64,192,129908,1,0,0:0:0:0:
192,192,129964,1,0,0:0:0:50:kick.wav
320,192,129964,1,0,0:0:0:0:
448,192,129964,1,0,0:0:0:0:
64,192,130021,1,0,0:0:0:0:
320,192,130078,1,0,0:0:0:0:
448,192,130135,1,0,0:0:0:0:
192,192,130192,1,0,0:0:0:0:
320,192,130230,1,0,0:0:0:0:
448,192,130267,1,0,0:0:0:0:
64,192,130305,1,0,0:0:0:0:
192,192,130334,1,0,0:0:0:0:
320,192,130362,1,0,0:0:0:0:
192,192,130646,1,0,0:0:0:0:
320,192,130646,1,0,0:0:0:0:
64,192,130703,1,0,0:0:0:0:
320,192,130760,1,0,0:0:0:0:
64,192,130874,1,0,0:0:0:70:electronic_neurofunk.wav
192,192,130874,1,0,0:0:0:0:
448,192,130874,1,0,0:0:0:0:
320,192,130930,1,0,0:0:0:0:
448,192,130987,1,0,0:0:0:0:
192,192,131044,1,0,0:0:0:0:
64,192,131101,1,0,0:0:0:0:
320,192,131139,1,0,0:0:0:0:
192,192,131177,1,0,0:0:0:0:
64,192,131214,1,0,0:0:0:0:
448,192,131252,1,0,0:0:0:0:
320,192,131290,1,0,0:0:0:0:
64,192,131328,1,0,0:0:0:0:
192,192,131328,1,0,0:0:0:0:
448,192,131385,1,0,0:0:0:0:
192,192,131442,1,0,0:0:0:0:
320,192,131499,1,0,0:0:0:0:
64,192,131555,1,0,0:0:0:0:
448,192,131555,1,0,0:0:0:0:
192,192,131593,1,0,0:0:0:0:
320,192,131631,1,0,0:0:0:0:
448,192,131669,1,0,0:0:0:0:
64,192,131726,1,0,0:0:0:0:
192,192,131783,1,0,0:0:0:50:kick.wav
320,192,131783,1,0,0:0:0:50:cymbal_s.wav
448,192,131783,1,0,0:0:0:70:CLAP_.wav
64,192,131839,1,0,0:0:0:0:
320,192,131896,1,0,0:0:0:0:
192,192,131953,1,0,0:0:0:0:
448,192,132010,1,0,0:0:0:0:
320,192,132048,1,0,0:0:0:0:
64,192,132086,1,0,0:0:0:0:
192,192,132124,1,0,0:0:0:0:
448,192,132161,1,0,0:0:0:0:
320,192,132199,1,0,0:0:0:0:
64,192,132237,1,0,0:0:0:70:CLAP_.wav
192,192,132237,1,0,0:0:0:0:
64,192,132464,1,0,0:0:0:70:LR_Drum Rpd x2.wav
448,192,132464,1,0,0:0:0:0:
320,192,132521,1,0,0:0:0:0:
64,192,132578,1,0,0:0:0:70:LR_Drum Rpd x2.wav
192,192,132578,1,0,0:0:0:0:
192,192,132692,1,0,0:0:0:70:electronic_neurofunk.wav
320,192,132692,1,0,0:0:0:70:CLAP_.wav
448,192,132692,1,0,0:0:0:0:
64,192,132749,1,0,0:0:0:0:
192,192,132805,1,0,0:0:0:0:
320,192,132862,1,0,0:0:0:0:
64,192,132919,1,0,0:0:0:70:LR_Drum Rpd x2.wav
448,192,132919,1,0,0:0:0:0:
192,192,132976,1,0,0:0:0:0:
320,192,133033,1,0,0:0:0:70:LR_Drum Rpd x2.wav
448,192,133033,1,0,0:0:0:0:
64,192,133146,1,0,0:0:0:70:CLAP_.wav
192,192,133146,1,0,0:0:0:0:
320,192,133146,1,0,0:0:0:0:
320,192,133345,1,0,0:0:0:0:
448,192,133374,1,0,0:0:0:70:LR_Drum Rpd x2.wav
64,192,133430,1,0,0:0:0:0:
448,192,133487,1,0,0:0:0:70:LR_Drum Rpd x2.wav
64,192,133544,1,0,0:0:0:0:
192,192,133601,1,0,0:0:0:50:kick.wav
320,192,133601,1,0,0:0:0:70:CLAP_.wav
448,192,133601,1,0,0:0:0:0:
64,192,133658,1,0,0:0:0:0:
320,192,133714,1,0,0:0:0:70:LR_Drum Rpd x2.wav
448,192,133714,1,0,0:0:0:0:
64,192,133828,1,0,0:0:0:70:LR_Drum Rpd x2.wav
192,192,133828,1,0,0:0:0:0:
448,192,133828,1,0,0:0:0:0:
320,192,133885,1,0,0:0:0:0:
64,192,133942,1,0,0:0:0:70:LR_Drum Rpd x2.wav
192,192,133942,1,0,0:0:0:0:
64,192,134055,1,0,0:0:0:70:CLAP_.wav
320,192,134055,1,0,0:0:0:0:
448,192,134055,1,0,0:0:0:0:
192,192,134112,1,0,0:0:0:0:
320,192,134169,1,0,0:0:0:70:LR_Drum Rpd x2.wav
448,192,134169,1,0,0:0:0:0:
64,192,134283,1,0,0:0:0:70:LR_Drum Rpd x2.wav
192,192,134283,1,0,0:0:0:0:
320,192,134283,1,0,0:0:0:0:
448,192,134339,1,0,0:0:0:0:
64,192,134396,1,0,0:0:0:70:LR_Drum Rpd x2.wav
192,192,134396,1,0,0:0:0:0:
192,192,134510,1,0,0:0:0:70:electronic_neurofunk.wav
320,192,134510,1,0,0:0:0:0:
448,192,134510,1,0,0:0:0:0:
64,192,134737,128,0,134851:0:0:0:0:
192,192,134737,128,0,134794:0:0:0:0:
448,192,134964,128,0,135021:0:0:0:0:
192,192,135021,128,0,135078:0:0:0:70:tom01.wav
320,192,135078,128,0,135135:0:0:0:70:tom01.wav
64,192,135135,128,0,135192:0:0:0:50:LR_Drum Kick Low.wav
320,192,135192,128,0,135249:0:0:0:50:LR_Drum Kick Low.wav
192,192,135249,128,0,135305:0:0:0:50:LR_Drum Kick Low.wav
448,192,135305,128,0,135362:0:0:0:50:LR_Drum Kick Low.wav
192,192,135362,128,0,135419:0:0:0:50:LR_Drum Kick Low.wav
64,192,135419,1,0,0:0:0:50:kick.wav
320,192,135419,1,0,0:0:0:50:cymbal.wav
448,192,135419,1,0,0:0:0:70:push_scratch.wav
64,192,135874,1,0,0:0:0:0:
448,192,135949,1,0,0:0:0:0:
192,192,136025,1,0,0:0:0:0:
320,192,136101,1,0,0:0:0:0:
192,192,136177,1,0,0:0:0:0:
320,192,136252,1,0,0:0:0:0:
448,192,136328,1,0,0:0:0:0:
192,192,136404,1,0,0:0:0:0:
64,192,136480,1,0,0:0:0:0:
320,192,136555,1,0,0:0:0:0:
448,192,136631,1,0,0:0:0:0:
320,192,136707,1,0,0:0:0:0:
64,192,136783,1,0,0:0:0:0:
320,192,136858,1,0,0:0:0:0:
192,192,136934,1,0,0:0:0:0:
64,192,137010,1,0,0:0:0:0:
448,192,137086,1,0,0:0:0:0:
320,192,137161,1,0,0:0:0:0:
192,192,137237,1,0,0:0:0:0:
320,192,137313,1,0,0:0:0:0:
64,192,137389,1,0,0:0:0:0:
192,192,137464,1,0,0:0:0:0:
320,192,137540,1,0,0:0:0:0:
448,192,137616,1,0,0:0:0:0:
192,192,137692,1,0,0:0:0:0:
448,192,137767,1,0,0:0:0:0:
192,192,137843,1,0,0:0:0:0:
64,192,137919,1,0,0:0:0:0:
448,192,137995,1,0,0:0:0:0:
320,192,138070,1,0,0:0:0:0:
192,192,138146,1,0,0:0:0:0:
64,192,138222,1,0,0:0:0:0:
192,192,138298,1,0,0:0:0:0:
448,192,138374,1,0,0:0:0:0:
64,192,138449,1,0,0:0:0:0:
320,192,138525,1,0,0:0:0:0:
448,192,138601,1,0,0:0:0:0:
64,192,138677,1,0,0:0:0:0:
192,192,138752,1,0,0:0:0:0:
64,192,138828,1,0,0:0:0:0:
448,192,138904,1,0,0:0:0:0:
320,192,138980,1,0,0:0:0:0:
192,192,139055,1,0,0:0:0:0:
64,192,139964,1,0,0:0:0:0:
320,192,139964,1,0,0:0:0:0:
64,192,140116,1,0,0:0:0:0:
192,192,140116,1,0,0:0:0:0:
320,192,140267,1,0,0:0:0:0:
448,192,140267,1,0,0:0:0:0:
64,192,140419,1,0,0:0:0:0:
320,192,140419,1,0,0:0:0:0:
64,192,140570,1,0,0:0:0:0:
192,192,140570,1,0,0:0:0:0:
192,192,140722,1,0,0:0:0:0:
448,192,140722,1,0,0:0:0:0:
64,192,140874,1,0,0:0:0:0:
320,192,140874,1,0,0:0:0:0:
192,192,141328,1,0,0:0:0:0:
320,192,141404,1,0,0:0:0:0:
448,192,141480,1,0,0:0:0:0:
192,192,141555,1,0,0:0:0:0:
320,192,141555,1,0,0:0:0:0:
192,192,142010,1,0,0:0:0:0:
320,192,142086,1,0,0:0:0:0:
448,192,142161,1,0,0:0:0:0:
64,192,142237,1,0,0:0:0:0:
320,192,142237,1,0,0:0:0:0:
192,192,142313,1,0,0:0:0:0:
448,192,142389,1,0,0:0:0:0:
192,192,142464,1,0,0:0:0:0:
64,192,142540,1,0,0:0:0:0:
320,192,142616,1,0,0:0:0:0:
64,192,142692,128,0,142767:0:0:0:50:LR_Drum Kick Low.wav
192,192,142692,128,0,142767:0:0:0:0:
448,192,142692,128,0,142767:0:0:0:0:
64,192,142919,1,0,0:0:0:0:
448,192,142919,1,0,0:0:0:0:
192,192,143089,1,0,0:0:0:0:
448,192,143089,1,0,0:0:0:0:
192,192,143260,1,0,0:0:0:0:
320,192,143260,1,0,0:0:0:0:
192,192,143459,1,0,0:0:0:0:
448,192,143459,1,0,0:0:0:0:
64,192,143639,1,0,0:0:0:0:
448,192,143639,1,0,0:0:0:0:
64,192,143828,1,0,0:0:0:0:
320,192,143828,1,0,0:0:0:0:
192,192,144017,1,0,0:0:0:0:
448,192,144017,1,0,0:0:0:0:
64,192,144207,1,0,0:0:0:0:
192,192,144207,1,0,0:0:0:0:
320,192,144396,1,0,0:0:0:0:
448,192,144396,1,0,0:0:0:0:
64,192,144586,1,0,0:0:0:0:
448,192,144586,1,0,0:0:0:0:
64,192,144775,1,0,0:0:0:0:
320,192,144775,1,0,0:0:0:0:
64,192,144964,1,0,0:0:0:0:
192,192,144964,1,0,0:0:0:0:
320,192,145135,1,0,0:0:0:0:
448,192,145135,1,0,0:0:0:0:
64,192,145305,1,0,0:0:0:0:
320,192,145305,1,0,0:0:0:0:
64,192,145495,1,0,0:0:0:0:
448,192,145495,1,0,0:0:0:0:
192,192,145722,1,0,0:0:0:0:
448,192,145722,1,0,0:0:0:0:
192,192,146063,1,0,0:0:0:0:
320,192,146063,1,0,0:0:0:0:
448,192,146063,1,0,0:0:0:0:
64,192,146328,1,0,0:0:0:0:
192,192,146328,1,0,0:0:0:0:
320,192,146328,1,0,0:0:0:0:
320,192,146783,1,0,0:0:0:0:
192,192,146858,1,0,0:0:0:0:
320,192,146934,1,0,0:0:0:0:
64,192,147010,1,0,0:0:0:0:
448,192,147086,1,0,0:0:0:0:
192,192,147161,1,0,0:0:0:0:
448,192,147237,1,0,0:0:0:0:
192,192,147313,1,0,0:0:0:0:
64,192,147389,1,0,0:0:0:0:
320,192,147464,1,0,0:0:0:0:
192,192,147540,1,0,0:0:0:0:
320,192,147616,1,0,0:0:0:0:
64,192,147692,1,0,0:0:0:0:
192,192,147767,1,0,0:0:0:0:
448,192,147843,1,0,0:0:0:0:
192,192,147919,1,0,0:0:0:0:
320,192,147995,1,0,0:0:0:0:
192,192,148070,1,0,0:0:0:0:
64,192,148146,1,0,0:0:0:0:
448,192,148222,1,0,0:0:0:0:
320,192,148298,1,0,0:0:0:0:
64,192,148374,1,0,0:0:0:0:
448,192,148449,1,0,0:0:0:0:
320,192,148525,1,0,0:0:0:0:
192,192,148601,1,0,0:0:0:0:
448,192,148677,1,0,0:0:0:0:
192,192,148752,1,0,0:0:0:0:
320,192,148828,1,0,0:0:0:0:
64,192,148904,1,0,0:0:0:0:
320,192,148980,1,0,0:0:0:0:
64,192,149964,1,0,0:0:0:50:kick.wav
320,192,149964,1,0,0:0:0:50:cymbal.wav
448,192,149964,1,0,0:0:0:50:LR_Drum Kick Low.wav
448,192,150040,1,0,0:0:0:0:
64,192,150116,1,0,0:0:0:0:
320,192,150192,1,0,0:0:0:0:
64,192,150267,1,0,0:0:0:0:
320,192,150343,1,0,0:0:0:0:
192,192,150419,1,0,0:0:0:0:
448,192,150495,1,0,0:0:0:0:
192,192,150570,1,0,0:0:0:0:
64,192,150646,1,0,0:0:0:0:
192,192,150722,1,0,0:0:0:0:
64,192,150798,1,0,0:0:0:0:
320,192,150874,1,0,0:0:0:0:
192,192,150949,1,0,0:0:0:0:
320,192,151025,1,0,0:0:0:0:
64,192,151101,1,0,0:0:0:0:
320,192,151177,1,0,0:0:0:0:
64,192,151252,1,0,0:0:0:0:
448,192,151328,1,0,0:0:0:0:
192,192,151404,1,0,0:0:0:0:
448,192,151480,1,0,0:0:0:0:
320,192,151555,1,0,0:0:0:0:
448,192,151631,1,0,0:0:0:0:
320,192,151707,1,0,0:0:0:0:
192,192,151783,1,0,0:0:0:0:
64,192,151858,1,0,0:0:0:0:
320,192,151934,1,0,0:0:0:0:
192,192,152010,1,0,0:0:0:0:
64,192,152086,1,0,0:0:0:0:
192,192,152161,1,0,0:0:0:0:
320,192,152237,1,0,0:0:0:0:
192,192,152313,1,0,0:0:0:0:
448,192,152389,1,0,0:0:0:0:
320,192,152464,1,0,0:0:0:0:
192,192,152540,1,0,0:0:0:0:
320,192,152616,1,0,0:0:0:0:
192,192,152692,1,0,0:0:0:0:
64,192,152767,1,0,0:0:0:0:
320,192,152843,1,0,0:0:0:0:
192,192,152919,1,0,0:0:0:0:
64,192,152995,1,0,0:0:0:0:
192,192,153070,1,0,0:0:0:0:
320,192,153146,1,0,0:0:0:0:
192,192,153222,1,0,0:0:0:0:
448,192,153298,1,0,0:0:0:0:
320,192,153374,1,0,0:0:0:0:
192,192,153449,1,0,0:0:0:0:
320,192,153525,1,0,0:0:0:0:
64,192,153601,1,0,0:0:0:50:kick.wav
192,192,153601,1,0,0:0:0:50:LR_Drum Kick Low.wav
448,192,153601,1,0,0:0:0:0:
448,192,153677,1,0,0:0:0:0:
192,192,153752,1,0,0:0:0:0:
448,192,153828,1,0,0:0:0:0:
192,192,153904,1,0,0:0:0:0:
320,192,153980,1,0,0:0:0:0:
448,192,154055,1,0,0:0:0:0:
64,192,154131,1,0,0:0:0:0:
320,192,154207,1,0,0:0:0:0:
448,192,154283,1,0,0:0:0:0:
64,192,154358,1,0,0:0:0:0:
192,192,154434,1,0,0:0:0:0:
448,192,154510,1,0,0:0:0:0:
192,192,154586,1,0,0:0:0:0:
320,192,154661,1,0,0:0:0:0:
64,192,154737,1,0,0:0:0:0:
320,192,154813,1,0,0:0:0:0:
448,192,154889,1,0,0:0:0:0:
192,192,154964,1,0,0:0:0:0:
448,192,155040,1,0,0:0:0:0:
64,192,155116,1,0,0:0:0:0:
320,192,155192,1,0,0:0:0:0:
64,192,155267,1,0,0:0:0:0:
192,192,155343,1,0,0:0:0:0:
320,192,155419,1,0,0:0:0:0:
448,192,155495,1,0,0:0:0:0:
320,192,155570,1,0,0:0:0:0:
192,192,155646,1,0,0:0:0:0:
448,192,155722,1,0,0:0:0:0:
192,192,155798,1,0,0:0:0:0:
320,192,155874,1,0,0:0:0:0:
64,192,155949,1,0,0:0:0:0:
320,192,156025,1,0,0:0:0:0:
64,192,156101,1,0,0:0:0:0:
192,192,156177,1,0,0:0:0:0:
64,192,156252,1,0,0:0:0:0:
192,192,156328,1,0,0:0:0:0:
320,192,156404,1,0,0:0:0:0:
448,192,156480,1,0,0:0:0:0:
192,192,156555,1,0,0:0:0:0:
448,192,156631,1,0,0:0:0:0:
192,192,156707,1,0,0:0:0:0:
320,192,156783,1,0,0:0:0:0:
192,192,156858,1,0,0:0:0:0:
448,192,156934,1,0,0:0:0:0:
320,192,157010,1,0,0:0:0:0:
192,192,157086,1,0,0:0:0:0:
64,192,157161,1,0,0:0:0:0:
192,192,157237,1,0,0:0:0:50:kick.wav
320,192,157237,1,0,0:0:0:50:LR_Drum Kick Low.wav
448,192,157237,1,0,0:0:0:0:
320,192,157313,1,0,0:0:0:0:
64,192,157389,1,0,0:0:0:0:
320,192,157464,1,0,0:0:0:0:
64,192,157540,1,0,0:0:0:0:
320,192,157616,1,0,0:0:0:0:
192,192,157692,1,0,0:0:0:0:
448,192,157767,1,0,0:0:0:0:
192,192,157843,1,0,0:0:0:0:
320,192,157919,1,0,0:0:0:0:
448,192,157995,1,0,0:0:0:0:
320,192,158070,1,0,0:0:0:0:
64,192,158146,1,0,0:0:0:0:
192,192,158222,1,0,0:0:0:0:
320,192,158298,1,0,0:0:0:0:
448,192,158374,1,0,0:0:0:0:
192,192,158449,1,0,0:0:0:0:
64,192,158525,1,0,0:0:0:0:
448,192,158601,1,0,0:0:0:0:
320,192,158677,1,0,0:0:0:0:
192,192,158752,1,0,0:0:0:0:
448,192,158828,1,0,0:0:0:0:
320,192,158904,1,0,0:0:0:0:
64,192,158980,1,0,0:0:0:0:
448,192,159055,1,0,0:0:0:0:
320,192,159131,1,0,0:0:0:0:
192,192,159207,1,0,0:0:0:0:
64,192,159283,1,0,0:0:0:0:
320,192,159358,1,0,0:0:0:0:
192,192,159434,1,0,0:0:0:0:
64,192,159510,1,0,0:0:0:0:
192,192,159586,1,0,0:0:0:0:
448,192,159661,1,0,0:0:0:0:
320,192,159737,1,0,0:0:0:0:
64,192,159813,1,0,0:0:0:0:
192,192,159889,1,0,0:0:0:0:
64,192,159964,1,0,0:0:0:0:
320,192,160040,1,0,0:0:0:0:
448,192,160116,1,0,0:0:0:0:
320,192,160192,1,0,0:0:0:0:
64,192,160267,1,0,0:0:0:0:
192,192,160343,1,0,0:0:0:0:
320,192,160419,1,0,0:0:0:0:
192,192,160495,1,0,0:0:0:0:
64,192,160570,1,0,0:0:0:0:
320,192,160646,1,0,0:0:0:0:
192,192,160722,1,0,0:0:0:0:
448,192,160798,1,0,0:0:0:0:
64,192,160874,1,0,0:0:0:50:kick.wav
192,192,160874,1,0,0:0:0:50:LR_Drum Kick Low.wav
320,192,160874,1,0,0:0:0:0:
320,192,160949,1,0,0:0:0:0:
192,192,161025,1,0,0:0:0:0:
64,192,161101,1,0,0:0:0:0:
320,192,161177,1,0,0:0:0:0:
192,192,161252,1,0,0:0:0:0:
64,192,161328,1,0,0:0:0:0:
192,192,161404,1,0,0:0:0:0:
320,192,161480,1,0,0:0:0:0:
448,192,161555,1,0,0:0:0:0:
320,192,161631,1,0,0:0:0:0:
192,192,161707,1,0,0:0:0:0:
320,192,161783,1,0,0:0:0:0:
448,192,161858,1,0,0:0:0:0:
192,192,161934,1,0,0:0:0:0:
64,192,162010,1,0,0:0:0:0:
320,192,162086,1,0,0:0:0:0:
192,192,162161,1,0,0:0:0:0:
448,192,162237,1,0,0:0:0:0:
320,192,162313,1,0,0:0:0:0:
192,192,162389,1,0,0:0:0:0:
320,192,162464,1,0,0:0:0:0:
192,192,162540,1,0,0:0:0:0:
64,192,162616,1,0,0:0:0:0:
192,192,162692,1,0,0:0:0:50:kick.wav
320,192,162692,1,0,0:0:0:50:LR_Drum Kick Low.wav
448,192,162692,1,0,0:0:0:70:tom02.wav
448,192,162767,1,0,0:0:0:0:
192,192,162843,1,0,0:0:0:0:
320,192,162919,1,0,0:0:0:0:
64,192,162995,1,0,0:0:0:0:
448,192,163070,1,0,0:0:0:0:
64,192,163146,128,0,163222:0:0:0:0:
320,192,163222,128,0,163298:0:0:0:0:
192,192,163298,1,0,0:0:0:0:
64,192,163374,1,0,0:0:0:50:kick.wav
320,192,163374,1,0,0:0:0:50:LR_Drum Kick Low.wav
448,192,163374,1,0,0:0:0:70:tom02.wav
448,192,163449,1,0,0:0:0:0:
192,192,163525,1,0,0:0:0:0:
320,192,163601,1,0,0:0:0:0:
64,192,163677,1,0,0:0:0:0:
320,192,163752,1,0,0:0:0:0:
192,192,163828,128,0,163980:0:0:0:0:
64,192,163904,128,0,163980:0:0:0:0:
448,192,163980,1,0,0:0:0:0:
64,192,164055,1,0,0:0:0:50:kick.wav
192,192,164055,1,0,0:0:0:50:LR_Drum Kick Low.wav
320,192,164055,1,0,0:0:0:70:tom02.wav
64,192,164131,1,0,0:0:0:0:
192,192,164207,1,0,0:0:0:0:
320,192,164283,1,0,0:0:0:50:kick.wav
448,192,164283,1,0,0:0:0:0:
64,192,164358,1,0,0:0:0:0:
320,192,164396,1,0,0:0:0:50:kick.wav
448,192,164396,1,0,0:0:0:0:
192,192,164434,1,0,0:0:0:0:
64,192,164510,1,0,0:0:0:50:kick.wav
320,192,164510,1,0,0:0:0:50:cymbal.wav
448,192,164510,1,0,0:0:0:50:LR_Drum Kick Low.wav
64,192,164586,1,0,0:0:0:0:
192,192,164661,1,0,0:0:0:0:
448,192,164737,1,0,0:0:0:0:
64,192,164813,1,0,0:0:0:0:
448,192,164889,1,0,0:0:0:0:
192,192,164964,1,0,0:0:0:0:
320,192,164964,1,0,0:0:0:0:
64,192,165040,1,0,0:0:0:0:
192,192,165116,1,0,0:0:0:0:
448,192,165192,1,0,0:0:0:0:
192,192,165267,1,0,0:0:0:0:
448,192,165343,1,0,0:0:0:0:
64,192,165419,1,0,0:0:0:0:
320,192,165419,1,0,0:0:0:0:
192,192,165495,1,0,0:0:0:0:
320,192,165570,1,0,0:0:0:0:
64,192,165646,1,0,0:0:0:0:
320,192,165722,1,0,0:0:0:0:
64,192,165798,1,0,0:0:0:0:
448,192,165874,1,0,0:0:0:0:
192,192,165949,1,0,0:0:0:0:
448,192,166025,1,0,0:0:0:0:
320,192,166101,1,0,0:0:0:0:
448,192,166177,1,0,0:0:0:0:
320,192,166252,1,0,0:0:0:0:
64,192,166328,1,0,0:0:0:70:tom02.wav
192,192,166328,1,0,0:0:0:0:
448,192,166328,1,0,0:0:0:0:
320,192,166404,1,0,0:0:0:0:
192,192,166480,1,0,0:0:0:0:
64,192,166555,1,0,0:0:0:0:
320,192,166631,1,0,0:0:0:0:
448,192,166707,1,0,0:0:0:0:
64,192,166783,1,0,0:0:0:0:
192,192,166783,1,0,0:0:0:0:
448,192,166858,1,0,0:0:0:0:
320,192,166934,1,0,0:0:0:0:
192,192,167010,1,0,0:0:0:0:
64,192,167086,1,0,0:0:0:0:
192,192,167161,1,0,0:0:0:0:
64,192,167237,128,0,167313:0:0:0:0:
448,192,167237,128,0,167389:0:0:0:0:
192,192,167313,128,0,167389:0:0:0:0:
320,192,167389,128,0,167464:0:0:0:0:
448,192,167464,128,0,167540:0:0:0:0:
64,192,167502,1,0,0:0:0:0:
192,192,167540,1,0,0:0:0:0:
320,192,167578,1,0,0:0:0:0:
64,192,167616,1,0,0:0:0:0:
192,192,167654,1,0,0:0:0:0:
320,192,167692,128,0,167767:0:0:0:0:
448,192,167692,128,0,167843:0:0:0:0:
64,192,167767,128,0,167843:0:0:0:0:
192,192,167843,128,0,167919:0:0:0:0:
64,192,167919,128,0,167995:0:0:0:0:
448,192,167957,1,0,0:0:0:0:
320,192,167995,1,0,0:0:0:0:
192,192,168033,1,0,0:0:0:0:
448,192,168070,1,0,0:0:0:0:
320,192,168108,1,0,0:0:0:0:
64,192,168146,1,0,0:0:0:50:kick.wav
192,192,168146,1,0,0:0:0:50:LR_Drum Kick Low.wav
64,192,168222,1,0,0:0:0:0:
320,192,168298,1,0,0:0:0:0:
448,192,168374,1,0,0:0:0:0:
64,192,168449,1,0,0:0:0:0:
192,192,168525,1,0,0:0:0:0:
320,192,168601,1,0,0:0:0:0:
448,192,168601,1,0,0:0:0:0:
192,192,168677,1,0,0:0:0:0:
320,192,168752,1,0,0:0:0:0:
448,192,168828,1,0,0:0:0:0:
64,192,168904,1,0,0:0:0:0:
192,192,168980,1,0,0:0:0:0:
320,192,169055,1,0,0:0:0:0:
448,192,169055,1,0,0:0:0:0:
192,192,169131,1,0,0:0:0:0:
320,192,169207,1,0,0:0:0:0:
64,192,169283,1,0,0:0:0:0:
192,192,169358,1,0,0:0:0:0:
64,192,169434,1,0,0:0:0:0:
448,192,169510,1,0,0:0:0:0:
320,192,169586,1,0,0:0:0:0:
448,192,169661,1,0,0:0:0:0:
192,192,169737,1,0,0:0:0:0:
64,192,169813,1,0,0:0:0:0:
192,192,169889,1,0,0:0:0:0:
64,192,169964,1,0,0:0:0:70:tom02.wav
320,192,169964,1,0,0:0:0:0:
448,192,169964,1,0,0:0:0:0:
192,192,170040,1,0,0:0:0:0:
320,192,170116,1,0,0:0:0:0:
64,192,170192,1,0,0:0:0:0:
448,192,170267,1,0,0:0:0:0:
192,192,170343,1,0,0:0:0:0:
320,192,170419,1,0,0:0:0:0:
448,192,170419,1,0,0:0:0:0:
64,192,170495,1,0,0:0:0:0:
320,192,170570,1,0,0:0:0:0:
64,192,170646,1,0,0:0:0:0:
192,192,170722,1,0,0:0:0:0:
320,192,170798,1,0,0:0:0:0:
64,192,170874,128,0,171328:0:0:0:0:
192,192,170874,128,0,171328:0:0:0:0:
448,192,170874,1,0,0:0:0:0:
320,192,171328,128,0,171385:0:0:0:0:
448,192,171328,128,0,171385:0:0:0:0:
64,192,171385,128,0,171442:0:0:0:0:
192,192,171385,128,0,171442:0:0:0:0:
320,192,171442,128,0,171499:0:0:0:0:
448,192,171442,128,0,171499:0:0:0:0:
64,192,171499,128,0,171555:0:0:0:0:
192,192,171499,128,0,171555:0:0:0:0:
320,192,171555,128,0,171612:0:0:0:0:
448,192,171555,128,0,171612:0:0:0:0:
64,192,171612,128,0,171669:0:0:0:0:
192,192,171612,128,0,171669:0:0:0:0:
320,192,171669,128,0,171726:0:0:0:0:
448,192,171669,128,0,171726:0:0:0:0:
64,192,171726,128,0,171783:0:0:0:0:
192,192,171783,1,0,0:0:0:50:kick.wav
320,192,171783,1,0,0:0:0:50:LR_Drum Kick Low.wav
448,192,171783,1,0,0:0:0:0:
448,192,171858,1,0,0:0:0:0:
64,192,171934,1,0,0:0:0:0:
320,192,172010,1,0,0:0:0:0:
64,192,172086,1,0,0:0:0:0:
192,192,172161,1,0,0:0:0:0:
320,192,172237,1,0,0:0:0:0:
448,192,172237,1,0,0:0:0:0:
192,192,172313,1,0,0:0:0:0:
64,192,172389,1,0,0:0:0:0:
448,192,172464,1,0,0:0:0:0:
192,192,172540,1,0,0:0:0:0:
320,192,172616,1,0,0:0:0:0:
64,192,172692,1,0,0:0:0:0:
192,192,172692,1,0,0:0:0:0:
320,192,172767,1,0,0:0:0:0:
448,192,172843,1,0,0:0:0:0:
320,192,172919,1,0,0:0:0:0:
192,192,172995,1,0,0:0:0:0:
64,192,173070,1,0,0:0:0:0:
448,192,173146,1,0,0:0:0:0:
320,192,173222,1,0,0:0:0:0:
192,192,173298,1,0,0:0:0:0:
448,192,173374,1,0,0:0:0:0:
320,192,173449,1,0,0:0:0:0:
64,192,173525,1,0,0:0:0:0:
192,192,173601,1,0,0:0:0:70:tom02.wav
320,192,173601,1,0,0:0:0:0:
448,192,173601,1,0,0:0:0:0:
64,192,173677,1,0,0:0:0:0:
320,192,173752,1,0,0:0:0:0:
192,192,173828,1,0,0:0:0:0:
64,192,173904,1,0,0:0:0:0:
320,192,173980,1,0,0:0:0:0:
64,192,174055,1,0,0:0:0:0:
192,192,174055,1,0,0:0:0:0:
320,192,174131,1,0,0:0:0:0:
448,192,174207,1,0,0:0:0:0:
192,192,174283,1,0,0:0:0:0:
64,192,174358,1,0,0:0:0:0:
320,192,174434,1,0,0:0:0:0:
64,192,174510,1,0,0:0:0:0:
192,192,174510,1,0,0:0:0:0:
448,192,174510,128,0,174661:0:0:0:0:
320,192,174586,128,0,174661:0:0:0:0:
192,192,174661,128,0,174737:0:0:0:0:
64,192,174737,128,0,174813:0:0:0:0:
448,192,174775,1,0,0:0:0:0:
320,192,174813,1,0,0:0:0:0:
192,192,174851,1,0,0:0:0:0:
448,192,174889,1,0,0:0:0:0:
320,192,174927,1,0,0:0:0:0:
64,192,174964,128,0,175116:0:0:0:0:
192,192,174964,128,0,175040:0:0:0:0:
448,192,175040,128,0,175116:0:0:0:0:
320,192,175116,128,0,175192:0:0:0:0:
448,192,175192,128,0,175267:0:0:0:0:
64,192,175230,1,0,0:0:0:0:
192,192,175267,1,0,0:0:0:0:
320,192,175305,1,0,0:0:0:0:
64,192,175343,1,0,0:0:0:0:
192,192,175381,1,0,0:0:0:0:
320,192,175419,1,0,0:0:0:50:kick.wav
448,192,175419,1,0,0:0:0:50:LR_Drum Kick Low.wav
448,192,175495,1,0,0:0:0:0:
192,192,175570,1,0,0:0:0:0:
64,192,175646,1,0,0:0:0:0:
320,192,175722,1,0,0:0:0:0:
192,192,175798,1,0,0:0:0:0:
320,192,175874,1,0,0:0:0:0:
448,192,175874,1,0,0:0:0:0:
64,192,175949,1,0,0:0:0:0:
192,192,176025,1,0,0:0:0:0:
448,192,176101,1,0,0:0:0:0:
320,192,176177,1,0,0:0:0:0:
192,192,176252,1,0,0:0:0:0:
320,192,176328,1,0,0:0:0:0:
448,192,176328,1,0,0:0:0:0:
64,192,176404,1,0,0:0:0:0:
320,192,176480,1,0,0:0:0:0:
192,192,176555,1,0,0:0:0:0:
320,192,176631,1,0,0:0:0:0:
64,192,176707,1,0,0:0:0:0:
448,192,176783,1,0,0:0:0:0:
320,192,176858,1,0,0:0:0:0:
64,192,176934,1,0,0:0:0:0:
320,192,177010,1,0,0:0:0:0:
192,192,177086,1,0,0:0:0:0:
64,192,177161,1,0,0:0:0:0:
320,192,177237,1,0,0:0:0:50:kick.wav
448,192,177237,1,0,0:0:0:50:LR_Drum Kick Low.wav
192,192,177294,1,0,0:0:0:0:
320,192,177351,1,0,0:0:0:0:
192,192,177408,1,0,0:0:0:0:
320,192,177464,1,0,0:0:0:0:
64,192,177521,1,0,0:0:0:0:
320,192,177578,1,0,0:0:0:0:
64,192,177635,1,0,0:0:0:0:
192,192,177692,1,0,0:0:0:0:
448,192,177749,1,0,0:0:0:0:
192,192,177805,1,0,0:0:0:0:
448,192,177862,1,0,0:0:0:0:
192,192,177919,1,0,0:0:0:0:
320,192,177976,1,0,0:0:0:0:
192,192,178033,1,0,0:0:0:0:
320,192,178089,1,0,0:0:0:0:
448,192,178146,1,0,0:0:0:0:
64,192,178203,1,0,0:0:0:0:
448,192,178260,1,0,0:0:0:0:
64,192,178317,1,0,0:0:0:0:
448,192,178374,1,0,0:0:0:0:
192,192,178430,1,0,0:0:0:0:
448,192,178487,1,0,0:0:0:0:
192,192,178544,1,0,0:0:0:0:
64,192,178601,1,0,0:0:0:0:
320,192,178658,1,0,0:0:0:0:
64,192,178714,1,0,0:0:0:0:
320,192,178771,1,0,0:0:0:0:
64,192,178828,1,0,0:0:0:0:
448,192,178885,1,0,0:0:0:0:
192,192,178942,1,0,0:0:0:0:
448,192,178999,1,0,0:0:0:0:
64,192,179055,128,0,179284:0:0:0:50:kick.wav
192,192,179055,1,0,0:0:0:50:cymbal.wav
320,192,179055,1,0,0:0:0:70:push_scratch.wav
320,192,179169,1,0,0:0:0:0:
448,192,179284,1,0,0:0:0:0:
64,192,179398,1,0,0:0:0:50:LR_Drum Rpd x2.wav
192,192,179398,1,0,0:0:0:0:
64,192,179513,1,0,0:0:0:50:kick.wav
320,192,179513,1,0,0:0:0:0:
448,192,179513,128,0,179742:0:0:0:0:
192,192,179627,1,0,0:0:0:0:
64,192,179742,1,0,0:0:0:50:LR_Drum Rpd x2.wav
320,192,179742,1,0,0:0:0:0:
192,192,179856,1,0,0:0:0:0:
64,192,179971,128,0,180200:0:0:0:50:kick.wav
320,192,179971,1,0,0:0:0:0:
448,192,179971,1,0,0:0:0:0:
192,192,180085,1,0,0:0:0:0:
320,192,180200,1,0,0:0:0:0:
64,192,180314,1,0,0:0:0:50:LR_Drum Rpd x2.wav
192,192,180314,1,0,0:0:0:0:
64,192,180429,1,0,0:0:0:50:kick.wav
320,192,180429,1,0,0:0:0:0:
448,192,180429,128,0,180658:0:0:0:0:
192,192,180543,128,0,180658:0:0:0:0:
64,192,180658,1,0,0:0:0:50:LR_Drum Rpd x2.wav
320,192,180658,1,0,0:0:0:0:
192,192,180772,1,0,0:0:0:0:
64,192,180887,128,0,181117:0:0:0:50:kick.wav
320,192,180887,1,0,0:0:0:0:
448,192,180887,1,0,0:0:0:0:
192,192,181002,1,0,0:0:0:0:
448,192,181117,1,0,0:0:0:0:
64,192,181233,1,0,0:0:0:50:LR_Drum Rpd x2.wav
192,192,181233,1,0,0:0:0:0:
64,192,181348,1,0,0:0:0:50:kick.wav
320,192,181348,1,0,0:0:0:0:
448,192,181348,128,0,181579:0:0:0:0:
192,192,181463,1,0,0:0:0:0:
192,192,181579,1,0,0:0:0:50:LR_Drum Rpd x2.wav
320,192,181579,1,0,0:0:0:0:
448,192,181694,1,0,0:0:0:0:
64,192,181810,128,0,182040:0:0:0:50:kick.wav
320,192,181810,1,0,0:0:0:0:
448,192,181810,1,0,0:0:0:0:
192,192,181925,1,0,0:0:0:0:
448,192,182040,1,0,0:0:0:0:
192,192,182156,1,0,0:0:0:50:LR_Drum Rpd x2.wav
320,192,182156,1,0,0:0:0:0:
64,192,182271,1,0,0:0:0:50:kick.wav
320,192,182271,128,0,182387:0:0:0:0:
448,192,182271,128,0,182502:0:0:0:0:
192,192,182387,128,0,182502:0:0:0:0:
64,192,182502,1,0,0:0:0:50:LR_Drum Rpd x2.wav
320,192,182502,1,0,0:0:0:0:
192,192,182617,1,0,0:0:0:0:
64,192,182733,128,0,182969:0:0:0:50:kick.wav
320,192,182733,1,0,0:0:0:0:
448,192,182733,1,0,0:0:0:0:
192,192,182851,1,0,0:0:0:0:
448,192,182969,1,0,0:0:0:0:
64,192,183087,1,0,0:0:0:50:LR_Drum Rpd x2.wav
192,192,183087,1,0,0:0:0:0:
64,192,183205,1,0,0:0:0:50:kick.wav
320,192,183205,1,0,0:0:0:0:
448,192,183205,128,0,183441:0:0:0:0:
192,192,183323,1,0,0:0:0:0:
192,192,183441,1,0,0:0:0:50:LR_Drum Rpd x2.wav
320,192,183441,1,0,0:0:0:0:
448,192,183559,1,0,0:0:0:0:
64,192,183677,128,0,183914:0:0:0:50:kick.wav
320,192,183677,1,0,0:0:0:0:
448,192,183677,1,0,0:0:0:0:
192,192,183795,1,0,0:0:0:0:
320,192,183914,1,0,0:0:0:0:
64,192,184032,1,0,0:0:0:50:LR_Drum Rpd x2.wav
192,192,184032,1,0,0:0:0:0:
64,192,184150,1,0,0:0:0:50:kick.wav
320,192,184150,1,0,0:0:0:0:
448,192,184150,128,0,184386:0:0:0:0:
192,192,184268,128,0,184386:0:0:0:0:
64,192,184386,1,0,0:0:0:50:LR_Drum Rpd x2.wav
320,192,184386,1,0,0:0:0:0:
192,192,184504,1,0,0:0:0:0:
64,192,184622,128,0,184740:0:0:0:50:kick.wav
320,192,184622,128,0,184858:0:0:0:0:
448,192,184622,1,0,0:0:0:0:
192,192,184740,128,0,184858:0:0:0:0:
448,192,184858,1,0,0:0:0:0:
64,192,184977,1,0,0:0:0:50:LR_Drum Rpd x2.wav
192,192,184977,1,0,0:0:0:0:
448,192,184977,128,0,185095:0:0:0:0:
64,192,185095,128,0,185331:0:0:0:50:kick.wav
192,192,185095,1,0,0:0:0:0:
320,192,185095,128,0,185213:0:0:0:0:
448,192,185213,1,0,0:0:0:0:
192,192,185331,128,0,185449:0:0:0:50:LR_Drum Rpd x2.wav
320,192,185331,1,0,0:0:0:0:
64,192,185449,128,0,185567:0:0:0:0:
192,192,185567,1,0,0:0:0:50:kick.wav
320,192,185567,128,0,185803:0:0:0:0:
448,192,185567,1,0,0:0:0:0:
64,192,185685,128,0,185803:0:0:0:0:
448,192,185803,128,0,185921:0:0:0:0:
64,192,185921,1,0,0:0:0:50:LR_Drum Rpd x2.wav
192,192,185921,1,0,0:0:0:0:
64,192,186040,128,0,186158:0:0:0:50:kick.wav
320,192,186040,1,0,0:0:0:0:
448,192,186040,128,0,186276:0:0:0:0:
192,192,186158,128,0,186276:0:0:0:0:
64,192,186276,1,0,0:0:0:50:LR_Drum Rpd x2.wav
320,192,186276,128,0,186394:0:0:0:0:
192,192,186394,1,0,0:0:0:0:
448,192,186394,128,0,186512:0:0:0:0:
64,192,186512,128,0,186755:0:0:0:50:kick.wav
192,192,186512,1,0,0:0:0:0:
320,192,186512,1,0,0:0:0:0:
448,192,186633,1,0,0:0:0:0:
320,192,186755,1,0,0:0:0:0:
64,192,186877,1,0,0:0:0:60:LR_Drum Rpd x2.wav
192,192,186877,1,0,0:0:0:0:
64,192,186999,1,0,0:0:0:50:kick.wav
320,192,186999,1,0,0:0:0:0:
448,192,186999,128,0,187243:0:0:0:0:
192,192,187121,1,0,0:0:0:0:
192,192,187243,1,0,0:0:0:60:LR_Drum Rpd x2.wav
320,192,187243,1,0,0:0:0:0:
448,192,187365,1,0,0:0:0:0:
64,192,187487,128,0,187731:0:0:0:50:kick.wav
320,192,187487,1,0,0:0:0:0:
448,192,187487,1,0,0:0:0:0:
192,192,187548,1,0,0:0:0:0:
320,192,187609,1,0,0:0:0:0:
192,192,187670,1,0,0:0:0:0:
320,192,187731,1,0,0:0:0:0:
448,192,187731,1,0,0:0:0:0:
64,192,187853,1,0,0:0:0:60:LR_Drum Rpd x2.wav
192,192,187853,1,0,0:0:0:0:
64,192,187975,1,0,0:0:0:50:kick.wav
320,192,187975,1,0,0:0:0:0:
448,192,187975,128,0,188219:0:0:0:0:
192,192,188097,128,0,188219:0:0:0:0:
64,192,188219,1,0,0:0:0:60:LR_Drum Rpd x2.wav
320,192,188219,1,0,0:0:0:0:
192,192,188341,1,0,0:0:0:0:
64,192,188463,128,0,188707:0:0:0:50:kick.wav
320,192,188463,1,0,0:0:0:0:
448,192,188463,1,0,0:0:0:0:
192,192,188585,1,0,0:0:0:0:
448,192,188707,1,0,0:0:0:0:
64,192,188829,1,0,0:0:0:60:LR_Drum Rpd x2.wav
192,192,188829,1,0,0:0:0:0:
64,192,188951,1,0,0:0:0:50:kick.wav
320,192,188951,1,0,0:0:0:0:
448,192,188951,128,0,189194:0:0:0:0:
192,192,189072,1,0,0:0:0:0:
192,192,189194,1,0,0:0:0:60:LR_Drum Rpd x2.wav
320,192,189194,1,0,0:0:0:0:
448,192,189316,1,0,0:0:0:0:
64,192,189438,128,0,189682:0:0:0:50:kick.wav
320,192,189438,1,0,0:0:0:0:
448,192,189438,1,0,0:0:0:0:
192,192,189560,1,0,0:0:0:0:
448,192,189682,1,0,0:0:0:0:
192,192,189804,1,0,0:0:0:60:LR_Drum Rpd x2.wav
320,192,189804,1,0,0:0:0:0:
64,192,189926,1,0,0:0:0:50:kick.wav
320,192,189926,128,0,190048:0:0:0:0:
448,192,189926,128,0,190170:0:0:0:0:
192,192,190048,128,0,190170:0:0:0:0:
64,192,190170,1,0,0:0:0:60:LR_Drum Rpd x2.wav
320,192,190170,1,0,0:0:0:0:
192,192,190292,1,0,0:0:0:0:
64,192,190414,128,0,190661:0:0:0:50:kick.wav
320,192,190414,1,0,0:0:0:0:
448,192,190414,1,0,0:0:0:0:
192,192,190537,1,0,0:0:0:0:
448,192,190661,1,0,0:0:0:0:
64,192,190785,1,0,0:0:0:60:LR_Drum Rpd x2.wav
192,192,190785,1,0,0:0:0:0:
64,192,190909,1,0,0:0:0:50:kick.wav
320,192,190909,1,0,0:0:0:0:
448,192,190909,128,0,191157:0:0:0:0:
192,192,191033,1,0,0:0:0:0:
192,192,191157,1,0,0:0:0:60:LR_Drum Rpd x2.wav
320,192,191157,1,0,0:0:0:0:
448,192,191281,1,0,0:0:0:0:
64,192,191405,128,0,191653:0:0:0:50:kick.wav
320,192,191405,1,0,0:0:0:0:
448,192,191405,1,0,0:0:0:0:
192,192,191467,1,0,0:0:0:0:
320,192,191529,1,0,0:0:0:0:
448,192,191591,1,0,0:0:0:0:
192,192,191653,1,0,0:0:0:0:
320,192,191653,1,0,0:0:0:0:
64,192,191777,1,0,0:0:0:60:LR_Drum Rpd x2.wav
192,192,191777,1,0,0:0:0:0:
64,192,191901,1,0,0:0:0:50:kick.wav
320,192,191901,1,0,0:0:0:0:
448,192,191901,128,0,192149:0:0:0:0:
192,192,192025,128,0,192149:0:0:0:0:
64,192,192149,1,0,0:0:0:60:LR_Drum Rpd x2.wav
320,192,192149,1,0,0:0:0:0:
192,192,192273,1,0,0:0:0:0:
64,192,192397,128,0,192525:0:0:0:50:kick.wav
320,192,192397,128,0,192653:0:0:0:0:
448,192,192397,1,0,0:0:0:0:
192,192,192525,128,0,192653:0:0:0:0:
64,192,192653,1,0,0:0:0:50:LR_Drum Kick Low.wav
192,192,192717,1,0,0:0:0:50:LR_Drum Kick Low.wav
320,192,192781,1,0,0:0:0:60:LR_Drum Rpd x2.wav
448,192,192781,128,0,192909:0:0:0:0:
64,192,192909,128,0,193166:0:0:0:50:LR_Drum Kick Low.wav
192,192,192909,1,0,0:0:0:0:
320,192,192909,128,0,193038:0:0:0:0:
448,192,193038,1,0,0:0:0:50:LR_Drum Kick Low.wav
192,192,193166,128,0,193294:0:0:0:60:LR_Drum Rpd x2.wav
320,192,193166,1,0,0:0:0:0:
64,192,193294,128,0,193358:0:0:0:50:LR_Drum Kick Low.wav
448,192,193294,1,0,0:0:0:0:
320,192,193358,1,0,0:0:0:50:LR_Drum Kick Low.wav
64,192,193422,128,0,193679:0:0:0:50:kick.wav
192,192,193422,1,0,0:0:0:0:
448,192,193422,128,0,193550:0:0:0:0:
320,192,193550,128,0,193679:0:0:0:0:
192,192,193679,128,0,193807:0:0:0:0:
448,192,193679,128,0,193935:0:0:0:0:
320,192,193807,128,0,193935:0:0:0:0:
64,192,193935,128,0,194063:0:0:0:0:
192,192,193935,128,0,194191:0:0:0:0:
448,192,194063,128,0,194191:0:0:0:0:
64,192,194191,128,0,194320:0:0:0:0:
320,192,194191,128,0,194320:0:0:0:0:
448,192,194320,128,0,194437:0:0:0:0:
64,192,194437,1,0,0:0:0:50:kick.wav
192,192,194437,1,0,0:0:0:50:cymbal.wav
320,192,194437,1,0,0:0:0:0:
448,192,194500,1,0,0:0:0:0:
64,192,194564,1,0,0:0:0:0:
192,192,194564,1,0,0:0:0:0:
448,192,194627,1,0,0:0:0:0:
64,192,194691,1,0,0:0:0:70:LR_Drum Rpd x2.wav
192,192,194691,1,0,0:0:0:0:
320,192,194691,1,0,0:0:0:0:
320,192,194818,1,0,0:0:0:0:
448,192,194818,1,0,0:0:0:0:
64,192,194945,1,0,0:0:0:50:kick.wav
192,192,194945,1,0,0:0:0:0:
320,192,194945,1,0,0:0:0:0:
448,192,194945,1,0,0:0:0:0:
64,192,195072,1,0,0:0:0:0:
192,192,195072,1,0,0:0:0:0:
192,192,195199,1,0,0:0:0:70:LR_Drum Rpd x2.wav
320,192,195199,1,0,0:0:0:0:
448,192,195199,1,0,0:0:0:0:
64,192,195326,1,0,0:0:0:0:
448,192,195326,1,0,0:0:0:0:
64,192,195453,1,0,0:0:0:50:kick.wav
192,192,195453,1,0,0:0:0:0:
320,192,195453,1,0,0:0:0:0:
448,192,195453,1,0,0:0:0:0:
192,192,195581,1,0,0:0:0:0:
320,192,195581,1,0,0:0:0:0:
64,192,195708,1,0,0:0:0:70:LR_Drum Rpd x2.wav
192,192,195708,1,0,0:0:0:0:
320,192,195708,1,0,0:0:0:0:
64,192,195835,1,0,0:0:0:0:
448,192,195835,1,0,0:0:0:0:
64,192,195962,1,0,0:0:0:50:kick.wav
192,192,195962,1,0,0:0:0:0:
320,192,195962,1,0,0:0:0:0:
448,192,195962,1,0,0:0:0:0:
64,192,196089,1,0,0:0:0:0:
320,192,196089,1,0,0:0:0:0:
192,192,196216,1,0,0:0:0:70:LR_Drum Rpd x2.wav
320,192,196216,1,0,0:0:0:0:
448,192,196216,1,0,0:0:0:0:
64,192,196343,1,0,0:0:0:0:
192,192,196343,1,0,0:0:0:0:
192,192,196470,1,0,0:0:0:50:kick.wav
320,192,196470,1,0,0:0:0:0:
448,192,196470,1,0,0:0:0:0:
64,192,196535,1,0,0:0:0:50:kick.wav
320,192,196600,1,0,0:0:0:50:kick.wav
448,192,196600,1,0,0:0:0:0:
64,192,196665,1,0,0:0:0:50:kick.wav
192,192,196730,1,0,0:0:0:50:kick.wav
320,192,196730,1,0,0:0:0:70:LR_Drum Rpd x2.wav
448,192,196730,1,0,0:0:0:0:
64,192,196861,1,0,0:0:0:0:
192,192,196861,1,0,0:0:0:0:
64,192,196991,1,0,0:0:0:50:kick.wav
192,192,196991,1,0,0:0:0:0:
320,192,196991,1,0,0:0:0:0:
448,192,196991,1,0,0:0:0:0:
320,192,197122,1,0,0:0:0:0:
448,192,197122,1,0,0:0:0:0:
64,192,197252,1,0,0:0:0:70:LR_Drum Rpd x2.wav
192,192,197252,1,0,0:0:0:0:
320,192,197252,1,0,0:0:0:0:
192,192,197383,1,0,0:0:0:0:
448,192,197383,1,0,0:0:0:0:
64,192,197513,1,0,0:0:0:50:kick.wav
192,192,197513,1,0,0:0:0:70:LR_Drum Rpd x2.wav
320,192,197513,1,0,0:0:0:0:
448,192,197513,1,0,0:0:0:0:
64,192,197643,1,0,0:0:0:70:LR_Drum Rpd x2.wav
320,192,197643,1,0,0:0:0:0:
192,192,197774,1,0,0:0:0:70:LR_Drum Rpd x2.wav
320,192,197774,1,0,0:0:0:0:
448,192,197774,1,0,0:0:0:0:
64,192,197904,1,0,0:0:0:70:LR_Drum Rpd x2.wav
192,192,197904,1,0,0:0:0:0:
64,192,198035,1,0,0:0:0:50:kick.wav
192,192,198035,128,0,198296:0:0:0:0:
320,192,198035,1,0,0:0:0:0:
448,192,198035,128,0,198568:0:0:0:0:
64,192,198296,128,0,198491:0:0:0:0:
320,192,198568,1,0,0:0:0:0:
192,192,198568,1,0,0:0:0:0:
64,192,198568,1,0,0:0:0:50:kick.wav
448,192,198634,1,0,0:0:0:0:
64,192,198700,1,0,0:0:0:70:LR_Drum Rpd x2.wav
192,192,198700,1,0,0:0:0:0:
448,192,198767,1,0,0:0:0:0:
64,192,198833,1,0,0:0:0:50:kick.wav
192,192,198833,1,0,0:0:0:70:LR_Drum Rpd x2.wav
320,192,198833,1,0,0:0:0:0:
320,192,198966,1,0,0:0:0:70:LR_Drum Rpd x2.wav
448,192,198966,1,0,0:0:0:0:
64,192,199098,1,0,0:0:0:50:kick.wav
192,192,199098,1,0,0:0:0:70:LR_Drum Rpd x2.wav
320,192,199098,1,0,0:0:0:0:
448,192,199098,1,0,0:0:0:0:
64,192,199231,1,0,0:0:0:70:LR_Drum Rpd x2.wav
192,192,199231,1,0,0:0:0:0:
192,192,199364,1,0,0:0:0:50:kick.wav
320,192,199364,1,0,0:0:0:70:LR_Drum Rpd x2.wav
448,192,199364,1,0,0:0:0:0:
64,192,199497,1,0,0:0:0:70:LR_Drum Rpd x2.wav
320,192,199497,1,0,0:0:0:0:
64,192,199629,1,0,0:0:0:50:kick.wav
192,192,199629,1,0,0:0:0:70:LR_Drum Rpd x2.wav
320,192,199629,1,0,0:0:0:0:
448,192,199629,1,0,0:0:0:0:
192,192,199762,1,0,0:0:0:70:LR_Drum Rpd x2.wav
448,192,199762,1,0,0:0:0:0:
64,192,199895,1,0,0:0:0:50:kick.wav
192,192,199895,1,0,0:0:0:70:LR_Drum Rpd x2.wav
320,192,199895,1,0,0:0:0:0:
64,192,200028,1,0,0:0:0:70:LR_Drum Rpd x2.wav
448,192,200028,1,0,0:0:0:0:
64,192,200160,1,0,0:0:0:50:kick.wav
192,192,200160,1,0,0:0:0:70:LR_Drum Rpd x2.wav
320,192,200160,1,0,0:0:0:0:
448,192,200160,1,0,0:0:0:0:
192,192,200293,1,0,0:0:0:70:LR_Drum Rpd x2.wav
320,192,200293,1,0,0:0:0:0:
64,192,200426,1,0,0:0:0:50:kick.wav
320,192,200426,1,0,0:0:0:70:LR_Drum Rpd x2.wav
448,192,200426,1,0,0:0:0:0:
64,192,200559,1,0,0:0:0:70:LR_Drum Rpd x2.wav
192,192,200559,1,0,0:0:0:0:
448,192,200695,1,0,0:0:0:70:LR_Drum Rpd x2.wav
320,192,200695,1,0,0:0:0:0:
192,192,200695,1,0,0:0:0:50:kick.wav
64,192,200762,1,0,0:0:0:50:kick.wav
320,192,200830,1,0,0:0:0:50:kick.wav
448,192,200830,1,0,0:0:0:70:LR_Drum Rpd x2.wav
64,192,200898,1,0,0:0:0:50:kick.wav
192,192,200966,1,0,0:0:0:50:kick.wav
320,192,200966,1,0,0:0:0:70:LR_Drum Rpd x2.wav
448,192,200966,1,0,0:0:0:0:
64,192,201102,1,0,0:0:0:70:LR_Drum Rpd x2.wav
192,192,201102,1,0,0:0:0:0:
64,192,201237,1,0,0:0:0:50:kick.wav
192,192,201237,1,0,0:0:0:70:LR_Drum Rpd x2.wav
320,192,201237,1,0,0:0:0:0:
448,192,201237,1,0,0:0:0:0:
192,192,201373,1,0,0:0:0:70:LR_Drum Rpd x2.wav
320,192,201373,1,0,0:0:0:0:
64,192,201509,1,0,0:0:0:50:kick.wav
320,192,201509,1,0,0:0:0:70:LR_Drum Rpd x2.wav
448,192,201509,1,0,0:0:0:0:
64,192,201645,1,0,0:0:0:70:LR_Drum Rpd x2.wav
448,192,201645,1,0,0:0:0:0:
64,192,201780,1,0,0:0:0:50:kick.wav
192,192,201780,1,0,0:0:0:70:LR_Drum Rpd x2.wav
320,192,201780,1,0,0:0:0:0:
448,192,201780,1,0,0:0:0:0:
192,192,201916,1,0,0:0:0:70:LR_Drum Rpd x2.wav
320,192,201916,1,0,0:0:0:0:
64,192,202052,1,0,0:0:0:50:kick.wav
320,192,202052,1,0,0:0:0:70:LR_Drum Rpd x2.wav
448,192,202052,1,0,0:0:0:0:
192,192,202188,1,0,0:0:0:70:LR_Drum Rpd x2.wav
448,192,202188,1,0,0:0:0:0:
64,192,202323,128,0,202527:0:0:0:50:kick.wav
192,192,202323,128,0,202527:0:0:0:0:
320,192,202323,128,0,202527:0:0:0:0:
192,192,202595,128,0,202799:0:0:0:0:
320,192,202595,128,0,202799:0:0:0:0:
448,192,202595,128,0,202799:0:0:0:0:
64,192,202864,1,0,0:0:0:50:kick.wav
192,192,202864,1,0,0:0:0:50:cymbal.wav
320,192,202864,1,0,0:0:0:70:LR_Drum Rpd x2.wav
448,192,202932,1,0,0:0:0:0:
64,192,203000,1,0,0:0:0:70:LR_Drum Rpd x2.wav
192,192,203000,1,0,0:0:0:0:
448,192,203068,1,0,0:0:0:0:
64,192,203136,1,0,0:0:0:50:kick.wav
192,192,203136,1,0,0:0:0:70:LR_Drum Rpd x2.wav
320,192,203136,1,0,0:0:0:0:
320,192,203273,1,0,0:0:0:70:LR_Drum Rpd x2.wav
448,192,203273,1,0,0:0:0:0:
64,192,203409,1,0,0:0:0:50:kick.wav
192,192,203409,1,0,0:0:0:70:LR_Drum Rpd x2.wav
320,192,203409,1,0,0:0:0:0:
448,192,203409,1,0,0:0:0:0:
192,192,203545,1,0,0:0:0:70:LR_Drum Rpd x2.wav
320,192,203545,1,0,0:0:0:0:
64,192,203682,1,0,0:0:0:50:kick.wav
192,192,203682,1,0,0:0:0:70:LR_Drum Rpd x2.wav
448,192,203682,1,0,0:0:0:0:
64,192,203818,1,0,0:0:0:70:LR_Drum Rpd x2.wav
320,192,203818,1,0,0:0:0:0:
192,192,203954,1,0,0:0:0:50:kick.wav
320,192,203954,1,0,0:0:0:70:LR_Drum Rpd x2.wav
448,192,203954,1,0,0:0:0:0:
64,192,204023,1,0,0:0:0:50:kick.wav
320,192,204091,1,0,0:0:0:50:kick.wav
448,192,204091,1,0,0:0:0:70:LR_Drum Rpd x2.wav
64,192,204159,1,0,0:0:0:50:kick.wav
192,192,204227,1,0,0:0:0:50:kick.wav
320,192,204227,1,0,0:0:0:70:LR_Drum Rpd x2.wav
448,192,204227,1,0,0:0:0:0:
64,192,204364,1,0,0:0:0:70:LR_Drum Rpd x2.wav
192,192,204364,1,0,0:0:0:0:
64,192,204500,1,0,0:0:0:50:kick.wav
192,192,204500,1,0,0:0:0:70:LR_Drum Rpd x2.wav
320,192,204500,1,0,0:0:0:0:
448,192,204500,1,0,0:0:0:0:
64,192,204636,1,0,0:0:0:70:LR_Drum Rpd x2.wav
448,192,204636,1,0,0:0:0:0:
192,192,204773,1,0,0:0:0:50:kick.wav
320,192,204773,1,0,0:0:0:70:LR_Drum Rpd x2.wav
448,192,204773,1,0,0:0:0:0:
64,192,204909,1,0,0:0:0:70:LR_Drum Rpd x2.wav
320,192,204909,1,0,0:0:0:0:
64,192,205045,1,0,0:0:0:50:kick.wav
192,192,205045,1,0,0:0:0:70:LR_Drum Rpd x2.wav
320,192,205045,1,0,0:0:0:0:
448,192,205114,1,0,0:0:0:50:kick.wav
64,192,205182,1,0,0:0:0:50:kick.wav
192,192,205182,1,0,0:0:0:70:LR_Drum Rpd x2.wav
448,192,205250,1,0,0:0:0:50:kick.wav
64,192,205318,1,0,0:0:0:50:kick.wav
192,192,205318,1,0,0:0:0:70:LR_Drum Rpd x2.wav
320,192,205318,1,0,0:0:0:0:
320,192,205454,1,0,0:0:0:70:LR_Drum Rpd x2.wav
448,192,205454,1,0,0:0:0:0:
64,192,205591,1,0,0:0:0:50:kick.wav
192,192,205591,1,0,0:0:0:70:LR_Drum Rpd x2.wav
320,192,205591,1,0,0:0:0:0:
448,192,205591,1,0,0:0:0:0:
64,192,205727,1,0,0:0:0:70:LR_Drum Rpd x2.wav
192,192,205727,1,0,0:0:0:0:
64,192,205864,1,0,0:0:0:50:kick.wav
320,192,205864,1,0,0:0:0:70:LR_Drum Rpd x2.wav
448,192,205864,1,0,0:0:0:0:
64,192,206000,1,0,0:0:0:70:LR_Drum Rpd x2.wav
192,192,206000,1,0,0:0:0:0:
192,192,206136,1,0,0:0:0:50:kick.wav
320,192,206136,1,0,0:0:0:70:LR_Drum Rpd x2.wav
448,192,206136,1,0,0:0:0:0:
64,192,206204,1,0,0:0:0:50:kick.wav
320,192,206273,1,0,0:0:0:50:kick.wav
448,192,206273,1,0,0:0:0:70:LR_Drum Rpd x2.wav
64,192,206341,1,0,0:0:0:50:kick.wav
192,192,206409,1,0,0:0:0:50:kick.wav
320,192,206409,1,0,0:0:0:70:LR_Drum Rpd x2.wav
448,192,206409,1,0,0:0:0:0:
64,192,206545,1,0,0:0:0:70:LR_Drum Rpd x2.wav
192,192,206545,1,0,0:0:0:0:
64,192,206682,1,0,0:0:0:50:kick.wav
192,192,206682,1,0,0:0:0:70:LR_Drum Rpd x2.wav
320,192,206682,1,0,0:0:0:0:
448,192,206682,1,0,0:0:0:0:
320,192,206818,1,0,0:0:0:70:LR_Drum Rpd x2.wav
448,192,206818,1,0,0:0:0:0:
64,192,206954,1,0,0:0:0:50:kick.wav
192,192,206954,1,0,0:0:0:70:LR_Drum Rpd x2.wav
448,192,206954,1,0,0:0:0:0:
192,192,207091,1,0,0:0:0:70:LR_Drum Rpd x2.wav
320,192,207091,1,0,0:0:0:0:
64,192,207227,1,0,0:0:0:50:kick.wav
192,192,207227,1,0,0:0:0:50:cymbal.wav
320,192,207227,1,0,0:0:0:70:LR_Drum Rpd x2.wav
448,192,207227,1,0,0:0:0:0:
64,192,207364,1,0,0:0:0:50:kick.wav
448,192,207364,1,0,0:0:0:70:LR_Drum Rpd x2.wav
64,192,207500,1,0,0:0:0:50:kick.wav
192,192,207500,1,0,0:0:0:70:LR_Drum Rpd x2.wav
320,192,207500,1,0,0:0:0:0:
192,192,207636,1,0,0:0:0:50:kick.wav
448,192,207636,1,0,0:0:0:70:LR_Drum Rpd x2.wav
64,192,207773,1,0,0:0:0:50:kick.wav
192,192,207773,1,0,0:0:0:70:LR_Drum Rpd x2.wav
320,192,207773,1,0,0:0:0:0:
448,192,207773,1,0,0:0:0:0:
64,192,207909,1,0,0:0:0:50:kick.wav
320,192,207909,1,0,0:0:0:70:LR_Drum Rpd x2.wav
192,192,208045,1,0,0:0:0:50:kick.wav
320,192,208045,1,0,0:0:0:70:LR_Drum Rpd x2.wav
448,192,208045,1,0,0:0:0:0:
64,192,208182,1,0,0:0:0:50:kick.wav
448,192,208182,1,0,0:0:0:70:LR_Drum Rpd x2.wav
64,192,208318,1,0,0:0:0:50:kick.wav
192,192,208318,1,0,0:0:0:70:LR_Drum Rpd x2.wav
320,192,208318,1,0,0:0:0:0:
448,192,208318,1,0,0:0:0:0:
64,192,208454,1,0,0:0:0:50:kick.wav
192,192,208454,1,0,0:0:0:70:LR_Drum Rpd x2.wav
320,192,208454,1,0,0:0:0:0:
64,192,208591,1,0,0:0:0:50:kick.wav
320,192,208591,1,0,0:0:0:70:LR_Drum Rpd x2.wav
448,192,208591,1,0,0:0:0:0:
64,192,208727,1,0,0:0:0:50:kick.wav
192,192,208727,1,0,0:0:0:70:LR_Drum Rpd x2.wav
448,192,208727,1,0,0:0:0:0:
64,192,208864,1,0,0:0:0:50:kick.wav
192,192,208864,1,0,0:0:0:70:LR_Drum Rpd x2.wav
320,192,208864,1,0,0:0:0:0:
448,192,208864,1,0,0:0:0:0:
192,192,209000,1,0,0:0:0:50:kick.wav
320,192,209000,1,0,0:0:0:70:LR_Drum Rpd x2.wav
448,192,209000,1,0,0:0:0:0:
64,192,209136,1,0,0:0:0:50:kick.wav
192,192,209136,1,0,0:0:0:70:LR_Drum Rpd x2.wav
448,192,209136,1,0,0:0:0:0:
64,192,209273,1,0,0:0:0:50:kick.wav
320,192,209273,1,0,0:0:0:70:LR_Drum Rpd x2.wav
448,192,209273,1,0,0:0:0:0:
64,192,209409,1,0,0:0:0:50:kick.wav
192,192,209409,1,0,0:0:0:70:LR_Drum Rpd x2.wav
320,192,209409,1,0,0:0:0:0:
448,192,209409,1,0,0:0:0:0:
192,192,211591,128,0,211659:0:0:0:50:kick.wav
320,192,211591,1,0,0:0:0:50:cymbal.wav
448,192,211591,128,0,211795:0:0:0:0:
64,192,211659,128,0,211727:0:0:0:0:
320,192,211727,128,0,211795:0:0:0:0:
192,192,211795,128,0,211841:0:0:0:0:
64,192,211864,128,0,212068:0:0:0:0:
320,192,211864,128,0,211932:0:0:0:0:
192,192,211932,128,0,212000:0:0:0:0:
448,192,212000,128,0,212068:0:0:0:0:
320,192,212068,128,0,212114:0:0:0:0:
64,192,212136,1,0,0:0:0:70:electronic_neurofunk.wav
448,192,212136,1,0,0:0:0:0:
192,192,212170,1,0,0:0:0:0:
64,192,212273,1,0,0:0:0:0:
192,192,212307,1,0,0:0:0:0:
64,192,212409,1,0,0:0:0:0:
448,192,212409,1,0,0:0:0:0:
192,192,212443,1,0,0:0:0:0:
64,192,212545,1,0,0:0:0:0:
192,192,212579,1,0,0:0:0:0:
64,192,212682,1,0,0:0:0:0:
192,192,212716,1,0,0:0:0:0:
64,192,212818,1,0,0:0:0:0:
192,192,212852,1,0,0:0:0:0:
64,192,212954,1,0,0:0:0:50:kick.wav
320,192,212954,1,0,0:0:0:0:
448,192,212954,1,0,0:0:0:0:
192,192,212989,1,0,0:0:0:0:
64,192,213091,1,0,0:0:0:0:
192,192,213125,1,0,0:0:0:0:
64,192,213227,128,0,213432:0:0:0:70:electronic_neurofunk.wav
320,192,213227,128,0,213568:0:0:0:0:
448,192,213227,128,0,213636:0:0:0:0:
192,192,213295,128,0,213500:0:0:0:0:
64,192,213500,128,0,213704:0:0:0:0:
192,192,213568,128,0,213704:0:0:0:0:
320,192,213636,128,0,213704:0:0:0:0:
448,192,213704,1,0,0:0:0:0:
64,192,213773,128,0,213909:0:0:0:50:kick.wav
192,192,213773,1,0,0:0:0:0:
320,192,213773,1,0,0:0:0:0:
448,192,213841,1,0,0:0:0:0:
192,192,213909,1,0,0:0:0:0:
320,192,213977,1,0,0:0:0:0:
64,192,214045,1,0,0:0:0:0:
448,192,214045,1,0,0:0:0:0:
448,192,214114,1,0,0:0:0:0:
192,192,214182,1,0,0:0:0:0:
192,192,214250,1,0,0:0:0:0:
64,192,214318,1,0,0:0:0:70:electronic_neurofunk.wav
320,192,214318,1,0,0:0:0:0:
448,192,214318,1,0,0:0:0:0:
320,192,214454,1,0,0:0:0:0:
320,192,214523,1,0,0:0:0:0:
64,192,214591,1,0,0:0:0:0:
192,192,214591,1,0,0:0:0:0:
192,192,214727,1,0,0:0:0:50:kick.wav
320,192,214727,1,0,0:0:0:0:
448,192,214727,1,0,0:0:0:0:
64,192,214864,1,0,0:0:0:0:
448,192,214864,1,0,0:0:0:0:
192,192,215000,1,0,0:0:0:0:
192,192,215068,1,0,0:0:0:0:
64,192,215136,1,0,0:0:0:50:kick.wav
320,192,215136,1,0,0:0:0:0:
448,192,215136,1,0,0:0:0:0:
192,192,215273,1,0,0:0:0:0:
320,192,215273,1,0,0:0:0:0:
64,192,215409,128,0,215477:0:0:0:70:electronic_neurofunk.wav
192,192,215409,1,0,0:0:0:0:
448,192,215409,128,0,215818:0:0:0:0:
320,192,215477,128,0,215614:0:0:0:0:
192,192,215545,128,0,215682:0:0:0:0:
64,192,215614,128,0,215750:0:0:0:0:
320,192,215682,128,0,215886:0:0:0:0:
192,192,215750,128,0,215886:0:0:0:0:
64,192,215818,128,0,215886:0:0:0:0:
448,192,215886,128,0,215954:0:0:0:0:
64,192,215954,128,0,216159:0:0:0:50:kick.wav
192,192,215954,1,0,0:0:0:50:cymbal.wav
320,192,215954,128,0,216023:0:0:0:0:
448,192,216023,128,0,216091:0:0:0:0:
192,192,216091,128,0,216159:0:0:0:0:
320,192,216159,128,0,216204:0:0:0:0:
192,192,216227,128,0,216295:0:0:0:0:
448,192,216227,128,0,216432:0:0:0:0:
320,192,216295,128,0,216364:0:0:0:0:
64,192,216364,128,0,216432:0:0:0:0:
192,192,216432,128,0,216477:0:0:0:0:
64,192,216500,1,0,0:0:0:70:electronic_neurofunk.wav
320,192,216500,1,0,0:0:0:0:
448,192,216500,1,0,0:0:0:0:
192,192,216568,1,0,0:0:0:0:
320,192,216636,1,0,0:0:0:0:
320,192,216704,1,0,0:0:0:0:
64,192,216773,1,0,0:0:0:0:
192,192,216773,1,0,0:0:0:0:
192,192,216841,1,0,0:0:0:0:
448,192,216909,1,0,0:0:0:0:
448,192,216977,1,0,0:0:0:0:
64,192,217045,1,0,0:0:0:0:
64,192,217114,1,0,0:0:0:0:
448,192,217182,1,0,0:0:0:0:
448,192,217250,1,0,0:0:0:0:
64,192,217318,1,0,0:0:0:50:kick.wav
192,192,217318,1,0,0:0:0:0:
320,192,217318,1,0,0:0:0:0:
448,192,217386,1,0,0:0:0:0:
192,192,217454,1,0,0:0:0:0:
192,192,217523,1,0,0:0:0:0:
64,192,217591,128,0,217795:0:0:0:70:electronic_neurofunk.wav
320,192,217591,128,0,217932:0:0:0:0:
448,192,217591,128,0,218000:0:0:0:0:
192,192,217659,128,0,217864:0:0:0:0:
64,192,217864,128,0,218068:0:0:0:0:
192,192,217932,128,0,218068:0:0:0:0:
320,192,218000,128,0,218068:0:0:0:0:
448,192,218068,1,0,0:0:0:0:
64,192,218136,128,0,218409:0:0:0:50:kick.wav
192,192,218136,128,0,218204:0:0:0:0:
320,192,218136,1,0,0:0:0:0:
448,192,218204,128,0,218273:0:0:0:0:
320,192,218273,128,0,218341:0:0:0:0:
448,192,218341,128,0,218409:0:0:0:0:
192,192,218409,1,0,0:0:0:0:
320,192,218409,1,0,0:0:0:0:
64,192,218477,1,0,0:0:0:0:
448,192,218545,1,0,0:0:0:0:
320,192,218614,1,0,0:0:0:0:
64,192,218682,1,0,0:0:0:70:electronic_neurofunk.wav
192,192,218682,1,0,0:0:0:0:
448,192,218682,1,0,0:0:0:0:
320,192,218773,1,0,0:0:0:0:
320,192,218864,1,0,0:0:0:0:
64,192,218954,1,0,0:0:0:0:
448,192,218954,1,0,0:0:0:0:
192,192,219045,1,0,0:0:0:0:
320,192,219091,1,0,0:0:0:50:kick.wav
448,192,219091,1,0,0:0:0:0:
192,192,219136,1,0,0:0:0:0:
64,192,219227,128,0,219636:0:0:0:0:
448,192,219227,128,0,219568:0:0:0:0:
192,192,219500,1,0,0:0:0:50:kick.wav
320,192,219500,1,0,0:0:0:0:
192,192,219636,128,0,220045:0:0:0:0:
448,192,219636,128,0,219704:0:0:0:0:
64,192,219773,1,0,0:0:0:70:electronic_neurofunk.wav
320,192,219773,1,0,0:0:0:0:
448,192,219773,128,0,220045:0:0:0:0:
64,192,220045,128,0,220250:0:0:0:0:
320,192,220045,128,0,220250:0:0:0:0:
64,192,220318,128,0,220523:0:0:0:50:kick.wav
192,192,220318,1,0,0:0:0:50:cymbal.wav
320,192,220318,128,0,220386:0:0:0:0:
448,192,220386,128,0,220454:0:0:0:0:
192,192,220454,128,0,220523:0:0:0:0:
320,192,220523,128,0,220568:0:0:0:0:
192,192,220591,128,0,220659:0:0:0:0:
448,192,220591,128,0,220795:0:0:0:0:
320,192,220659,128,0,220727:0:0:0:0:
64,192,220727,128,0,220795:0:0:0:0:
192,192,220795,128,0,220841:0:0:0:0:
64,192,220864,1,0,0:0:0:70:electronic_neurofunk.wav
448,192,220864,1,0,0:0:0:0:
320,192,220898,1,0,0:0:0:0:
448,192,221000,1,0,0:0:0:0:
320,192,221034,1,0,0:0:0:0:
64,192,221136,1,0,0:0:0:0:
448,192,221136,1,0,0:0:0:0:
320,192,221170,1,0,0:0:0:0:
448,192,221273,1,0,0:0:0:0:
320,192,221307,1,0,0:0:0:0:
448,192,221409,1,0,0:0:0:0:
320,192,221443,1,0,0:0:0:0:
448,192,221545,1,0,0:0:0:0:
320,192,221579,1,0,0:0:0:0:
64,192,221682,1,0,0:0:0:50:kick.wav
192,192,221682,1,0,0:0:0:0:
448,192,221682,1,0,0:0:0:0:
320,192,221716,1,0,0:0:0:0:
448,192,221818,1,0,0:0:0:0:
320,192,221852,1,0,0:0:0:0:
64,192,221954,128,0,222364:0:0:0:70:electronic_neurofunk.wav
192,192,221954,128,0,222295:0:0:0:0:
448,192,221954,128,0,222159:0:0:0:0:
320,192,222023,128,0,222227:0:0:0:0:
448,192,222227,128,0,222432:0:0:0:0:
320,192,222295,128,0,222432:0:0:0:0:
192,192,222364,128,0,222432:0:0:0:0:
64,192,222432,1,0,0:0:0:0:
192,192,222500,1,0,0:0:0:50:kick.wav
320,192,222500,1,0,0:0:0:0:
448,192,222500,128,0,222636:0:0:0:0:
64,192,222568,1,0,0:0:0:0:
192,192,222636,1,0,0:0:0:0:
320,192,222704,1,0,0:0:0:0:
64,192,222773,1,0,0:0:0:0:
448,192,222773,1,0,0:0:0:0:
64,192,222841,1,0,0:0:0:0:
320,192,222909,1,0,0:0:0:0:
320,192,222977,1,0,0:0:0:0:
64,192,223045,1,0,0:0:0:70:electronic_neurofunk.wav
192,192,223045,1,0,0:0:0:0:
448,192,223045,1,0,0:0:0:0:
448,192,223182,1,0,0:0:0:0:
448,192,223250,1,0,0:0:0:0:
64,192,223318,1,0,0:0:0:0:
192,192,223318,1,0,0:0:0:0:
64,192,223454,1,0,0:0:0:50:kick.wav
320,192,223454,1,0,0:0:0:0:
448,192,223454,1,0,0:0:0:0:
192,192,223591,1,0,0:0:0:0:
448,192,223591,1,0,0:0:0:0:
320,192,223727,1,0,0:0:0:0:
320,192,223795,1,0,0:0:0:0:
64,192,223864,1,0,0:0:0:50:kick.wav
192,192,223864,1,0,0:0:0:0:
448,192,223864,1,0,0:0:0:0:
192,192,224000,1,0,0:0:0:0:
320,192,224000,1,0,0:0:0:0:
64,192,224136,128,0,224477:0:0:0:70:electronic_neurofunk.wav
320,192,224136,1,0,0:0:0:0:
448,192,224136,128,0,224204:0:0:0:0:
192,192,224204,128,0,224341:0:0:0:0:
320,192,224273,128,0,224409:0:0:0:0:
448,192,224341,128,0,224545:0:0:0:0:
192,192,224409,128,0,224614:0:0:0:0:
320,192,224477,128,0,224614:0:0:0:0:
64,192,224545,128,0,224614:0:0:0:0:
448,192,224614,128,0,224682:0:0:0:0:
64,192,224682,128,0,224886:0:0:0:50:kick.wav
192,192,224682,1,0,0:0:0:50:cymbal.wav
320,192,224682,128,0,224750:0:0:0:0:
448,192,224750,128,0,224818:0:0:0:0:
192,192,224818,128,0,224886:0:0:0:0:
320,192,224886,128,0,224932:0:0:0:0:
192,192,224954,128,0,225023:0:0:0:0:
448,192,224954,128,0,225159:0:0:0:0:
320,192,225023,128,0,225091:0:0:0:0:
64,192,225091,128,0,225159:0:0:0:0:
192,192,225159,128,0,225204:0:0:0:0:
64,192,225227,1,0,0:0:0:70:electronic_neurofunk.wav
320,192,225227,1,0,0:0:0:0:
448,192,225227,1,0,0:0:0:0:
192,192,225295,1,0,0:0:0:0:
448,192,225364,1,0,0:0:0:0:
448,192,225432,1,0,0:0:0:0:
64,192,225500,1,0,0:0:0:0:
192,192,225500,1,0,0:0:0:0:
192,192,225568,1,0,0:0:0:0:
320,192,225636,1,0,0:0:0:0:
320,192,225704,1,0,0:0:0:0:
64,192,225773,1,0,0:0:0:0:
64,192,225841,1,0,0:0:0:0:
448,192,225909,1,0,0:0:0:0:
448,192,225977,1,0,0:0:0:0:
64,192,226045,1,0,0:0:0:50:kick.wav
192,192,226045,1,0,0:0:0:0:
320,192,226045,1,0,0:0:0:0:
448,192,226114,1,0,0:0:0:0:
192,192,226182,1,0,0:0:0:0:
192,192,226250,1,0,0:0:0:0:
64,192,226318,1,0,0:0:0:70:electronic_neurofunk.wav
320,192,226318,1,0,0:0:0:0:
448,192,226318,128,0,226386:0:0:0:0:
192,192,226386,128,0,226454:0:0:0:0:
448,192,226454,128,0,226523:0:0:0:0:
320,192,226523,128,0,226591:0:0:0:0:
64,192,226591,1,0,0:0:0:0:
192,192,226591,128,0,226659:0:0:0:0:
192,192,226727,128,0,226795:0:0:0:0:
64,192,226864,128,0,227000:0:0:0:50:kick.wav
192,192,226864,128,0,227000:0:0:0:0:
320,192,226864,1,0,0:0:0:0:
64,192,227068,128,0,227204:0:0:0:0:
192,192,227068,128,0,227204:0:0:0:0:
64,192,227273,128,0,227409:0:0:0:0:
192,192,227273,128,0,227409:0:0:0:0:
320,192,227409,128,0,227545:0:0:0:0:
448,192,227409,128,0,227545:0:0:0:0:
64,192,227545,128,0,227682:0:0:0:0:
192,192,227545,128,0,227682:0:0:0:0:
64,192,227750,128,0,227886:0:0:0:0:
192,192,227750,128,0,227886:0:0:0:0:
64,192,227954,1,0,0:0:0:70:snare06.wav
320,192,227954,128,0,228636:0:0:0:0:
448,192,227954,1,0,0:0:0:0:
64,192,228364,1,0,0:0:0:70:LR_Drum Rpd x2.wav
448,192,228364,1,0,0:0:0:0:
192,192,228500,1,0,0:0:0:70:LR_Drum Rpd x2.wav
448,192,228500,1,0,0:0:0:0:
64,192,228636,1,0,0:0:0:70:LR_Drum Rpd x2.wav
192,192,228636,1,0,0:0:0:0:
320,192,228773,1,0,0:0:0:70:tom01.wav
448,192,228909,1,0,0:0:0:70:tom02.wav
192,192,229045,128,0,229114:0:0:0:50:kick.wav
320,192,229045,1,0,0:0:0:50:cymbal.wav
448,192,229045,128,0,229250:0:0:0:0:
64,192,229114,128,0,229182:0:0:0:0:
320,192,229182,128,0,229250:0:0:0:0:
192,192,229250,128,0,229295:0:0:0:0:
64,192,229318,128,0,229523:0:0:0:0:
320,192,229318,128,0,229386:0:0:0:0:
192,192,229386,128,0,229454:0:0:0:0:
448,192,229454,128,0,229523:0:0:0:0:
320,192,229523,128,0,229568:0:0:0:0:
64,192,229591,1,0,0:0:0:50:kick.wav
448,192,229591,128,0,229659:0:0:0:0:
192,192,229625,1,0,0:0:0:0:
64,192,229727,1,0,0:0:0:0:
192,192,229761,1,0,0:0:0:0:
64,192,229864,1,0,0:0:0:0:
320,192,229864,1,0,0:0:0:0:
192,192,229898,1,0,0:0:0:0:
64,192,230000,1,0,0:0:0:0:
192,192,230034,1,0,0:0:0:0:
64,192,230136,1,0,0:0:0:50:kick.wav
320,192,230136,1,0,0:0:0:0:
448,192,230136,1,0,0:0:0:0:
192,192,230170,1,0,0:0:0:0:
64,192,230273,1,0,0:0:0:0:
192,192,230307,1,0,0:0:0:0:
64,192,230409,1,0,0:0:0:0:
320,192,230409,128,0,230477:0:0:0:0:
192,192,230443,1,0,0:0:0:0:
64,192,230545,1,0,0:0:0:0:
192,192,230579,1,0,0:0:0:0:
64,192,230682,128,0,231023:0:0:0:50:kick.wav
320,192,230682,128,0,230886:0:0:0:0:
448,192,230682,128,0,231091:0:0:0:0:
192,192,230750,128,0,230954:0:0:0:0:
320,192,230954,128,0,231159:0:0:0:0:
192,192,231023,128,0,231159:0:0:0:0:
64,192,231091,128,0,231159:0:0:0:0:
448,192,231159,1,0,0:0:0:0:
64,192,231227,1,0,0:0:0:50:kick.wav
192,192,231227,1,0,0:0:0:0:
320,192,231227,128,0,231432:0:0:0:0:
64,192,231500,1,0,0:0:0:0:
192,192,231500,128,0,231568:0:0:0:0:
320,192,231568,1,0,0:0:0:0:
192,192,231636,128,0,231704:0:0:0:0:
448,192,231636,1,0,0:0:0:0:
320,192,231704,1,0,0:0:0:0:
64,192,231773,1,0,0:0:0:50:kick.wav
192,192,231773,1,0,0:0:0:0:
448,192,231773,1,0,0:0:0:0:
64,192,231909,128,0,231977:0:0:0:0:
320,192,231909,1,0,0:0:0:0:
320,192,231977,1,0,0:0:0:0:
64,192,232045,128,0,232114:0:0:0:0:
192,192,232045,1,0,0:0:0:0:
64,192,232182,1,0,0:0:0:0:
192,192,232182,1,0,0:0:0:0:
64,192,232318,1,0,0:0:0:50:kick.wav
320,192,232318,1,0,0:0:0:0:
448,192,232318,1,0,0:0:0:0:
192,192,232386,128,0,232454:0:0:0:0:
448,192,232454,1,0,0:0:0:0:
448,192,232523,1,0,0:0:0:0:
64,192,232591,128,0,232659:0:0:0:0:
192,192,232591,1,0,0:0:0:0:
320,192,232659,1,0,0:0:0:0:
64,192,232727,1,0,0:0:0:0:
448,192,232727,1,0,0:0:0:0:
64,192,232864,128,0,233068:0:0:0:50:kick.wav
320,192,232864,128,0,233000:0:0:0:0:
448,192,232864,1,0,0:0:0:0:
192,192,232932,128,0,233136:0:0:0:0:
448,192,233000,128,0,233273:0:0:0:0:
320,192,233068,128,0,233204:0:0:0:0:
64,192,233136,128,0,233341:0:0:0:0:
192,192,233204,128,0,233341:0:0:0:0:
320,192,233273,128,0,233341:0:0:0:0:
448,192,233341,128,0,233409:0:0:0:0:
64,192,233409,128,0,233614:0:0:0:50:kick.wav
192,192,233409,1,0,0:0:0:0:
320,192,233409,128,0,233477:0:0:0:0:
448,192,233477,128,0,233545:0:0:0:0:
192,192,233545,128,0,233614:0:0:0:0:
320,192,233614,128,0,233659:0:0:0:0:
192,192,233682,128,0,233750:0:0:0:0:
448,192,233682,128,0,233886:0:0:0:0:
320,192,233750,128,0,233818:0:0:0:0:
64,192,233818,128,0,233886:0:0:0:0:
192,192,233886,128,0,233932:0:0:0:0:
64,192,233954,1,0,0:0:0:50:kick.wav
320,192,233954,128,0,234023:0:0:0:0:
448,192,233954,1,0,0:0:0:0:
192,192,234023,1,0,0:0:0:0:
448,192,234091,1,0,0:0:0:0:
448,192,234159,1,0,0:0:0:0:
64,192,234227,1,0,0:0:0:0:
192,192,234227,1,0,0:0:0:0:
64,192,234295,1,0,0:0:0:0:
320,192,234364,1,0,0:0:0:0:
320,192,234432,1,0,0:0:0:0:
64,192,234500,1,0,0:0:0:50:kick.wav
192,192,234500,1,0,0:0:0:0:
448,192,234500,1,0,0:0:0:0:
192,192,234568,1,0,0:0:0:0:
448,192,234636,1,0,0:0:0:0:
448,192,234704,1,0,0:0:0:0:
64,192,234773,1,0,0:0:0:0:
320,192,234773,128,0,234841:0:0:0:0:
64,192,234841,1,0,0:0:0:0:
448,192,234909,1,0,0:0:0:0:
448,192,234977,1,0,0:0:0:0:
64,192,235045,128,0,235454:0:0:0:50:kick.wav
192,192,235045,128,0,235386:0:0:0:0:
320,192,235045,128,0,235250:0:0:0:0:
448,192,235114,128,0,235318:0:0:0:0:
320,192,235318,128,0,235523:0:0:0:0:
448,192,235386,128,0,235523:0:0:0:0:
192,192,235454,128,0,235523:0:0:0:0:
64,192,235523,1,0,0:0:0:0:
192,192,235591,128,0,235727:0:0:0:50:kick.wav
320,192,235591,128,0,235727:0:0:0:0:
448,192,235591,128,0,235727:0:0:0:0:
64,192,235727,128,0,235795:0:0:0:0:
320,192,235795,1,0,0:0:0:0:
64,192,235864,1,0,0:0:0:0:
448,192,235864,128,0,235932:0:0:0:0:
64,192,235932,1,0,0:0:0:0:
320,192,236000,1,0,0:0:0:0:
320,192,236068,1,0,0:0:0:0:
64,192,236136,1,0,0:0:0:50:kick.wav
192,192,236136,128,0,236182:0:0:0:0:
448,192,236136,1,0,0:0:0:0:
320,192,236227,1,0,0:0:0:0:
448,192,236227,128,0,236273:0:0:0:0:
64,192,236318,1,0,0:0:0:0:
192,192,236318,128,0,236364:0:0:0:0:
64,192,236409,1,0,0:0:0:0:
448,192,236409,128,0,236454:0:0:0:0:
320,192,236500,1,0,0:0:0:0:
320,192,236591,1,0,0:0:0:0:
64,192,236682,128,0,236818:0:0:0:50:kick.wav
192,192,236682,128,0,236818:0:0:0:50:cymbal_s.wav
448,192,236682,1,0,0:0:0:0:
64,192,236886,128,0,237023:0:0:0:50:kick.wav
192,192,236886,128,0,237023:0:0:0:50:cymbal_s.wav
448,192,236886,1,0,0:0:0:0:
320,192,236954,1,0,0:0:0:0:
64,192,237091,128,0,237159:0:0:0:50:kick.wav
192,192,237091,128,0,237159:0:0:0:50:cymbal_s.wav
448,192,237091,1,0,0:0:0:0:
64,192,237227,1,0,0:0:0:50:kick.wav
320,192,237227,128,0,237364:0:0:0:50:cymbal_s.wav
448,192,237227,128,0,237364:0:0:0:0:
64,192,237432,1,0,0:0:0:50:kick.wav
320,192,237432,128,0,237568:0:0:0:50:cymbal_s.wav
448,192,237432,128,0,237568:0:0:0:0:
192,192,237500,1,0,0:0:0:0:
64,192,237636,1,0,0:0:0:50:kick.wav
320,192,237636,128,0,237704:0:0:0:50:cymbal_s.wav
448,192,237636,128,0,237704:0:0:0:0:
64,192,237773,1,0,0:0:0:50:kick.wav
192,192,237773,1,0,0:0:0:50:cymbal.wav
448,192,237773,128,0,237977:0:0:0:70:LR_Drum Rpd x2.wav
320,192,237909,1,0,0:0:0:0:
192,192,237977,1,0,0:0:0:0:
64,192,238045,128,0,238250:0:0:0:50:kick.wav
320,192,238045,1,0,0:0:0:70:LR_Drum Rpd x2.wav
448,192,238045,1,0,0:0:0:70:clap02.wav
192,192,238182,1,0,0:0:0:0:
320,192,238182,1,0,0:0:0:0:
64,192,238318,1,0,0:0:0:50:kick.wav
192,192,238318,1,0,0:0:0:70:LR_Drum Rpd x2.wav
448,192,238318,1,0,0:0:0:0:
192,192,238454,1,0,0:0:0:0:
320,192,238523,1,0,0:0:0:0:
64,192,238591,1,0,0:0:0:50:kick.wav
192,192,238591,1,0,0:0:0:70:LR_Drum Rpd x2.wav
448,192,238591,1,0,0:0:0:70:clap02.wav
64,192,238727,1,0,0:0:0:50:kick.wav
320,192,238727,1,0,0:0:0:70:LR_Drum Rpd x2.wav
448,192,238727,1,0,0:0:0:0:
64,192,238864,128,0,239068:0:0:0:50:kick.wav
192,192,238864,1,0,0:0:0:50:cymbal.wav
448,192,238864,1,0,0:0:0:70:LR_Drum Rpd x2.wav
320,192,239000,1,0,0:0:0:0:
192,192,239068,1,0,0:0:0:0:
64,192,239136,1,0,0:0:0:50:kick.wav
320,192,239136,1,0,0:0:0:70:LR_Drum Rpd x2.wav
448,192,239136,128,0,239341:0:0:0:70:clap02.wav
192,192,239273,1,0,0:0:0:0:
320,192,239341,1,0,0:0:0:0:
64,192,239409,128,0,239614:0:0:0:50:kick.wav
192,192,239409,128,0,239614:0:0:0:70:LR_Drum Rpd x2.wav
448,192,239409,128,0,239614:0:0:0:0:
320,192,239545,1,0,0:0:0:0:
64,192,239682,1,0,0:0:0:50:kick.wav
192,192,239682,1,0,0:0:0:70:LR_Drum Rpd x2.wav
448,192,239682,1,0,0:0:0:70:clap02.wav
64,192,239818,1,0,0:0:0:50:kick.wav
320,192,239818,1,0,0:0:0:70:LR_Drum Rpd x2.wav
448,192,239818,1,0,0:0:0:0:
64,192,239954,1,0,0:0:0:50:kick.wav
192,192,239954,1,0,0:0:0:50:cymbal.wav
448,192,239954,128,0,240159:0:0:0:70:LR_Drum Rpd x2.wav
192,192,240091,1,0,0:0:0:0:
64,192,240227,128,0,240432:0:0:0:50:kick.wav
320,192,240227,1,0,0:0:0:70:LR_Drum Rpd x2.wav
448,192,240227,1,0,0:0:0:70:clap02.wav
192,192,240364,1,0,0:0:0:0:
448,192,240364,1,0,0:0:0:0:
320,192,240432,1,0,0:0:0:0:
64,192,240500,1,0,0:0:0:50:kick.wav
192,192,240500,1,0,0:0:0:70:LR_Drum Rpd x2.wav
448,192,240500,1,0,0:0:0:0:
64,192,240636,1,0,0:0:0:0:
320,192,240636,1,0,0:0:0:0:
192,192,240704,1,0,0:0:0:0:
64,192,240773,1,0,0:0:0:50:kick.wav
320,192,240773,1,0,0:0:0:70:LR_Drum Rpd x2.wav
448,192,240773,1,0,0:0:0:70:clap02.wav
192,192,240909,1,0,0:0:0:50:kick.wav
320,192,240909,1,0,0:0:0:70:LR_Drum Rpd x2.wav
448,192,240909,1,0,0:0:0:0:
64,192,241045,128,0,241250:0:0:0:50:kick.wav
192,192,241045,1,0,0:0:0:50:cymbal.wav
320,192,241045,1,0,0:0:0:70:LR_Drum Rpd x2.wav
192,192,241182,1,0,0:0:0:0:
448,192,241182,1,0,0:0:0:0:
320,192,241250,1,0,0:0:0:0:
64,192,241318,1,0,0:0:0:50:kick.wav
192,192,241318,1,0,0:0:0:70:LR_Drum Rpd x2.wav
448,192,241318,128,0,241523:0:0:0:70:clap02.wav
192,192,241454,1,0,0:0:0:0:
320,192,241454,1,0,0:0:0:0:
64,192,241591,128,0,241659:0:0:0:50:kick.wav
320,192,241591,1,0,0:0:0:70:LR_Drum Rpd x2.wav
448,192,241591,1,0,0:0:0:0:
192,192,241659,128,0,241727:0:0:0:0:
64,192,241727,128,0,241795:0:0:0:0:
448,192,241727,1,0,0:0:0:0:
192,192,241795,128,0,241864:0:0:0:0:
64,192,241864,1,0,0:0:0:50:kick.wav
320,192,241864,1,0,0:0:0:70:LR_Drum Rpd x2.wav
448,192,241864,1,0,0:0:0:70:clap02.wav
192,192,241932,1,0,0:0:0:0:
64,192,242000,1,0,0:0:0:50:kick.wav
320,192,242000,1,0,0:0:0:70:LR_Drum Rpd x2.wav
448,192,242000,1,0,0:0:0:0:
64,192,242136,1,0,0:0:0:50:kick.wav
192,192,242136,1,0,0:0:0:50:cymbal.wav
320,192,242136,1,0,0:0:0:70:LR_Drum Rpd x2.wav
448,192,242204,1,0,0:0:0:50:LR_Drum Kick Low.wav
192,192,242273,1,0,0:0:0:50:kick.wav
320,192,242273,1,0,0:0:0:0:
64,192,242341,1,0,0:0:0:50:LR_Drum Kick Low.wav
320,192,242409,1,0,0:0:0:50:kick.wav
448,192,242409,1,0,0:0:0:0:
192,192,242477,1,0,0:0:0:50:LR_Drum Kick Low.wav
64,192,242545,1,0,0:0:0:50:kick.wav
448,192,242545,1,0,0:0:0:0:
320,192,242614,1,0,0:0:0:50:LR_Drum Kick Low.wav
64,192,242682,1,0,0:0:0:50:kick.wav
192,192,242682,1,0,0:0:0:0:
320,192,242750,1,0,0:0:0:50:LR_Drum Kick Low.wav
64,192,242818,1,0,0:0:0:50:kick.wav
448,192,242818,1,0,0:0:0:0:
192,192,242886,1,0,0:0:0:50:LR_Drum Kick Low.wav
320,192,242954,1,0,0:0:0:50:kick.wav
448,192,242954,1,0,0:0:0:0:
64,192,243023,1,0,0:0:0:50:LR_Drum Kick Low.wav
192,192,243091,1,0,0:0:0:50:kick.wav
320,192,243091,1,0,0:0:0:0:
448,192,243159,1,0,0:0:0:50:LR_Drum Kick Low.wav
64,192,243227,1,0,0:0:0:50:kick.wav
192,192,243227,1,0,0:0:0:0:
320,192,243295,1,0,0:0:0:50:LR_Drum Kick Low.wav
448,192,243295,1,0,0:0:0:0:
64,192,243364,1,0,0:0:0:50:kick.wav
192,192,243364,1,0,0:0:0:0:
320,192,243432,1,0,0:0:0:50:LR_Drum Kick Low.wav
448,192,243432,1,0,0:0:0:0:
64,192,243500,1,0,0:0:0:50:kick.wav
192,192,243500,1,0,0:0:0:0:
320,192,243568,1,0,0:0:0:50:LR_Drum Kick Low.wav
448,192,243568,1,0,0:0:0:0:
64,192,243636,1,0,0:0:0:50:kick.wav
192,192,243636,1,0,0:0:0:0:
320,192,243704,1,0,0:0:0:50:LR_Drum Kick Low.wav
448,192,243704,1,0,0:0:0:0:
64,192,243773,1,0,0:0:0:50:kick.wav
192,192,243773,1,0,0:0:0:0:
64,192,243841,1,0,0:0:0:50:LR_Drum Kick Low.wav
192,192,243841,1,0,0:0:0:0:
320,192,243909,1,0,0:0:0:50:kick.wav
448,192,243909,1,0,0:0:0:0:
320,192,243977,1,0,0:0:0:50:LR_Drum Kick Low.wav
448,192,243977,1,0,0:0:0:0:
64,192,244045,1,0,0:0:0:50:kick.wav
192,192,244045,1,0,0:0:0:0:
64,192,244114,1,0,0:0:0:50:LR_Drum Kick Low.wav
192,192,244114,1,0,0:0:0:0:
320,192,244182,1,0,0:0:0:50:kick.wav
448,192,244182,1,0,0:0:0:0:
320,192,244250,1,0,0:0:0:50:LR_Drum Kick Low.wav
448,192,244250,1,0,0:0:0:0:
64,192,244318,1,0,0:0:0:50:kick.wav
192,192,244318,1,0,0:0:0:0:
448,192,244318,1,0,0:0:0:0:
192,192,244454,1,0,0:0:0:0:
192,192,244523,128,0,244591:0:0:0:0:
448,192,244591,128,0,244659:0:0:0:0:
448,192,244727,128,0,244795:0:0:0:0:
64,192,244864,1,0,0:0:0:70:snare06.wav
192,192,244864,1,0,0:0:0:0:
448,192,244864,1,0,0:0:0:0:
320,192,244932,1,0,0:0:0:0:
64,192,245000,128,0,245068:0:0:0:0:
448,192,245068,1,0,0:0:0:0:
192,192,245136,1,0,0:0:0:0:
192,192,245204,128,0,245273:0:0:0:0:
320,192,245273,1,0,0:0:0:0:
320,192,245341,128,0,245409:0:0:0:0:
64,192,245409,1,0,0:0:0:70:snare06.wav
192,192,245409,1,0,0:0:0:0:
448,192,245409,128,0,245591:0:0:0:0:
320,192,245500,1,0,0:0:0:0:
64,192,245591,1,0,0:0:0:0:
192,192,245682,1,0,0:0:0:0:
448,192,245682,128,0,245864:0:0:0:0:
64,192,245773,1,0,0:0:0:0:
320,192,245864,1,0,0:0:0:0:
64,192,245954,1,0,0:0:0:70:LR_Drum Rpd x2.wav
192,192,245954,1,0,0:0:0:70:snare06.wav
448,192,245954,128,0,246409:0:0:0:0:
320,192,246023,1,0,0:0:0:70:LR_Drum Rpd x2.wav
192,192,246091,1,0,0:0:0:70:tom01.wav
64,192,246159,1,0,0:0:0:70:tom01.wav
320,192,246227,1,0,0:0:0:70:tom02.wav
64,192,246295,1,0,0:0:0:70:tom02.wav
192,192,246364,1,0,0:0:0:70:tom02.wav
320,192,246432,1,0,0:0:0:70:tom02.wav
64,192,246500,1,0,0:0:0:50:kick.wav
192,192,246500,1,0,0:0:0:50:cymbal.wav
448,192,246500,1,0,0:0:0:70:push_scratch.wav
320,192,246568,1,0,0:0:0:0:
448,192,246636,1,0,0:0:0:0:
192,192,246704,1,0,0:0:0:0:
64,192,246773,1,0,0:0:0:0:
448,192,246773,1,0,0:0:0:0:
320,192,246841,1,0,0:0:0:0:
64,192,246909,1,0,0:0:0:70:clap02.wav
192,192,246909,1,0,0:0:0:0:
448,192,246977,1,0,0:0:0:0:
64,192,247045,1,0,0:0:0:50:kick.wav
192,192,247045,1,0,0:0:0:0:
320,192,247045,1,0,0:0:0:0:
448,192,247114,1,0,0:0:0:0:
192,192,247182,1,0,0:0:0:0:
320,192,247250,1,0,0:0:0:0:
64,192,247318,1,0,0:0:0:70:clap02.wav
448,192,247318,1,0,0:0:0:0:
192,192,247386,1,0,0:0:0:0:
320,192,247454,1,0,0:0:0:0:
448,192,247523,1,0,0:0:0:0:
64,192,247591,1,0,0:0:0:50:kick.wav
192,192,247591,1,0,0:0:0:0:
320,192,247591,1,0,0:0:0:0:
448,192,247659,1,0,0:0:0:0:
192,192,247727,1,0,0:0:0:0:
320,192,247795,1,0,0:0:0:0:
64,192,247864,1,0,0:0:0:0:
448,192,247864,1,0,0:0:0:0:
192,192,247932,1,0,0:0:0:0:
320,192,248000,1,0,0:0:0:70:clap02.wav
448,192,248000,1,0,0:0:0:0:
64,192,248068,1,0,0:0:0:0:
192,192,248136,1,0,0:0:0:50:kick.wav
320,192,248136,1,0,0:0:0:0:
448,192,248136,1,0,0:0:0:0:
64,192,248204,1,0,0:0:0:0:
320,192,248273,1,0,0:0:0:0:
192,192,248341,1,0,0:0:0:0:
64,192,248409,1,0,0:0:0:70:clap02.wav
448,192,248409,1,0,0:0:0:0:
320,192,248477,1,0,0:0:0:0:
192,192,248545,1,0,0:0:0:0:
64,192,248614,1,0,0:0:0:0:
192,192,248682,1,0,0:0:0:50:kick.wav
320,192,248682,1,0,0:0:0:0:
448,192,248682,1,0,0:0:0:0:
64,192,248750,1,0,0:0:0:0:
320,192,248818,1,0,0:0:0:0:
192,192,248886,1,0,0:0:0:0:
64,192,248954,1,0,0:0:0:0:
448,192,248954,1,0,0:0:0:0:
320,192,249023,1,0,0:0:0:0:
64,192,249091,1,0,0:0:0:70:clap02.wav
192,192,249091,1,0,0:0:0:0:
448,192,249159,1,0,0:0:0:0:
64,192,249227,1,0,0:0:0:50:kick.wav
192,192,249227,1,0,0:0:0:0:
320,192,249227,1,0,0:0:0:0:
448,192,249295,1,0,0:0:0:0:
192,192,249364,1,0,0:0:0:0:
320,192,249432,1,0,0:0:0:0:
64,192,249500,1,0,0:0:0:70:clap02.wav
448,192,249500,1,0,0:0:0:0:
192,192,249568,1,0,0:0:0:0:
320,192,249636,1,0,0:0:0:0:
448,192,249704,1,0,0:0:0:0:
64,192,249773,1,0,0:0:0:50:kick.wav
192,192,249773,1,0,0:0:0:70:clap02.wav
320,192,249773,1,0,0:0:0:0:
448,192,249841,1,0,0:0:0:0:
64,192,249909,1,0,0:0:0:0:
320,192,249977,1,0,0:0:0:0:
192,192,250045,1,0,0:0:0:0:
448,192,250045,1,0,0:0:0:0:
64,192,250114,1,0,0:0:0:0:
320,192,250182,1,0,0:0:0:70:clap02.wav
448,192,250182,1,0,0:0:0:0:
192,192,250250,1,0,0:0:0:0:
64,192,250318,1,0,0:0:0:50:kick.wav
320,192,250318,1,0,0:0:0:0:
448,192,250318,1,0,0:0:0:0:
192,192,250386,1,0,0:0:0:0:
64,192,250454,1,0,0:0:0:70:clap02.wav
320,192,250454,1,0,0:0:0:0:
448,192,250523,1,0,0:0:0:0:
64,192,250591,1,0,0:0:0:70:clap02.wav
192,192,250591,1,0,0:0:0:0:
320,192,250659,1,0,0:0:0:70:clap02.wav
448,192,250659,1,0,0:0:0:0:
64,192,250727,1,0,0:0:0:70:clap02.wav
192,192,250727,1,0,0:0:0:0:
448,192,250795,1,0,0:0:0:0:
64,192,250864,1,0,0:0:0:50:kick.wav
192,192,250864,1,0,0:0:0:0:
320,192,250864,1,0,0:0:0:0:
448,192,250932,1,0,0:0:0:0:
320,192,251000,1,0,0:0:0:0:
192,192,251068,1,0,0:0:0:0:
64,192,251136,1,0,0:0:0:0:
448,192,251136,1,0,0:0:0:0:
192,192,251204,1,0,0:0:0:0:
320,192,251273,1,0,0:0:0:70:clap02.wav
448,192,251273,1,0,0:0:0:0:
64,192,251341,1,0,0:0:0:0:
192,192,251409,1,0,0:0:0:50:kick.wav
320,192,251409,1,0,0:0:0:0:
448,192,251409,1,0,0:0:0:0:
64,192,251477,1,0,0:0:0:0:
192,192,251545,1,0,0:0:0:0:
320,192,251614,1,0,0:0:0:0:
64,192,251682,1,0,0:0:0:70:clap02.wav
448,192,251682,1,0,0:0:0:0:
192,192,251750,1,0,0:0:0:0:
320,192,251818,1,0,0:0:0:0:
448,192,251886,1,0,0:0:0:0:
64,192,251954,1,0,0:0:0:50:kick.wav
192,192,251954,1,0,0:0:0:0:
320,192,251954,1,0,0:0:0:0:
448,192,252023,1,0,0:0:0:0:
192,192,252091,1,0,0:0:0:0:
320,192,252159,1,0,0:0:0:0:
64,192,252227,1,0,0:0:0:0:
448,192,252227,1,0,0:0:0:0:
320,192,252295,1,0,0:0:0:0:
64,192,252364,1,0,0:0:0:70:clap02.wav
192,192,252364,1,0,0:0:0:0:
448,192,252432,1,0,0:0:0:0:
64,192,252500,1,0,0:0:0:50:kick.wav
192,192,252500,1,0,0:0:0:0:
320,192,252500,1,0,0:0:0:0:
448,192,252568,1,0,0:0:0:0:
320,192,252636,1,0,0:0:0:0:
192,192,252704,1,0,0:0:0:0:
64,192,252773,1,0,0:0:0:70:clap02.wav
448,192,252773,1,0,0:0:0:0:
320,192,252841,1,0,0:0:0:0:
192,192,252909,1,0,0:0:0:0:
64,192,252977,1,0,0:0:0:0:
192,192,253045,1,0,0:0:0:50:kick.wav
320,192,253045,1,0,0:0:0:0:
448,192,253045,1,0,0:0:0:0:
64,192,253114,1,0,0:0:0:0:
320,192,253182,1,0,0:0:0:0:
192,192,253250,1,0,0:0:0:0:
64,192,253318,1,0,0:0:0:0:
448,192,253318,1,0,0:0:0:0:
192,192,253386,1,0,0:0:0:0:
320,192,253454,1,0,0:0:0:70:clap02.wav
448,192,253454,1,0,0:0:0:0:
64,192,253523,1,0,0:0:0:0:
192,192,253591,1,0,0:0:0:50:kick.wav
320,192,253591,1,0,0:0:0:0:
448,192,253591,1,0,0:0:0:0:
64,192,253659,1,0,0:0:0:0:
320,192,253727,1,0,0:0:0:0:
192,192,253795,1,0,0:0:0:0:
64,192,253864,1,0,0:0:0:70:clap02.wav
448,192,253864,1,0,0:0:0:0:
320,192,253932,1,0,0:0:0:0:
192,192,254000,1,0,0:0:0:0:
448,192,254068,1,0,0:0:0:0:
64,192,254136,1,0,0:0:0:50:kick.wav
192,192,254136,1,0,0:0:0:0:
320,192,254136,1,0,0:0:0:0:
448,192,254204,1,0,0:0:0:0:
192,192,254273,1,0,0:0:0:0:
320,192,254341,1,0,0:0:0:0:
64,192,254409,1,0,0:0:0:70:clap02.wav
448,192,254409,1,0,0:0:0:0:
320,192,254477,1,0,0:0:0:0:
64,192,254545,1,0,0:0:0:70:clap02.wav
192,192,254545,1,0,0:0:0:0:
448,192,254614,1,0,0:0:0:0:
64,192,254682,1,0,0:0:0:50:kick.wav
192,192,254682,1,0,0:0:0:0:
320,192,254682,1,0,0:0:0:0:
448,192,254750,1,0,0:0:0:0:
192,192,254818,1,0,0:0:0:0:
320,192,254886,1,0,0:0:0:0:
64,192,254954,1,0,0:0:0:70:clap02.wav
448,192,254954,1,0,0:0:0:0:
192,192,255023,1,0,0:0:0:0:
320,192,255091,1,0,0:0:0:0:
64,192,255159,1,0,0:0:0:0:
192,192,255227,1,0,0:0:0:50:kick.wav
320,192,255227,1,0,0:0:0:0:
448,192,255227,1,0,0:0:0:0:
64,192,255295,1,0,0:0:0:0:
192,192,255364,1,0,0:0:0:0:
320,192,255432,1,0,0:0:0:0:
64,192,255500,1,0,0:0:0:50:kick.wav
192,192,255500,1,0,0:0:0:0:
448,192,255500,1,0,0:0:0:0:
320,192,255568,1,0,0:0:0:0:
64,192,255636,1,0,0:0:0:0:
448,192,255636,1,0,0:0:0:0:
192,192,255704,1,0,0:0:0:0:
64,192,255773,1,0,0:0:0:50:kick.wav
320,192,255773,1,0,0:0:0:0:
448,192,255773,1,0,0:0:0:0:
192,192,255841,1,0,0:0:0:0:
320,192,255909,1,0,0:0:0:0:
192,192,255977,1,0,0:0:0:0:
64,192,256045,1,0,0:0:0:70:clap02.wav
448,192,256045,1,0,0:0:0:0:
320,192,256114,1,0,0:0:0:0:
192,192,256182,1,0,0:0:0:0:
64,192,256250,1,0,0:0:0:0:
192,192,256318,1,0,0:0:0:50:kick.wav
320,192,256318,1,0,0:0:0:0:
448,192,256318,1,0,0:0:0:0:
64,192,256386,1,0,0:0:0:0:
320,192,256454,1,0,0:0:0:0:
192,192,256523,1,0,0:0:0:0:
64,192,256591,1,0,0:0:0:0:
448,192,256591,1,0,0:0:0:0:
192,192,256659,1,0,0:0:0:0:
320,192,256727,1,0,0:0:0:70:clap02.wav
448,192,256727,1,0,0:0:0:0:
64,192,256795,1,0,0:0:0:0:
192,192,256864,1,0,0:0:0:50:kick.wav
320,192,256864,1,0,0:0:0:0:
448,192,256864,1,0,0:0:0:0:
64,192,256932,1,0,0:0:0:0:
320,192,257000,1,0,0:0:0:0:
192,192,257068,1,0,0:0:0:0:
64,192,257136,128,0,257204:0:0:0:70:clap02.wav
448,192,257136,1,0,0:0:0:0:
320,192,257204,1,0,0:0:0:0:
192,192,257273,1,0,0:0:0:0:
64,192,257341,1,0,0:0:0:0:
192,192,257409,1,0,0:0:0:50:kick.wav
320,192,257409,1,0,0:0:0:0:
448,192,257409,1,0,0:0:0:0:
64,192,257477,1,0,0:0:0:0:
192,192,257545,1,0,0:0:0:0:
320,192,257614,1,0,0:0:0:0:
64,192,257682,1,0,0:0:0:0:
448,192,257682,1,0,0:0:0:0:
320,192,257750,1,0,0:0:0:0:
64,192,257818,1,0,0:0:0:70:clap02.wav
192,192,257818,1,0,0:0:0:0:
448,192,257886,1,0,0:0:0:0:
64,192,257954,1,0,0:0:0:50:kick.wav
192,192,257954,1,0,0:0:0:0:
320,192,257954,1,0,0:0:0:0:
448,192,258023,1,0,0:0:0:0:
320,192,258091,1,0,0:0:0:0:
192,192,258159,1,0,0:0:0:0:
64,192,258227,1,0,0:0:0:70:clap02.wav
448,192,258227,1,0,0:0:0:0:
320,192,258295,1,0,0:0:0:0:
192,192,258364,1,0,0:0:0:0:
64,192,258432,1,0,0:0:0:0:
192,192,258500,1,0,0:0:0:50:kick.wav
320,192,258500,1,0,0:0:0:70:clap02.wav
448,192,258500,1,0,0:0:0:0:
64,192,258568,1,0,0:0:0:0:
448,192,258636,1,0,0:0:0:0:
192,192,258704,1,0,0:0:0:0:
64,192,258773,1,0,0:0:0:0:
320,192,258773,1,0,0:0:0:0:
448,192,258841,1,0,0:0:0:0:
64,192,258909,1,0,0:0:0:70:clap02.wav
192,192,258909,1,0,0:0:0:0:
320,192,258977,1,0,0:0:0:0:
64,192,259045,1,0,0:0:0:50:kick.wav
192,192,259045,1,0,0:0:0:0:
448,192,259045,1,0,0:0:0:0:
320,192,259114,1,0,0:0:0:0:
192,192,259182,1,0,0:0:0:70:clap02.wav
448,192,259182,1,0,0:0:0:0:
64,192,259250,1,0,0:0:0:0:
320,192,259318,1,0,0:0:0:70:clap02.wav
448,192,259318,1,0,0:0:0:0:
64,192,259386,1,0,0:0:0:70:clap02.wav
192,192,259386,1,0,0:0:0:0:
320,192,259454,1,0,0:0:0:70:clap02.wav
448,192,259454,1,0,0:0:0:0:
64,192,259523,1,0,0:0:0:0:
192,192,259591,1,0,0:0:0:50:kick.wav
320,192,259591,1,0,0:0:0:0:
448,192,259591,1,0,0:0:0:0:
64,192,259659,1,0,0:0:0:0:
192,192,259727,1,0,0:0:0:0:
320,192,259795,1,0,0:0:0:0:
64,192,259864,1,0,0:0:0:0:
448,192,259932,1,0,0:0:0:0:
64,192,260000,1,0,0:0:0:50:kick.wav
192,192,260000,1,0,0:0:0:70:clap02.wav
320,192,260000,1,0,0:0:0:0:
448,192,260068,1,0,0:0:0:0:
64,192,260136,1,0,0:0:0:0:
448,192,260204,1,0,0:0:0:0:
192,192,260273,1,0,0:0:0:0:
320,192,260341,1,0,0:0:0:0:
64,192,260409,1,0,0:0:0:50:kick.wav
192,192,260409,1,0,0:0:0:70:clap02.wav
448,192,260409,1,0,0:0:0:0:
320,192,260477,1,0,0:0:0:0:
64,192,260545,1,0,0:0:0:50:kick.wav
448,192,260545,1,0,0:0:0:0:
192,192,260614,1,0,0:0:0:0:
64,192,260682,1,0,0:0:0:50:kick.wav
320,192,260682,1,0,0:0:0:0:
448,192,260682,1,0,0:0:0:0:
192,192,260750,1,0,0:0:0:0:
320,192,260818,1,0,0:0:0:0:
64,192,260886,1,0,0:0:0:0:
192,192,260954,1,0,0:0:0:0:
448,192,260954,1,0,0:0:0:0:
320,192,261023,1,0,0:0:0:0:
64,192,261091,1,0,0:0:0:50:kick.wav
192,192,261091,1,0,0:0:0:70:clap02.wav
448,192,261091,1,0,0:0:0:0:
320,192,261159,1,0,0:0:0:0:
64,192,261227,1,0,0:0:0:0:
448,192,261295,1,0,0:0:0:0:
320,192,261364,1,0,0:0:0:0:
192,192,261432,1,0,0:0:0:0:
64,192,261500,1,0,0:0:0:50:kick.wav
320,192,261500,1,0,0:0:0:70:clap02.wav
448,192,261500,128,0,261568:0:0:0:0:
192,192,261568,1,0,0:0:0:0:
64,192,261636,1,0,0:0:0:50:kick.wav
448,192,261636,128,0,261704:0:0:0:0:
320,192,261704,1,0,0:0:0:0:
64,192,261773,1,0,0:0:0:50:kick.wav
192,192,261773,1,0,0:0:0:0:
448,192,261773,128,0,261841:0:0:0:0:
320,192,261841,1,0,0:0:0:0:
192,192,261909,1,0,0:0:0:0:
448,192,261977,1,0,0:0:0:0:
64,192,262045,1,0,0:0:0:50:kick.wav
320,192,262045,1,0,0:0:0:70:clap02.wav
192,192,262114,1,0,0:0:0:0:
64,192,262182,1,0,0:0:0:50:kick.wav
320,192,262182,1,0,0:0:0:70:clap02.wav
448,192,262182,1,0,0:0:0:0:
192,192,262250,1,0,0:0:0:0:
320,192,262318,128,0,262386:0:0:0:0:
64,192,262386,1,0,0:0:0:0:
320,192,262454,1,0,0:0:0:50:kick.wav
448,192,262454,1,0,0:0:0:70:clap02.wav
192,192,262523,1,0,0:0:0:0:
64,192,262591,1,0,0:0:0:50:kick.wav
320,192,262591,1,0,0:0:0:70:clap02.wav
448,192,262591,1,0,0:0:0:0:
192,192,262659,1,0,0:0:0:0:
64,192,262727,1,0,0:0:0:50:kick.wav
320,192,262727,1,0,0:0:0:70:clap02.wav
448,192,262795,1,0,0:0:0:0:
64,192,262864,1,0,0:0:0:50:kick.wav
192,192,262864,128,0,262932:0:0:0:70:clap02.wav
320,192,262932,1,0,0:0:0:50:kick.wav
448,192,262932,1,0,0:0:0:0:
64,192,263000,1,0,0:0:0:50:kick.wav
192,192,263000,1,0,0:0:0:0:
320,192,263068,1,0,0:0:0:50:kick.wav
448,192,263068,1,0,0:0:0:0:
64,192,263136,1,0,0:0:0:50:kick.wav
192,192,263136,1,0,0:0:0:70:clap02.wav
192,192,263273,1,0,0:0:0:70:clap02.wav
320,192,263273,1,0,0:0:0:0:
448,192,263273,1,0,0:0:0:0:
64,192,263409,128,0,263477:0:0:0:50:kick.wav
192,192,263409,1,0,0:0:0:0:
448,192,263409,1,0,0:0:0:0:
64,192,263545,1,0,0:0:0:50:kick.wav
320,192,263545,1,0,0:0:0:70:clap02.wav
448,192,263545,1,0,0:0:0:0:
64,192,263682,1,0,0:0:0:70:clap02.wav
192,192,263682,1,0,0:0:0:70:tom01.wav
320,192,263682,1,0,0:0:0:0:
320,192,263818,1,0,0:0:0:70:tom02.wav
448,192,263818,1,0,0:0:0:0:
64,192,263886,1,0,0:0:0:70:tom03.wav
192,192,263886,1,0,0:0:0:0:
64,192,263954,1,0,0:0:0:50:kick.wav
320,192,263954,1,0,0:0:0:0:
448,192,263954,1,0,0:0:0:0:
192,192,264023,1,0,0:0:0:0:
320,192,264091,1,0,0:0:0:0:
64,192,264159,1,0,0:0:0:0:
192,192,264227,1,0,0:0:0:50:kick.wav
320,192,264227,1,0,0:0:0:0:
448,192,264227,1,0,0:0:0:0:
64,192,264295,1,0,0:0:0:0:
448,192,264364,1,0,0:0:0:0:
320,192,264432,1,0,0:0:0:0:
64,192,264500,1,0,0:0:0:50:kick.wav
192,192,264500,1,0,0:0:0:50:cymbal.wav
448,192,264500,1,0,0:0:0:70:push_scratch.wav
320,192,264545,1,0,0:0:0:0:
192,192,264591,1,0,0:0:0:0:
64,192,264636,1,0,0:0:0:0:
448,192,264704,1,0,0:0:0:0:
192,192,264773,1,0,0:0:0:70:clap02.wav
320,192,264773,1,0,0:0:0:0:
64,192,264841,1,0,0:0:0:0:
448,192,264909,1,0,0:0:0:0:
192,192,264977,1,0,0:0:0:0:
64,192,265045,1,0,0:0:0:50:kick.wav
320,192,265045,1,0,0:0:0:0:
448,192,265045,1,0,0:0:0:0:
192,192,265114,1,0,0:0:0:0:
320,192,265182,1,0,0:0:0:0:
448,192,265250,1,0,0:0:0:0:
64,192,265318,1,0,0:0:0:0:
192,192,265318,1,0,0:0:0:0:
320,192,265386,1,0,0:0:0:0:
64,192,265454,1,0,0:0:0:70:clap02.wav
448,192,265454,1,0,0:0:0:0:
192,192,265523,1,0,0:0:0:0:
64,192,265591,1,0,0:0:0:50:kick.wav
320,192,265591,1,0,0:0:0:0:
448,192,265591,1,0,0:0:0:0:
192,192,265636,1,0,0:0:0:0:
320,192,265682,1,0,0:0:0:0:
448,192,265727,1,0,0:0:0:0:
64,192,265795,1,0,0:0:0:0:
192,192,265864,1,0,0:0:0:70:clap02.wav
320,192,265864,1,0,0:0:0:0:
448,192,265932,1,0,0:0:0:0:
64,192,266000,1,0,0:0:0:0:
192,192,266068,1,0,0:0:0:0:
64,192,266136,1,0,0:0:0:50:kick.wav
320,192,266136,1,0,0:0:0:0:
448,192,266136,1,0,0:0:0:0:
192,192,266204,1,0,0:0:0:0:
320,192,266273,1,0,0:0:0:0:
64,192,266341,1,0,0:0:0:0:
192,192,266409,1,0,0:0:0:0:
448,192,266409,1,0,0:0:0:0:
64,192,266477,1,0,0:0:0:0:
320,192,266545,1,0,0:0:0:70:clap02.wav
448,192,266545,1,0,0:0:0:0:
192,192,266614,1,0,0:0:0:0:
64,192,266682,1,0,0:0:0:50:kick.wav
320,192,266682,1,0,0:0:0:0:
448,192,266682,1,0,0:0:0:0:
192,192,266727,1,0,0:0:0:0:
320,192,266773,1,0,0:0:0:0:
448,192,266818,1,0,0:0:0:0:
64,192,266886,1,0,0:0:0:0:
192,192,266954,1,0,0:0:0:70:clap02.wav
320,192,266954,1,0,0:0:0:0:
448,192,267023,1,0,0:0:0:0:
64,192,267091,1,0,0:0:0:50:kick.wav
192,192,267091,1,0,0:0:0:0:
320,192,267159,1,0,0:0:0:50:kick.wav
448,192,267159,1,0,0:0:0:0:
64,192,267227,1,0,0:0:0:50:kick.wav
192,192,267227,1,0,0:0:0:70:clap02.wav
320,192,267227,1,0,0:0:0:0:
448,192,267295,1,0,0:0:0:0:
192,192,267364,1,0,0:0:0:0:
64,192,267432,1,0,0:0:0:0:
320,192,267500,1,0,0:0:0:70:tom01.wav
448,192,267500,1,0,0:0:0:0:
192,192,267568,1,0,0:0:0:0:
64,192,267636,1,0,0:0:0:50:kick.wav
320,192,267636,1,0,0:0:0:70:clap02.wav
448,192,267636,1,0,0:0:0:0:
192,192,267704,1,0,0:0:0:0:
64,192,267773,1,0,0:0:0:70:clap02.wav
448,192,267773,1,0,0:0:0:0:
320,192,267818,1,0,0:0:0:0:
192,192,267864,1,0,0:0:0:0:
64,192,267909,1,0,0:0:0:0:
448,192,267977,1,0,0:0:0:0:
64,192,268045,1,0,0:0:0:50:kick.wav
192,192,268045,1,0,0:0:0:70:clap02.wav
320,192,268114,1,0,0:0:0:70:clap02.wav
448,192,268114,1,0,0:0:0:0:
64,192,268182,1,0,0:0:0:70:clap02.wav
192,192,268182,1,0,0:0:0:0:
448,192,268250,1,0,0:0:0:0:
64,192,268318,1,0,0:0:0:50:kick.wav
192,192,268318,1,0,0:0:0:0:
320,192,268318,1,0,0:0:0:0:
64,192,268523,1,0,0:0:0:50:kick.wav
192,192,268523,1,0,0:0:0:0:
320,192,268523,1,0,0:0:0:0:
64,192,268727,1,0,0:0:0:50:kick.wav
192,192,268727,1,0,0:0:0:0:
320,192,268727,1,0,0:0:0:0:
64,192,268864,1,0,0:0:0:50:kick.wav
192,192,268864,1,0,0:0:0:0:
448,192,268864,1,0,0:0:0:0:
320,192,268909,1,0,0:0:0:0:
192,192,268954,1,0,0:0:0:0:
64,192,269000,1,0,0:0:0:0:
448,192,269068,1,0,0:0:0:0:
192,192,269136,1,0,0:0:0:70:clap02.wav
320,192,269136,1,0,0:0:0:0:
64,192,269204,1,0,0:0:0:0:
192,192,269273,1,0,0:0:0:0:
320,192,269341,1,0,0:0:0:0:
64,192,269409,1,0,0:0:0:50:kick.wav
192,192,269409,1,0,0:0:0:0:
448,192,269409,1,0,0:0:0:0:
320,192,269477,1,0,0:0:0:0:
192,192,269545,1,0,0:0:0:0:
448,192,269614,1,0,0:0:0:0:
64,192,269682,1,0,0:0:0:0:
320,192,269682,1,0,0:0:0:0:
192,192,269750,1,0,0:0:0:0:
64,192,269818,1,0,0:0:0:70:clap02.wav
448,192,269818,1,0,0:0:0:0:
320,192,269886,1,0,0:0:0:0:
64,192,269954,1,0,0:0:0:50:kick.wav
192,192,269954,1,0,0:0:0:0:
448,192,269954,1,0,0:0:0:0:
320,192,270000,1,0,0:0:0:0:
192,192,270045,1,0,0:0:0:0:
64,192,270091,1,0,0:0:0:0:
448,192,270159,1,0,0:0:0:0:
192,192,270227,1,0,0:0:0:70:clap02.wav
320,192,270227,1,0,0:0:0:70:tom01.wav
448,192,270295,1,0,0:0:0:0:
64,192,270364,1,0,0:0:0:0:
192,192,270432,1,0,0:0:0:0:
64,192,270500,1,0,0:0:0:50:kick.wav
320,192,270500,1,0,0:0:0:0:
448,192,270500,1,0,0:0:0:0:
192,192,270568,1,0,0:0:0:0:
320,192,270636,1,0,0:0:0:0:
448,192,270704,1,0,0:0:0:0:
64,192,270773,1,0,0:0:0:0:
192,192,270773,1,0,0:0:0:0:
320,192,270841,1,0,0:0:0:0:
64,192,270909,1,0,0:0:0:70:clap02.wav
448,192,270909,1,0,0:0:0:0:
192,192,270977,1,0,0:0:0:0:
64,192,271045,1,0,0:0:0:50:kick.wav
320,192,271045,1,0,0:0:0:0:
448,192,271045,1,0,0:0:0:0:
192,192,271091,1,0,0:0:0:0:
320,192,271136,1,0,0:0:0:0:
448,192,271182,1,0,0:0:0:0:
64,192,271250,1,0,0:0:0:0:
320,192,271318,1,0,0:0:0:50:kick.wav
448,192,271318,1,0,0:0:0:70:clap02.wav
64,192,271386,1,0,0:0:0:50:kick.wav
192,192,271386,1,0,0:0:0:0:
320,192,271454,1,0,0:0:0:50:kick.wav
448,192,271454,1,0,0:0:0:0:
192,192,271523,1,0,0:0:0:50:kick.wav
64,192,271591,1,0,0:0:0:50:kick.wav
320,192,271591,1,0,0:0:0:50:cymbal_s.wav
448,192,271591,1,0,0:0:0:0:
64,192,271795,1,0,0:0:0:50:kick.wav
320,192,271795,1,0,0:0:0:50:cymbal_s.wav
448,192,271795,1,0,0:0:0:0:
64,192,272000,1,0,0:0:0:50:kick.wav
320,192,272000,1,0,0:0:0:50:cymbal_s.wav
448,192,272000,1,0,0:0:0:0:
64,192,272204,1,0,0:0:0:50:kick.wav
320,192,272204,1,0,0:0:0:50:cymbal_s.wav
448,192,272204,1,0,0:0:0:0:
64,192,272409,1,0,0:0:0:50:kick.wav
192,192,272409,1,0,0:0:0:50:cymbal_s.wav
448,192,272409,1,0,0:0:0:0:
64,192,272545,1,0,0:0:0:50:kick.wav
192,192,272545,1,0,0:0:0:50:cymbal_s.wav
448,192,272545,1,0,0:0:0:0:
64,192,272682,1,0,0:0:0:50:kick.wav
192,192,272682,1,0,0:0:0:50:cymbal.wav
448,192,272682,1,0,0:0:0:70:LR_Drum Rpd x2.wav
320,192,272750,1,0,0:0:0:0:
192,192,272818,1,0,0:0:0:0:
64,192,272886,1,0,0:0:0:0:
192,192,272954,1,0,0:0:0:50:kick.wav
320,192,272954,1,0,0:0:0:70:LR_Drum Rpd x2.wav
448,192,272954,1,0,0:0:0:0:
64,192,273023,1,0,0:0:0:0:
320,192,273091,1,0,0:0:0:0:
448,192,273091,1,0,0:0:0:0:
192,192,273159,1,0,0:0:0:0:
64,192,273227,1,0,0:0:0:50:kick.wav
320,192,273227,1,0,0:0:0:70:LR_Drum Rpd x2.wav
448,192,273227,1,0,0:0:0:0:
192,192,273295,1,0,0:0:0:0:
64,192,273364,1,0,0:0:0:70:tom01.wav
448,192,273364,1,0,0:0:0:0:
320,192,273432,1,0,0:0:0:0:
64,192,273500,1,0,0:0:0:50:kick.wav
192,192,273500,1,0,0:0:0:70:LR_Drum Rpd x2.wav
448,192,273500,1,0,0:0:0:0:
320,192,273568,1,0,0:0:0:0:
64,192,273636,1,0,0:0:0:0:
192,192,273636,1,0,0:0:0:0:
448,192,273704,1,0,0:0:0:0:
64,192,273773,1,0,0:0:0:50:kick.wav
192,192,273773,1,0,0:0:0:70:LR_Drum Rpd x2.wav
320,192,273773,1,0,0:0:0:0:
448,192,273841,1,0,0:0:0:0:
320,192,273909,1,0,0:0:0:0:
192,192,273977,1,0,0:0:0:0:
64,192,274045,1,0,0:0:0:50:kick.wav
320,192,274045,1,0,0:0:0:70:LR_Drum Rpd x2.wav
448,192,274045,1,0,0:0:0:0:
192,192,274114,1,0,0:0:0:0:
64,192,274182,1,0,0:0:0:0:
448,192,274182,1,0,0:0:0:0:
320,192,274250,1,0,0:0:0:0:
64,192,274318,1,0,0:0:0:50:kick.wav
192,192,274318,1,0,0:0:0:70:LR_Drum Rpd x2.wav
448,192,274318,1,0,0:0:0:0:
320,192,274386,1,0,0:0:0:0:
192,192,274454,1,0,0:0:0:70:tom01.wav
448,192,274454,1,0,0:0:0:0:
64,192,274523,1,0,0:0:0:0:
192,192,274591,1,0,0:0:0:50:kick.wav
320,192,274591,1,0,0:0:0:70:LR_Drum Rpd x2.wav
448,192,274591,1,0,0:0:0:0:
64,192,274659,1,0,0:0:0:0:
192,192,274727,1,0,0:0:0:50:kick.wav
320,192,274727,1,0,0:0:0:0:
448,192,274727,1,0,0:0:0:0:
64,192,274795,1,0,0:0:0:0:
192,192,274864,1,0,0:0:0:50:kick.wav
320,192,274864,1,0,0:0:0:70:LR_Drum Rpd x2.wav
448,192,274864,1,0,0:0:0:0:
64,192,274932,1,0,0:0:0:0:
192,192,275000,1,0,0:0:0:0:
320,192,275068,1,0,0:0:0:0:
64,192,275136,1,0,0:0:0:50:kick.wav
192,192,275136,1,0,0:0:0:70:LR_Drum Rpd x2.wav
448,192,275136,1,0,0:0:0:0:
320,192,275204,1,0,0:0:0:0:
64,192,275273,1,0,0:0:0:70:tom01.wav
448,192,275273,1,0,0:0:0:0:
192,192,275341,1,0,0:0:0:0:
64,192,275409,1,0,0:0:0:50:kick.wav
320,192,275409,1,0,0:0:0:70:LR_Drum Rpd x2.wav
448,192,275409,1,0,0:0:0:0:
192,192,275477,1,0,0:0:0:0:
320,192,275545,1,0,0:0:0:0:
448,192,275614,1,0,0:0:0:0:
64,192,275682,1,0,0:0:0:50:kick.wav
192,192,275682,1,0,0:0:0:70:LR_Drum Rpd x2.wav
320,192,275682,1,0,0:0:0:0:
448,192,275750,1,0,0:0:0:0:
64,192,275818,1,0,0:0:0:0:
192,192,275818,1,0,0:0:0:0:
320,192,275886,1,0,0:0:0:0:
64,192,275954,1,0,0:0:0:50:kick.wav
192,192,275954,1,0,0:0:0:70:LR_Drum Rpd x2.wav
448,192,275954,1,0,0:0:0:0:
320,192,276023,1,0,0:0:0:0:
448,192,276091,1,0,0:0:0:0:
64,192,276159,1,0,0:0:0:0:
192,192,276227,1,0,0:0:0:50:kick.wav
320,192,276227,1,0,0:0:0:70:LR_Drum Rpd x2.wav
448,192,276227,1,0,0:0:0:0:
64,192,276295,1,0,0:0:0:0:
192,192,276364,1,0,0:0:0:0:
320,192,276364,1,0,0:0:0:0:
448,192,276432,1,0,0:0:0:0:
64,192,276500,1,0,0:0:0:50:kick.wav
192,192,276500,1,0,0:0:0:70:LR_Drum Rpd x2.wav
320,192,276500,1,0,0:0:0:0:
448,192,276568,1,0,0:0:0:0:
64,192,276636,1,0,0:0:0:0:
320,192,276704,1,0,0:0:0:50:kick.wav
448,192,276704,1,0,0:0:0:0:
64,192,276773,1,0,0:0:0:50:kick.wav
192,192,276773,1,0,0:0:0:70:LR_Drum Rpd x2.wav
448,192,276773,1,0,0:0:0:0:
64,192,276909,1,0,0:0:0:50:kick.wav
192,192,276909,1,0,0:0:0:0:
320,192,276909,1,0,0:0:0:0:
192,192,277045,1,0,0:0:0:50:kick.wav
320,192,277045,1,0,0:0:0:50:cymbal.wav
448,192,277045,1,0,0:0:0:70:LR_Drum Rpd x2.wav
64,192,277114,1,0,0:0:0:50:LR_Drum Kick Low.wav
320,192,277182,1,0,0:0:0:50:kick.wav
448,192,277182,1,0,0:0:0:70:LR_Drum Rpd x2.wav
192,192,277250,1,0,0:0:0:50:LR_Drum Kick Low.wav
64,192,277318,1,0,0:0:0:50:kick.wav
320,192,277318,1,0,0:0:0:70:LR_Drum Rpd x2.wav
448,192,277318,1,0,0:0:0:0:
192,192,277386,1,0,0:0:0:50:LR_Drum Kick Low.wav
64,192,277454,1,0,0:0:0:50:kick.wav
448,192,277454,1,0,0:0:0:70:LR_Drum Rpd x2.wav
320,192,277523,1,0,0:0:0:50:LR_Drum Kick Low.wav
64,192,277591,1,0,0:0:0:50:kick.wav
192,192,277591,1,0,0:0:0:70:LR_Drum Rpd x2.wav
448,192,277591,1,0,0:0:0:0:
320,192,277659,1,0,0:0:0:50:LR_Drum Kick Low.wav
64,192,277727,1,0,0:0:0:50:kick.wav
192,192,277727,1,0,0:0:0:70:LR_Drum Rpd x2.wav
448,192,277795,1,0,0:0:0:50:LR_Drum Kick Low.wav
64,192,277864,1,0,0:0:0:50:kick.wav
192,192,277864,1,0,0:0:0:70:LR_Drum Rpd x2.wav
320,192,277864,1,0,0:0:0:0:
448,192,277932,1,0,0:0:0:50:LR_Drum Kick Low.wav
192,192,278000,1,0,0:0:0:50:kick.wav
320,192,278000,1,0,0:0:0:70:LR_Drum Rpd x2.wav
64,192,278068,1,0,0:0:0:50:LR_Drum Kick Low.wav
192,192,278136,1,0,0:0:0:50:kick.wav
320,192,278136,1,0,0:0:0:70:LR_Drum Rpd x2.wav
448,192,278136,1,0,0:0:0:0:
64,192,278204,1,0,0:0:0:50:LR_Drum Kick Low.wav
320,192,278273,1,0,0:0:0:50:kick.wav
448,192,278273,1,0,0:0:0:70:LR_Drum Rpd x2.wav
192,192,278341,1,0,0:0:0:50:LR_Drum Kick Low.wav
64,192,278409,1,0,0:0:0:50:kick.wav
320,192,278409,1,0,0:0:0:70:LR_Drum Rpd x2.wav
448,192,278409,1,0,0:0:0:0:
192,192,278477,1,0,0:0:0:50:LR_Drum Kick Low.wav
64,192,278545,1,0,0:0:0:50:kick.wav
448,192,278545,1,0,0:0:0:70:LR_Drum Rpd x2.wav
320,192,278614,1,0,0:0:0:50:LR_Drum Kick Low.wav
64,192,278682,1,0,0:0:0:50:kick.wav
192,192,278682,1,0,0:0:0:70:LR_Drum Rpd x2.wav
448,192,278682,1,0,0:0:0:0:
320,192,278750,1,0,0:0:0:50:LR_Drum Kick Low.wav
64,192,278818,1,0,0:0:0:50:kick.wav
192,192,278818,1,0,0:0:0:70:LR_Drum Rpd x2.wav
448,192,278886,1,0,0:0:0:50:LR_Drum Kick Low.wav
64,192,278954,1,0,0:0:0:50:kick.wav
192,192,278954,1,0,0:0:0:70:LR_Drum Rpd x2.wav
320,192,278954,1,0,0:0:0:0:
448,192,279023,1,0,0:0:0:50:LR_Drum Kick Low.wav
192,192,279091,1,0,0:0:0:50:kick.wav
320,192,279091,1,0,0:0:0:70:LR_Drum Rpd x2.wav
448,192,279159,1,0,0:0:0:50:LR_Drum Kick Low.wav
64,192,279227,1,0,0:0:0:50:kick.wav
192,192,279227,1,0,0:0:0:0:
320,192,279281,1,0,0:0:0:0:
64,192,279336,1,0,0:0:0:0:
320,192,279390,1,0,0:0:0:0:
64,192,279445,1,0,0:0:0:0:
448,192,279499,1,0,0:0:0:0:
64,192,279554,1,0,0:0:0:0:
448,192,279608,1,0,0:0:0:0:
192,192,279664,1,0,0:0:0:0:
64,192,279717,1,0,0:0:0:0:
320,192,279773,1,0,0:0:0:0:
192,192,279827,1,0,0:0:0:0:
320,192,279882,1,0,0:0:0:0:
192,192,279936,1,0,0:0:0:0:
320,192,279991,1,0,0:0:0:0:
64,192,280045,1,0,0:0:0:0:
320,192,280100,1,0,0:0:0:0:
64,192,280154,1,0,0:0:0:0:
448,192,280209,1,0,0:0:0:0:
320,192,280263,1,0,0:0:0:0:
192,192,280318,1,0,0:0:0:0:
448,192,280372,1,0,0:0:0:0:
192,192,280427,1,0,0:0:0:0:
448,192,280481,1,0,0:0:0:0:
192,192,280536,1,0,0:0:0:0:
320,192,280590,1,0,0:0:0:0:
192,192,280645,1,0,0:0:0:0:
320,192,280699,1,0,0:0:0:0:
64,192,280754,1,0,0:0:0:0:
192,192,280808,1,0,0:0:0:0:
448,192,280864,1,0,0:0:0:70:tom01.wav
64,192,280917,1,0,0:0:0:70:tom01.wav
448,192,280973,1,0,0:0:0:70:tom02.wav
64,192,281027,1,0,0:0:0:70:tom02.wav
448,192,281082,1,0,0:0:0:70:tom03.wav
192,192,281136,1,0,0:0:0:70:tom03.wav
448,192,281191,1,0,0:0:0:70:tom03.wav
192,192,281245,1,0,0:0:0:70:tom04.wav
320,192,281300,1,0,0:0:0:70:tom04.wav
64,192,281354,1,0,0:0:0:70:tom04.wav
192,192,281409,128,0,285773:0:0:0:50:kick.wav
320,192,281409,128,0,285773:0:0:0:50:cymbal.wav
448,192,281409,128,0,285773:0:0:0:70:push_scratch.wav
