osu file format v14

[General]
AudioFilename: audio.ogg
AudioLeadIn: 0
PreviewTime: 4581
Countdown: 0
SampleSet: Soft
StackLeniency: 0.7
Mode: 3
LetterboxInBreaks: 0
EpilepsyWarning: 1
SpecialStyle: 0
WidescreenStoryboard: 1

[Editor]
Bookmarks: 4581,19126,33672,60945,61074,61204,61334,61594,61724,61854,62763,91854,120945,135490,150035,179126,209480,209636,209792,209947,210103,210259,210337,210571,210639,210707,210775,211662,246571,264571
DistanceSpacing: 0.8
BeatDivisor: 4
GridSize: 32
TimelineZoom: 0.1

[Metadata]
Title:Electromagnetic Stealth Girl Born In Philadelphia
TitleUnicode:Electromagnetic Stealth Girl Born In Philadelphia
Artist:Camellia
ArtistUnicode:かめりあ
Creator:lovely_hyahya
Version:Disappeared In The Void Of Nihilism. // AlexHya's Insane
Source:
Tags:alexdunk saltedfissh famoss marathon hybrid sv collab electronic instrumental hardcore techno かめるかめりあ kamelcamellia cametek 大箭将也 Masaya Oya u.u.f.o. uufo ctcd-021/022 featured artist dubstep fa
BeatmapID:3648807
BeatmapSetID:1608630

[Difficulty]
HPDrainRate:8
CircleSize:4
OverallDifficulty:7.8
ApproachRate:5
SliderMultiplier:1.4
SliderTickRate:1

[Events]
//Background and Video events
0,0,"BG.jpg",0,0
//Break Periods
//Storyboard Layer 0 (Background)
//Storyboard Layer 1 (Fail)
//Storyboard Layer 2 (Pass)
//Storyboard Layer 3 (Foreground)
//Storyboard Layer 4 (Overlay)
//Storyboard Sound Samples
Sample,98601,0,"Percussion Hey sound a#.wav",100
Sample,113146,0,"Percussion Hey sound a#.wav",100
Sample,113601,0,"push_scratch.wav",70
Sample,179055,0,"push_scratch.wav",70
Sample,200830,0,"LR_Drum Rpd x2.wav",70
Sample,241864,0,"clap02.wav",70
Sample,270227,0,"tom01.wav",70

[TimingPoints]
874,454.545454545455,4,2,1,60,1,0
60980,-113.8949121,4,2,1,60,0,0
61084,-130.4438923,4,2,1,60,0,0
61185,-150.1879317,4,2,1,60,0,0
61283,-173.7135634,4,2,1,60,0,0
61379,-201.5736649,4,2,1,60,0,0
61472,-234.1145284,4,2,1,60,0,0
61563,-271.1536082,4,2,1,60,0,0
61651,-311.4717291,4,2,1,60,0,0
61736,-352.2035848,4,2,1,60,0,0
61818,-388.4921479,4,2,1,60,0,0
61898,-414.0911603,4,2,1,60,0,0
61975,-423.3906907,4,2,1,60,0,0
62049,-414.0911603,4,2,1,60,0,0
62121,-388.4921479,4,2,1,60,0,0
62190,-352.2035848,4,2,1,60,0,0
62257,-311.4717291,4,2,1,60,0,0
62320,-271.1536082,4,2,1,60,0,0
62381,-234.1145284,4,2,1,60,0,0
62440,-201.5736649,4,2,1,60,0,0
62495,-173.7135634,4,2,1,60,0,0
62548,-150.1879317,4,2,1,60,0,0
62599,-130.4438923,4,2,1,60,0,0
62647,-113.8949121,4,2,1,60,0,0
62692,-100,4,2,1,60,0,0
91783,-100,4,2,1,60,0,1
99510,-100,4,2,1,60,0,0
106328,-100,4,2,1,60,0,1
114055,-100,4,2,1,60,0,0
179055,458.0152672,4,2,1,60,1,0
179055,-98.4848484852961,4,2,1,60,0,0
180887,461.5384616,4,2,1,60,1,0
180887,-96.296296296439,4,2,1,60,0,0
182733,472.4409448,4,2,1,60,1,0
182733,-95.4545454544587,4,2,1,60,0,0
186512,487.804878,4,2,1,60,1,0
186512,-94.6969696969697,4,2,1,60,0,0
190414,495.8677686,4,2,1,60,1,0
190414,-91.6666666665903,4,2,1,60,0,0
192397,512.8205128,4,2,1,60,1,0
192397,-90.1515151514332,4,2,1,60,0,0
194437,508.4745762,4,2,1,60,1,0
194437,-88.6363636359809,4,2,1,60,0,0
196470,521.7391304,4,2,1,60,1,0
196470,-87.1212121209481,4,2,1,60,0,0
198568,530.9734514,4,2,1,60,1,0
198572,-85.6060606060865,4,2,1,60,0,0
200695,542.9864254,4,2,1,60,1,0
200695,-84.0909090908518,4,2,1,60,0,0
202864,545.454545454546,4,2,1,60,1,0
202864,-83.3333333333333,4,2,1,60,0,0
209409,-83.33333002,4,2,1,60,0,0
209536,-94.15928131,4,2,1,60,0,0
209661,-106.8310295,4,2,1,60,0,0
209782,-121.6422897,4,2,1,60,0,0
209901,-138.8686847,4,2,1,60,0,0
210016,-158.6988245,4,2,1,60,0,0
210127,-181.1130369,4,2,1,60,0,0
210236,-205.6953851,4,2,1,60,0,0
210341,-231.3917316,4,2,1,60,0,0
210443,-256.2941266,4,2,1,60,0,0
210542,-277.6364386,4,2,1,60,0,0
210638,-292.2377025,4,2,1,60,0,0
210731,-297.4521777,4,2,1,60,0,0
210820,-292.2377025,4,2,1,60,0,0
210906,-277.6364386,4,2,1,60,0,0
210989,-256.2941266,4,2,1,60,0,0
211069,-231.3917316,4,2,1,60,0,0
211145,-205.6953851,4,2,1,60,0,0
211218,-181.1130369,4,2,1,60,0,0
211288,-158.6988245,4,2,1,60,0,0
211355,-138.8686847,4,2,1,60,0,0
211419,-121.6422897,4,2,1,60,0,0
211479,-106.8310295,4,2,1,60,0,0
211537,-94.15928131,4,2,1,60,0,0
211591,-83.3333333333333,4,2,1,60,0,1
226864,-83.3333333333333,4,2,1,60,0,0
229045,-83.3333333333333,4,2,1,60,0,1
244318,-83.3333333333333,4,2,1,60,0,0
246500,-83.3333333333333,4,2,1,60,0,1
279227,-83.3333333333333,4,2,1,60,0,0

[HitObjects]
192,192,4510,1,0,0:0:0:50:LR_Drum Kick Low.wav
448,192,4510,1,0,0:0:0:0:
64,192,4586,1,0,0:0:0:0:
320,192,4661,1,0,0:0:0:0:
192,192,4737,1,0,0:0:0:0:
448,192,4813,1,0,0:0:0:0:
192,192,4889,1,0,0:0:0:0:
448,192,4964,1,0,0:0:0:0:
320,192,5040,1,0,0:0:0:0:
64,192,5116,1,0,0:0:0:0:
448,192,5192,1,0,0:0:0:0:
64,192,5267,1,0,0:0:0:0:
448,192,5343,1,0,0:0:0:0:
192,192,5419,1,0,0:0:0:0:
64,192,5495,1,0,0:0:0:0:
320,192,5570,1,0,0:0:0:0:
192,192,5646,1,0,0:0:0:0:
320,192,5722,1,0,0:0:0:0:
192,192,5798,1,0,0:0:0:0:
448,192,5874,1,0,0:0:0:0:
320,192,5949,1,0,0:0:0:0:
64,192,6025,1,0,0:0:0:0:
448,192,6101,1,0,0:0:0:0:
64,192,6177,1,0,0:0:0:0:
448,192,6252,1,0,0:0:0:0:
192,192,6328,1,0,0:0:0:0:
64,192,6404,1,0,0:0:0:0:
320,192,6480,1,0,0:0:0:0:
192,192,6555,1,0,0:0:0:0:
448,192,6631,1,0,0:0:0:0:
320,192,6707,1,0,0:0:0:0:
64,192,6783,1,0,0:0:0:0:
448,192,6858,1,0,0:0:0:0:
192,192,6934,1,0,0:0:0:0:
320,192,7010,1,0,0:0:0:0:
64,192,7086,1,0,0:0:0:0:
192,192,7161,1,0,0:0:0:0:
448,192,7237,1,0,0:0:0:0:
64,192,7313,1,0,0:0:0:0:
320,192,7389,1,0,0:0:0:0:
192,192,7464,1,0,0:0:0:0:
448,192,7540,1,0,0:0:0:0:
320,192,7616,1,0,0:0:0:0:
64,192,7692,1,0,0:0:0:0:
448,192,7767,1,0,0:0:0:0:
192,192,7843,1,0,0:0:0:0:
320,192,7919,1,0,0:0:0:0:
64,192,7995,1,0,0:0:0:0:
192,192,8070,1,0,0:0:0:0:
64,192,8146,1,0,0:0:0:50:LR_Drum Kick Low.wav
448,192,8146,1,0,0:0:0:0:
320,192,8222,1,0,0:0:0:0:
192,192,8298,1,0,0:0:0:0:
320,192,8374,1,0,0:0:0:0:
192,192,8449,1,0,0:0:0:0:
64,192,8525,1,0,0:0:0:0:
448,192,8601,1,0,0:0:0:0:
320,192,8677,1,0,0:0:0:0:
192,192,8752,1,0,0:0:0:0:
320,192,8828,1,0,0:0:0:0:
64,192,8904,1,0,0:0:0:0:
192,192,8980,1,0,0:0:0:0:
64,192,9055,1,0,0:0:0:0:
320,192,9131,1,0,0:0:0:0:
192,192,9207,1,0,0:0:0:0:
320,192,9283,1,0,0:0:0:0:
64,192,9358,1,0,0:0:0:0:
448,192,9434,1,0,0:0:0:0:
192,192,9510,1,0,0:0:0:0:
320,192,9586,1,0,0:0:0:0:
192,192,9661,1,0,0:0:0:0:
448,192,9737,1,0,0:0:0:0:
320,192,9813,1,0,0:0:0:0:
64,192,9889,1,0,0:0:0:0:
448,192,9964,1,0,0:0:0:0:
192,192,10040,1,0,0:0:0:0:
448,192,10116,1,0,0:0:0:0:
64,192,10192,1,0,0:0:0:0:
320,192,10267,1,0,0:0:0:0:
192,192,10343,1,0,0:0:0:0:
64,192,10419,1,0,0:0:0:0:
320,192,10495,1,0,0:0:0:0:
448,192,10570,1,0,0:0:0:0:
192,192,10646,1,0,0:0:0:0:
320,192,10722,1,0,0:0:0:0:
64,192,10798,1,0,0:0:0:0:
192,192,10874,1,0,0:0:0:0:
320,192,10949,1,0,0:0:0:0:
64,192,11025,1,0,0:0:0:0:
448,192,11101,1,0,0:0:0:0:
320,192,11177,1,0,0:0:0:0:
448,192,11252,1,0,0:0:0:0:
192,192,11328,1,0,0:0:0:0:
320,192,11404,1,0,0:0:0:0:
64,192,11480,1,0,0:0:0:0:
192,192,11555,1,0,0:0:0:0:
320,192,11631,1,0,0:0:0:0:
448,192,11707,1,0,0:0:0:0:
64,192,11783,1,0,0:0:0:50:LR_Drum Kick Low.wav
192,192,11783,1,0,0:0:0:0:
320,192,11858,1,0,0:0:0:0:
64,192,11934,1,0,0:0:0:0:
448,192,12010,1,0,0:0:0:0:
192,192,12086,1,0,0:0:0:0:
64,192,12161,1,0,0:0:0:0:
320,192,12237,1,0,0:0:0:0:
192,192,12313,1,0,0:0:0:0:
448,192,12389,1,0,0:0:0:0:
320,192,12464,1,0,0:0:0:0:
192,192,12540,1,0,0:0:0:0:
448,192,12616,1,0,0:0:0:0:
64,192,12692,1,0,0:0:0:0:
320,192,12767,1,0,0:0:0:0:
64,192,12843,1,0,0:0:0:0:
448,192,12919,1,0,0:0:0:0:
192,192,12995,1,0,0:0:0:0:
448,192,13070,1,0,0:0:0:0:
64,192,13146,1,0,0:0:0:0:
320,192,13222,1,0,0:0:0:0:
64,192,13298,1,0,0:0:0:0:
448,192,13374,1,0,0:0:0:0:
192,192,13449,1,0,0:0:0:0:
448,192,13525,1,0,0:0:0:0:
64,192,13601,1,0,0:0:0:0:
320,192,13677,1,0,0:0:0:0:
192,192,13752,1,0,0:0:0:0:
64,192,13828,1,0,0:0:0:0:
320,192,13904,1,0,0:0:0:0:
192,192,13980,1,0,0:0:0:0:
448,192,14055,1,0,0:0:0:0:
320,192,14131,1,0,0:0:0:0:
64,192,14207,1,0,0:0:0:0:
448,192,14283,1,0,0:0:0:0:
192,192,14358,1,0,0:0:0:0:
64,192,14434,1,0,0:0:0:0:
320,192,14510,1,0,0:0:0:0:
192,192,14586,1,0,0:0:0:0:
64,192,14661,1,0,0:0:0:0:
448,192,14737,1,0,0:0:0:0:
192,192,14813,1,0,0:0:0:0:
320,192,14889,1,0,0:0:0:0:
64,192,14964,1,0,0:0:0:0:
448,192,15040,1,0,0:0:0:0:
192,192,15116,1,0,0:0:0:0:
448,192,15192,1,0,0:0:0:0:
320,192,15267,1,0,0:0:0:0:
192,192,15343,1,0,0:0:0:0:
64,192,15419,1,0,0:0:0:50:LR_Drum Kick Low.wav
448,192,15419,1,0,0:0:0:0:
192,192,15495,1,0,0:0:0:0:
320,192,15570,1,0,0:0:0:0:
64,192,15646,1,0,0:0:0:0:
192,192,15722,1,0,0:0:0:0:
448,192,15798,1,0,0:0:0:0:
320,192,15874,1,0,0:0:0:0:
64,192,15949,1,0,0:0:0:0:
448,192,16025,1,0,0:0:0:0:
192,192,16101,1,0,0:0:0:0:
320,192,16177,1,0,0:0:0:0:
448,192,16252,1,0,0:0:0:0:
64,192,16328,1,0,0:0:0:0:
320,192,16404,1,0,0:0:0:0:
192,192,16480,1,0,0:0:0:0:
448,192,16555,1,0,0:0:0:0:
64,192,16631,1,0,0:0:0:0:
448,192,16707,1,0,0:0:0:0:
320,192,16783,1,0,0:0:0:0:
192,192,16858,1,0,0:0:0:0:
64,192,16934,1,0,0:0:0:0:
320,192,17010,1,0,0:0:0:0:
192,192,17086,1,0,0:0:0:0:
448,192,17161,1,0,0:0:0:0:
64,192,17237,1,0,0:0:0:50:LR_Drum Kick Low.wav
320,192,17237,1,0,0:0:0:0:
192,192,17313,1,0,0:0:0:0:
320,192,17389,1,0,0:0:0:0:
64,192,17464,1,0,0:0:0:0:
192,192,17540,1,0,0:0:0:0:
448,192,17616,1,0,0:0:0:0:
64,192,17692,1,0,0:0:0:0:
320,192,17767,1,0,0:0:0:0:
192,192,17843,1,0,0:0:0:0:
448,192,17919,1,0,0:0:0:0:
320,192,17995,1,0,0:0:0:0:
64,192,18070,1,0,0:0:0:0:
448,192,18146,1,0,0:0:0:0:
192,192,18222,1,0,0:0:0:0:
320,192,18298,1,0,0:0:0:0:
64,192,18374,1,0,0:0:0:0:
192,192,18449,1,0,0:0:0:0:
448,192,18525,1,0,0:0:0:0:
64,192,18601,1,0,0:0:0:0:
320,192,18677,1,0,0:0:0:0:
192,192,18752,1,0,0:0:0:0:
64,192,18828,1,0,0:0:0:0:
448,192,18904,1,0,0:0:0:0:
320,192,18980,1,0,0:0:0:0:
192,192,19055,1,0,0:0:0:50:LR_Drum Kick Low.wav
448,192,19055,1,0,0:0:0:0:
64,192,19131,1,0,0:0:0:0:
320,192,19207,1,0,0:0:0:0:
192,192,19283,1,0,0:0:0:0:
448,192,19358,1,0,0:0:0:0:
192,192,19434,1,0,0:0:0:0:
448,192,19510,1,0,0:0:0:0:
320,192,19586,1,0,0:0:0:0:
64,192,19661,1,0,0:0:0:0:
448,192,19737,1,0,0:0:0:0:
64,192,19813,1,0,0:0:0:0:
448,192,19889,1,0,0:0:0:0:
192,192,19964,1,0,0:0:0:0:
64,192,20040,1,0,0:0:0:0:
320,192,20116,1,0,0:0:0:0:
192,192,20192,1,0,0:0:0:0:
320,192,20267,1,0,0:0:0:0:
192,192,20343,1,0,0:0:0:0:
448,192,20419,1,0,0:0:0:0:
320,192,20495,1,0,0:0:0:0:
64,192,20570,1,0,0:0:0:0:
448,192,20646,1,0,0:0:0:0:
64,192,20722,1,0,0:0:0:0:
448,192,20798,1,0,0:0:0:0:
192,192,20874,1,0,0:0:0:0:
64,192,20949,1,0,0:0:0:0:
320,192,21025,1,0,0:0:0:0:
192,192,21101,1,0,0:0:0:0:
448,192,21177,1,0,0:0:0:0:
320,192,21252,1,0,0:0:0:0:
64,192,21328,1,0,0:0:0:0:
448,192,21404,1,0,0:0:0:0:
192,192,21480,1,0,0:0:0:0:
320,192,21555,1,0,0:0:0:0:
64,192,21631,1,0,0:0:0:0:
192,192,21707,1,0,0:0:0:0:
448,192,21783,1,0,0:0:0:0:
64,192,21858,1,0,0:0:0:0:
320,192,21934,1,0,0:0:0:0:
192,192,22010,1,0,0:0:0:0:
448,192,22086,1,0,0:0:0:0:
320,192,22161,1,0,0:0:0:0:
64,192,22237,1,0,0:0:0:0:
448,192,22313,1,0,0:0:0:0:
192,192,22389,1,0,0:0:0:0:
320,192,22464,1,0,0:0:0:0:
64,192,22540,1,0,0:0:0:0:
192,192,22616,1,0,0:0:0:0:
64,192,22692,1,0,0:0:0:50:LR_Drum Kick Low.wav
448,192,22692,1,0,0:0:0:0:
320,192,22767,1,0,0:0:0:0:
192,192,22843,1,0,0:0:0:0:
320,192,22919,1,0,0:0:0:0:
192,192,22995,1,0,0:0:0:0:
64,192,23070,1,0,0:0:0:0:
448,192,23146,1,0,0:0:0:0:
320,192,23222,1,0,0:0:0:0:
192,192,23298,1,0,0:0:0:0:
320,192,23374,1,0,0:0:0:0:
64,192,23449,1,0,0:0:0:0:
192,192,23525,1,0,0:0:0:0:
64,192,23601,1,0,0:0:0:0:
320,192,23677,1,0,0:0:0:0:
192,192,23752,1,0,0:0:0:0:
320,192,23828,1,0,0:0:0:0:
64,192,23904,1,0,0:0:0:0:
448,192,23980,1,0,0:0:0:0:
192,192,24055,1,0,0:0:0:0:
320,192,24131,1,0,0:0:0:0:
192,192,24207,1,0,0:0:0:0:
448,192,24283,1,0,0:0:0:0:
320,192,24358,1,0,0:0:0:0:
64,192,24434,1,0,0:0:0:0:
448,192,24510,1,0,0:0:0:0:
192,192,24586,1,0,0:0:0:0:
448,192,24661,1,0,0:0:0:0:
64,192,24737,1,0,0:0:0:0:
320,192,24813,1,0,0:0:0:0:
192,192,24889,1,0,0:0:0:0:
64,192,24964,1,0,0:0:0:0:
320,192,25040,1,0,0:0:0:0:
448,192,25116,1,0,0:0:0:0:
192,192,25192,1,0,0:0:0:0:
320,192,25267,1,0,0:0:0:0:
64,192,25343,1,0,0:0:0:0:
192,192,25419,1,0,0:0:0:0:
320,192,25495,1,0,0:0:0:0:
64,192,25570,1,0,0:0:0:0:
448,192,25646,1,0,0:0:0:0:
320,192,25722,1,0,0:0:0:0:
448,192,25798,1,0,0:0:0:0:
192,192,25874,1,0,0:0:0:0:
320,192,25949,1,0,0:0:0:0:
64,192,26025,1,0,0:0:0:0:
192,192,26101,1,0,0:0:0:0:
320,192,26177,1,0,0:0:0:0:
448,192,26252,1,0,0:0:0:0:
64,192,26328,1,0,0:0:0:50:LR_Drum Kick Low.wav
192,192,26328,1,0,0:0:0:0:
320,192,26404,1,0,0:0:0:0:
64,192,26480,1,0,0:0:0:0:
448,192,26555,1,0,0:0:0:0:
192,192,26631,1,0,0:0:0:0:
64,192,26707,1,0,0:0:0:0:
320,192,26783,1,0,0:0:0:0:
192,192,26858,1,0,0:0:0:0:
448,192,26934,1,0,0:0:0:0:
320,192,27010,1,0,0:0:0:0:
192,192,27086,1,0,0:0:0:0:
448,192,27161,1,0,0:0:0:0:
64,192,27237,1,0,0:0:0:0:
320,192,27313,1,0,0:0:0:0:
64,192,27389,1,0,0:0:0:0:
448,192,27464,1,0,0:0:0:0:
192,192,27540,1,0,0:0:0:0:
448,192,27616,1,0,0:0:0:0:
64,192,27692,1,0,0:0:0:0:
320,192,27767,1,0,0:0:0:0:
64,192,27843,1,0,0:0:0:0:
448,192,27919,1,0,0:0:0:0:
192,192,27995,1,0,0:0:0:0:
448,192,28070,1,0,0:0:0:0:
64,192,28146,1,0,0:0:0:0:
320,192,28222,1,0,0:0:0:0:
192,192,28298,1,0,0:0:0:0:
64,192,28374,1,0,0:0:0:0:
320,192,28449,1,0,0:0:0:0:
192,192,28525,1,0,0:0:0:0:
448,192,28601,1,0,0:0:0:0:
320,192,28677,1,0,0:0:0:0:
64,192,28752,1,0,0:0:0:0:
448,192,28828,1,0,0:0:0:0:
192,192,28904,1,0,0:0:0:0:
64,192,28980,1,0,0:0:0:0:
320,192,29055,1,0,0:0:0:0:
192,192,29131,1,0,0:0:0:0:
64,192,29207,1,0,0:0:0:0:
448,192,29283,1,0,0:0:0:0:
192,192,29358,1,0,0:0:0:0:
320,192,29434,1,0,0:0:0:0:
64,192,29510,1,0,0:0:0:0:
448,192,29586,1,0,0:0:0:0:
192,192,29661,1,0,0:0:0:0:
448,192,29737,1,0,0:0:0:0:
320,192,29813,1,0,0:0:0:0:
192,192,29889,1,0,0:0:0:0:
64,192,29964,1,0,0:0:0:50:LR_Drum Kick Low.wav
448,192,29964,1,0,0:0:0:0:
192,192,30040,1,0,0:0:0:0:
320,192,30116,1,0,0:0:0:0:
64,192,30192,1,0,0:0:0:0:
192,192,30267,1,0,0:0:0:0:
448,192,30343,1,0,0:0:0:0:
320,192,30419,1,0,0:0:0:0:
64,192,30495,1,0,0:0:0:0:
448,192,30570,1,0,0:0:0:0:
192,192,30646,1,0,0:0:0:0:
320,192,30722,1,0,0:0:0:0:
448,192,30798,1,0,0:0:0:0:
64,192,30874,1,0,0:0:0:0:
320,192,30949,1,0,0:0:0:0:
192,192,31025,1,0,0:0:0:0:
448,192,31101,1,0,0:0:0:0:
64,192,31177,1,0,0:0:0:0:
320,192,31252,1,0,0:0:0:0:
448,192,31328,1,0,0:0:0:0:
192,192,31404,1,0,0:0:0:0:
320,192,31480,1,0,0:0:0:0:
64,192,31555,1,0,0:0:0:0:
448,192,31631,1,0,0:0:0:0:
320,192,31707,1,0,0:0:0:0:
64,192,31783,1,0,0:0:0:50:LR_Drum Kick Low.wav
192,192,31783,1,0,0:0:0:0:
448,192,31839,1,0,0:0:0:0:
320,192,31896,1,0,0:0:0:0:
64,192,31953,1,0,0:0:0:0:
448,192,32010,1,0,0:0:0:0:
320,192,32067,1,0,0:0:0:0:
64,192,32124,1,0,0:0:0:0:
192,192,32180,1,0,0:0:0:0:
320,192,32237,1,0,0:0:0:0:
448,192,32294,1,0,0:0:0:0:
64,192,32351,1,0,0:0:0:0:
192,192,32408,1,0,0:0:0:0:
320,192,32464,1,0,0:0:0:0:
64,192,32521,1,0,0:0:0:0:
192,192,32578,1,0,0:0:0:0:
448,192,32635,1,0,0:0:0:0:
320,192,32692,1,0,0:0:0:0:
64,192,32749,1,0,0:0:0:0:
448,192,32805,1,0,0:0:0:0:
320,192,32862,1,0,0:0:0:0:
64,192,32919,1,0,0:0:0:0:
448,192,32976,1,0,0:0:0:0:
320,192,33033,1,0,0:0:0:0:
64,192,33089,1,0,0:0:0:0:
192,192,33146,1,0,0:0:0:0:
320,192,33203,1,0,0:0:0:0:
448,192,33260,1,0,0:0:0:0:
192,192,33317,1,0,0:0:0:0:
320,192,33374,1,0,0:0:0:0:
448,192,33430,1,0,0:0:0:0:
192,192,33487,1,0,0:0:0:0:
320,192,33544,1,0,0:0:0:0:
64,192,33601,128,0,33714:0:0:0:50:kick.wav
192,192,33601,1,0,0:0:0:50:cymbal.wav
448,192,33601,1,0,0:0:0:70:push_scratch.wav
192,192,33942,1,0,0:0:0:50:LR_Drum Rpd x2.wav
320,192,34055,128,0,34169:0:0:0:50:kick.wav
448,192,34055,1,0,0:0:0:0:
192,192,34283,1,0,0:0:0:50:LR_Drum Rpd x2.wav
64,192,34510,128,0,34624:0:0:0:50:kick.wav
320,192,34510,1,0,0:0:0:0:
192,192,34851,1,0,0:0:0:50:LR_Drum Rpd x2.wav
320,192,34964,128,0,35078:0:0:0:50:kick.wav
448,192,34964,1,0,0:0:0:0:
64,192,35078,1,0,0:0:0:0:
192,192,35192,1,0,0:0:0:50:LR_Drum Rpd x2.wav
448,192,35305,1,0,0:0:0:0:
64,192,35419,128,0,35533:0:0:0:50:kick.wav
320,192,35419,1,0,0:0:0:0:
192,192,35760,1,0,0:0:0:50:LR_Drum Rpd x2.wav
320,192,35874,128,0,35987:0:0:0:50:kick.wav
448,192,35874,1,0,0:0:0:0:
192,192,36101,1,0,0:0:0:50:LR_Drum Rpd x2.wav
64,192,36328,128,0,36442:0:0:0:50:kick.wav
320,192,36328,1,0,0:0:0:0:
192,192,36669,1,0,0:0:0:50:LR_Drum Rpd x2.wav
320,192,36783,128,0,36896:0:0:0:50:kick.wav
448,192,36783,1,0,0:0:0:0:
64,192,36896,1,0,0:0:0:0:
448,192,37010,1,0,0:0:0:50:LR_Drum Rpd x2.wav
192,192,37124,1,0,0:0:0:0:
64,192,37237,128,0,37351:0:0:0:50:kick.wav
320,192,37237,1,0,0:0:0:0:
192,192,37578,1,0,0:0:0:50:LR_Drum Rpd x2.wav
320,192,37692,128,0,37805:0:0:0:50:kick.wav
448,192,37692,1,0,0:0:0:0:
64,192,37805,1,0,0:0:0:0:
192,192,37919,1,0,0:0:0:50:LR_Drum Rpd x2.wav
64,192,38146,128,0,38260:0:0:0:50:kick.wav
320,192,38146,1,0,0:0:0:0:
448,192,38260,1,0,0:0:0:0:
192,192,38487,1,0,0:0:0:50:LR_Drum Rpd x2.wav
320,192,38601,128,0,38714:0:0:0:50:kick.wav
448,192,38601,1,0,0:0:0:0:
64,192,38714,1,0,0:0:0:0:
192,192,38828,1,0,0:0:0:50:LR_Drum Rpd x2.wav
448,192,38828,1,0,0:0:0:0:
320,192,38942,1,0,0:0:0:0:
64,192,39055,1,0,0:0:0:50:kick.wav
192,192,39055,1,0,0:0:0:0:
448,192,39169,1,0,0:0:0:0:
320,192,39283,1,0,0:0:0:0:
64,192,39396,1,0,0:0:0:50:LR_Drum Rpd x2.wav
192,192,39510,1,0,0:0:0:50:kick.wav
320,192,39510,1,0,0:0:0:0:
64,192,39624,1,0,0:0:0:0:
320,192,39737,1,0,0:0:0:50:LR_Drum Rpd x2.wav
448,192,39737,1,0,0:0:0:0:
192,192,39851,1,0,0:0:0:0:
64,192,39964,1,0,0:0:0:50:kick.wav
448,192,39964,1,0,0:0:0:0:
320,192,40078,1,0,0:0:0:0:
448,192,40192,1,0,0:0:0:0:
192,192,40305,1,0,0:0:0:50:LR_Drum Rpd x2.wav
64,192,40419,1,0,0:0:0:50:kick.wav
320,192,40419,1,0,0:0:0:0:
448,192,40533,1,0,0:0:0:0:
192,192,40646,1,0,0:0:0:50:LR_Drum Rpd x2.wav
64,192,40760,1,0,0:0:0:0:
320,192,40874,1,0,0:0:0:50:kick.wav
448,192,40874,128,0,40987:0:0:0:0:
64,192,41214,1,0,0:0:0:60:LR_Drum Rpd x2.wav
192,192,41328,128,0,41442:0:0:0:50:kick.wav
448,192,41328,1,0,0:0:0:0:
320,192,41442,1,0,0:0:0:0:
192,192,41555,1,0,0:0:0:60:LR_Drum Rpd x2.wav
320,192,41669,1,0,0:0:0:0:
64,192,41783,1,0,0:0:0:50:kick.wav
192,192,41783,128,0,41896:0:0:0:0:
448,192,41896,1,0,0:0:0:0:
320,192,42124,1,0,0:0:0:60:LR_Drum Rpd x2.wav
64,192,42237,1,0,0:0:0:50:kick.wav
448,192,42237,128,0,42351:0:0:0:0:
192,192,42351,1,0,0:0:0:0:
320,192,42464,1,0,0:0:0:60:LR_Drum Rpd x2.wav
64,192,42578,1,0,0:0:0:0:
192,192,42692,128,0,42805:0:0:0:50:kick.wav
320,192,42692,1,0,0:0:0:0:
448,192,42805,1,0,0:0:0:0:
64,192,43033,1,0,0:0:0:60:LR_Drum Rpd x2.wav
320,192,43146,1,0,0:0:0:50:kick.wav
448,192,43146,128,0,43260:0:0:0:0:
192,192,43260,1,0,0:0:0:0:
64,192,43374,1,0,0:0:0:60:LR_Drum Rpd x2.wav
448,192,43374,1,0,0:0:0:0:
320,192,43487,1,0,0:0:0:0:
64,192,43601,1,0,0:0:0:50:kick.wav
192,192,43601,128,0,43714:0:0:0:0:
448,192,43714,1,0,0:0:0:0:
192,192,43942,1,0,0:0:0:60:LR_Drum Rpd x2.wav
320,192,43942,1,0,0:0:0:0:
64,192,44055,1,0,0:0:0:50:kick.wav
448,192,44055,128,0,44169:0:0:0:0:
192,192,44169,1,0,0:0:0:0:
64,192,44283,1,0,0:0:0:60:LR_Drum Rpd x2.wav
448,192,44283,1,0,0:0:0:0:
320,192,44396,1,0,0:0:0:0:
64,192,44510,1,0,0:0:0:50:kick.wav
192,192,44510,128,0,44624:0:0:0:0:
448,192,44624,1,0,0:0:0:0:
64,192,44851,1,0,0:0:0:60:LR_Drum Rpd x2.wav
192,192,44851,1,0,0:0:0:0:
320,192,44964,1,0,0:0:0:50:kick.wav
448,192,44964,128,0,45078:0:0:0:0:
64,192,45078,1,0,0:0:0:0:
192,192,45192,1,0,0:0:0:60:LR_Drum Rpd x2.wav
320,192,45192,1,0,0:0:0:0:
448,192,45305,1,0,0:0:0:0:
64,192,45419,1,0,0:0:0:50:kick.wav
192,192,45419,128,0,45533:0:0:0:0:
320,192,45533,1,0,0:0:0:0:
64,192,45760,1,0,0:0:0:60:LR_Drum Rpd x2.wav
192,192,45760,1,0,0:0:0:0:
320,192,45874,1,0,0:0:0:50:kick.wav
448,192,45874,128,0,45987:0:0:0:0:
192,192,45987,1,0,0:0:0:0:
64,192,46101,1,0,0:0:0:60:LR_Drum Rpd x2.wav
320,192,46101,1,0,0:0:0:0:
448,192,46214,1,0,0:0:0:0:
64,192,46328,1,0,0:0:0:50:kick.wav
192,192,46328,1,0,0:0:0:0:
320,192,46442,1,0,0:0:0:0:
448,192,46555,1,0,0:0:0:0:
64,192,46669,1,0,0:0:0:60:LR_Drum Rpd x2.wav
192,192,46669,1,0,0:0:0:0:
320,192,46783,1,0,0:0:0:50:kick.wav
448,192,46783,1,0,0:0:0:0:
192,192,46896,1,0,0:0:0:0:
64,192,47010,1,0,0:0:0:60:LR_Drum Rpd x2.wav
448,192,47010,1,0,0:0:0:0:
320,192,47124,1,0,0:0:0:0:
64,192,47237,1,0,0:0:0:0:
192,192,47351,1,0,0:0:0:0:
320,192,47464,1,0,0:0:0:0:
448,192,47692,1,0,0:0:0:0:
192,192,47805,1,0,0:0:0:0:
320,192,47919,1,0,0:0:0:0:
64,192,48033,1,0,0:0:0:0:
192,192,48146,1,0,0:0:0:50:kick.wav
320,192,48146,1,0,0:0:0:50:cymbal.wav
448,192,48146,1,0,0:0:0:0:
64,192,48260,1,0,0:0:0:0:
192,192,48374,1,0,0:0:0:0:
320,192,48487,1,0,0:0:0:70:LR_Drum Rpd x2.wav
448,192,48487,1,0,0:0:0:0:
64,192,48601,1,0,0:0:0:50:kick.wav
448,192,48601,1,0,0:0:0:0:
320,192,48714,1,0,0:0:0:0:
64,192,48828,1,0,0:0:0:70:LR_Drum Rpd x2.wav
192,192,48828,1,0,0:0:0:0:
64,192,48942,1,0,0:0:0:0:
320,192,49055,1,0,0:0:0:50:kick.wav
448,192,49055,1,0,0:0:0:0:
192,192,49169,1,0,0:0:0:0:
448,192,49283,1,0,0:0:0:0:
192,192,49396,1,0,0:0:0:70:LR_Drum Rpd x2.wav
320,192,49396,1,0,0:0:0:0:
64,192,49510,1,0,0:0:0:50:kick.wav
448,192,49510,1,0,0:0:0:0:
320,192,49624,1,0,0:0:0:0:
64,192,49737,1,0,0:0:0:70:LR_Drum Rpd x2.wav
192,192,49737,1,0,0:0:0:0:
448,192,49851,1,0,0:0:0:0:
64,192,49964,1,0,0:0:0:50:kick.wav
192,192,49964,1,0,0:0:0:0:
64,192,50078,1,0,0:0:0:0:
192,192,50192,1,0,0:0:0:0:
320,192,50305,1,0,0:0:0:70:LR_Drum Rpd x2.wav
448,192,50305,1,0,0:0:0:0:
64,192,50419,1,0,0:0:0:50:kick.wav
448,192,50419,1,0,0:0:0:0:
192,192,50533,1,0,0:0:0:0:
320,192,50646,1,0,0:0:0:70:LR_Drum Rpd x2.wav
448,192,50646,1,0,0:0:0:0:
192,192,50760,1,0,0:0:0:0:
64,192,50874,1,0,0:0:0:50:kick.wav
448,192,50874,1,0,0:0:0:0:
320,192,50987,1,0,0:0:0:0:
64,192,51101,1,0,0:0:0:0:
192,192,51214,1,0,0:0:0:70:LR_Drum Rpd x2.wav
320,192,51214,1,0,0:0:0:0:
64,192,51328,1,0,0:0:0:50:kick.wav
448,192,51328,1,0,0:0:0:0:
192,192,51442,1,0,0:0:0:0:
320,192,51555,1,0,0:0:0:70:LR_Drum Rpd x2.wav
448,192,51555,1,0,0:0:0:0:
192,192,51669,1,0,0:0:0:0:
64,192,51783,1,0,0:0:0:50:kick.wav
448,192,51783,1,0,0:0:0:0:
448,192,51896,1,0,0:0:0:0:
320,192,52010,1,0,0:0:0:0:
64,192,52124,1,0,0:0:0:70:LR_Drum Rpd x2.wav
192,192,52124,1,0,0:0:0:0:
64,192,52237,1,0,0:0:0:50:kick.wav
448,192,52237,1,0,0:0:0:0:
320,192,52351,1,0,0:0:0:0:
64,192,52464,1,0,0:0:0:70:LR_Drum Rpd x2.wav
192,192,52464,1,0,0:0:0:0:
320,192,52578,1,0,0:0:0:0:
64,192,52692,1,0,0:0:0:50:kick.wav
448,192,52692,1,0,0:0:0:0:
192,192,52805,1,0,0:0:0:0:
448,192,52919,1,0,0:0:0:0:
192,192,53033,1,0,0:0:0:70:LR_Drum Rpd x2.wav
320,192,53033,1,0,0:0:0:0:
64,192,53146,1,0,0:0:0:50:kick.wav
448,192,53146,1,0,0:0:0:0:
192,192,53260,1,0,0:0:0:0:
64,192,53374,1,0,0:0:0:70:LR_Drum Rpd x2.wav
448,192,53374,1,0,0:0:0:0:
320,192,53487,1,0,0:0:0:0:
64,192,53601,1,0,0:0:0:50:kick.wav
192,192,53601,1,0,0:0:0:0:
192,192,53714,1,0,0:0:0:0:
448,192,53828,1,0,0:0:0:0:
64,192,53942,1,0,0:0:0:70:LR_Drum Rpd x2.wav
320,192,53942,1,0,0:0:0:0:
192,192,54055,1,0,0:0:0:50:kick.wav
448,192,54055,1,0,0:0:0:0:
320,192,54169,1,0,0:0:0:0:
64,192,54283,1,0,0:0:0:70:LR_Drum Rpd x2.wav
192,192,54283,1,0,0:0:0:0:
320,192,54396,1,0,0:0:0:0:
192,192,54510,1,0,0:0:0:50:kick.wav
448,192,54510,1,0,0:0:0:0:
64,192,54624,1,0,0:0:0:0:
448,192,54737,1,0,0:0:0:0:
64,192,54851,1,0,0:0:0:70:LR_Drum Rpd x2.wav
192,192,54851,1,0,0:0:0:0:
320,192,54964,1,0,0:0:0:50:kick.wav
448,192,54964,1,0,0:0:0:0:
192,192,55078,1,0,0:0:0:0:
192,192,55305,1,0,0:0:0:0:
64,192,55419,1,0,0:0:0:50:kick.wav
320,192,55419,1,0,0:0:0:70:LR_Drum Rpd x2.wav
448,192,55419,1,0,0:0:0:0:
192,192,55533,1,0,0:0:0:50:kick.wav
320,192,55589,1,0,0:0:0:50:kick.wav
64,192,55646,1,0,0:0:0:50:kick.wav
448,192,55646,1,0,0:0:0:0:
192,192,55760,1,0,0:0:0:50:kick.wav
64,192,55874,1,0,0:0:0:50:kick.wav
320,192,55874,1,0,0:0:0:70:LR_Drum Rpd x2.wav
448,192,55874,1,0,0:0:0:0:
192,192,55987,1,0,0:0:0:50:kick.wav
64,192,56101,1,0,0:0:0:50:kick.wav
448,192,56101,1,0,0:0:0:0:
320,192,56214,1,0,0:0:0:50:kick.wav
64,192,56328,1,0,0:0:0:50:kick.wav
192,192,56328,1,0,0:0:0:70:LR_Drum Rpd x2.wav
448,192,56328,1,0,0:0:0:0:
320,192,56442,1,0,0:0:0:50:kick.wav
64,192,56555,1,0,0:0:0:50:kick.wav
448,192,56555,1,0,0:0:0:0:
192,192,56669,1,0,0:0:0:50:kick.wav
64,192,56783,1,0,0:0:0:50:kick.wav
320,192,56783,1,0,0:0:0:70:LR_Drum Rpd x2.wav
448,192,56783,1,0,0:0:0:0:
192,192,56896,1,0,0:0:0:50:kick.wav
64,192,57010,1,0,0:0:0:50:kick.wav
448,192,57010,1,0,0:0:0:0:
320,192,57124,1,0,0:0:0:50:kick.wav
64,192,57237,1,0,0:0:0:50:kick.wav
192,192,57237,1,0,0:0:0:70:LR_Drum Rpd x2.wav
448,192,57237,1,0,0:0:0:0:
320,192,57351,1,0,0:0:0:50:kick.wav
192,192,57408,1,0,0:0:0:50:kick.wav
64,192,57464,1,0,0:0:0:50:kick.wav
448,192,57464,1,0,0:0:0:0:
320,192,57578,1,0,0:0:0:50:kick.wav
64,192,57692,1,0,0:0:0:50:kick.wav
192,192,57692,1,0,0:0:0:70:LR_Drum Rpd x2.wav
448,192,57692,1,0,0:0:0:0:
320,192,57805,1,0,0:0:0:50:kick.wav
64,192,57919,1,0,0:0:0:50:kick.wav
448,192,57919,1,0,0:0:0:0:
192,192,58033,1,0,0:0:0:50:kick.wav
64,192,58146,1,0,0:0:0:50:kick.wav
320,192,58146,1,0,0:0:0:70:LR_Drum Rpd x2.wav
448,192,58146,1,0,0:0:0:0:
192,192,58260,1,0,0:0:0:50:kick.wav
64,192,58374,1,0,0:0:0:50:kick.wav
448,192,58374,1,0,0:0:0:0:
320,192,58487,1,0,0:0:0:50:kick.wav
64,192,58601,1,0,0:0:0:50:kick.wav
192,192,58601,1,0,0:0:0:70:LR_Drum Rpd x2.wav
448,192,58601,1,0,0:0:0:0:
320,192,58714,1,0,0:0:0:50:kick.wav
64,192,58828,1,0,0:0:0:50:kick.wav
448,192,58828,1,0,0:0:0:0:
192,192,58942,1,0,0:0:0:50:kick.wav
64,192,59055,1,0,0:0:0:50:kick.wav
320,192,59055,1,0,0:0:0:70:LR_Drum Rpd x2.wav
448,192,59055,1,0,0:0:0:0:
192,192,59169,1,0,0:0:0:50:kick.wav
320,192,59226,1,0,0:0:0:50:kick.wav
64,192,59283,1,0,0:0:0:50:kick.wav
448,192,59283,1,0,0:0:0:70:LR_Drum Rpd x2.wav
192,192,59396,1,0,0:0:0:50:kick.wav
64,192,59510,1,0,0:0:0:50:kick.wav
320,192,59510,1,0,0:0:0:70:LR_Drum Rpd x2.wav
448,192,59510,1,0,0:0:0:0:
320,192,59624,1,0,0:0:0:50:kick.wav
64,192,59737,1,0,0:0:0:50:kick.wav
192,192,59737,1,0,0:0:0:70:LR_Drum Rpd x2.wav
448,192,59737,1,0,0:0:0:0:
192,192,59851,1,0,0:0:0:50:kick.wav
64,192,59964,1,0,0:0:0:50:kick.wav
320,192,59964,1,0,0:0:0:70:LR_Drum Rpd x2.wav
448,192,59964,1,0,0:0:0:0:
320,192,60078,1,0,0:0:0:50:kick.wav
448,192,60078,1,0,0:0:0:0:
64,192,60192,1,0,0:0:0:50:kick.wav
192,192,60192,1,0,0:0:0:70:LR_Drum Rpd x2.wav
64,192,60305,1,0,0:0:0:50:kick.wav
192,192,60305,1,0,0:0:0:0:
320,192,60419,1,0,0:0:0:50:kick.wav
448,192,60419,1,0,0:0:0:70:LR_Drum Rpd x2.wav
192,192,60533,1,0,0:0:0:50:kick.wav
448,192,60533,1,0,0:0:0:0:
64,192,60646,1,0,0:0:0:50:kick.wav
320,192,60646,1,0,0:0:0:70:LR_Drum Rpd x2.wav
64,192,60760,1,0,0:0:0:50:kick.wav
192,192,60760,1,0,0:0:0:0:
320,192,60874,1,0,0:0:0:50:kick.wav
448,192,60874,1,0,0:0:0:0:
64,192,62692,1,0,0:0:0:50:kick.wav
320,192,62692,1,0,0:0:0:50:cymbal.wav
448,192,62692,128,0,62919:0:0:0:0:
192,192,62805,1,0,0:0:0:0:
64,192,62862,1,0,0:0:0:0:
320,192,62919,1,0,0:0:0:0:
192,192,62976,1,0,0:0:0:0:
448,192,63033,1,0,0:0:0:0:
320,192,63089,1,0,0:0:0:0:
64,192,63146,128,0,63203:0:0:0:50:kick.wav
192,192,63146,1,0,0:0:0:70:clap02.wav
448,192,63203,128,0,63260:0:0:0:0:
320,192,63260,128,0,63317:0:0:0:0:
192,192,63317,128,0,63374:0:0:0:0:
64,192,63374,128,0,63430:0:0:0:0:
448,192,63430,128,0,63487:0:0:0:0:
320,192,63487,128,0,63544:0:0:0:0:
64,192,63601,128,0,63771:0:0:0:50:kick.wav
192,192,63601,128,0,63771:0:0:0:0:
320,192,63828,128,0,63999:0:0:0:0:
448,192,63828,128,0,63999:0:0:0:0:
64,192,64055,128,0,64226:0:0:0:50:kick.wav
448,192,64055,128,0,64226:0:0:0:70:clap02.wav
320,192,64283,1,0,0:0:0:0:
448,192,64339,1,0,0:0:0:0:
192,192,64396,1,0,0:0:0:0:
320,192,64453,1,0,0:0:0:0:
64,192,64510,128,0,64680:0:0:0:50:kick.wav
448,192,64510,128,0,64680:0:0:0:0:
64,192,64851,1,0,0:0:0:50:kick.wav
192,192,64851,1,0,0:0:0:0:
320,192,64964,1,0,0:0:0:50:kick.wav
448,192,64964,1,0,0:0:0:70:clap02.wav
64,192,65021,1,0,0:0:0:0:
192,192,65078,1,0,0:0:0:0:
64,192,65135,1,0,0:0:0:0:
320,192,65192,128,0,65305:0:0:0:0:
448,192,65192,128,0,65305:0:0:0:0:
64,192,65419,1,0,0:0:0:50:kick.wav
192,192,65419,1,0,0:0:0:0:
448,192,65476,1,0,0:0:0:0:
320,192,65533,1,0,0:0:0:0:
448,192,65589,1,0,0:0:0:0:
64,192,65646,128,0,65760:0:0:0:0:
192,192,65646,128,0,65760:0:0:0:0:
64,192,65874,128,0,66328:0:0:0:50:kick.wav
320,192,65874,1,0,0:0:0:70:clap02.wav
448,192,65874,1,0,0:0:0:0:
192,192,66101,128,0,66328:0:0:0:0:
320,192,66328,1,0,0:0:0:50:kick.wav
448,192,66328,128,0,66555:0:0:0:0:
192,192,66442,1,0,0:0:0:0:
64,192,66499,1,0,0:0:0:0:
320,192,66555,1,0,0:0:0:0:
192,192,66612,1,0,0:0:0:0:
448,192,66669,1,0,0:0:0:0:
320,192,66726,1,0,0:0:0:0:
64,192,66783,128,0,66839:0:0:0:50:kick.wav
192,192,66783,1,0,0:0:0:70:clap02.wav
448,192,66839,128,0,66896:0:0:0:0:
320,192,66896,128,0,66953:0:0:0:0:
192,192,66953,128,0,67010:0:0:0:0:
64,192,67010,128,0,67067:0:0:0:0:
448,192,67067,128,0,67124:0:0:0:0:
320,192,67124,128,0,67180:0:0:0:0:
64,192,67237,128,0,67408:0:0:0:50:kick.wav
192,192,67237,128,0,67408:0:0:0:0:
320,192,67464,128,0,67635:0:0:0:0:
448,192,67464,128,0,67635:0:0:0:0:
64,192,67692,128,0,67862:0:0:0:50:kick.wav
192,192,67692,128,0,67862:0:0:0:70:clap02.wav
448,192,67919,1,0,0:0:0:0:
320,192,67976,1,0,0:0:0:0:
64,192,68033,1,0,0:0:0:0:
192,192,68089,1,0,0:0:0:0:
320,192,68146,128,0,68374:0:0:0:50:kick.wav
448,192,68146,128,0,68374:0:0:0:0:
320,192,68487,1,0,0:0:0:0:
448,192,68487,1,0,0:0:0:0:
192,192,68601,1,0,0:0:0:50:kick.wav
448,192,68601,1,0,0:0:0:70:clap02.wav
64,192,68658,1,0,0:0:0:0:
320,192,68714,1,0,0:0:0:0:
192,192,68771,1,0,0:0:0:0:
320,192,68828,1,0,0:0:0:0:
448,192,68828,1,0,0:0:0:0:
64,192,68942,1,0,0:0:0:0:
192,192,68942,1,0,0:0:0:0:
64,192,69055,1,0,0:0:0:50:kick.wav
320,192,69055,128,0,69283:0:0:0:0:
448,192,69055,128,0,69283:0:0:0:0:
320,192,69396,128,0,69624:0:0:0:0:
448,192,69396,128,0,69851:0:0:0:0:
64,192,69510,1,0,0:0:0:50:kick.wav
192,192,69510,1,0,0:0:0:70:clap02.wav
192,192,69737,128,0,69851:0:0:0:0:
320,192,69737,128,0,69851:0:0:0:0:
64,192,69964,128,0,70192:0:0:0:50:kick.wav
192,192,69964,1,0,0:0:0:0:
448,192,69964,1,0,0:0:0:0:
320,192,70078,1,0,0:0:0:0:
448,192,70135,1,0,0:0:0:0:
192,192,70192,1,0,0:0:0:0:
320,192,70249,1,0,0:0:0:0:
64,192,70305,1,0,0:0:0:0:
192,192,70362,1,0,0:0:0:0:
320,192,70419,1,0,0:0:0:50:kick.wav
448,192,70419,128,0,70476:0:0:0:70:clap02.wav
64,192,70476,128,0,70533:0:0:0:0:
192,192,70533,128,0,70589:0:0:0:0:
320,192,70589,128,0,70646:0:0:0:0:
448,192,70646,128,0,70703:0:0:0:0:
64,192,70703,128,0,70760:0:0:0:0:
192,192,70760,128,0,70817:0:0:0:0:
320,192,70874,128,0,71044:0:0:0:50:kick.wav
448,192,70874,128,0,71044:0:0:0:0:
64,192,71101,128,0,71271:0:0:0:0:
192,192,71101,128,0,71271:0:0:0:0:
64,192,71328,128,0,71499:0:0:0:50:kick.wav
448,192,71328,128,0,71499:0:0:0:70:clap02.wav
320,192,71555,128,0,71631:0:0:0:0:
320,192,71707,1,0,0:0:0:0:
192,192,71783,128,0,71896:0:0:0:50:kick.wav
448,192,71783,128,0,71896:0:0:0:0:
320,192,72010,128,0,72124:0:0:0:0:
448,192,72010,128,0,72124:0:0:0:0:
64,192,72237,1,0,0:0:0:50:kick.wav
192,192,72237,1,0,0:0:0:70:clap02.wav
448,192,72294,1,0,0:0:0:0:
320,192,72351,1,0,0:0:0:0:
448,192,72408,1,0,0:0:0:0:
64,192,72464,128,0,72578:0:0:0:0:
192,192,72464,128,0,72578:0:0:0:0:
192,192,72692,1,0,0:0:0:50:kick.wav
448,192,72692,1,0,0:0:0:0:
64,192,72749,1,0,0:0:0:0:
320,192,72805,1,0,0:0:0:0:
64,192,72862,1,0,0:0:0:0:
448,192,72919,1,0,0:0:0:0:
192,192,72976,1,0,0:0:0:0:
448,192,73033,1,0,0:0:0:0:
320,192,73089,1,0,0:0:0:0:
64,192,73146,128,0,73374:0:0:0:50:kick.wav
192,192,73146,1,0,0:0:0:70:clap02.wav
192,192,73374,1,0,0:0:0:0:
320,192,73430,1,0,0:0:0:0:
448,192,73487,1,0,0:0:0:0:
192,192,73544,1,0,0:0:0:0:
64,192,73601,1,0,0:0:0:50:kick.wav
320,192,73601,1,0,0:0:0:0:
448,192,73601,128,0,73828:0:0:0:0:
192,192,73714,1,0,0:0:0:0:
64,192,73771,1,0,0:0:0:0:
320,192,73828,1,0,0:0:0:0:
192,192,73885,1,0,0:0:0:0:
448,192,73942,1,0,0:0:0:0:
320,192,73999,1,0,0:0:0:0:
64,192,74055,128,0,74283:0:0:0:50:kick.wav
192,192,74055,128,0,74283:0:0:0:70:clap02.wav
448,192,74283,1,0,0:0:0:0:
320,192,74339,1,0,0:0:0:0:
448,192,74396,1,0,0:0:0:0:
320,192,74453,1,0,0:0:0:0:
64,192,74510,1,0,0:0:0:50:kick.wav
192,192,74510,1,0,0:0:0:0:
64,192,74624,1,0,0:0:0:0:
448,192,74737,1,0,0:0:0:0:
64,192,74851,1,0,0:0:0:0:
320,192,74964,1,0,0:0:0:50:kick.wav
448,192,74964,1,0,0:0:0:70:clap02.wav
192,192,75021,1,0,0:0:0:0:
320,192,75078,1,0,0:0:0:0:
192,192,75135,1,0,0:0:0:0:
320,192,75192,1,0,0:0:0:0:
192,192,75305,1,0,0:0:0:0:
64,192,75419,1,0,0:0:0:50:kick.wav
320,192,75419,128,0,75533:0:0:0:50:cymbal.wav
448,192,75419,128,0,75533:0:0:0:0:
320,192,75646,128,0,75760:0:0:0:0:
448,192,75646,128,0,75760:0:0:0:0:
320,192,75874,128,0,75987:0:0:0:70:snare06.wav
448,192,75874,128,0,75987:0:0:0:0:
64,192,76101,128,0,76214:0:0:0:0:
192,192,76101,128,0,76214:0:0:0:0:
320,192,76328,128,0,76669:0:0:0:70:snare06.wav
64,192,76669,1,0,0:0:0:70:LR_Drum Rpd x2.wav
192,192,76669,1,0,0:0:0:0:
320,192,76783,1,0,0:0:0:70:LR_Drum Rpd x2.wav
448,192,76783,1,0,0:0:0:0:
64,192,76896,1,0,0:0:0:70:LR_Drum Rpd x2.wav
192,192,76896,1,0,0:0:0:0:
448,192,77010,1,0,0:0:0:70:tom01.wav
64,192,77124,1,0,0:0:0:70:tom02.wav
320,192,77237,1,0,0:0:0:50:kick.wav
448,192,77237,128,0,77464:0:0:0:50:cymbal.wav
192,192,77351,1,0,0:0:0:0:
64,192,77408,1,0,0:0:0:0:
320,192,77464,1,0,0:0:0:0:
192,192,77521,1,0,0:0:0:0:
448,192,77578,1,0,0:0:0:0:
320,192,77635,1,0,0:0:0:0:
64,192,77692,128,0,77749:0:0:0:50:kick.wav
192,192,77692,1,0,0:0:0:70:clap02.wav
448,192,77749,128,0,77805:0:0:0:0:
320,192,77805,128,0,77862:0:0:0:0:
192,192,77862,128,0,77919:0:0:0:0:
64,192,77919,128,0,77976:0:0:0:0:
448,192,77976,128,0,78033:0:0:0:0:
320,192,78033,128,0,78089:0:0:0:0:
64,192,78146,128,0,78317:0:0:0:50:kick.wav
192,192,78146,128,0,78317:0:0:0:0:
320,192,78374,128,0,78544:0:0:0:0:
448,192,78374,128,0,78544:0:0:0:0:
64,192,78601,128,0,78771:0:0:0:50:kick.wav
448,192,78601,128,0,78771:0:0:0:70:clap02.wav
320,192,78828,1,0,0:0:0:0:
448,192,78885,1,0,0:0:0:0:
192,192,78942,1,0,0:0:0:0:
64,192,79055,128,0,79169:0:0:0:50:kick.wav
320,192,79055,1,0,0:0:0:0:
448,192,79055,128,0,79169:0:0:0:0:
192,192,79283,1,0,0:0:0:0:
192,192,79396,1,0,0:0:0:50:kick.wav
448,192,79396,1,0,0:0:0:0:
320,192,79510,1,0,0:0:0:50:kick.wav
448,192,79510,1,0,0:0:0:70:clap02.wav
64,192,79567,1,0,0:0:0:0:
192,192,79624,1,0,0:0:0:0:
64,192,79680,1,0,0:0:0:0:
320,192,79737,128,0,79851:0:0:0:0:
448,192,79737,128,0,79851:0:0:0:0:
64,192,79964,1,0,0:0:0:50:kick.wav
192,192,79964,1,0,0:0:0:0:
448,192,80021,1,0,0:0:0:0:
320,192,80078,1,0,0:0:0:0:
448,192,80135,1,0,0:0:0:0:
64,192,80192,128,0,80305:0:0:0:0:
192,192,80192,128,0,80305:0:0:0:0:
64,192,80419,1,0,0:0:0:50:kick.wav
320,192,80419,128,0,80589:0:0:0:70:clap02.wav
448,192,80419,128,0,80703:0:0:0:0:
192,192,80589,1,0,0:0:0:0:
64,192,80646,1,0,0:0:0:0:
320,192,80703,1,0,0:0:0:0:
192,192,80760,1,0,0:0:0:0:
64,192,80817,1,0,0:0:0:0:
320,192,80874,1,0,0:0:0:50:kick.wav
448,192,80874,1,0,0:0:0:0:
192,192,80987,1,0,0:0:0:0:
64,192,81044,1,0,0:0:0:0:
320,192,81101,1,0,0:0:0:0:
192,192,81158,1,0,0:0:0:0:
448,192,81214,1,0,0:0:0:0:
320,192,81271,1,0,0:0:0:0:
64,192,81328,128,0,81385:0:0:0:50:kick.wav
192,192,81328,1,0,0:0:0:70:clap02.wav
448,192,81385,128,0,81442:0:0:0:0:
320,192,81442,128,0,81499:0:0:0:0:
192,192,81499,128,0,81555:0:0:0:0:
64,192,81555,128,0,81612:0:0:0:0:
448,192,81612,128,0,81669:0:0:0:0:
320,192,81669,128,0,81726:0:0:0:0:
64,192,81783,128,0,81953:0:0:0:50:kick.wav
192,192,81783,128,0,81953:0:0:0:0:
320,192,82010,128,0,82180:0:0:0:0:
448,192,82010,128,0,82180:0:0:0:0:
64,192,82237,128,0,82408:0:0:0:50:kick.wav
448,192,82237,128,0,82408:0:0:0:70:clap02.wav
320,192,82464,1,0,0:0:0:0:
192,192,82521,1,0,0:0:0:0:
448,192,82578,1,0,0:0:0:0:
320,192,82635,1,0,0:0:0:0:
192,192,82692,1,0,0:0:0:0:
64,192,82805,1,0,0:0:0:50:kick.wav
448,192,82805,1,0,0:0:0:0:
64,192,82919,1,0,0:0:0:50:kick.wav
320,192,82919,1,0,0:0:0:0:
64,192,83146,1,0,0:0:0:50:kick.wav
192,192,83146,1,0,0:0:0:70:clap02.wav
320,192,83203,1,0,0:0:0:50:kick.wav
64,192,83260,1,0,0:0:0:50:kick.wav
448,192,83260,1,0,0:0:0:0:
192,192,83317,1,0,0:0:0:50:kick.wav
320,192,83374,1,0,0:0:0:50:kick.wav
448,192,83374,1,0,0:0:0:0:
64,192,83487,1,0,0:0:0:50:kick.wav
64,192,83601,1,0,0:0:0:50:kick.wav
320,192,83601,128,0,83828:0:0:0:50:cymbal_s.wav
448,192,83601,128,0,83828:0:0:0:0:
64,192,83942,1,0,0:0:0:50:kick.wav
320,192,83942,128,0,84169:0:0:0:50:cymbal_s.wav
448,192,83942,128,0,84169:0:0:0:0:
192,192,84055,1,0,0:0:0:70:LR_Drum Rpd x2.wav
192,192,84169,1,0,0:0:0:70:LR_Drum Rpd x2.wav
64,192,84283,1,0,0:0:0:50:kick.wav
320,192,84283,128,0,84396:0:0:0:50:cymbal_s.wav
448,192,84283,128,0,84396:0:0:0:0:
192,192,84396,1,0,0:0:0:70:tom03.wav
64,192,84510,1,0,0:0:0:50:kick.wav
192,192,84510,1,0,0:0:0:50:cymbal.wav
448,192,84510,1,0,0:0:0:0:
320,192,84624,1,0,0:0:0:0:
448,192,84680,1,0,0:0:0:0:
192,192,84737,1,0,0:0:0:0:
320,192,84794,1,0,0:0:0:0:
64,192,84851,1,0,0:0:0:0:
192,192,84908,1,0,0:0:0:0:
320,192,84964,1,0,0:0:0:50:kick.wav
448,192,84964,128,0,85021:0:0:0:0:
64,192,85021,128,0,85078:0:0:0:0:
192,192,85078,128,0,85135:0:0:0:0:
320,192,85135,128,0,85192:0:0:0:0:
448,192,85192,128,0,85249:0:0:0:0:
64,192,85249,128,0,85305:0:0:0:0:
192,192,85305,128,0,85362:0:0:0:0:
320,192,85419,128,0,85589:0:0:0:50:kick.wav
448,192,85419,128,0,85589:0:0:0:0:
64,192,85646,128,0,85817:0:0:0:0:
192,192,85646,128,0,85817:0:0:0:0:
64,192,85874,128,0,86044:0:0:0:50:kick.wav
448,192,85874,128,0,86044:0:0:0:0:
192,192,86101,1,0,0:0:0:0:
320,192,86252,1,0,0:0:0:0:
64,192,86328,128,0,86442:0:0:0:50:kick.wav
448,192,86328,128,0,86442:0:0:0:0:
192,192,86555,128,0,86669:0:0:0:0:
320,192,86555,128,0,86669:0:0:0:0:
320,192,86783,1,0,0:0:0:50:kick.wav
448,192,86783,1,0,0:0:0:0:
64,192,86839,1,0,0:0:0:0:
192,192,86896,1,0,0:0:0:0:
64,192,86953,1,0,0:0:0:0:
320,192,87010,128,0,87124:0:0:0:0:
448,192,87010,128,0,87124:0:0:0:0:
192,192,87237,1,0,0:0:0:50:kick.wav
448,192,87237,1,0,0:0:0:0:
64,192,87294,1,0,0:0:0:0:
320,192,87351,1,0,0:0:0:0:
64,192,87408,1,0,0:0:0:0:
448,192,87464,1,0,0:0:0:0:
192,192,87521,1,0,0:0:0:0:
448,192,87578,1,0,0:0:0:0:
320,192,87635,1,0,0:0:0:0:
64,192,87692,128,0,87976:0:0:0:50:kick.wav
192,192,87692,128,0,87862:0:0:0:0:
320,192,87862,1,0,0:0:0:0:
448,192,87919,1,0,0:0:0:0:
192,192,87976,1,0,0:0:0:0:
320,192,88033,1,0,0:0:0:0:
448,192,88089,1,0,0:0:0:0:
64,192,88146,128,0,88601:0:0:0:50:kick.wav
192,192,88146,1,0,0:0:0:50:cymbal_s.wav
320,192,88374,1,0,0:0:0:50:kick.wav
448,192,88374,1,0,0:0:0:50:cymbal_s.wav
192,192,88601,128,0,88714:0:0:0:70:LR_Drum Rpd x2.wav
320,192,88601,128,0,88714:0:0:0:70:clap02.wav
64,192,88828,1,0,0:0:0:50:kick.wav
448,192,88828,1,0,0:0:0:0:
192,192,88885,1,0,0:0:0:0:
64,192,88942,1,0,0:0:0:0:
192,192,88999,1,0,0:0:0:0:
320,192,89055,1,0,0:0:0:70:LR_Drum Rpd x2.wav
448,192,89055,1,0,0:0:0:0:
320,192,89169,1,0,0:0:0:0:
448,192,89169,1,0,0:0:0:0:
64,192,89283,1,0,0:0:0:50:kick.wav
192,192,89283,1,0,0:0:0:0:
448,192,89396,1,0,0:0:0:0:
64,192,89510,1,0,0:0:0:70:LR_Drum Rpd x2.wav
192,192,89510,1,0,0:0:0:70:clap02.wav
64,192,89624,1,0,0:0:0:0:
192,192,89624,1,0,0:0:0:0:
320,192,89737,1,0,0:0:0:50:kick.wav
448,192,89737,1,0,0:0:0:0:
64,192,89851,1,0,0:0:0:0:
192,192,89964,1,0,0:0:0:50:kick.wav
320,192,89964,1,0,0:0:0:0:
320,192,90192,1,0,0:0:0:0:
320,192,90305,1,0,0:0:0:0:
64,192,90419,1,0,0:0:0:70:snare06.wav
192,192,90419,1,0,0:0:0:0:
448,192,90419,1,0,0:0:0:0:
320,192,90533,1,0,0:0:0:0:
64,192,90646,1,0,0:0:0:0:
448,192,90703,1,0,0:0:0:0:
192,192,90760,1,0,0:0:0:0:
320,192,90817,1,0,0:0:0:0:
64,192,90874,1,0,0:0:0:70:snare06.wav
192,192,90874,128,0,90987:0:0:0:0:
448,192,90874,1,0,0:0:0:0:
192,192,91101,128,0,91214:0:0:0:0:
64,192,91328,1,0,0:0:0:70:LR_Drum Rpd x2.wav
320,192,91328,1,0,0:0:0:0:
448,192,91328,1,0,0:0:0:0:
192,192,91385,1,0,0:0:0:0:
448,192,91442,1,0,0:0:0:70:LR_Drum Rpd x2.wav
192,192,91499,1,0,0:0:0:0:
320,192,91555,1,0,0:0:0:70:tom01.wav
64,192,91612,1,0,0:0:0:0:
448,192,91669,1,0,0:0:0:70:tom02.wav
192,192,91726,1,0,0:0:0:0:
320,192,91783,1,0,0:0:0:50:kick.wav
448,192,91783,1,0,0:0:0:50:cymbal.wav
64,192,91896,1,0,0:0:0:0:
192,192,91953,1,0,0:0:0:0:
320,192,92010,1,0,0:0:0:0:
64,192,92067,1,0,0:0:0:0:
448,192,92124,1,0,0:0:0:0:
192,192,92180,1,0,0:0:0:0:
64,192,92237,1,0,0:0:0:50:kick.wav
320,192,92237,1,0,0:0:0:70:clap02.wav
448,192,92237,1,0,0:0:0:100:Percussion Hey sound a#.wav
192,192,92351,1,0,0:0:0:0:
320,192,92408,1,0,0:0:0:0:
448,192,92464,1,0,0:0:0:0:
320,192,92521,1,0,0:0:0:0:
192,192,92578,1,0,0:0:0:0:
64,192,92635,1,0,0:0:0:0:
320,192,92692,1,0,0:0:0:50:kick.wav
448,192,92692,1,0,0:0:0:0:
192,192,92919,1,0,0:0:0:0:
320,192,92976,1,0,0:0:0:0:
192,192,93033,1,0,0:0:0:0:
320,192,93089,1,0,0:0:0:0:
64,192,93146,1,0,0:0:0:50:kick.wav
192,192,93146,1,0,0:0:0:70:clap02.wav
448,192,93146,1,0,0:0:0:100:Percussion Hey sound a#.wav
64,192,93374,128,0,93601:0:0:0:0:
320,192,93374,128,0,93601:0:0:0:0:
192,192,93601,1,0,0:0:0:50:kick.wav
448,192,93601,128,0,93714:0:0:0:0:
320,192,93828,1,0,0:0:0:0:
192,192,93885,1,0,0:0:0:0:
320,192,93942,1,0,0:0:0:0:
192,192,93999,1,0,0:0:0:0:
64,192,94055,1,0,0:0:0:50:kick.wav
320,192,94055,1,0,0:0:0:70:clap02.wav
448,192,94055,1,0,0:0:0:100:Percussion Hey sound a#.wav
192,192,94283,1,0,0:0:0:0:
320,192,94339,1,0,0:0:0:0:
64,192,94396,1,0,0:0:0:0:
192,192,94453,1,0,0:0:0:0:
320,192,94510,1,0,0:0:0:50:kick.wav
448,192,94510,1,0,0:0:0:0:
64,192,94737,1,0,0:0:0:0:
448,192,94794,1,0,0:0:0:0:
64,192,94851,1,0,0:0:0:0:
448,192,94908,1,0,0:0:0:0:
64,192,94964,1,0,0:0:0:50:kick.wav
192,192,94964,1,0,0:0:0:70:clap02.wav
320,192,94964,1,0,0:0:0:100:Percussion Hey sound a#.wav
448,192,95192,1,0,0:0:0:0:
192,192,95249,1,0,0:0:0:0:
448,192,95305,1,0,0:0:0:0:
192,192,95362,1,0,0:0:0:0:
320,192,95419,1,0,0:0:0:50:kick.wav
448,192,95419,1,0,0:0:0:0:
64,192,95533,1,0,0:0:0:0:
320,192,95589,1,0,0:0:0:0:
192,192,95646,1,0,0:0:0:0:
448,192,95703,1,0,0:0:0:0:
320,192,95760,1,0,0:0:0:0:
192,192,95817,1,0,0:0:0:0:
64,192,95874,1,0,0:0:0:50:kick.wav
320,192,95874,1,0,0:0:0:70:clap02.wav
448,192,95874,1,0,0:0:0:100:Percussion Hey sound a#.wav
192,192,95987,1,0,0:0:0:0:
320,192,96044,1,0,0:0:0:0:
448,192,96101,1,0,0:0:0:0:
320,192,96158,1,0,0:0:0:0:
192,192,96214,1,0,0:0:0:0:
64,192,96271,1,0,0:0:0:0:
320,192,96328,1,0,0:0:0:50:kick.wav
448,192,96328,1,0,0:0:0:0:
192,192,96555,1,0,0:0:0:0:
320,192,96612,1,0,0:0:0:0:
192,192,96669,1,0,0:0:0:0:
320,192,96726,1,0,0:0:0:0:
64,192,96783,1,0,0:0:0:50:kick.wav
192,192,96783,1,0,0:0:0:70:clap02.wav
448,192,96783,128,0,97010:0:0:0:100:Percussion Hey sound a#.wav
64,192,97010,128,0,97237:0:0:0:0:
320,192,97010,1,0,0:0:0:0:
192,192,97237,1,0,0:0:0:50:kick.wav
448,192,97237,128,0,97464:0:0:0:0:
320,192,97464,1,0,0:0:0:0:
192,192,97521,1,0,0:0:0:0:
320,192,97578,1,0,0:0:0:0:
192,192,97635,1,0,0:0:0:0:
64,192,97692,1,0,0:0:0:50:kick.wav
320,192,97692,1,0,0:0:0:70:clap02.wav
448,192,97692,1,0,0:0:0:100:Percussion Hey sound a#.wav
192,192,97919,1,0,0:0:0:0:
448,192,97919,1,0,0:0:0:0:
320,192,97976,1,0,0:0:0:0:
64,192,98033,1,0,0:0:0:0:
192,192,98089,1,0,0:0:0:0:
320,192,98146,1,0,0:0:0:50:kick.wav
448,192,98146,1,0,0:0:0:0:
192,192,98260,1,0,0:0:0:0:
448,192,98317,1,0,0:0:0:0:
64,192,98374,1,0,0:0:0:0:
320,192,98430,1,0,0:0:0:0:
192,192,98487,1,0,0:0:0:0:
64,192,98544,1,0,0:0:0:0:
320,192,98601,1,0,0:0:0:50:kick.wav
448,192,98601,1,0,0:0:0:70:clap02.wav
192,192,98714,1,0,0:0:0:0:
448,192,98771,1,0,0:0:0:0:
320,192,98828,1,0,0:0:0:0:
64,192,98885,1,0,0:0:0:0:
192,192,98942,1,0,0:0:0:0:
320,192,98999,1,0,0:0:0:0:
64,192,99055,128,0,99396:0:0:0:50:kick.wav
448,192,99055,1,0,0:0:0:50:cymbal.wav
192,192,99283,1,0,0:0:0:0:
320,192,99339,1,0,0:0:0:0:
448,192,99396,1,0,0:0:0:0:
320,192,99453,1,0,0:0:0:0:
64,192,99510,128,0,99813:0:0:0:50:kick.wav
192,192,99510,128,0,99624:0:0:0:0:
448,192,99661,128,0,99737:0:0:0:0:
320,192,99737,128,0,99813:0:0:0:0:
192,192,99813,128,0,99889:0:0:0:0:
64,192,99964,1,0,0:0:0:50:kick.wav
320,192,99964,1,0,0:0:0:0:
448,192,99964,1,0,0:0:0:0:
64,192,100078,1,0,0:0:0:0:
192,192,100078,1,0,0:0:0:0:
448,192,100192,1,0,0:0:0:0:
320,192,100249,1,0,0:0:0:0:
192,192,100305,1,0,0:0:0:0:
64,192,100419,1,0,0:0:0:50:kick.wav
320,192,100419,1,0,0:0:0:0:
448,192,100419,1,0,0:0:0:0:
64,192,100533,1,0,0:0:0:0:
192,192,100533,1,0,0:0:0:0:
448,192,100646,1,0,0:0:0:0:
320,192,100703,1,0,0:0:0:0:
192,192,100760,1,0,0:0:0:0:
64,192,100874,1,0,0:0:0:50:kick.wav
320,192,100874,1,0,0:0:0:0:
448,192,100874,1,0,0:0:0:0:
64,192,100987,1,0,0:0:0:0:
192,192,100987,1,0,0:0:0:0:
448,192,101101,1,0,0:0:0:0:
320,192,101158,1,0,0:0:0:0:
192,192,101214,1,0,0:0:0:0:
64,192,101328,1,0,0:0:0:50:kick.wav
320,192,101328,1,0,0:0:0:0:
448,192,101328,1,0,0:0:0:0:
64,192,101442,1,0,0:0:0:0:
192,192,101442,1,0,0:0:0:0:
448,192,101555,1,0,0:0:0:0:
320,192,101612,1,0,0:0:0:0:
192,192,101669,1,0,0:0:0:0:
64,192,101783,128,0,101896:0:0:0:50:kick.wav
320,192,101783,128,0,102067:0:0:0:0:
448,192,101783,128,0,102010:0:0:0:0:
192,192,102010,128,0,102124:0:0:0:0:
64,192,102067,128,0,102124:0:0:0:0:
448,192,102124,1,0,0:0:0:0:
320,192,102180,1,0,0:0:0:0:
64,192,102237,128,0,102351:0:0:0:50:kick.wav
192,192,102237,128,0,102294:0:0:0:0:
448,192,102294,128,0,102408:0:0:0:0:
320,192,102351,128,0,102464:0:0:0:0:
192,192,102408,128,0,102521:0:0:0:0:
64,192,102464,128,0,102578:0:0:0:0:
448,192,102521,128,0,102578:0:0:0:0:
320,192,102578,128,0,102635:0:0:0:0:
192,192,102635,128,0,102692:0:0:0:0:
64,192,102692,128,0,103033:0:0:0:50:kick.wav
448,192,102692,1,0,0:0:0:0:
320,192,102805,1,0,0:0:0:0:
448,192,102862,1,0,0:0:0:0:
192,192,102919,1,0,0:0:0:0:
320,192,103033,1,0,0:0:0:0:
64,192,103146,1,0,0:0:0:50:kick.wav
448,192,103146,1,0,0:0:0:0:
192,192,103203,1,0,0:0:0:0:
320,192,103260,1,0,0:0:0:0:
192,192,103374,1,0,0:0:0:0:
448,192,103487,1,0,0:0:0:0:
320,192,103544,1,0,0:0:0:0:
64,192,103601,1,0,0:0:0:50:kick.wav
192,192,103601,1,0,0:0:0:0:
448,192,103714,1,0,0:0:0:0:
320,192,103828,1,0,0:0:0:0:
192,192,103885,1,0,0:0:0:0:
64,192,103942,1,0,0:0:0:0:
320,192,104055,1,0,0:0:0:50:kick.wav
448,192,104055,1,0,0:0:0:0:
64,192,104169,1,0,0:0:0:0:
192,192,104226,1,0,0:0:0:0:
320,192,104283,1,0,0:0:0:0:
192,192,104396,1,0,0:0:0:0:
64,192,104510,128,0,104624:0:0:0:50:kick.wav
320,192,104510,128,0,105419:0:0:0:0:
448,192,104510,128,0,105419:0:0:0:0:
64,192,104737,128,0,104851:0:0:0:0:
64,192,104964,128,0,105078:0:0:0:0:
64,192,105192,128,0,105305:0:0:0:0:
64,192,105419,128,0,105533:0:0:0:70:snare06.wav
192,192,105419,1,0,0:0:0:0:
320,192,105646,128,0,105703:0:0:0:0:
64,192,105760,1,0,0:0:0:70:LR_Drum Rpd x2.wav
448,192,105760,1,0,0:0:0:0:
192,192,105874,1,0,0:0:0:70:LR_Drum Rpd x2.wav
320,192,105874,1,0,0:0:0:0:
192,192,105987,1,0,0:0:0:70:LR_Drum Rpd x2.wav
320,192,105987,1,0,0:0:0:0:
64,192,106101,1,0,0:0:0:70:tom01.wav
448,192,106101,1,0,0:0:0:0:
192,192,106214,1,0,0:0:0:70:tom02.wav
320,192,106328,1,0,0:0:0:50:kick.wav
448,192,106328,1,0,0:0:0:50:cymbal.wav
64,192,106442,1,0,0:0:0:0:
192,192,106499,1,0,0:0:0:0:
320,192,106555,1,0,0:0:0:0:
64,192,106612,1,0,0:0:0:0:
448,192,106669,1,0,0:0:0:0:
192,192,106726,1,0,0:0:0:0:
64,192,106783,1,0,0:0:0:50:kick.wav
320,192,106783,1,0,0:0:0:70:clap02.wav
448,192,106783,1,0,0:0:0:100:Percussion Hey sound a#.wav
192,192,106896,1,0,0:0:0:0:
320,192,106953,1,0,0:0:0:0:
448,192,107010,1,0,0:0:0:0:
320,192,107067,1,0,0:0:0:0:
192,192,107124,1,0,0:0:0:0:
64,192,107180,1,0,0:0:0:0:
320,192,107237,1,0,0:0:0:50:kick.wav
448,192,107237,1,0,0:0:0:0:
192,192,107464,1,0,0:0:0:0:
320,192,107521,1,0,0:0:0:0:
192,192,107578,1,0,0:0:0:0:
320,192,107635,1,0,0:0:0:0:
64,192,107692,1,0,0:0:0:50:kick.wav
192,192,107692,1,0,0:0:0:70:clap02.wav
448,192,107692,1,0,0:0:0:100:Percussion Hey sound a#.wav
64,192,107919,128,0,108146:0:0:0:0:
320,192,107919,1,0,0:0:0:0:
192,192,108146,1,0,0:0:0:50:kick.wav
448,192,108146,128,0,108260:0:0:0:0:
320,192,108374,1,0,0:0:0:0:
192,192,108430,1,0,0:0:0:0:
320,192,108487,1,0,0:0:0:0:
192,192,108544,1,0,0:0:0:0:
64,192,108601,1,0,0:0:0:50:kick.wav
320,192,108601,1,0,0:0:0:70:clap02.wav
448,192,108601,1,0,0:0:0:100:Percussion Hey sound a#.wav
192,192,108828,1,0,0:0:0:0:
320,192,108885,1,0,0:0:0:0:
64,192,108942,1,0,0:0:0:0:
192,192,108999,1,0,0:0:0:0:
320,192,109055,1,0,0:0:0:50:kick.wav
448,192,109055,1,0,0:0:0:0:
64,192,109283,1,0,0:0:0:0:
448,192,109339,1,0,0:0:0:0:
64,192,109396,1,0,0:0:0:0:
448,192,109453,1,0,0:0:0:0:
64,192,109510,1,0,0:0:0:50:kick.wav
192,192,109510,1,0,0:0:0:70:clap02.wav
320,192,109510,1,0,0:0:0:100:Percussion Hey sound a#.wav
448,192,109737,1,0,0:0:0:0:
192,192,109794,1,0,0:0:0:0:
448,192,109851,1,0,0:0:0:0:
192,192,109908,1,0,0:0:0:0:
320,192,109964,1,0,0:0:0:50:kick.wav
448,192,109964,1,0,0:0:0:0:
64,192,110078,1,0,0:0:0:0:
320,192,110135,1,0,0:0:0:0:
192,192,110192,1,0,0:0:0:0:
448,192,110249,1,0,0:0:0:0:
320,192,110305,1,0,0:0:0:0:
192,192,110362,1,0,0:0:0:0:
64,192,110419,1,0,0:0:0:50:kick.wav
320,192,110419,1,0,0:0:0:70:clap02.wav
448,192,110419,1,0,0:0:0:100:Percussion Hey sound a#.wav
192,192,110533,1,0,0:0:0:0:
320,192,110589,1,0,0:0:0:0:
448,192,110646,1,0,0:0:0:0:
320,192,110703,1,0,0:0:0:0:
192,192,110760,1,0,0:0:0:0:
64,192,110817,1,0,0:0:0:0:
320,192,110874,1,0,0:0:0:50:kick.wav
448,192,110874,1,0,0:0:0:0:
192,192,111101,1,0,0:0:0:0:
320,192,111158,1,0,0:0:0:0:
192,192,111214,1,0,0:0:0:0:
320,192,111271,1,0,0:0:0:0:
64,192,111328,1,0,0:0:0:50:kick.wav
192,192,111328,1,0,0:0:0:70:clap02.wav
448,192,111328,128,0,111555:0:0:0:100:Percussion Hey sound a#.wav
64,192,111555,128,0,111783:0:0:0:0:
320,192,111555,1,0,0:0:0:0:
192,192,111783,1,0,0:0:0:50:kick.wav
448,192,111783,128,0,112010:0:0:0:0:
320,192,112010,1,0,0:0:0:0:
192,192,112067,1,0,0:0:0:0:
320,192,112124,1,0,0:0:0:0:
192,192,112180,1,0,0:0:0:0:
64,192,112237,1,0,0:0:0:50:kick.wav
320,192,112237,1,0,0:0:0:70:clap02.wav
448,192,112237,1,0,0:0:0:100:Percussion Hey sound a#.wav
192,192,112464,1,0,0:0:0:0:
448,192,112464,1,0,0:0:0:0:
320,192,112521,1,0,0:0:0:0:
64,192,112578,1,0,0:0:0:0:
192,192,112635,1,0,0:0:0:0:
320,192,112692,1,0,0:0:0:50:kick.wav
448,192,112692,1,0,0:0:0:0:
192,192,112777,1,0,0:0:0:0:
320,192,112862,1,0,0:0:0:50:kick.wav
448,192,112862,1,0,0:0:0:0:
64,192,112919,1,0,0:0:0:0:
192,192,112976,1,0,0:0:0:0:
320,192,113033,1,0,0:0:0:50:kick.wav
448,192,113033,1,0,0:0:0:0:
64,192,113146,1,0,0:0:0:50:kick.wav
192,192,113146,1,0,0:0:0:70:clap02.wav
320,192,113231,1,0,0:0:0:0:
64,192,113317,1,0,0:0:0:50:kick.wav
192,192,113317,1,0,0:0:0:0:
448,192,113374,1,0,0:0:0:0:
320,192,113430,1,0,0:0:0:0:
64,192,113487,1,0,0:0:0:50:kick.wav
192,192,113487,1,0,0:0:0:0:
64,192,113601,1,0,0:0:0:50:kick.wav
320,192,113601,128,0,113828:0:0:0:50:cymbal.wav
448,192,113601,128,0,113828:0:0:0:70:LR_Drum Rpd x2.wav
64,192,113828,1,0,0:0:0:70:LR_Drum Rpd x2.wav
192,192,113828,1,0,0:0:0:0:
192,192,113942,1,0,0:0:0:70:LR_Drum Rpd x2.wav
64,192,114055,128,0,114112:0:0:0:50:kick.wav
320,192,114055,1,0,0:0:0:70:LR_Drum Rpd x2.wav
448,192,114055,1,0,0:0:0:0:
192,192,114112,128,0,114169:0:0:0:0:
448,192,114169,128,0,114226:0:0:0:70:LR_Drum Rpd x2.wav
320,192,114226,128,0,114283:0:0:0:0:
64,192,114283,1,0,0:0:0:0:
64,192,114396,1,0,0:0:0:70:LR_Drum Rpd x2.wav
192,192,114510,1,0,0:0:0:50:kick.wav
320,192,114510,1,0,0:0:0:70:LR_Drum Rpd x2.wav
448,192,114510,1,0,0:0:0:0:
448,192,114624,1,0,0:0:0:0:
64,192,114737,1,0,0:0:0:70:LR_Drum Rpd x2.wav
192,192,114737,1,0,0:0:0:0:
192,192,114851,1,0,0:0:0:70:LR_Drum Rpd x2.wav
320,192,114964,1,0,0:0:0:50:kick.wav
448,192,114964,1,0,0:0:0:70:LR_Drum Rpd x2.wav
64,192,115078,1,0,0:0:0:70:LR_Drum Rpd x2.wav
192,192,115078,1,0,0:0:0:0:
64,192,115192,1,0,0:0:0:70:LR_Drum Rpd x2.wav
320,192,115192,1,0,0:0:0:0:
192,192,115305,1,0,0:0:0:70:LR_Drum Rpd x2.wav
448,192,115305,1,0,0:0:0:0:
64,192,115419,1,0,0:0:0:50:kick.wav
320,192,115419,1,0,0:0:0:70:LR_Drum Rpd x2.wav
448,192,115419,1,0,0:0:0:0:
320,192,115533,1,0,0:0:0:0:
64,192,115646,1,0,0:0:0:70:LR_Drum Rpd x2.wav
192,192,115646,1,0,0:0:0:0:
192,192,115760,1,0,0:0:0:70:LR_Drum Rpd x2.wav
320,192,115874,1,0,0:0:0:70:LR_Drum Rpd x2.wav
448,192,115874,1,0,0:0:0:0:
64,192,115987,1,0,0:0:0:0:
192,192,115987,1,0,0:0:0:0:
64,192,116101,1,0,0:0:0:70:LR_Drum Rpd x2.wav
320,192,116101,1,0,0:0:0:0:
192,192,116214,1,0,0:0:0:70:LR_Drum Rpd x2.wav
448,192,116214,1,0,0:0:0:0:
64,192,116328,1,0,0:0:0:50:kick.wav
320,192,116328,1,0,0:0:0:70:LR_Drum Rpd x2.wav
448,192,116328,1,0,0:0:0:0:
192,192,116555,1,0,0:0:0:70:LR_Drum Rpd x2.wav
320,192,116612,1,0,0:0:0:0:
64,192,116669,1,0,0:0:0:70:LR_Drum Rpd x2.wav
448,192,116669,1,0,0:0:0:0:
320,192,116726,1,0,0:0:0:0:
64,192,116783,128,0,117010:0:0:0:70:snare06.wav
192,192,116783,128,0,117010:0:0:0:0:
448,192,117010,1,0,0:0:0:70:LR_Drum Rpd x2.wav
192,192,117124,1,0,0:0:0:70:LR_Drum Rpd x2.wav
64,192,117237,1,0,0:0:0:50:kick.wav
320,192,117237,1,0,0:0:0:50:cymbal.wav
448,192,117237,1,0,0:0:0:70:LR_Drum Rpd x2.wav
320,192,117351,1,0,0:0:0:70:LR_Drum Rpd x2.wav
64,192,117464,1,0,0:0:0:50:kick.wav
192,192,117464,1,0,0:0:0:70:LR_Drum Rpd x2.wav
448,192,117464,1,0,0:0:0:0:
192,192,117578,1,0,0:0:0:70:LR_Drum Rpd x2.wav
64,192,117692,1,0,0:0:0:50:kick.wav
320,192,117692,1,0,0:0:0:70:LR_Drum Rpd x2.wav
448,192,117692,1,0,0:0:0:0:
448,192,117805,1,0,0:0:0:70:LR_Drum Rpd x2.wav
64,192,117919,1,0,0:0:0:50:kick.wav
192,192,117919,1,0,0:0:0:70:LR_Drum Rpd x2.wav
320,192,117919,1,0,0:0:0:0:
64,192,118033,1,0,0:0:0:70:LR_Drum Rpd x2.wav
192,192,118146,1,0,0:0:0:50:kick.wav
320,192,118146,1,0,0:0:0:70:LR_Drum Rpd x2.wav
448,192,118146,1,0,0:0:0:0:
320,192,118260,1,0,0:0:0:70:LR_Drum Rpd x2.wav
448,192,118260,1,0,0:0:0:0:
64,192,118374,1,0,0:0:0:50:kick.wav
192,192,118374,1,0,0:0:0:70:LR_Drum Rpd x2.wav
64,192,118487,1,0,0:0:0:70:LR_Drum Rpd x2.wav
192,192,118487,1,0,0:0:0:0:
320,192,118601,1,0,0:0:0:50:kick.wav
448,192,118601,1,0,0:0:0:70:LR_Drum Rpd x2.wav
320,192,118714,1,0,0:0:0:70:LR_Drum Rpd x2.wav
448,192,118714,1,0,0:0:0:0:
64,192,118828,1,0,0:0:0:50:kick.wav
192,192,118828,1,0,0:0:0:0:
320,192,118885,1,0,0:0:0:50:kick.wav
64,192,118942,1,0,0:0:0:50:kick.wav
448,192,118942,1,0,0:0:0:0:
192,192,118999,1,0,0:0:0:50:kick.wav
320,192,119055,128,0,119283:0:0:0:50:kick.wav
448,192,119055,128,0,119283:0:0:0:0:
192,192,119283,128,0,119396:0:0:0:0:
64,192,119510,128,0,119851:0:0:0:0:
448,192,119510,128,0,119737:0:0:0:0:
320,192,119737,128,0,119851:0:0:0:0:
64,192,119964,1,0,0:0:0:70:snare06.wav
192,192,119964,128,0,120078:0:0:0:0:
448,192,119964,128,0,120192:0:0:0:0:
320,192,120192,1,0,0:0:0:0:
64,192,120305,1,0,0:0:0:70:LR_Drum Rpd x2.wav
192,192,120305,1,0,0:0:0:0:
64,192,120419,1,0,0:0:0:70:LR_Drum Rpd x2.wav
448,192,120419,1,0,0:0:0:0:
320,192,120533,1,0,0:0:0:70:LR_Drum Rpd x2.wav
448,192,120533,1,0,0:0:0:0:
64,192,120646,1,0,0:0:0:70:tom01.wav
192,192,120646,1,0,0:0:0:0:
320,192,120760,1,0,0:0:0:70:tom02.wav
64,192,120874,128,0,121328:0:0:0:50:kick.wav
192,192,120874,128,0,121328:0:0:0:50:cymbal_s.wav
448,192,120874,128,0,121328:0:0:0:0:
320,192,121555,128,0,121669:0:0:0:0:
448,192,121555,128,0,121669:0:0:0:0:
64,192,121783,128,0,122180:0:0:0:70:electronic_neurofunk.wav
320,192,121783,128,0,122180:0:0:0:0:
448,192,121783,128,0,122180:0:0:0:0:
192,192,122464,128,0,122521:0:0:0:0:
448,192,122464,128,0,122521:0:0:0:0:
64,192,122521,128,0,122578:0:0:0:0:
320,192,122578,128,0,122635:0:0:0:0:
192,192,122635,128,0,122692:0:0:0:0:
64,192,122692,128,0,123089:0:0:0:50:kick.wav
320,192,122692,128,0,123089:0:0:0:0:
448,192,122692,128,0,123089:0:0:0:0:
320,192,123374,128,0,123487:0:0:0:0:
448,192,123374,128,0,123487:0:0:0:0:
64,192,123601,128,0,123942:0:0:0:70:electronic_neurofunk.wav
320,192,123601,128,0,123714:0:0:0:0:
448,192,123601,128,0,123714:0:0:0:0:
320,192,123828,1,0,0:0:0:0:
448,192,123828,1,0,0:0:0:0:
192,192,123942,128,0,124055:0:0:0:0:
448,192,123942,128,0,124055:0:0:0:0:
64,192,124055,128,0,124169:0:0:0:0:
320,192,124055,128,0,124169:0:0:0:0:
192,192,124283,128,0,124396:0:0:0:0:
448,192,124283,128,0,124396:0:0:0:0:
64,192,124510,128,0,124964:0:0:0:50:kick.wav
320,192,124510,128,0,124964:0:0:0:50:cymbal_s.wav
448,192,124510,128,0,124964:0:0:0:0:
64,192,125192,128,0,125305:0:0:0:0:
192,192,125192,128,0,125305:0:0:0:0:
64,192,125419,128,0,125817:0:0:0:70:electronic_neurofunk.wav
192,192,125419,128,0,125817:0:0:0:0:
448,192,125419,128,0,125817:0:0:0:0:
64,192,126101,128,0,126158:0:0:0:0:
320,192,126101,128,0,126158:0:0:0:0:
448,192,126158,128,0,126214:0:0:0:0:
192,192,126214,128,0,126271:0:0:0:0:
320,192,126271,128,0,126328:0:0:0:0:
64,192,126328,128,0,126726:0:0:0:50:kick.wav
192,192,126328,128,0,126726:0:0:0:0:
448,192,126328,128,0,126726:0:0:0:0:
64,192,126896,128,0,127010:0:0:0:0:
192,192,126896,128,0,127010:0:0:0:0:
64,192,127124,1,0,0:0:0:0:
192,192,127124,1,0,0:0:0:0:
64,192,127237,128,0,127578:0:0:0:70:electronic_neurofunk.wav
320,192,127237,128,0,127464:0:0:0:0:
448,192,127237,128,0,127408:0:0:0:0:
192,192,127464,1,0,0:0:0:0:
448,192,127521,1,0,0:0:0:0:
320,192,127578,1,0,0:0:0:0:
192,192,127635,1,0,0:0:0:0:
64,192,127692,128,0,127919:0:0:0:0:
448,192,127692,128,0,128033:0:0:0:0:
320,192,127919,1,0,0:0:0:0:
192,192,127976,1,0,0:0:0:0:
64,192,128033,1,0,0:0:0:0:
320,192,128089,1,0,0:0:0:0:
64,192,128146,128,0,128601:0:0:0:50:kick.wav
192,192,128146,128,0,128601:0:0:0:50:cymbal_s.wav
448,192,128146,128,0,128601:0:0:0:0:
320,192,128828,128,0,128942:0:0:0:0:
448,192,128828,128,0,128942:0:0:0:0:
64,192,129055,128,0,129453:0:0:0:70:electronic_neurofunk.wav
320,192,129055,128,0,129453:0:0:0:0:
448,192,129055,128,0,129453:0:0:0:0:
192,192,129737,128,0,129794:0:0:0:0:
448,192,129737,128,0,129794:0:0:0:0:
64,192,129794,128,0,129851:0:0:0:0:
320,192,129851,128,0,129908:0:0:0:0:
192,192,129908,128,0,129964:0:0:0:0:
64,192,129964,128,0,130362:0:0:0:50:kick.wav
320,192,129964,128,0,130362:0:0:0:0:
448,192,129964,128,0,130362:0:0:0:0:
320,192,130646,128,0,130760:0:0:0:0:
448,192,130646,128,0,130760:0:0:0:0:
64,192,130874,128,0,131214:0:0:0:70:electronic_neurofunk.wav
320,192,130874,128,0,131214:0:0:0:0:
448,192,130874,128,0,131214:0:0:0:0:
192,192,131101,128,0,131214:0:0:0:0:
64,192,131328,128,0,131442:0:0:0:0:
192,192,131328,128,0,131442:0:0:0:0:
448,192,131328,128,0,131442:0:0:0:0:
64,192,131555,128,0,131669:0:0:0:0:
192,192,131555,128,0,131669:0:0:0:0:
448,192,131555,128,0,131669:0:0:0:0:
64,192,131783,1,0,0:0:0:50:kick.wav
320,192,131783,128,0,132124:0:0:0:50:cymbal_s.wav
448,192,131783,128,0,132124:0:0:0:70:CLAP_.wav
64,192,132010,1,0,0:0:0:0:
64,192,132237,1,0,0:0:0:70:CLAP_.wav
192,192,132237,1,0,0:0:0:0:
448,192,132237,1,0,0:0:0:0:
320,192,132464,128,0,132578:0:0:0:70:LR_Drum Rpd x2.wav
448,192,132464,128,0,132578:0:0:0:0:
192,192,132578,1,0,0:0:0:70:LR_Drum Rpd x2.wav
64,192,132692,1,0,0:0:0:70:electronic_neurofunk.wav
320,192,132692,128,0,133033:0:0:0:70:CLAP_.wav
448,192,132692,128,0,133033:0:0:0:0:
64,192,132919,1,0,0:0:0:70:LR_Drum Rpd x2.wav
192,192,133033,1,0,0:0:0:70:LR_Drum Rpd x2.wav
64,192,133146,1,0,0:0:0:70:CLAP_.wav
320,192,133146,1,0,0:0:0:0:
448,192,133146,1,0,0:0:0:0:
192,192,133374,1,0,0:0:0:70:LR_Drum Rpd x2.wav
448,192,133374,1,0,0:0:0:0:
64,192,133430,1,0,0:0:0:0:
320,192,133487,1,0,0:0:0:70:LR_Drum Rpd x2.wav
192,192,133544,1,0,0:0:0:0:
64,192,133601,1,0,0:0:0:50:kick.wav
448,192,133601,1,0,0:0:0:70:CLAP_.wav
192,192,133714,1,0,0:0:0:70:LR_Drum Rpd x2.wav
320,192,133714,1,0,0:0:0:0:
320,192,133828,1,0,0:0:0:70:LR_Drum Rpd x2.wav
448,192,133828,1,0,0:0:0:0:
64,192,133942,1,0,0:0:0:70:LR_Drum Rpd x2.wav
192,192,133942,1,0,0:0:0:0:
64,192,134055,1,0,0:0:0:70:CLAP_.wav
448,192,134055,1,0,0:0:0:0:
320,192,134169,1,0,0:0:0:70:LR_Drum Rpd x2.wav
448,192,134169,1,0,0:0:0:0:
64,192,134283,1,0,0:0:0:70:LR_Drum Rpd x2.wav
192,192,134283,1,0,0:0:0:0:
320,192,134396,1,0,0:0:0:70:LR_Drum Rpd x2.wav
192,192,134510,1,0,0:0:0:70:electronic_neurofunk.wav
448,192,134510,1,0,0:0:0:0:
64,192,134737,128,0,134851:0:0:0:0:
448,192,134964,1,0,0:0:0:0:
192,192,135021,1,0,0:0:0:70:tom01.wav
320,192,135078,1,0,0:0:0:70:tom01.wav
448,192,135135,1,0,0:0:0:50:LR_Drum Kick Low.wav
192,192,135192,1,0,0:0:0:50:LR_Drum Kick Low.wav
320,192,135249,1,0,0:0:0:50:LR_Drum Kick Low.wav
64,192,135305,1,0,0:0:0:50:LR_Drum Kick Low.wav
192,192,135362,1,0,0:0:0:50:LR_Drum Kick Low.wav
64,192,135419,1,0,0:0:0:50:kick.wav
320,192,135419,1,0,0:0:0:50:cymbal.wav
448,192,135419,1,0,0:0:0:70:push_scratch.wav
64,192,135874,1,0,0:0:0:0:
192,192,135949,1,0,0:0:0:0:
320,192,136025,1,0,0:0:0:0:
64,192,136101,1,0,0:0:0:0:
192,192,136177,1,0,0:0:0:0:
448,192,136252,1,0,0:0:0:0:
64,192,136328,1,0,0:0:0:0:
320,192,136404,1,0,0:0:0:0:
448,192,136480,1,0,0:0:0:0:
192,192,136555,1,0,0:0:0:0:
320,192,136631,1,0,0:0:0:0:
448,192,136707,1,0,0:0:0:0:
64,192,136783,1,0,0:0:0:0:
192,192,136858,1,0,0:0:0:0:
448,192,136934,1,0,0:0:0:0:
64,192,137010,1,0,0:0:0:0:
320,192,137086,1,0,0:0:0:0:
192,192,137161,1,0,0:0:0:0:
448,192,137237,1,0,0:0:0:0:
64,192,137313,1,0,0:0:0:0:
448,192,137389,1,0,0:0:0:0:
192,192,137464,1,0,0:0:0:0:
320,192,137540,1,0,0:0:0:0:
192,192,137616,1,0,0:0:0:0:
448,192,137692,1,0,0:0:0:0:
64,192,137767,1,0,0:0:0:0:
320,192,137843,1,0,0:0:0:0:
448,192,137919,1,0,0:0:0:0:
192,192,137995,1,0,0:0:0:0:
320,192,138070,1,0,0:0:0:0:
64,192,138146,1,0,0:0:0:0:
192,192,138222,1,0,0:0:0:0:
448,192,138298,1,0,0:0:0:0:
64,192,138374,1,0,0:0:0:0:
320,192,138449,1,0,0:0:0:0:
192,192,138525,1,0,0:0:0:0:
64,192,138601,1,0,0:0:0:0:
448,192,138677,1,0,0:0:0:0:
320,192,138752,1,0,0:0:0:0:
192,192,138828,1,0,0:0:0:0:
448,192,138904,1,0,0:0:0:0:
320,192,138980,1,0,0:0:0:0:
64,192,139055,1,0,0:0:0:0:
320,192,139964,1,0,0:0:0:0:
448,192,139964,1,0,0:0:0:0:
192,192,140116,1,0,0:0:0:0:
448,192,140116,1,0,0:0:0:0:
64,192,140267,1,0,0:0:0:0:
320,192,140267,1,0,0:0:0:0:
64,192,140419,1,0,0:0:0:0:
192,192,140419,1,0,0:0:0:0:
192,192,140570,1,0,0:0:0:0:
320,192,140570,1,0,0:0:0:0:
320,192,140722,1,0,0:0:0:0:
448,192,140722,1,0,0:0:0:0:
64,192,140874,1,0,0:0:0:0:
448,192,140874,1,0,0:0:0:0:
192,192,141328,1,0,0:0:0:0:
320,192,141404,1,0,0:0:0:0:
64,192,141480,1,0,0:0:0:0:
192,192,141555,1,0,0:0:0:0:
448,192,141555,1,0,0:0:0:0:
64,192,142010,1,0,0:0:0:0:
192,192,142086,1,0,0:0:0:0:
320,192,142161,1,0,0:0:0:0:
64,192,142237,1,0,0:0:0:0:
448,192,142237,1,0,0:0:0:0:
320,192,142313,1,0,0:0:0:0:
192,192,142389,1,0,0:0:0:0:
448,192,142464,1,0,0:0:0:0:
64,192,142540,1,0,0:0:0:0:
320,192,142616,1,0,0:0:0:0:
64,192,142692,1,0,0:0:0:50:LR_Drum Kick Low.wav
192,192,142692,1,0,0:0:0:0:
192,192,142919,1,0,0:0:0:0:
320,192,142919,1,0,0:0:0:0:
320,192,143089,1,0,0:0:0:0:
448,192,143089,1,0,0:0:0:0:
64,192,143260,1,0,0:0:0:0:
192,192,143260,1,0,0:0:0:0:
192,192,143459,1,0,0:0:0:0:
320,192,143459,1,0,0:0:0:0:
64,192,143639,1,0,0:0:0:0:
448,192,143639,1,0,0:0:0:0:
320,192,143828,1,0,0:0:0:0:
448,192,143828,1,0,0:0:0:0:
64,192,144017,1,0,0:0:0:0:
320,192,144017,1,0,0:0:0:0:
192,192,144207,1,0,0:0:0:0:
448,192,144207,1,0,0:0:0:0:
320,192,144396,1,0,0:0:0:0:
448,192,144396,1,0,0:0:0:0:
192,192,144586,1,0,0:0:0:0:
320,192,144586,1,0,0:0:0:0:
64,192,144775,1,0,0:0:0:0:
192,192,144775,1,0,0:0:0:0:
448,192,144964,1,0,0:0:0:0:
320,192,144964,1,0,0:0:0:0:
64,192,145135,1,0,0:0:0:0:
320,192,145135,1,0,0:0:0:0:
64,192,145305,1,0,0:0:0:0:
192,192,145305,1,0,0:0:0:0:
320,192,145495,1,0,0:0:0:0:
448,192,145495,1,0,0:0:0:0:
192,192,145722,1,0,0:0:0:0:
448,192,145722,1,0,0:0:0:0:
64,192,146063,1,0,0:0:0:0:
320,192,146063,1,0,0:0:0:0:
192,192,146328,1,0,0:0:0:0:
320,192,146328,1,0,0:0:0:0:
448,192,146783,1,0,0:0:0:0:
192,192,146858,1,0,0:0:0:0:
448,192,146934,1,0,0:0:0:0:
64,192,147010,1,0,0:0:0:0:
320,192,147086,1,0,0:0:0:0:
64,192,147161,1,0,0:0:0:0:
448,192,147237,1,0,0:0:0:0:
192,192,147313,1,0,0:0:0:0:
320,192,147389,1,0,0:0:0:0:
64,192,147464,1,0,0:0:0:0:
448,192,147540,1,0,0:0:0:0:
192,192,147616,1,0,0:0:0:0:
320,192,147692,1,0,0:0:0:0:
64,192,147767,1,0,0:0:0:0:
192,192,147843,1,0,0:0:0:0:
448,192,147919,1,0,0:0:0:0:
320,192,147995,1,0,0:0:0:0:
64,192,148070,1,0,0:0:0:0:
320,192,148146,1,0,0:0:0:0:
192,192,148222,1,0,0:0:0:0:
64,192,148298,1,0,0:0:0:0:
448,192,148374,1,0,0:0:0:0:
320,192,148449,1,0,0:0:0:0:
192,192,148525,1,0,0:0:0:0:
448,192,148601,1,0,0:0:0:0:
320,192,148677,1,0,0:0:0:0:
64,192,148752,1,0,0:0:0:0:
448,192,148828,1,0,0:0:0:0:
192,192,148904,1,0,0:0:0:0:
320,192,148980,1,0,0:0:0:0:
192,192,149964,1,0,0:0:0:50:kick.wav
320,192,149964,1,0,0:0:0:50:cymbal.wav
448,192,149964,1,0,0:0:0:50:LR_Drum Kick Low.wav
64,192,150040,1,0,0:0:0:0:
320,192,150116,1,0,0:0:0:0:
192,192,150192,1,0,0:0:0:0:
448,192,150267,1,0,0:0:0:0:
192,192,150343,1,0,0:0:0:0:
448,192,150419,1,0,0:0:0:0:
320,192,150495,1,0,0:0:0:0:
64,192,150570,1,0,0:0:0:0:
448,192,150646,1,0,0:0:0:0:
64,192,150722,1,0,0:0:0:0:
448,192,150798,1,0,0:0:0:0:
192,192,150874,1,0,0:0:0:0:
64,192,150949,1,0,0:0:0:0:
320,192,151025,1,0,0:0:0:0:
192,192,151101,1,0,0:0:0:0:
320,192,151177,1,0,0:0:0:0:
192,192,151252,1,0,0:0:0:0:
448,192,151328,1,0,0:0:0:0:
320,192,151404,1,0,0:0:0:0:
64,192,151480,1,0,0:0:0:0:
448,192,151555,1,0,0:0:0:0:
64,192,151631,1,0,0:0:0:0:
448,192,151707,1,0,0:0:0:0:
192,192,151783,1,0,0:0:0:0:
64,192,151858,1,0,0:0:0:0:
320,192,151934,1,0,0:0:0:0:
192,192,152010,1,0,0:0:0:0:
448,192,152086,1,0,0:0:0:0:
320,192,152161,1,0,0:0:0:0:
64,192,152237,1,0,0:0:0:0:
448,192,152313,1,0,0:0:0:0:
192,192,152389,1,0,0:0:0:0:
320,192,152464,1,0,0:0:0:0:
64,192,152540,1,0,0:0:0:0:
192,192,152616,1,0,0:0:0:0:
448,192,152692,1,0,0:0:0:0:
64,192,152767,1,0,0:0:0:0:
320,192,152843,1,0,0:0:0:0:
192,192,152919,1,0,0:0:0:0:
448,192,152995,1,0,0:0:0:0:
320,192,153070,1,0,0:0:0:0:
64,192,153146,1,0,0:0:0:0:
448,192,153222,1,0,0:0:0:0:
192,192,153298,1,0,0:0:0:0:
320,192,153374,1,0,0:0:0:0:
64,192,153449,1,0,0:0:0:0:
192,192,153525,1,0,0:0:0:0:
64,192,153601,1,0,0:0:0:50:kick.wav
320,192,153601,1,0,0:0:0:50:LR_Drum Kick Low.wav
448,192,153601,1,0,0:0:0:0:
192,192,153677,1,0,0:0:0:0:
448,192,153752,1,0,0:0:0:0:
320,192,153828,1,0,0:0:0:0:
192,192,153904,1,0,0:0:0:0:
64,192,153980,1,0,0:0:0:0:
448,192,154055,1,0,0:0:0:0:
320,192,154131,1,0,0:0:0:0:
192,192,154207,1,0,0:0:0:0:
320,192,154283,1,0,0:0:0:0:
64,192,154358,1,0,0:0:0:0:
192,192,154434,1,0,0:0:0:0:
64,192,154510,1,0,0:0:0:0:
320,192,154586,1,0,0:0:0:0:
192,192,154661,1,0,0:0:0:0:
320,192,154737,1,0,0:0:0:0:
64,192,154813,1,0,0:0:0:0:
448,192,154889,1,0,0:0:0:0:
192,192,154964,1,0,0:0:0:0:
320,192,155040,1,0,0:0:0:0:
192,192,155116,1,0,0:0:0:0:
448,192,155192,1,0,0:0:0:0:
320,192,155267,1,0,0:0:0:0:
64,192,155343,1,0,0:0:0:0:
448,192,155419,1,0,0:0:0:0:
192,192,155495,1,0,0:0:0:0:
448,192,155570,1,0,0:0:0:0:
64,192,155646,1,0,0:0:0:0:
320,192,155722,1,0,0:0:0:0:
192,192,155798,1,0,0:0:0:0:
64,192,155874,1,0,0:0:0:0:
320,192,155949,1,0,0:0:0:0:
448,192,156025,1,0,0:0:0:0:
192,192,156101,1,0,0:0:0:0:
320,192,156177,1,0,0:0:0:0:
64,192,156252,1,0,0:0:0:0:
192,192,156328,1,0,0:0:0:0:
320,192,156404,1,0,0:0:0:0:
64,192,156480,1,0,0:0:0:0:
448,192,156555,1,0,0:0:0:0:
320,192,156631,1,0,0:0:0:0:
448,192,156707,1,0,0:0:0:0:
192,192,156783,1,0,0:0:0:0:
320,192,156858,1,0,0:0:0:0:
64,192,156934,1,0,0:0:0:0:
192,192,157010,1,0,0:0:0:0:
448,192,157086,1,0,0:0:0:0:
320,192,157161,1,0,0:0:0:0:
64,192,157237,1,0,0:0:0:50:kick.wav
192,192,157237,1,0,0:0:0:50:LR_Drum Kick Low.wav
448,192,157237,1,0,0:0:0:0:
320,192,157313,1,0,0:0:0:0:
64,192,157389,1,0,0:0:0:0:
448,192,157464,1,0,0:0:0:0:
192,192,157540,1,0,0:0:0:0:
64,192,157616,1,0,0:0:0:0:
320,192,157692,1,0,0:0:0:0:
192,192,157767,1,0,0:0:0:0:
448,192,157843,1,0,0:0:0:0:
320,192,157919,1,0,0:0:0:0:
192,192,157995,1,0,0:0:0:0:
448,192,158070,1,0,0:0:0:0:
64,192,158146,1,0,0:0:0:0:
320,192,158222,1,0,0:0:0:0:
64,192,158298,1,0,0:0:0:0:
448,192,158374,1,0,0:0:0:0:
192,192,158449,1,0,0:0:0:0:
448,192,158525,1,0,0:0:0:0:
64,192,158601,1,0,0:0:0:0:
320,192,158677,1,0,0:0:0:0:
64,192,158752,1,0,0:0:0:0:
448,192,158828,1,0,0:0:0:0:
192,192,158904,1,0,0:0:0:0:
448,192,158980,1,0,0:0:0:0:
64,192,159055,1,0,0:0:0:0:
320,192,159131,1,0,0:0:0:0:
192,192,159207,1,0,0:0:0:0:
64,192,159283,1,0,0:0:0:0:
320,192,159358,1,0,0:0:0:0:
192,192,159434,1,0,0:0:0:0:
448,192,159510,1,0,0:0:0:0:
320,192,159586,1,0,0:0:0:0:
64,192,159661,1,0,0:0:0:0:
448,192,159737,1,0,0:0:0:0:
192,192,159813,1,0,0:0:0:0:
64,192,159889,1,0,0:0:0:0:
320,192,159964,1,0,0:0:0:0:
192,192,160040,1,0,0:0:0:0:
64,192,160116,1,0,0:0:0:0:
448,192,160192,1,0,0:0:0:0:
192,192,160267,1,0,0:0:0:0:
320,192,160343,1,0,0:0:0:0:
64,192,160419,1,0,0:0:0:0:
448,192,160495,1,0,0:0:0:0:
192,192,160570,1,0,0:0:0:0:
448,192,160646,1,0,0:0:0:0:
320,192,160722,1,0,0:0:0:0:
192,192,160798,1,0,0:0:0:0:
64,192,160874,1,0,0:0:0:50:kick.wav
320,192,160874,1,0,0:0:0:50:LR_Drum Kick Low.wav
448,192,160874,1,0,0:0:0:0:
192,192,160949,1,0,0:0:0:0:
320,192,161025,1,0,0:0:0:0:
64,192,161101,1,0,0:0:0:0:
192,192,161177,1,0,0:0:0:0:
448,192,161252,1,0,0:0:0:0:
320,192,161328,1,0,0:0:0:0:
64,192,161404,1,0,0:0:0:0:
448,192,161480,1,0,0:0:0:0:
192,192,161555,1,0,0:0:0:0:
320,192,161631,1,0,0:0:0:0:
448,192,161707,1,0,0:0:0:0:
64,192,161783,1,0,0:0:0:0:
320,192,161858,1,0,0:0:0:0:
192,192,161934,1,0,0:0:0:0:
448,192,162010,1,0,0:0:0:0:
64,192,162086,1,0,0:0:0:0:
448,192,162161,1,0,0:0:0:0:
320,192,162237,1,0,0:0:0:0:
192,192,162313,1,0,0:0:0:0:
64,192,162389,1,0,0:0:0:0:
448,192,162464,1,0,0:0:0:0:
320,192,162540,1,0,0:0:0:0:
192,192,162616,1,0,0:0:0:0:
64,192,162692,1,0,0:0:0:50:kick.wav
320,192,162692,1,0,0:0:0:50:LR_Drum Kick Low.wav
448,192,162692,1,0,0:0:0:70:tom02.wav
192,192,162767,1,0,0:0:0:0:
320,192,162843,1,0,0:0:0:0:
64,192,162919,1,0,0:0:0:0:
192,192,162995,1,0,0:0:0:0:
448,192,163070,1,0,0:0:0:0:
64,192,163146,1,0,0:0:0:0:
320,192,163222,1,0,0:0:0:0:
192,192,163298,1,0,0:0:0:0:
64,192,163374,1,0,0:0:0:50:kick.wav
320,192,163374,1,0,0:0:0:50:LR_Drum Kick Low.wav
448,192,163374,1,0,0:0:0:70:tom02.wav
192,192,163449,1,0,0:0:0:0:
320,192,163525,1,0,0:0:0:0:
448,192,163601,1,0,0:0:0:0:
192,192,163677,1,0,0:0:0:0:
320,192,163752,1,0,0:0:0:0:
64,192,163828,1,0,0:0:0:0:
448,192,163904,1,0,0:0:0:0:
192,192,163980,1,0,0:0:0:0:
64,192,164055,1,0,0:0:0:50:kick.wav
320,192,164055,1,0,0:0:0:50:LR_Drum Kick Low.wav
448,192,164055,1,0,0:0:0:70:tom02.wav
192,192,164169,1,0,0:0:0:0:
64,192,164283,1,0,0:0:0:50:kick.wav
320,192,164283,1,0,0:0:0:0:
448,192,164283,1,0,0:0:0:0:
64,192,164396,1,0,0:0:0:50:kick.wav
448,192,164396,1,0,0:0:0:0:
192,192,164510,1,0,0:0:0:50:kick.wav
320,192,164510,1,0,0:0:0:50:cymbal.wav
448,192,164510,1,0,0:0:0:50:LR_Drum Kick Low.wav
64,192,164586,1,0,0:0:0:0:
320,192,164661,1,0,0:0:0:0:
192,192,164737,1,0,0:0:0:0:
448,192,164813,1,0,0:0:0:0:
192,192,164889,1,0,0:0:0:0:
448,192,164964,1,0,0:0:0:0:
320,192,165040,1,0,0:0:0:0:
64,192,165116,1,0,0:0:0:0:
448,192,165192,1,0,0:0:0:0:
64,192,165267,1,0,0:0:0:0:
448,192,165343,1,0,0:0:0:0:
192,192,165419,1,0,0:0:0:0:
320,192,165419,1,0,0:0:0:0:
64,192,165495,1,0,0:0:0:0:
320,192,165570,1,0,0:0:0:0:
192,192,165646,1,0,0:0:0:0:
320,192,165722,1,0,0:0:0:0:
192,192,165798,1,0,0:0:0:0:
448,192,165874,1,0,0:0:0:0:
320,192,165949,1,0,0:0:0:0:
64,192,166025,1,0,0:0:0:0:
448,192,166101,1,0,0:0:0:0:
64,192,166177,1,0,0:0:0:0:
448,192,166252,1,0,0:0:0:0:
192,192,166328,1,0,0:0:0:70:tom02.wav
320,192,166328,1,0,0:0:0:0:
64,192,166404,1,0,0:0:0:0:
320,192,166480,1,0,0:0:0:0:
192,192,166555,1,0,0:0:0:0:
448,192,166631,1,0,0:0:0:0:
320,192,166707,1,0,0:0:0:0:
64,192,166783,1,0,0:0:0:0:
192,192,166783,1,0,0:0:0:0:
448,192,166858,1,0,0:0:0:0:
192,192,166934,1,0,0:0:0:0:
320,192,167010,1,0,0:0:0:0:
64,192,167086,1,0,0:0:0:0:
192,192,167161,1,0,0:0:0:0:
448,192,167237,128,0,167616:0:0:0:0:
320,192,167313,128,0,167389:0:0:0:0:
192,192,167389,128,0,167464:0:0:0:0:
64,192,167464,128,0,167540:0:0:0:0:
320,192,167540,128,0,167616:0:0:0:0:
192,192,167616,128,0,167692:0:0:0:0:
64,192,167692,128,0,167995:0:0:0:0:
448,192,167692,128,0,167767:0:0:0:0:
320,192,167767,128,0,167843:0:0:0:0:
192,192,167843,128,0,167919:0:0:0:0:
448,192,167919,128,0,167995:0:0:0:0:
320,192,167995,128,0,168070:0:0:0:0:
64,192,168146,1,0,0:0:0:50:kick.wav
192,192,168146,1,0,0:0:0:50:LR_Drum Kick Low.wav
448,192,168146,1,0,0:0:0:0:
320,192,168222,1,0,0:0:0:0:
192,192,168298,1,0,0:0:0:0:
320,192,168374,1,0,0:0:0:0:
192,192,168449,1,0,0:0:0:0:
64,192,168525,1,0,0:0:0:0:
320,192,168601,1,0,0:0:0:0:
448,192,168601,1,0,0:0:0:0:
192,192,168677,1,0,0:0:0:0:
448,192,168752,1,0,0:0:0:0:
320,192,168828,1,0,0:0:0:0:
64,192,168904,1,0,0:0:0:0:
192,192,168980,1,0,0:0:0:0:
320,192,169055,1,0,0:0:0:0:
448,192,169055,1,0,0:0:0:0:
64,192,169131,1,0,0:0:0:0:
320,192,169207,1,0,0:0:0:0:
448,192,169283,1,0,0:0:0:0:
192,192,169358,1,0,0:0:0:0:
64,192,169434,1,0,0:0:0:0:
320,192,169510,1,0,0:0:0:0:
192,192,169586,1,0,0:0:0:0:
448,192,169661,1,0,0:0:0:0:
64,192,169737,1,0,0:0:0:0:
320,192,169813,1,0,0:0:0:0:
448,192,169889,1,0,0:0:0:0:
64,192,169964,1,0,0:0:0:70:tom02.wav
192,192,169964,1,0,0:0:0:0:
320,192,170040,1,0,0:0:0:0:
192,192,170116,1,0,0:0:0:0:
320,192,170192,1,0,0:0:0:0:
64,192,170267,1,0,0:0:0:0:
448,192,170343,1,0,0:0:0:0:
64,192,170419,1,0,0:0:0:0:
192,192,170419,1,0,0:0:0:0:
320,192,170495,1,0,0:0:0:0:
448,192,170570,1,0,0:0:0:0:
192,192,170646,1,0,0:0:0:0:
320,192,170722,1,0,0:0:0:0:
64,192,170798,1,0,0:0:0:0:
192,192,170874,128,0,171328:0:0:0:0:
448,192,170874,128,0,171328:0:0:0:0:
64,192,171328,128,0,171385:0:0:0:0:
320,192,171385,128,0,171442:0:0:0:0:
64,192,171442,128,0,171499:0:0:0:0:
320,192,171499,128,0,171555:0:0:0:0:
192,192,171555,128,0,171612:0:0:0:0:
64,192,171612,128,0,171669:0:0:0:0:
448,192,171669,128,0,171726:0:0:0:0:
320,192,171726,128,0,171783:0:0:0:0:
64,192,171783,1,0,0:0:0:50:kick.wav
192,192,171783,1,0,0:0:0:50:LR_Drum Kick Low.wav
320,192,171858,1,0,0:0:0:0:
64,192,171934,1,0,0:0:0:0:
448,192,172010,1,0,0:0:0:0:
192,192,172086,1,0,0:0:0:0:
64,192,172161,1,0,0:0:0:0:
320,192,172237,1,0,0:0:0:0:
448,192,172237,1,0,0:0:0:0:
192,192,172313,1,0,0:0:0:0:
448,192,172389,1,0,0:0:0:0:
320,192,172464,1,0,0:0:0:0:
192,192,172540,1,0,0:0:0:0:
448,192,172616,1,0,0:0:0:0:
64,192,172692,1,0,0:0:0:0:
192,192,172692,1,0,0:0:0:0:
320,192,172767,1,0,0:0:0:0:
64,192,172843,1,0,0:0:0:0:
448,192,172919,1,0,0:0:0:0:
192,192,172995,1,0,0:0:0:0:
448,192,173070,1,0,0:0:0:0:
64,192,173146,1,0,0:0:0:0:
320,192,173222,1,0,0:0:0:0:
64,192,173298,1,0,0:0:0:0:
448,192,173374,1,0,0:0:0:0:
192,192,173449,1,0,0:0:0:0:
448,192,173525,1,0,0:0:0:0:
64,192,173601,1,0,0:0:0:70:tom02.wav
192,192,173601,1,0,0:0:0:0:
320,192,173677,1,0,0:0:0:0:
448,192,173752,1,0,0:0:0:0:
64,192,173828,1,0,0:0:0:0:
320,192,173904,1,0,0:0:0:0:
192,192,173980,1,0,0:0:0:0:
64,192,174055,1,0,0:0:0:0:
448,192,174055,1,0,0:0:0:0:
320,192,174131,1,0,0:0:0:0:
192,192,174207,1,0,0:0:0:0:
448,192,174283,1,0,0:0:0:0:
64,192,174358,1,0,0:0:0:0:
192,192,174434,1,0,0:0:0:0:
320,192,174510,128,0,174624:0:0:0:0:
64,192,174624,128,0,174851:0:0:0:0:
192,192,174680,128,0,174964:0:0:0:0:
320,192,174737,128,0,174908:0:0:0:0:
64,192,174964,128,0,175078:0:0:0:0:
448,192,174964,128,0,175078:0:0:0:0:
320,192,175021,128,0,175135:0:0:0:0:
448,192,175192,128,0,175305:0:0:0:0:
320,192,175249,128,0,175362:0:0:0:0:
64,192,175419,1,0,0:0:0:50:kick.wav
448,192,175419,1,0,0:0:0:50:LR_Drum Kick Low.wav
192,192,175495,1,0,0:0:0:0:
320,192,175570,1,0,0:0:0:0:
64,192,175646,1,0,0:0:0:0:
192,192,175722,1,0,0:0:0:0:
448,192,175798,1,0,0:0:0:0:
192,192,175874,1,0,0:0:0:0:
320,192,175874,1,0,0:0:0:0:
64,192,175949,1,0,0:0:0:0:
448,192,176025,1,0,0:0:0:0:
192,192,176101,1,0,0:0:0:0:
320,192,176177,1,0,0:0:0:0:
448,192,176252,1,0,0:0:0:0:
64,192,176328,1,0,0:0:0:0:
192,192,176328,1,0,0:0:0:0:
320,192,176404,1,0,0:0:0:0:
192,192,176480,1,0,0:0:0:0:
448,192,176555,1,0,0:0:0:0:
64,192,176631,1,0,0:0:0:0:
320,192,176707,1,0,0:0:0:0:
448,192,176783,1,0,0:0:0:0:
192,192,176858,1,0,0:0:0:0:
320,192,176934,1,0,0:0:0:0:
64,192,177010,1,0,0:0:0:0:
448,192,177086,1,0,0:0:0:0:
320,192,177161,1,0,0:0:0:0:
64,192,177237,1,0,0:0:0:50:kick.wav
192,192,177237,1,0,0:0:0:50:LR_Drum Kick Low.wav
448,192,177294,1,0,0:0:0:0:
320,192,177351,1,0,0:0:0:0:
64,192,177408,1,0,0:0:0:0:
448,192,177464,1,0,0:0:0:0:
320,192,177521,1,0,0:0:0:0:
64,192,177578,1,0,0:0:0:0:
192,192,177635,1,0,0:0:0:0:
320,192,177692,1,0,0:0:0:0:
448,192,177749,1,0,0:0:0:0:
64,192,177805,1,0,0:0:0:0:
192,192,177862,1,0,0:0:0:0:
320,192,177919,1,0,0:0:0:0:
64,192,177976,1,0,0:0:0:0:
192,192,178033,1,0,0:0:0:0:
448,192,178089,1,0,0:0:0:0:
320,192,178146,1,0,0:0:0:0:
64,192,178203,1,0,0:0:0:0:
448,192,178260,1,0,0:0:0:0:
320,192,178317,1,0,0:0:0:0:
64,192,178374,1,0,0:0:0:0:
448,192,178430,1,0,0:0:0:0:
320,192,178487,1,0,0:0:0:0:
64,192,178544,1,0,0:0:0:0:
192,192,178601,1,0,0:0:0:0:
320,192,178658,1,0,0:0:0:0:
448,192,178714,1,0,0:0:0:0:
192,192,178771,1,0,0:0:0:0:
320,192,178828,1,0,0:0:0:0:
448,192,178885,1,0,0:0:0:0:
192,192,178942,1,0,0:0:0:0:
320,192,178999,1,0,0:0:0:0:
64,192,179055,1,0,0:0:0:50:kick.wav
448,192,179055,1,0,0:0:0:50:cymbal.wav
192,192,179169,1,0,0:0:0:0:
320,192,179284,1,0,0:0:0:0:
64,192,179398,1,0,0:0:0:50:LR_Drum Rpd x2.wav
192,192,179398,1,0,0:0:0:0:
320,192,179513,1,0,0:0:0:50:kick.wav
448,192,179513,1,0,0:0:0:0:
64,192,179627,1,0,0:0:0:0:
192,192,179742,1,0,0:0:0:50:LR_Drum Rpd x2.wav
320,192,179742,1,0,0:0:0:0:
448,192,179856,1,0,0:0:0:0:
64,192,179971,1,0,0:0:0:50:kick.wav
320,192,179971,1,0,0:0:0:0:
192,192,180085,1,0,0:0:0:0:
448,192,180200,1,0,0:0:0:0:
64,192,180314,1,0,0:0:0:50:LR_Drum Rpd x2.wav
192,192,180314,1,0,0:0:0:0:
320,192,180429,1,0,0:0:0:50:kick.wav
448,192,180429,1,0,0:0:0:0:
64,192,180543,1,0,0:0:0:0:
320,192,180543,1,0,0:0:0:0:
192,192,180658,1,0,0:0:0:50:LR_Drum Rpd x2.wav
448,192,180658,1,0,0:0:0:0:
320,192,180772,1,0,0:0:0:0:
64,192,180887,1,0,0:0:0:50:kick.wav
448,192,180887,1,0,0:0:0:0:
192,192,181002,1,0,0:0:0:0:
320,192,181117,1,0,0:0:0:0:
64,192,181233,1,0,0:0:0:50:LR_Drum Rpd x2.wav
192,192,181233,1,0,0:0:0:0:
320,192,181348,1,0,0:0:0:50:kick.wav
448,192,181348,1,0,0:0:0:0:
192,192,181463,1,0,0:0:0:0:
64,192,181579,1,0,0:0:0:50:LR_Drum Rpd x2.wav
448,192,181579,1,0,0:0:0:0:
320,192,181694,1,0,0:0:0:0:
64,192,181810,1,0,0:0:0:50:kick.wav
448,192,181810,1,0,0:0:0:0:
192,192,181925,1,0,0:0:0:0:
320,192,182040,1,0,0:0:0:0:
64,192,182156,1,0,0:0:0:50:LR_Drum Rpd x2.wav
192,192,182156,1,0,0:0:0:0:
320,192,182271,1,0,0:0:0:50:kick.wav
448,192,182271,1,0,0:0:0:0:
64,192,182387,1,0,0:0:0:0:
448,192,182387,1,0,0:0:0:0:
192,192,182502,1,0,0:0:0:50:LR_Drum Rpd x2.wav
320,192,182502,1,0,0:0:0:0:
448,192,182617,1,0,0:0:0:0:
64,192,182733,1,0,0:0:0:50:kick.wav
320,192,182733,1,0,0:0:0:0:
192,192,182851,1,0,0:0:0:0:
448,192,182969,1,0,0:0:0:0:
64,192,183087,1,0,0:0:0:50:LR_Drum Rpd x2.wav
192,192,183087,1,0,0:0:0:0:
320,192,183205,1,0,0:0:0:50:kick.wav
448,192,183205,1,0,0:0:0:0:
64,192,183323,1,0,0:0:0:0:
192,192,183441,1,0,0:0:0:50:LR_Drum Rpd x2.wav
320,192,183441,1,0,0:0:0:0:
448,192,183559,1,0,0:0:0:0:
64,192,183677,1,0,0:0:0:50:kick.wav
192,192,183677,1,0,0:0:0:0:
320,192,183795,1,0,0:0:0:0:
192,192,183914,1,0,0:0:0:0:
320,192,184032,1,0,0:0:0:50:LR_Drum Rpd x2.wav
448,192,184032,1,0,0:0:0:0:
64,192,184150,1,0,0:0:0:50:kick.wav
192,192,184150,1,0,0:0:0:0:
64,192,184268,1,0,0:0:0:0:
448,192,184268,1,0,0:0:0:0:
192,192,184386,1,0,0:0:0:50:LR_Drum Rpd x2.wav
320,192,184386,1,0,0:0:0:0:
64,192,184504,1,0,0:0:0:0:
320,192,184622,1,0,0:0:0:50:kick.wav
448,192,184622,1,0,0:0:0:0:
320,192,184740,1,0,0:0:0:0:
448,192,184740,1,0,0:0:0:0:
64,192,184858,1,0,0:0:0:0:
192,192,184977,1,0,0:0:0:50:LR_Drum Rpd x2.wav
448,192,184977,1,0,0:0:0:0:
64,192,185095,1,0,0:0:0:50:kick.wav
320,192,185095,1,0,0:0:0:0:
192,192,185213,1,0,0:0:0:0:
320,192,185331,1,0,0:0:0:50:LR_Drum Rpd x2.wav
448,192,185331,1,0,0:0:0:0:
64,192,185449,1,0,0:0:0:0:
448,192,185449,1,0,0:0:0:0:
192,192,185567,1,0,0:0:0:50:kick.wav
320,192,185567,1,0,0:0:0:0:
64,192,185685,1,0,0:0:0:0:
192,192,185685,1,0,0:0:0:0:
320,192,185803,1,0,0:0:0:0:
448,192,185803,1,0,0:0:0:0:
192,192,185921,1,0,0:0:0:50:LR_Drum Rpd x2.wav
320,192,185921,1,0,0:0:0:0:
64,192,186040,1,0,0:0:0:50:kick.wav
448,192,186040,1,0,0:0:0:0:
64,192,186158,1,0,0:0:0:0:
320,192,186158,1,0,0:0:0:0:
192,192,186276,1,0,0:0:0:50:LR_Drum Rpd x2.wav
448,192,186276,1,0,0:0:0:0:
320,192,186394,1,0,0:0:0:0:
64,192,186512,1,0,0:0:0:50:kick.wav
448,192,186512,1,0,0:0:0:0:
64,192,186633,1,0,0:0:0:0:
448,192,186755,1,0,0:0:0:0:
64,192,186877,1,0,0:0:0:60:LR_Drum Rpd x2.wav
192,192,186877,1,0,0:0:0:0:
64,192,186999,1,0,0:0:0:50:kick.wav
448,192,186999,1,0,0:0:0:0:
320,192,187121,1,0,0:0:0:0:
192,192,187243,1,0,0:0:0:60:LR_Drum Rpd x2.wav
448,192,187243,1,0,0:0:0:0:
64,192,187365,1,0,0:0:0:0:
320,192,187487,1,0,0:0:0:50:kick.wav
448,192,187487,1,0,0:0:0:0:
64,192,187609,1,0,0:0:0:0:
192,192,187731,1,0,0:0:0:0:
320,192,187853,1,0,0:0:0:60:LR_Drum Rpd x2.wav
448,192,187853,1,0,0:0:0:0:
64,192,187975,1,0,0:0:0:50:kick.wav
192,192,187975,1,0,0:0:0:0:
64,192,188097,1,0,0:0:0:0:
448,192,188097,1,0,0:0:0:0:
192,192,188219,1,0,0:0:0:60:LR_Drum Rpd x2.wav
320,192,188219,1,0,0:0:0:0:
448,192,188341,1,0,0:0:0:0:
64,192,188463,1,0,0:0:0:50:kick.wav
192,192,188463,1,0,0:0:0:0:
320,192,188585,1,0,0:0:0:0:
448,192,188707,1,0,0:0:0:0:
64,192,188829,1,0,0:0:0:60:LR_Drum Rpd x2.wav
192,192,188829,1,0,0:0:0:0:
320,192,188951,1,0,0:0:0:50:kick.wav
448,192,188951,1,0,0:0:0:0:
64,192,189072,1,0,0:0:0:0:
192,192,189194,1,0,0:0:0:60:LR_Drum Rpd x2.wav
448,192,189194,1,0,0:0:0:0:
320,192,189316,1,0,0:0:0:0:
64,192,189438,1,0,0:0:0:50:kick.wav
192,192,189438,1,0,0:0:0:0:
448,192,189560,1,0,0:0:0:0:
64,192,189682,1,0,0:0:0:0:
192,192,189804,1,0,0:0:0:60:LR_Drum Rpd x2.wav
320,192,189804,1,0,0:0:0:0:
64,192,189926,1,0,0:0:0:50:kick.wav
448,192,189926,1,0,0:0:0:0:
192,192,190048,1,0,0:0:0:0:
320,192,190048,1,0,0:0:0:0:
320,192,190170,1,0,0:0:0:60:LR_Drum Rpd x2.wav
448,192,190170,1,0,0:0:0:0:
192,192,190292,1,0,0:0:0:0:
64,192,190414,1,0,0:0:0:50:kick.wav
448,192,190414,1,0,0:0:0:0:
320,192,190537,1,0,0:0:0:0:
192,192,190661,1,0,0:0:0:0:
320,192,190785,1,0,0:0:0:60:LR_Drum Rpd x2.wav
448,192,190785,1,0,0:0:0:0:
64,192,190909,1,0,0:0:0:50:kick.wav
192,192,190909,1,0,0:0:0:0:
320,192,191033,1,0,0:0:0:0:
64,192,191157,1,0,0:0:0:60:LR_Drum Rpd x2.wav
448,192,191157,1,0,0:0:0:0:
192,192,191281,1,0,0:0:0:0:
320,192,191405,1,0,0:0:0:50:kick.wav
448,192,191405,1,0,0:0:0:0:
64,192,191529,1,0,0:0:0:0:
192,192,191653,1,0,0:0:0:0:
320,192,191777,1,0,0:0:0:60:LR_Drum Rpd x2.wav
448,192,191777,1,0,0:0:0:0:
64,192,191901,1,0,0:0:0:50:kick.wav
448,192,191901,1,0,0:0:0:0:
320,192,192025,1,0,0:0:0:0:
64,192,192149,1,0,0:0:0:60:LR_Drum Rpd x2.wav
192,192,192149,1,0,0:0:0:0:
320,192,192273,1,0,0:0:0:0:
64,192,192397,1,0,0:0:0:50:kick.wav
448,192,192397,1,0,0:0:0:0:
64,192,192525,1,0,0:0:0:0:
192,192,192525,1,0,0:0:0:0:
320,192,192653,1,0,0:0:0:50:LR_Drum Kick Low.wav
448,192,192717,1,0,0:0:0:50:LR_Drum Kick Low.wav
64,192,192781,1,0,0:0:0:60:LR_Drum Rpd x2.wav
192,192,192781,1,0,0:0:0:0:
192,192,192909,1,0,0:0:0:50:LR_Drum Kick Low.wav
448,192,192909,1,0,0:0:0:0:
320,192,193038,1,0,0:0:0:50:LR_Drum Kick Low.wav
448,192,193038,1,0,0:0:0:0:
64,192,193166,1,0,0:0:0:60:LR_Drum Rpd x2.wav
192,192,193166,1,0,0:0:0:0:
320,192,193294,1,0,0:0:0:50:LR_Drum Kick Low.wav
448,192,193294,1,0,0:0:0:0:
192,192,193358,1,0,0:0:0:50:LR_Drum Kick Low.wav
64,192,193422,128,0,193807:0:0:0:50:kick.wav
320,192,193422,128,0,193550:0:0:0:0:
448,192,193422,128,0,193679:0:0:0:0:
192,192,193550,128,0,193935:0:0:0:0:
320,192,193679,128,0,194063:0:0:0:0:
448,192,193807,128,0,194191:0:0:0:0:
64,192,193935,128,0,194320:0:0:0:0:
192,192,194063,128,0,194320:0:0:0:0:
320,192,194191,128,0,194320:0:0:0:0:
448,192,194320,1,0,0:0:0:0:
64,192,194437,1,0,0:0:0:50:kick.wav
192,192,194437,1,0,0:0:0:50:cymbal.wav
320,192,194437,1,0,0:0:0:0:
448,192,194500,1,0,0:0:0:0:
64,192,194564,1,0,0:0:0:0:
192,192,194627,1,0,0:0:0:0:
320,192,194691,1,0,0:0:0:70:LR_Drum Rpd x2.wav
448,192,194691,1,0,0:0:0:0:
192,192,194818,1,0,0:0:0:0:
320,192,194881,1,0,0:0:0:0:
64,192,194945,1,0,0:0:0:50:kick.wav
448,192,194945,1,0,0:0:0:0:
64,192,195072,1,0,0:0:0:0:
192,192,195199,1,0,0:0:0:70:LR_Drum Rpd x2.wav
320,192,195199,1,0,0:0:0:0:
448,192,195326,1,0,0:0:0:0:
320,192,195390,1,0,0:0:0:0:
64,192,195453,1,0,0:0:0:50:kick.wav
192,192,195453,1,0,0:0:0:0:
192,192,195581,1,0,0:0:0:0:
320,192,195708,1,0,0:0:0:70:LR_Drum Rpd x2.wav
448,192,195708,1,0,0:0:0:0:
320,192,195835,1,0,0:0:0:0:
192,192,195898,1,0,0:0:0:0:
64,192,195962,1,0,0:0:0:50:kick.wav
448,192,195962,1,0,0:0:0:0:
320,192,196089,1,0,0:0:0:0:
448,192,196089,1,0,0:0:0:0:
64,192,196216,1,0,0:0:0:70:LR_Drum Rpd x2.wav
192,192,196216,1,0,0:0:0:0:
320,192,196343,1,0,0:0:0:0:
192,192,196470,1,0,0:0:0:50:kick.wav
448,192,196470,1,0,0:0:0:0:
64,192,196535,1,0,0:0:0:50:kick.wav
320,192,196600,1,0,0:0:0:50:kick.wav
192,192,196665,1,0,0:0:0:50:kick.wav
64,192,196730,1,0,0:0:0:50:kick.wav
448,192,196730,1,0,0:0:0:70:LR_Drum Rpd x2.wav
448,192,196861,1,0,0:0:0:0:
64,192,196991,1,0,0:0:0:50:kick.wav
192,192,196991,1,0,0:0:0:0:
192,192,197122,1,0,0:0:0:0:
320,192,197252,1,0,0:0:0:70:LR_Drum Rpd x2.wav
448,192,197252,1,0,0:0:0:0:
320,192,197383,1,0,0:0:0:0:
192,192,197513,1,0,0:0:0:50:kick.wav
448,192,197513,1,0,0:0:0:70:LR_Drum Rpd x2.wav
192,192,197643,1,0,0:0:0:70:LR_Drum Rpd x2.wav
64,192,197774,1,0,0:0:0:70:LR_Drum Rpd x2.wav
320,192,197774,1,0,0:0:0:0:
320,192,197904,1,0,0:0:0:70:LR_Drum Rpd x2.wav
64,192,198035,128,0,198426:0:0:0:50:kick.wav
192,192,198035,128,0,198426:0:0:0:0:
448,192,198035,128,0,198426:0:0:0:0:
320,192,198296,128,0,198426:0:0:0:0:
320,192,198568,1,0,0:0:0:0:
448,192,198568,1,0,0:0:0:0:
64,192,198568,1,0,0:0:0:50:kick.wav
192,192,198700,1,0,0:0:0:70:LR_Drum Rpd x2.wav
64,192,198833,1,0,0:0:0:50:kick.wav
320,192,198833,1,0,0:0:0:70:LR_Drum Rpd x2.wav
320,192,198966,1,0,0:0:0:70:LR_Drum Rpd x2.wav
192,192,199032,1,0,0:0:0:0:
64,192,199098,1,0,0:0:0:50:kick.wav
448,192,199098,1,0,0:0:0:70:LR_Drum Rpd x2.wav
448,192,199231,1,0,0:0:0:70:LR_Drum Rpd x2.wav
192,192,199364,1,0,0:0:0:50:kick.wav
320,192,199364,1,0,0:0:0:70:LR_Drum Rpd x2.wav
192,192,199497,1,0,0:0:0:70:LR_Drum Rpd x2.wav
320,192,199563,1,0,0:0:0:0:
64,192,199629,1,0,0:0:0:50:kick.wav
448,192,199629,1,0,0:0:0:70:LR_Drum Rpd x2.wav
448,192,199762,1,0,0:0:0:70:LR_Drum Rpd x2.wav
64,192,199895,1,0,0:0:0:50:kick.wav
320,192,199895,1,0,0:0:0:70:LR_Drum Rpd x2.wav
64,192,200028,1,0,0:0:0:70:LR_Drum Rpd x2.wav
192,192,200160,1,0,0:0:0:50:kick.wav
448,192,200160,1,0,0:0:0:70:LR_Drum Rpd x2.wav
320,192,200293,1,0,0:0:0:70:LR_Drum Rpd x2.wav
448,192,200293,1,0,0:0:0:0:
64,192,200426,1,0,0:0:0:50:kick.wav
192,192,200426,1,0,0:0:0:70:LR_Drum Rpd x2.wav
192,192,200559,1,0,0:0:0:70:LR_Drum Rpd x2.wav
64,192,200695,1,0,0:0:0:50:kick.wav
448,192,200695,1,0,0:0:0:70:LR_Drum Rpd x2.wav
320,192,200762,1,0,0:0:0:50:kick.wav
192,192,200830,1,0,0:0:0:50:kick.wav
64,192,200898,1,0,0:0:0:50:kick.wav
320,192,200966,1,0,0:0:0:50:kick.wav
448,192,200966,1,0,0:0:0:70:LR_Drum Rpd x2.wav
320,192,201102,1,0,0:0:0:70:LR_Drum Rpd x2.wav
192,192,201237,1,0,0:0:0:50:kick.wav
448,192,201237,1,0,0:0:0:70:LR_Drum Rpd x2.wav
192,192,201373,1,0,0:0:0:70:LR_Drum Rpd x2.wav
64,192,201509,1,0,0:0:0:50:kick.wav
320,192,201509,1,0,0:0:0:70:LR_Drum Rpd x2.wav
320,192,201645,1,0,0:0:0:70:LR_Drum Rpd x2.wav
64,192,201780,1,0,0:0:0:50:kick.wav
448,192,201780,1,0,0:0:0:70:LR_Drum Rpd x2.wav
64,192,201916,1,0,0:0:0:70:LR_Drum Rpd x2.wav
192,192,202052,1,0,0:0:0:50:kick.wav
448,192,202052,1,0,0:0:0:70:LR_Drum Rpd x2.wav
448,192,202188,1,0,0:0:0:70:LR_Drum Rpd x2.wav
64,192,202323,128,0,202731:0:0:0:50:kick.wav
192,192,202323,128,0,202459:0:0:0:0:
320,192,202323,128,0,202527:0:0:0:0:
192,192,202595,128,0,202731:0:0:0:0:
320,192,202663,128,0,202731:0:0:0:0:
64,192,202864,1,0,0:0:0:50:kick.wav
192,192,202864,1,0,0:0:0:50:cymbal.wav
448,192,202864,1,0,0:0:0:70:LR_Drum Rpd x2.wav
320,192,202932,1,0,0:0:0:0:
64,192,203000,1,0,0:0:0:70:LR_Drum Rpd x2.wav
192,192,203068,1,0,0:0:0:0:
320,192,203136,1,0,0:0:0:50:kick.wav
448,192,203136,1,0,0:0:0:70:LR_Drum Rpd x2.wav
320,192,203273,1,0,0:0:0:70:LR_Drum Rpd x2.wav
448,192,203273,1,0,0:0:0:0:
64,192,203409,1,0,0:0:0:50:kick.wav
192,192,203409,1,0,0:0:0:70:LR_Drum Rpd x2.wav
64,192,203545,1,0,0:0:0:70:LR_Drum Rpd x2.wav
448,192,203545,1,0,0:0:0:0:
192,192,203682,1,0,0:0:0:50:kick.wav
320,192,203682,1,0,0:0:0:70:LR_Drum Rpd x2.wav
64,192,203818,1,0,0:0:0:70:LR_Drum Rpd x2.wav
448,192,203818,1,0,0:0:0:0:
320,192,203954,1,0,0:0:0:50:kick.wav
448,192,203954,1,0,0:0:0:70:LR_Drum Rpd x2.wav
192,192,204023,1,0,0:0:0:50:kick.wav
64,192,204091,1,0,0:0:0:50:kick.wav
448,192,204091,1,0,0:0:0:70:LR_Drum Rpd x2.wav
320,192,204159,1,0,0:0:0:50:kick.wav
64,192,204227,1,0,0:0:0:50:kick.wav
192,192,204227,1,0,0:0:0:70:LR_Drum Rpd x2.wav
192,192,204364,1,0,0:0:0:70:LR_Drum Rpd x2.wav
448,192,204364,1,0,0:0:0:0:
320,192,204500,1,0,0:0:0:50:kick.wav
448,192,204500,1,0,0:0:0:70:LR_Drum Rpd x2.wav
192,192,204636,1,0,0:0:0:70:LR_Drum Rpd x2.wav
320,192,204636,1,0,0:0:0:0:
64,192,204773,1,0,0:0:0:50:kick.wav
448,192,204773,1,0,0:0:0:70:LR_Drum Rpd x2.wav
192,192,204909,1,0,0:0:0:70:LR_Drum Rpd x2.wav
320,192,204909,1,0,0:0:0:0:
64,192,205045,1,0,0:0:0:50:kick.wav
192,192,205045,1,0,0:0:0:70:LR_Drum Rpd x2.wav
320,192,205114,1,0,0:0:0:50:kick.wav
64,192,205182,1,0,0:0:0:50:kick.wav
448,192,205182,1,0,0:0:0:70:LR_Drum Rpd x2.wav
192,192,205250,1,0,0:0:0:50:kick.wav
320,192,205318,1,0,0:0:0:50:kick.wav
448,192,205318,1,0,0:0:0:70:LR_Drum Rpd x2.wav
64,192,205454,1,0,0:0:0:70:LR_Drum Rpd x2.wav
320,192,205454,1,0,0:0:0:0:
64,192,205591,1,0,0:0:0:50:kick.wav
192,192,205591,1,0,0:0:0:70:LR_Drum Rpd x2.wav
192,192,205727,1,0,0:0:0:70:LR_Drum Rpd x2.wav
320,192,205727,1,0,0:0:0:0:
64,192,205864,1,0,0:0:0:50:kick.wav
448,192,205864,1,0,0:0:0:70:LR_Drum Rpd x2.wav
320,192,206000,1,0,0:0:0:70:LR_Drum Rpd x2.wav
448,192,206000,1,0,0:0:0:0:
64,192,206136,1,0,0:0:0:50:kick.wav
192,192,206136,1,0,0:0:0:70:LR_Drum Rpd x2.wav
320,192,206204,1,0,0:0:0:50:kick.wav
192,192,206273,1,0,0:0:0:50:kick.wav
448,192,206273,1,0,0:0:0:70:LR_Drum Rpd x2.wav
64,192,206341,1,0,0:0:0:50:kick.wav
320,192,206409,1,0,0:0:0:50:kick.wav
448,192,206409,1,0,0:0:0:70:LR_Drum Rpd x2.wav
64,192,206545,1,0,0:0:0:70:LR_Drum Rpd x2.wav
192,192,206545,1,0,0:0:0:0:
64,192,206682,1,0,0:0:0:50:kick.wav
320,192,206682,1,0,0:0:0:70:LR_Drum Rpd x2.wav
192,192,206818,1,0,0:0:0:70:LR_Drum Rpd x2.wav
448,192,206818,1,0,0:0:0:0:
320,192,206954,1,0,0:0:0:50:kick.wav
448,192,206954,1,0,0:0:0:70:LR_Drum Rpd x2.wav
64,192,207091,1,0,0:0:0:70:LR_Drum Rpd x2.wav
192,192,207091,1,0,0:0:0:0:
64,192,207227,1,0,0:0:0:50:kick.wav
320,192,207227,1,0,0:0:0:50:cymbal.wav
448,192,207227,1,0,0:0:0:70:LR_Drum Rpd x2.wav
192,192,207364,1,0,0:0:0:50:kick.wav
448,192,207364,1,0,0:0:0:70:LR_Drum Rpd x2.wav
64,192,207500,1,0,0:0:0:50:kick.wav
320,192,207500,1,0,0:0:0:70:LR_Drum Rpd x2.wav
192,192,207636,1,0,0:0:0:50:kick.wav
320,192,207636,1,0,0:0:0:70:LR_Drum Rpd x2.wav
64,192,207773,1,0,0:0:0:50:kick.wav
192,192,207773,1,0,0:0:0:70:LR_Drum Rpd x2.wav
448,192,207773,1,0,0:0:0:0:
64,192,207909,1,0,0:0:0:50:kick.wav
320,192,207909,1,0,0:0:0:70:LR_Drum Rpd x2.wav
192,192,208045,1,0,0:0:0:50:kick.wav
448,192,208045,1,0,0:0:0:70:LR_Drum Rpd x2.wav
192,192,208182,1,0,0:0:0:50:kick.wav
320,192,208182,1,0,0:0:0:70:LR_Drum Rpd x2.wav
64,192,208318,1,0,0:0:0:50:kick.wav
320,192,208318,1,0,0:0:0:70:LR_Drum Rpd x2.wav
448,192,208318,1,0,0:0:0:0:
192,192,208454,1,0,0:0:0:50:kick.wav
448,192,208454,1,0,0:0:0:70:LR_Drum Rpd x2.wav
64,192,208591,1,0,0:0:0:50:kick.wav
320,192,208591,1,0,0:0:0:70:LR_Drum Rpd x2.wav
192,192,208727,1,0,0:0:0:50:kick.wav
320,192,208727,1,0,0:0:0:70:LR_Drum Rpd x2.wav
64,192,208864,1,0,0:0:0:50:kick.wav
192,192,208864,1,0,0:0:0:70:LR_Drum Rpd x2.wav
448,192,208864,1,0,0:0:0:0:
64,192,209000,1,0,0:0:0:50:kick.wav
320,192,209000,1,0,0:0:0:70:LR_Drum Rpd x2.wav
192,192,209136,1,0,0:0:0:50:kick.wav
448,192,209136,1,0,0:0:0:70:LR_Drum Rpd x2.wav
192,192,209273,1,0,0:0:0:50:kick.wav
320,192,209273,1,0,0:0:0:70:LR_Drum Rpd x2.wav
64,192,209409,1,0,0:0:0:50:kick.wav
320,192,209409,1,0,0:0:0:70:LR_Drum Rpd x2.wav
448,192,209409,1,0,0:0:0:0:
64,192,211591,1,0,0:0:0:50:kick.wav
320,192,211591,128,0,211864:0:0:0:50:cymbal.wav
448,192,211591,128,0,211864:0:0:0:0:
192,192,211864,128,0,212000:0:0:0:0:
64,192,211909,128,0,212000:0:0:0:0:
320,192,212000,128,0,212068:0:0:0:0:
64,192,212136,1,0,0:0:0:70:electronic_neurofunk.wav
192,192,212136,1,0,0:0:0:0:
448,192,212136,1,0,0:0:0:0:
320,192,212273,1,0,0:0:0:0:
320,192,212409,1,0,0:0:0:0:
320,192,212545,1,0,0:0:0:0:
320,192,212682,1,0,0:0:0:0:
320,192,212818,1,0,0:0:0:0:
192,192,212954,1,0,0:0:0:50:kick.wav
448,192,212954,1,0,0:0:0:0:
320,192,213091,1,0,0:0:0:0:
64,192,213227,1,0,0:0:0:70:electronic_neurofunk.wav
320,192,213227,128,0,213500:0:0:0:0:
448,192,213227,128,0,213636:0:0:0:0:
64,192,213500,1,0,0:0:0:0:
192,192,213568,1,0,0:0:0:0:
320,192,213636,1,0,0:0:0:0:
192,192,213704,1,0,0:0:0:0:
64,192,213773,128,0,213909:0:0:0:50:kick.wav
320,192,213773,128,0,213909:0:0:0:0:
448,192,213773,128,0,213909:0:0:0:0:
320,192,214045,1,0,0:0:0:0:
64,192,214114,1,0,0:0:0:0:
448,192,214182,1,0,0:0:0:0:
192,192,214250,1,0,0:0:0:0:
64,192,214318,1,0,0:0:0:70:electronic_neurofunk.wav
320,192,214318,1,0,0:0:0:0:
448,192,214318,1,0,0:0:0:0:
64,192,214454,1,0,0:0:0:0:
192,192,214454,1,0,0:0:0:0:
320,192,214523,1,0,0:0:0:0:
448,192,214523,1,0,0:0:0:0:
64,192,214591,1,0,0:0:0:0:
192,192,214591,1,0,0:0:0:0:
192,192,214727,1,0,0:0:0:50:kick.wav
320,192,214727,1,0,0:0:0:0:
64,192,214864,1,0,0:0:0:0:
448,192,214864,1,0,0:0:0:0:
320,192,215000,1,0,0:0:0:0:
448,192,215000,1,0,0:0:0:0:
64,192,215068,1,0,0:0:0:0:
192,192,215068,1,0,0:0:0:0:
320,192,215136,1,0,0:0:0:50:kick.wav
448,192,215136,1,0,0:0:0:0:
64,192,215273,1,0,0:0:0:0:
192,192,215273,1,0,0:0:0:0:
64,192,215409,1,0,0:0:0:70:electronic_neurofunk.wav
320,192,215409,1,0,0:0:0:0:
448,192,215409,1,0,0:0:0:0:
192,192,215545,1,0,0:0:0:0:
320,192,215614,1,0,0:0:0:0:
448,192,215682,1,0,0:0:0:0:
192,192,215750,1,0,0:0:0:0:
320,192,215818,1,0,0:0:0:0:
192,192,215886,1,0,0:0:0:0:
64,192,215954,1,0,0:0:0:50:kick.wav
320,192,215954,128,0,216227:0:0:0:50:cymbal.wav
448,192,215954,128,0,216227:0:0:0:0:
192,192,216227,128,0,216364:0:0:0:0:
64,192,216273,128,0,216364:0:0:0:0:
320,192,216364,128,0,216432:0:0:0:0:
64,192,216500,1,0,0:0:0:70:electronic_neurofunk.wav
192,192,216500,1,0,0:0:0:0:
448,192,216568,1,0,0:0:0:0:
64,192,216636,1,0,0:0:0:0:
448,192,216704,1,0,0:0:0:0:
64,192,216773,1,0,0:0:0:0:
448,192,216841,1,0,0:0:0:0:
64,192,216909,1,0,0:0:0:0:
448,192,216977,1,0,0:0:0:0:
64,192,217045,1,0,0:0:0:0:
448,192,217114,1,0,0:0:0:0:
64,192,217182,1,0,0:0:0:0:
448,192,217250,1,0,0:0:0:0:
192,192,217318,1,0,0:0:0:50:kick.wav
320,192,217318,1,0,0:0:0:0:
64,192,217386,1,0,0:0:0:0:
448,192,217454,1,0,0:0:0:0:
64,192,217523,1,0,0:0:0:0:
192,192,217591,1,0,0:0:0:70:electronic_neurofunk.wav
320,192,217591,128,0,217864:0:0:0:0:
448,192,217591,128,0,218000:0:0:0:0:
64,192,217864,1,0,0:0:0:0:
192,192,217932,1,0,0:0:0:0:
320,192,218000,1,0,0:0:0:0:
192,192,218068,1,0,0:0:0:0:
64,192,218136,128,0,218409:0:0:0:50:kick.wav
320,192,218136,128,0,218273:0:0:0:0:
448,192,218136,128,0,218273:0:0:0:0:
192,192,218409,1,0,0:0:0:0:
320,192,218477,1,0,0:0:0:0:
448,192,218545,1,0,0:0:0:0:
192,192,218614,1,0,0:0:0:0:
64,192,218682,1,0,0:0:0:70:electronic_neurofunk.wav
320,192,218682,1,0,0:0:0:0:
448,192,218682,1,0,0:0:0:0:
192,192,218773,1,0,0:0:0:0:
320,192,218864,1,0,0:0:0:0:
64,192,218954,1,0,0:0:0:0:
192,192,219045,1,0,0:0:0:0:
320,192,219091,1,0,0:0:0:50:kick.wav
448,192,219091,1,0,0:0:0:0:
64,192,219136,1,0,0:0:0:0:
320,192,219227,128,0,219500:0:0:0:0:
192,192,219409,1,0,0:0:0:0:
64,192,219500,1,0,0:0:0:50:kick.wav
448,192,219500,1,0,0:0:0:0:
320,192,219636,1,0,0:0:0:0:
64,192,219773,128,0,219909:0:0:0:70:electronic_neurofunk.wav
192,192,219773,128,0,219909:0:0:0:0:
448,192,219773,1,0,0:0:0:0:
64,192,220045,1,0,0:0:0:0:
320,192,220045,1,0,0:0:0:0:
448,192,220114,1,0,0:0:0:0:
192,192,220182,1,0,0:0:0:0:
320,192,220250,1,0,0:0:0:0:
64,192,220318,128,0,220591:0:0:0:50:kick.wav
192,192,220318,128,0,220591:0:0:0:50:cymbal.wav
448,192,220318,1,0,0:0:0:0:
320,192,220591,128,0,220727:0:0:0:0:
448,192,220636,128,0,220727:0:0:0:0:
192,192,220727,128,0,220795:0:0:0:0:
64,192,220864,1,0,0:0:0:70:electronic_neurofunk.wav
320,192,220864,1,0,0:0:0:0:
448,192,220864,1,0,0:0:0:0:
192,192,221000,1,0,0:0:0:0:
192,192,221136,1,0,0:0:0:0:
192,192,221273,1,0,0:0:0:0:
192,192,221409,1,0,0:0:0:0:
192,192,221545,1,0,0:0:0:0:
64,192,221682,1,0,0:0:0:50:kick.wav
320,192,221682,1,0,0:0:0:0:
192,192,221818,1,0,0:0:0:0:
64,192,221954,1,0,0:0:0:70:electronic_neurofunk.wav
320,192,221954,128,0,222227:0:0:0:0:
448,192,221954,128,0,222295:0:0:0:0:
64,192,222227,1,0,0:0:0:0:
192,192,222295,1,0,0:0:0:0:
320,192,222364,1,0,0:0:0:0:
448,192,222432,1,0,0:0:0:0:
64,192,222500,128,0,222636:0:0:0:50:kick.wav
192,192,222500,128,0,222636:0:0:0:0:
320,192,222773,1,0,0:0:0:0:
64,192,222841,1,0,0:0:0:0:
448,192,222909,1,0,0:0:0:0:
192,192,222977,1,0,0:0:0:0:
64,192,223045,1,0,0:0:0:70:electronic_neurofunk.wav
320,192,223045,1,0,0:0:0:0:
448,192,223045,1,0,0:0:0:0:
64,192,223182,1,0,0:0:0:0:
192,192,223182,1,0,0:0:0:0:
320,192,223250,1,0,0:0:0:0:
448,192,223250,1,0,0:0:0:0:
64,192,223318,1,0,0:0:0:0:
192,192,223318,1,0,0:0:0:0:
192,192,223454,1,0,0:0:0:50:kick.wav
320,192,223454,1,0,0:0:0:0:
64,192,223591,1,0,0:0:0:0:
448,192,223591,1,0,0:0:0:0:
320,192,223727,1,0,0:0:0:0:
448,192,223727,1,0,0:0:0:0:
64,192,223795,1,0,0:0:0:0:
192,192,223795,1,0,0:0:0:0:
320,192,223864,1,0,0:0:0:50:kick.wav
448,192,223864,1,0,0:0:0:0:
64,192,224000,1,0,0:0:0:0:
192,192,224000,1,0,0:0:0:0:
64,192,224136,1,0,0:0:0:70:electronic_neurofunk.wav
320,192,224136,1,0,0:0:0:0:
448,192,224136,1,0,0:0:0:0:
192,192,224273,1,0,0:0:0:0:
320,192,224341,1,0,0:0:0:0:
448,192,224409,1,0,0:0:0:0:
192,192,224477,1,0,0:0:0:0:
320,192,224545,1,0,0:0:0:0:
192,192,224614,1,0,0:0:0:0:
64,192,224682,1,0,0:0:0:50:kick.wav
320,192,224682,128,0,224954:0:0:0:50:cymbal.wav
448,192,224682,128,0,224954:0:0:0:0:
192,192,224954,128,0,225091:0:0:0:0:
64,192,225000,128,0,225091:0:0:0:0:
320,192,225091,128,0,225159:0:0:0:0:
64,192,225227,1,0,0:0:0:70:electronic_neurofunk.wav
192,192,225227,1,0,0:0:0:0:
448,192,225295,1,0,0:0:0:0:
64,192,225364,1,0,0:0:0:0:
448,192,225432,1,0,0:0:0:0:
64,192,225500,1,0,0:0:0:0:
448,192,225568,1,0,0:0:0:0:
64,192,225636,1,0,0:0:0:0:
448,192,225704,1,0,0:0:0:0:
64,192,225773,1,0,0:0:0:0:
448,192,225841,1,0,0:0:0:0:
64,192,225909,1,0,0:0:0:0:
448,192,225977,1,0,0:0:0:0:
192,192,226045,1,0,0:0:0:50:kick.wav
320,192,226045,1,0,0:0:0:0:
64,192,226114,1,0,0:0:0:0:
448,192,226182,1,0,0:0:0:0:
64,192,226250,1,0,0:0:0:0:
320,192,226318,1,0,0:0:0:70:electronic_neurofunk.wav
448,192,226318,1,0,0:0:0:0:
192,192,226386,1,0,0:0:0:0:
320,192,226454,1,0,0:0:0:0:
192,192,226523,1,0,0:0:0:0:
320,192,226591,128,0,226659:0:0:0:0:
320,192,226727,128,0,226795:0:0:0:0:
64,192,226864,128,0,227000:0:0:0:50:kick.wav
192,192,226864,128,0,227000:0:0:0:0:
448,192,226864,1,0,0:0:0:0:
64,192,227068,128,0,227204:0:0:0:0:
192,192,227068,128,0,227204:0:0:0:0:
64,192,227273,128,0,227409:0:0:0:0:
192,192,227273,128,0,227409:0:0:0:0:
320,192,227409,128,0,227545:0:0:0:0:
448,192,227409,128,0,227545:0:0:0:0:
64,192,227545,128,0,227682:0:0:0:0:
192,192,227545,128,0,227682:0:0:0:0:
320,192,227750,128,0,227886:0:0:0:0:
448,192,227750,128,0,227886:0:0:0:0:
64,192,227954,128,0,228364:0:0:0:70:snare06.wav
192,192,228364,1,0,0:0:0:70:LR_Drum Rpd x2.wav
320,192,228364,1,0,0:0:0:0:
64,192,228500,1,0,0:0:0:70:LR_Drum Rpd x2.wav
448,192,228500,1,0,0:0:0:0:
320,192,228568,1,0,0:0:0:0:
192,192,228636,1,0,0:0:0:70:LR_Drum Rpd x2.wav
448,192,228704,1,0,0:0:0:0:
320,192,228773,1,0,0:0:0:70:tom01.wav
448,192,228841,1,0,0:0:0:0:
64,192,228909,1,0,0:0:0:70:tom02.wav
192,192,228977,1,0,0:0:0:0:
64,192,229045,1,0,0:0:0:50:kick.wav
320,192,229045,128,0,229273:0:0:0:50:cymbal.wav
448,192,229045,128,0,229364:0:0:0:0:
192,192,229318,128,0,229454:0:0:0:0:
64,192,229364,128,0,229454:0:0:0:0:
320,192,229454,128,0,229523:0:0:0:0:
64,192,229591,1,0,0:0:0:50:kick.wav
192,192,229591,1,0,0:0:0:0:
448,192,229591,1,0,0:0:0:0:
192,192,229727,1,0,0:0:0:0:
192,192,229864,1,0,0:0:0:0:
192,192,230000,1,0,0:0:0:0:
64,192,230136,1,0,0:0:0:50:kick.wav
320,192,230136,1,0,0:0:0:0:
448,192,230136,1,0,0:0:0:0:
320,192,230273,1,0,0:0:0:0:
320,192,230409,1,0,0:0:0:0:
320,192,230545,1,0,0:0:0:0:
64,192,230682,128,0,230954:0:0:0:50:kick.wav
192,192,230682,128,0,231023:0:0:0:0:
448,192,230682,1,0,0:0:0:0:
448,192,230954,128,0,231023:0:0:0:0:
320,192,231023,1,0,0:0:0:0:
64,192,231091,1,0,0:0:0:0:
192,192,231159,1,0,0:0:0:0:
64,192,231227,1,0,0:0:0:50:kick.wav
320,192,231227,128,0,231364:0:0:0:0:
448,192,231227,128,0,231364:0:0:0:0:
192,192,231500,1,0,0:0:0:0:
448,192,231568,1,0,0:0:0:0:
64,192,231636,1,0,0:0:0:0:
320,192,231704,1,0,0:0:0:0:
64,192,231773,1,0,0:0:0:50:kick.wav
192,192,231773,1,0,0:0:0:0:
448,192,231773,1,0,0:0:0:0:
320,192,231909,1,0,0:0:0:0:
448,192,231909,1,0,0:0:0:0:
64,192,231977,1,0,0:0:0:0:
192,192,231977,1,0,0:0:0:0:
320,192,232045,1,0,0:0:0:0:
448,192,232045,1,0,0:0:0:0:
64,192,232182,1,0,0:0:0:0:
192,192,232182,1,0,0:0:0:0:
64,192,232318,1,0,0:0:0:50:kick.wav
320,192,232318,1,0,0:0:0:0:
448,192,232318,1,0,0:0:0:0:
64,192,232454,1,0,0:0:0:0:
192,192,232454,1,0,0:0:0:0:
320,192,232523,1,0,0:0:0:0:
448,192,232523,1,0,0:0:0:0:
64,192,232591,1,0,0:0:0:0:
192,192,232591,1,0,0:0:0:0:
320,192,232727,1,0,0:0:0:0:
448,192,232727,1,0,0:0:0:0:
64,192,232864,1,0,0:0:0:50:kick.wav
192,192,232864,1,0,0:0:0:0:
448,192,232864,1,0,0:0:0:0:
320,192,233000,1,0,0:0:0:0:
448,192,233068,1,0,0:0:0:0:
64,192,233136,1,0,0:0:0:0:
320,192,233204,1,0,0:0:0:0:
192,192,233273,1,0,0:0:0:0:
320,192,233341,1,0,0:0:0:0:
64,192,233409,128,0,233682:0:0:0:50:kick.wav
192,192,233409,128,0,233682:0:0:0:0:
448,192,233409,1,0,0:0:0:0:
320,192,233682,128,0,233818:0:0:0:0:
448,192,233727,128,0,233818:0:0:0:0:
192,192,233818,128,0,233886:0:0:0:0:
320,192,233954,1,0,0:0:0:50:kick.wav
448,192,233954,1,0,0:0:0:0:
64,192,234023,1,0,0:0:0:0:
448,192,234091,1,0,0:0:0:0:
64,192,234159,1,0,0:0:0:0:
448,192,234227,1,0,0:0:0:0:
64,192,234295,1,0,0:0:0:0:
448,192,234364,1,0,0:0:0:0:
64,192,234432,1,0,0:0:0:0:
320,192,234500,1,0,0:0:0:50:kick.wav
448,192,234500,1,0,0:0:0:0:
64,192,234568,1,0,0:0:0:0:
448,192,234636,1,0,0:0:0:0:
64,192,234704,1,0,0:0:0:0:
448,192,234773,1,0,0:0:0:0:
64,192,234841,1,0,0:0:0:0:
448,192,234909,1,0,0:0:0:0:
64,192,234977,1,0,0:0:0:0:
192,192,235045,1,0,0:0:0:50:kick.wav
320,192,235045,128,0,235318:0:0:0:0:
448,192,235045,128,0,235454:0:0:0:0:
64,192,235318,1,0,0:0:0:0:
192,192,235386,1,0,0:0:0:0:
320,192,235454,1,0,0:0:0:0:
192,192,235523,1,0,0:0:0:0:
64,192,235591,1,0,0:0:0:50:kick.wav
320,192,235591,1,0,0:0:0:0:
448,192,235591,1,0,0:0:0:0:
192,192,235727,1,0,0:0:0:0:
64,192,235864,1,0,0:0:0:0:
448,192,235864,1,0,0:0:0:0:
320,192,235932,1,0,0:0:0:0:
448,192,236000,1,0,0:0:0:0:
192,192,236068,1,0,0:0:0:0:
64,192,236136,1,0,0:0:0:50:kick.wav
320,192,236136,1,0,0:0:0:0:
448,192,236136,1,0,0:0:0:0:
192,192,236227,1,0,0:0:0:0:
192,192,236318,1,0,0:0:0:0:
64,192,236409,1,0,0:0:0:0:
448,192,236409,1,0,0:0:0:0:
320,192,236500,1,0,0:0:0:0:
320,192,236591,1,0,0:0:0:0:
64,192,236682,1,0,0:0:0:50:kick.wav
192,192,236682,1,0,0:0:0:50:cymbal_s.wav
448,192,236682,1,0,0:0:0:0:
64,192,236886,1,0,0:0:0:50:kick.wav
192,192,236886,1,0,0:0:0:50:cymbal_s.wav
448,192,236886,1,0,0:0:0:0:
320,192,236954,1,0,0:0:0:0:
64,192,237091,1,0,0:0:0:50:kick.wav
192,192,237091,1,0,0:0:0:50:cymbal_s.wav
448,192,237091,1,0,0:0:0:0:
64,192,237227,1,0,0:0:0:50:kick.wav
320,192,237227,1,0,0:0:0:50:cymbal_s.wav
448,192,237227,1,0,0:0:0:0:
64,192,237432,1,0,0:0:0:50:kick.wav
320,192,237432,1,0,0:0:0:50:cymbal_s.wav
448,192,237432,1,0,0:0:0:0:
192,192,237500,1,0,0:0:0:0:
64,192,237636,1,0,0:0:0:50:kick.wav
320,192,237636,1,0,0:0:0:50:cymbal_s.wav
448,192,237636,1,0,0:0:0:0:
64,192,237773,1,0,0:0:0:50:kick.wav
192,192,237773,1,0,0:0:0:50:cymbal.wav
448,192,237773,128,0,237977:0:0:0:70:LR_Drum Rpd x2.wav
192,192,237909,1,0,0:0:0:0:
64,192,238045,1,0,0:0:0:50:kick.wav
320,192,238045,1,0,0:0:0:70:LR_Drum Rpd x2.wav
448,192,238045,1,0,0:0:0:70:clap02.wav
320,192,238182,1,0,0:0:0:0:
64,192,238318,1,0,0:0:0:50:kick.wav
192,192,238318,1,0,0:0:0:70:LR_Drum Rpd x2.wav
448,192,238318,1,0,0:0:0:0:
192,192,238454,1,0,0:0:0:0:
64,192,238591,1,0,0:0:0:50:kick.wav
320,192,238591,1,0,0:0:0:70:LR_Drum Rpd x2.wav
448,192,238591,1,0,0:0:0:70:clap02.wav
192,192,238727,1,0,0:0:0:50:kick.wav
320,192,238727,1,0,0:0:0:70:LR_Drum Rpd x2.wav
64,192,238864,128,0,239068:0:0:0:50:kick.wav
192,192,238864,1,0,0:0:0:50:cymbal.wav
448,192,238864,1,0,0:0:0:70:LR_Drum Rpd x2.wav
320,192,239000,1,0,0:0:0:0:
64,192,239136,1,0,0:0:0:50:kick.wav
192,192,239136,1,0,0:0:0:70:LR_Drum Rpd x2.wav
448,192,239136,1,0,0:0:0:70:clap02.wav
192,192,239273,1,0,0:0:0:0:
64,192,239409,128,0,239614:0:0:0:50:kick.wav
320,192,239409,128,0,239614:0:0:0:70:LR_Drum Rpd x2.wav
448,192,239409,128,0,239614:0:0:0:0:
64,192,239682,1,0,0:0:0:50:kick.wav
320,192,239682,1,0,0:0:0:70:LR_Drum Rpd x2.wav
448,192,239682,1,0,0:0:0:70:clap02.wav
192,192,239818,1,0,0:0:0:50:kick.wav
320,192,239818,1,0,0:0:0:70:LR_Drum Rpd x2.wav
64,192,239954,1,0,0:0:0:50:kick.wav
320,192,239954,1,0,0:0:0:50:cymbal.wav
448,192,239954,128,0,240159:0:0:0:70:LR_Drum Rpd x2.wav
192,192,240091,1,0,0:0:0:0:
64,192,240227,1,0,0:0:0:50:kick.wav
320,192,240227,1,0,0:0:0:70:LR_Drum Rpd x2.wav
448,192,240227,1,0,0:0:0:70:clap02.wav
192,192,240364,1,0,0:0:0:0:
320,192,240432,1,0,0:0:0:0:
64,192,240500,1,0,0:0:0:50:kick.wav
192,192,240500,1,0,0:0:0:70:LR_Drum Rpd x2.wav
448,192,240500,1,0,0:0:0:0:
320,192,240636,1,0,0:0:0:0:
192,192,240704,1,0,0:0:0:0:
64,192,240773,1,0,0:0:0:50:kick.wav
320,192,240773,1,0,0:0:0:70:LR_Drum Rpd x2.wav
448,192,240773,1,0,0:0:0:70:clap02.wav
192,192,240909,1,0,0:0:0:50:kick.wav
320,192,240909,1,0,0:0:0:70:LR_Drum Rpd x2.wav
64,192,241045,128,0,241250:0:0:0:50:kick.wav
320,192,241045,1,0,0:0:0:50:cymbal.wav
448,192,241045,1,0,0:0:0:70:LR_Drum Rpd x2.wav
192,192,241182,1,0,0:0:0:0:
320,192,241250,1,0,0:0:0:0:
64,192,241318,1,0,0:0:0:50:kick.wav
192,192,241318,1,0,0:0:0:70:LR_Drum Rpd x2.wav
448,192,241318,1,0,0:0:0:70:clap02.wav
320,192,241454,1,0,0:0:0:0:
64,192,241591,1,0,0:0:0:50:kick.wav
192,192,241591,1,0,0:0:0:70:LR_Drum Rpd x2.wav
448,192,241591,1,0,0:0:0:0:
320,192,241727,1,0,0:0:0:0:
192,192,241795,1,0,0:0:0:0:
320,192,241864,1,0,0:0:0:50:kick.wav
448,192,241864,1,0,0:0:0:70:LR_Drum Rpd x2.wav
192,192,241932,1,0,0:0:0:0:
64,192,242000,1,0,0:0:0:50:kick.wav
320,192,242000,1,0,0:0:0:70:LR_Drum Rpd x2.wav
448,192,242000,1,0,0:0:0:0:
64,192,242136,1,0,0:0:0:50:kick.wav
192,192,242136,1,0,0:0:0:50:cymbal.wav
448,192,242136,1,0,0:0:0:70:LR_Drum Rpd x2.wav
320,192,242204,1,0,0:0:0:50:LR_Drum Kick Low.wav
64,192,242273,1,0,0:0:0:50:kick.wav
192,192,242273,1,0,0:0:0:0:
448,192,242341,1,0,0:0:0:50:LR_Drum Kick Low.wav
192,192,242409,1,0,0:0:0:50:kick.wav
320,192,242409,1,0,0:0:0:0:
64,192,242477,1,0,0:0:0:50:LR_Drum Kick Low.wav
320,192,242545,1,0,0:0:0:50:kick.wav
448,192,242545,1,0,0:0:0:0:
192,192,242614,1,0,0:0:0:50:LR_Drum Kick Low.wav
64,192,242682,1,0,0:0:0:50:kick.wav
448,192,242682,1,0,0:0:0:0:
320,192,242750,1,0,0:0:0:50:LR_Drum Kick Low.wav
64,192,242818,1,0,0:0:0:50:kick.wav
192,192,242818,1,0,0:0:0:0:
448,192,242886,1,0,0:0:0:50:LR_Drum Kick Low.wav
192,192,242954,1,0,0:0:0:50:kick.wav
320,192,242954,1,0,0:0:0:0:
64,192,243023,1,0,0:0:0:50:LR_Drum Kick Low.wav
320,192,243091,1,0,0:0:0:50:kick.wav
448,192,243091,1,0,0:0:0:0:
192,192,243159,1,0,0:0:0:50:LR_Drum Kick Low.wav
64,192,243227,1,0,0:0:0:50:kick.wav
448,192,243227,1,0,0:0:0:0:
320,192,243295,1,0,0:0:0:50:LR_Drum Kick Low.wav
64,192,243364,1,0,0:0:0:50:kick.wav
192,192,243364,1,0,0:0:0:0:
320,192,243432,1,0,0:0:0:50:LR_Drum Kick Low.wav
192,192,243500,1,0,0:0:0:50:kick.wav
448,192,243500,1,0,0:0:0:0:
64,192,243568,1,0,0:0:0:50:LR_Drum Kick Low.wav
320,192,243636,1,0,0:0:0:50:kick.wav
448,192,243636,1,0,0:0:0:0:
192,192,243704,1,0,0:0:0:50:LR_Drum Kick Low.wav
64,192,243773,1,0,0:0:0:50:kick.wav
320,192,243773,1,0,0:0:0:0:
448,192,243841,1,0,0:0:0:50:LR_Drum Kick Low.wav
64,192,243909,1,0,0:0:0:50:kick.wav
192,192,243909,1,0,0:0:0:0:
320,192,243977,1,0,0:0:0:50:LR_Drum Kick Low.wav
64,192,244045,1,0,0:0:0:50:kick.wav
448,192,244045,1,0,0:0:0:0:
192,192,244114,1,0,0:0:0:50:LR_Drum Kick Low.wav
320,192,244182,1,0,0:0:0:50:kick.wav
448,192,244182,1,0,0:0:0:0:
192,192,244250,1,0,0:0:0:50:LR_Drum Kick Low.wav
64,192,244318,1,0,0:0:0:50:kick.wav
320,192,244318,1,0,0:0:0:0:
448,192,244318,1,0,0:0:0:0:
192,192,244454,1,0,0:0:0:0:
448,192,244523,1,0,0:0:0:0:
192,192,244591,1,0,0:0:0:0:
192,192,244727,1,0,0:0:0:0:
64,192,244864,1,0,0:0:0:70:snare06.wav
320,192,244864,1,0,0:0:0:0:
448,192,244864,1,0,0:0:0:0:
192,192,245000,1,0,0:0:0:0:
448,192,245136,1,0,0:0:0:0:
320,192,245204,1,0,0:0:0:0:
192,192,245273,1,0,0:0:0:0:
64,192,245341,1,0,0:0:0:0:
320,192,245409,1,0,0:0:0:70:snare06.wav
448,192,245409,1,0,0:0:0:0:
192,192,245500,1,0,0:0:0:0:
64,192,245591,1,0,0:0:0:0:
320,192,245682,1,0,0:0:0:0:
448,192,245682,1,0,0:0:0:0:
192,192,245773,1,0,0:0:0:0:
320,192,245864,1,0,0:0:0:0:
64,192,245954,1,0,0:0:0:70:LR_Drum Rpd x2.wav
448,192,245954,1,0,0:0:0:70:snare06.wav
192,192,246023,1,0,0:0:0:70:LR_Drum Rpd x2.wav
320,192,246091,1,0,0:0:0:70:tom01.wav
64,192,246159,1,0,0:0:0:70:tom01.wav
192,192,246227,1,0,0:0:0:70:tom02.wav
448,192,246295,1,0,0:0:0:70:tom02.wav
64,192,246364,1,0,0:0:0:70:tom02.wav
320,192,246432,1,0,0:0:0:70:tom02.wav
64,192,246500,1,0,0:0:0:50:kick.wav
192,192,246500,1,0,0:0:0:50:cymbal.wav
448,192,246500,1,0,0:0:0:70:push_scratch.wav
320,192,246568,1,0,0:0:0:0:
64,192,246636,1,0,0:0:0:0:
448,192,246704,1,0,0:0:0:0:
192,192,246773,1,0,0:0:0:0:
448,192,246841,1,0,0:0:0:0:
320,192,246909,1,0,0:0:0:70:clap02.wav
192,192,246977,1,0,0:0:0:0:
64,192,247045,1,0,0:0:0:50:kick.wav
320,192,247045,1,0,0:0:0:0:
448,192,247045,1,0,0:0:0:0:
192,192,247114,1,0,0:0:0:0:
448,192,247182,1,0,0:0:0:0:
64,192,247250,1,0,0:0:0:0:
320,192,247318,1,0,0:0:0:70:clap02.wav
64,192,247386,1,0,0:0:0:0:
192,192,247454,1,0,0:0:0:0:
320,192,247523,1,0,0:0:0:0:
64,192,247591,1,0,0:0:0:50:kick.wav
192,192,247591,1,0,0:0:0:0:
448,192,247591,1,0,0:0:0:0:
320,192,247659,1,0,0:0:0:0:
64,192,247727,1,0,0:0:0:0:
448,192,247795,1,0,0:0:0:0:
192,192,247864,1,0,0:0:0:0:
448,192,247932,1,0,0:0:0:0:
320,192,248000,1,0,0:0:0:70:clap02.wav
192,192,248068,1,0,0:0:0:0:
64,192,248136,1,0,0:0:0:50:kick.wav
320,192,248136,1,0,0:0:0:0:
448,192,248136,1,0,0:0:0:0:
192,192,248204,1,0,0:0:0:0:
448,192,248273,1,0,0:0:0:0:
64,192,248341,1,0,0:0:0:0:
320,192,248409,1,0,0:0:0:70:clap02.wav
64,192,248454,1,0,0:0:0:0:
448,192,248500,1,0,0:0:0:0:
192,192,248591,1,0,0:0:0:0:
64,192,248682,1,0,0:0:0:50:kick.wav
320,192,248682,1,0,0:0:0:0:
448,192,248682,1,0,0:0:0:0:
192,192,248750,1,0,0:0:0:0:
320,192,248818,1,0,0:0:0:0:
64,192,248886,1,0,0:0:0:0:
448,192,248954,1,0,0:0:0:0:
192,192,249023,1,0,0:0:0:0:
320,192,249091,1,0,0:0:0:70:clap02.wav
192,192,249159,1,0,0:0:0:0:
64,192,249227,1,0,0:0:0:50:kick.wav
320,192,249227,1,0,0:0:0:0:
448,192,249227,1,0,0:0:0:0:
192,192,249295,1,0,0:0:0:0:
448,192,249364,1,0,0:0:0:0:
64,192,249432,1,0,0:0:0:0:
320,192,249500,1,0,0:0:0:70:clap02.wav
192,192,249568,1,0,0:0:0:0:
320,192,249636,1,0,0:0:0:0:
192,192,249704,1,0,0:0:0:0:
64,192,249773,1,0,0:0:0:50:kick.wav
320,192,249773,1,0,0:0:0:70:clap02.wav
448,192,249773,1,0,0:0:0:0:
192,192,249841,1,0,0:0:0:0:
448,192,249909,1,0,0:0:0:0:
320,192,249977,1,0,0:0:0:0:
64,192,250045,1,0,0:0:0:0:
448,192,250114,1,0,0:0:0:0:
192,192,250182,1,0,0:0:0:70:clap02.wav
320,192,250250,1,0,0:0:0:0:
64,192,250318,1,0,0:0:0:50:kick.wav
192,192,250318,1,0,0:0:0:0:
448,192,250318,1,0,0:0:0:0:
320,192,250386,1,0,0:0:0:0:
64,192,250454,1,0,0:0:0:70:clap02.wav
448,192,250523,1,0,0:0:0:0:
192,192,250591,1,0,0:0:0:70:clap02.wav
320,192,250659,1,0,0:0:0:70:clap02.wav
64,192,250727,1,0,0:0:0:70:clap02.wav
192,192,250795,1,0,0:0:0:0:
64,192,250864,1,0,0:0:0:50:kick.wav
320,192,250864,1,0,0:0:0:0:
448,192,250864,1,0,0:0:0:0:
192,192,250932,1,0,0:0:0:0:
320,192,251000,1,0,0:0:0:0:
448,192,251068,1,0,0:0:0:0:
192,192,251136,1,0,0:0:0:0:
320,192,251204,1,0,0:0:0:0:
64,192,251273,1,0,0:0:0:70:clap02.wav
192,192,251341,1,0,0:0:0:0:
64,192,251409,1,0,0:0:0:50:kick.wav
320,192,251409,1,0,0:0:0:0:
448,192,251409,1,0,0:0:0:0:
192,192,251477,1,0,0:0:0:0:
448,192,251545,1,0,0:0:0:0:
320,192,251614,1,0,0:0:0:0:
192,192,251682,1,0,0:0:0:70:clap02.wav
448,192,251750,1,0,0:0:0:0:
64,192,251818,1,0,0:0:0:0:
320,192,251886,1,0,0:0:0:0:
64,192,251954,1,0,0:0:0:50:kick.wav
192,192,251954,1,0,0:0:0:0:
448,192,251954,1,0,0:0:0:0:
320,192,252023,1,0,0:0:0:0:
192,192,252091,1,0,0:0:0:0:
448,192,252159,1,0,0:0:0:0:
320,192,252227,1,0,0:0:0:0:
64,192,252295,1,0,0:0:0:0:
192,192,252364,1,0,0:0:0:70:clap02.wav
320,192,252432,1,0,0:0:0:0:
64,192,252500,1,0,0:0:0:50:kick.wav
192,192,252500,1,0,0:0:0:0:
448,192,252500,1,0,0:0:0:0:
320,192,252568,1,0,0:0:0:0:
64,192,252636,1,0,0:0:0:0:
448,192,252704,1,0,0:0:0:0:
192,192,252773,1,0,0:0:0:70:clap02.wav
64,192,252841,1,0,0:0:0:0:
320,192,252909,1,0,0:0:0:0:
192,192,252977,1,0,0:0:0:0:
64,192,253045,1,0,0:0:0:50:kick.wav
320,192,253045,1,0,0:0:0:0:
448,192,253045,1,0,0:0:0:0:
192,192,253114,1,0,0:0:0:0:
448,192,253182,1,0,0:0:0:0:
192,192,253250,1,0,0:0:0:0:
320,192,253318,1,0,0:0:0:0:
64,192,253386,1,0,0:0:0:0:
320,192,253454,1,0,0:0:0:70:clap02.wav
192,192,253523,1,0,0:0:0:0:
64,192,253591,1,0,0:0:0:50:kick.wav
320,192,253591,1,0,0:0:0:0:
448,192,253591,1,0,0:0:0:0:
192,192,253659,1,0,0:0:0:0:
448,192,253727,1,0,0:0:0:0:
64,192,253795,1,0,0:0:0:0:
320,192,253864,1,0,0:0:0:70:clap02.wav
192,192,253932,1,0,0:0:0:0:
448,192,254000,1,0,0:0:0:0:
192,192,254068,1,0,0:0:0:0:
64,192,254136,1,0,0:0:0:50:kick.wav
320,192,254136,1,0,0:0:0:0:
448,192,254136,1,0,0:0:0:0:
192,192,254204,1,0,0:0:0:0:
320,192,254273,1,0,0:0:0:0:
64,192,254341,1,0,0:0:0:0:
448,192,254409,1,0,0:0:0:70:clap02.wav
64,192,254477,1,0,0:0:0:0:
448,192,254545,1,0,0:0:0:70:clap02.wav
192,192,254614,1,0,0:0:0:0:
64,192,254682,1,0,0:0:0:50:kick.wav
320,192,254682,1,0,0:0:0:0:
448,192,254682,1,0,0:0:0:0:
192,192,254750,1,0,0:0:0:0:
320,192,254818,1,0,0:0:0:0:
64,192,254886,1,0,0:0:0:0:
192,192,254954,1,0,0:0:0:70:clap02.wav
448,192,255023,1,0,0:0:0:0:
320,192,255091,1,0,0:0:0:0:
192,192,255159,1,0,0:0:0:0:
64,192,255227,1,0,0:0:0:50:kick.wav
320,192,255227,1,0,0:0:0:0:
448,192,255227,1,0,0:0:0:0:
192,192,255364,1,0,0:0:0:0:
320,192,255432,1,0,0:0:0:0:
64,192,255500,1,0,0:0:0:50:kick.wav
192,192,255500,1,0,0:0:0:0:
448,192,255500,1,0,0:0:0:0:
320,192,255636,1,0,0:0:0:0:
192,192,255704,1,0,0:0:0:0:
64,192,255773,1,0,0:0:0:50:kick.wav
320,192,255773,1,0,0:0:0:0:
448,192,255773,1,0,0:0:0:0:
192,192,255841,1,0,0:0:0:0:
448,192,255909,1,0,0:0:0:0:
64,192,255977,1,0,0:0:0:0:
320,192,256045,1,0,0:0:0:70:clap02.wav
192,192,256114,1,0,0:0:0:0:
448,192,256182,1,0,0:0:0:0:
320,192,256250,1,0,0:0:0:0:
64,192,256318,1,0,0:0:0:50:kick.wav
192,192,256318,1,0,0:0:0:0:
448,192,256318,1,0,0:0:0:0:
320,192,256386,1,0,0:0:0:0:
64,192,256454,1,0,0:0:0:0:
448,192,256523,1,0,0:0:0:0:
192,192,256591,1,0,0:0:0:0:
320,192,256659,1,0,0:0:0:0:
448,192,256727,1,0,0:0:0:70:clap02.wav
64,192,256864,1,0,0:0:0:50:kick.wav
320,192,256864,1,0,0:0:0:0:
448,192,256864,1,0,0:0:0:0:
192,192,256932,1,0,0:0:0:0:
320,192,257000,1,0,0:0:0:0:
64,192,257068,1,0,0:0:0:0:
192,192,257136,1,0,0:0:0:70:clap02.wav
448,192,257204,1,0,0:0:0:0:
320,192,257273,1,0,0:0:0:0:
192,192,257341,1,0,0:0:0:0:
64,192,257409,1,0,0:0:0:50:kick.wav
320,192,257409,1,0,0:0:0:0:
448,192,257409,1,0,0:0:0:0:
192,192,257477,1,0,0:0:0:0:
448,192,257545,1,0,0:0:0:0:
192,192,257614,1,0,0:0:0:0:
320,192,257682,1,0,0:0:0:0:
64,192,257750,1,0,0:0:0:0:
448,192,257818,1,0,0:0:0:70:clap02.wav
192,192,257886,1,0,0:0:0:0:
64,192,257954,1,0,0:0:0:50:kick.wav
320,192,257954,1,0,0:0:0:0:
448,192,257954,1,0,0:0:0:0:
192,192,258023,1,0,0:0:0:0:
320,192,258091,1,0,0:0:0:0:
64,192,258159,1,0,0:0:0:0:
192,192,258227,1,0,0:0:0:70:clap02.wav
448,192,258295,1,0,0:0:0:0:
64,192,258364,1,0,0:0:0:0:
320,192,258432,1,0,0:0:0:0:
64,192,258500,1,0,0:0:0:50:kick.wav
192,192,258500,1,0,0:0:0:70:clap02.wav
448,192,258500,1,0,0:0:0:0:
320,192,258568,1,0,0:0:0:0:
192,192,258636,1,0,0:0:0:0:
448,192,258704,1,0,0:0:0:0:
320,192,258773,1,0,0:0:0:0:
64,192,258841,1,0,0:0:0:0:
192,192,258909,1,0,0:0:0:70:clap02.wav
320,192,258977,1,0,0:0:0:0:
64,192,259045,1,0,0:0:0:50:kick.wav
192,192,259045,1,0,0:0:0:0:
448,192,259045,1,0,0:0:0:0:
320,192,259114,1,0,0:0:0:0:
64,192,259182,1,0,0:0:0:70:clap02.wav
448,192,259250,1,0,0:0:0:0:
192,192,259318,1,0,0:0:0:70:clap02.wav
320,192,259386,1,0,0:0:0:70:clap02.wav
64,192,259454,1,0,0:0:0:70:clap02.wav
192,192,259523,1,0,0:0:0:0:
64,192,259591,1,0,0:0:0:50:kick.wav
320,192,259591,1,0,0:0:0:0:
448,192,259591,1,0,0:0:0:0:
192,192,259659,1,0,0:0:0:0:
448,192,259727,1,0,0:0:0:0:
64,192,259795,1,0,0:0:0:0:
320,192,259864,1,0,0:0:0:0:
448,192,259932,1,0,0:0:0:0:
64,192,260000,1,0,0:0:0:50:kick.wav
192,192,260000,1,0,0:0:0:70:clap02.wav
320,192,260068,1,0,0:0:0:0:
448,192,260136,1,0,0:0:0:0:
320,192,260204,1,0,0:0:0:0:
192,192,260273,1,0,0:0:0:0:
64,192,260341,1,0,0:0:0:0:
320,192,260409,1,0,0:0:0:50:kick.wav
448,192,260409,1,0,0:0:0:70:clap02.wav
192,192,260477,1,0,0:0:0:0:
320,192,260545,1,0,0:0:0:50:kick.wav
448,192,260545,1,0,0:0:0:0:
192,192,260614,1,0,0:0:0:0:
64,192,260682,1,0,0:0:0:50:kick.wav
320,192,260682,1,0,0:0:0:0:
448,192,260682,1,0,0:0:0:0:
192,192,260750,1,0,0:0:0:0:
448,192,260818,1,0,0:0:0:0:
320,192,260886,1,0,0:0:0:0:
192,192,260954,1,0,0:0:0:0:
64,192,261023,1,0,0:0:0:0:
320,192,261091,1,0,0:0:0:50:kick.wav
448,192,261091,1,0,0:0:0:70:clap02.wav
192,192,261159,1,0,0:0:0:0:
448,192,261227,1,0,0:0:0:0:
64,192,261295,1,0,0:0:0:0:
192,192,261364,1,0,0:0:0:0:
320,192,261432,1,0,0:0:0:0:
64,192,261500,1,0,0:0:0:50:kick.wav
448,192,261500,1,0,0:0:0:70:clap02.wav
192,192,261568,1,0,0:0:0:0:
320,192,261636,1,0,0:0:0:50:kick.wav
448,192,261636,1,0,0:0:0:0:
192,192,261704,1,0,0:0:0:0:
64,192,261773,1,0,0:0:0:50:kick.wav
320,192,261773,1,0,0:0:0:0:
448,192,261773,1,0,0:0:0:0:
192,192,261841,1,0,0:0:0:0:
64,192,261909,1,0,0:0:0:0:
448,192,261977,1,0,0:0:0:0:
192,192,262045,1,0,0:0:0:50:kick.wav
320,192,262045,1,0,0:0:0:70:clap02.wav
64,192,262114,1,0,0:0:0:0:
320,192,262182,1,0,0:0:0:50:kick.wav
448,192,262182,1,0,0:0:0:70:clap02.wav
192,192,262250,1,0,0:0:0:0:
64,192,262318,1,0,0:0:0:0:
448,192,262386,1,0,0:0:0:0:
192,192,262454,1,0,0:0:0:50:kick.wav
320,192,262454,1,0,0:0:0:70:clap02.wav
64,192,262523,1,0,0:0:0:0:
192,192,262591,1,0,0:0:0:50:kick.wav
448,192,262591,1,0,0:0:0:70:clap02.wav
320,192,262659,1,0,0:0:0:0:
64,192,262727,1,0,0:0:0:50:kick.wav
448,192,262727,1,0,0:0:0:70:clap02.wav
192,192,262795,1,0,0:0:0:0:
320,192,262864,1,0,0:0:0:50:kick.wav
448,192,262864,1,0,0:0:0:70:clap02.wav
64,192,262932,1,0,0:0:0:50:kick.wav
192,192,262932,1,0,0:0:0:0:
320,192,263000,1,0,0:0:0:50:kick.wav
448,192,263000,1,0,0:0:0:0:
64,192,263068,1,0,0:0:0:50:kick.wav
192,192,263068,1,0,0:0:0:0:
320,192,263136,1,0,0:0:0:50:kick.wav
448,192,263136,1,0,0:0:0:70:clap02.wav
64,192,263273,1,0,0:0:0:70:clap02.wav
192,192,263273,1,0,0:0:0:0:
64,192,263409,1,0,0:0:0:50:kick.wav
320,192,263409,1,0,0:0:0:0:
448,192,263409,1,0,0:0:0:0:
192,192,263545,1,0,0:0:0:50:kick.wav
448,192,263545,1,0,0:0:0:70:clap02.wav
64,192,263682,1,0,0:0:0:70:clap02.wav
320,192,263682,1,0,0:0:0:70:tom01.wav
64,192,263818,1,0,0:0:0:70:tom02.wav
192,192,263818,1,0,0:0:0:0:
320,192,263886,1,0,0:0:0:70:tom03.wav
192,192,263954,1,0,0:0:0:50:kick.wav
448,192,263954,1,0,0:0:0:0:
64,192,264023,1,0,0:0:0:0:
320,192,264091,1,0,0:0:0:0:
192,192,264159,1,0,0:0:0:0:
64,192,264227,1,0,0:0:0:50:kick.wav
448,192,264227,1,0,0:0:0:0:
320,192,264295,1,0,0:0:0:0:
448,192,264364,1,0,0:0:0:0:
192,192,264432,1,0,0:0:0:0:
64,192,264500,128,0,264568:0:0:0:50:kick.wav
320,192,264500,1,0,0:0:0:50:cymbal.wav
448,192,264500,128,0,264568:0:0:0:70:push_scratch.wav
192,192,264568,1,0,0:0:0:0:
448,192,264636,1,0,0:0:0:0:
64,192,264704,1,0,0:0:0:0:
320,192,264773,1,0,0:0:0:70:clap02.wav
64,192,264841,1,0,0:0:0:0:
192,192,264909,1,0,0:0:0:0:
320,192,264977,1,0,0:0:0:0:
64,192,265045,1,0,0:0:0:50:kick.wav
192,192,265045,1,0,0:0:0:0:
448,192,265045,1,0,0:0:0:0:
320,192,265114,1,0,0:0:0:0:
64,192,265182,1,0,0:0:0:0:
448,192,265250,1,0,0:0:0:0:
192,192,265318,1,0,0:0:0:0:
448,192,265386,1,0,0:0:0:0:
320,192,265454,1,0,0:0:0:70:clap02.wav
192,192,265523,1,0,0:0:0:0:
64,192,265591,128,0,265659:0:0:0:50:kick.wav
320,192,265591,1,0,0:0:0:0:
448,192,265591,128,0,265659:0:0:0:0:
192,192,265659,1,0,0:0:0:0:
448,192,265727,1,0,0:0:0:0:
64,192,265795,1,0,0:0:0:0:
320,192,265864,1,0,0:0:0:70:clap02.wav
64,192,265909,1,0,0:0:0:0:
448,192,265954,1,0,0:0:0:0:
192,192,266045,1,0,0:0:0:0:
64,192,266136,1,0,0:0:0:50:kick.wav
320,192,266136,1,0,0:0:0:0:
448,192,266136,1,0,0:0:0:0:
192,192,266204,1,0,0:0:0:0:
320,192,266273,1,0,0:0:0:0:
64,192,266341,1,0,0:0:0:0:
448,192,266409,1,0,0:0:0:0:
192,192,266477,1,0,0:0:0:0:
320,192,266545,1,0,0:0:0:70:clap02.wav
192,192,266614,1,0,0:0:0:0:
64,192,266682,128,0,266750:0:0:0:50:kick.wav
320,192,266682,1,0,0:0:0:0:
448,192,266682,128,0,266750:0:0:0:0:
192,192,266750,1,0,0:0:0:0:
448,192,266818,1,0,0:0:0:0:
64,192,266886,1,0,0:0:0:0:
320,192,266954,1,0,0:0:0:70:clap02.wav
192,192,267023,1,0,0:0:0:0:
320,192,267091,1,0,0:0:0:50:kick.wav
448,192,267091,1,0,0:0:0:0:
192,192,267159,1,0,0:0:0:50:kick.wav
64,192,267227,1,0,0:0:0:50:kick.wav
320,192,267227,1,0,0:0:0:70:clap02.wav
448,192,267227,1,0,0:0:0:0:
192,192,267295,1,0,0:0:0:0:
448,192,267364,1,0,0:0:0:0:
64,192,267432,1,0,0:0:0:0:
320,192,267500,1,0,0:0:0:70:tom01.wav
192,192,267568,1,0,0:0:0:0:
64,192,267636,1,0,0:0:0:50:kick.wav
320,192,267636,1,0,0:0:0:70:clap02.wav
448,192,267636,1,0,0:0:0:0:
192,192,267704,1,0,0:0:0:0:
64,192,267773,128,0,267841:0:0:0:70:clap02.wav
448,192,267773,128,0,267841:0:0:0:0:
320,192,267841,1,0,0:0:0:0:
192,192,267909,1,0,0:0:0:0:
64,192,267977,1,0,0:0:0:0:
192,192,268045,1,0,0:0:0:50:kick.wav
320,192,268045,1,0,0:0:0:70:clap02.wav
448,192,268045,1,0,0:0:0:0:
64,192,268114,1,0,0:0:0:70:clap02.wav
448,192,268182,1,0,0:0:0:70:clap02.wav
192,192,268250,1,0,0:0:0:0:
64,192,268318,1,0,0:0:0:50:kick.wav
320,192,268318,1,0,0:0:0:0:
448,192,268318,1,0,0:0:0:0:
64,192,268523,1,0,0:0:0:50:kick.wav
192,192,268523,1,0,0:0:0:0:
320,192,268727,1,0,0:0:0:50:kick.wav
448,192,268727,1,0,0:0:0:0:
64,192,268864,128,0,268932:0:0:0:50:kick.wav
320,192,268864,1,0,0:0:0:0:
448,192,268864,128,0,268932:0:0:0:0:
192,192,268932,1,0,0:0:0:0:
448,192,269000,1,0,0:0:0:0:
64,192,269068,1,0,0:0:0:0:
192,192,269136,1,0,0:0:0:70:clap02.wav
320,192,269273,1,0,0:0:0:0:
64,192,269409,1,0,0:0:0:50:kick.wav
192,192,269409,1,0,0:0:0:0:
448,192,269409,1,0,0:0:0:0:
320,192,269477,1,0,0:0:0:0:
192,192,269545,1,0,0:0:0:0:
448,192,269614,1,0,0:0:0:0:
64,192,269682,1,0,0:0:0:0:
448,192,269750,1,0,0:0:0:0:
192,192,269818,1,0,0:0:0:70:clap02.wav
320,192,269886,1,0,0:0:0:0:
64,192,269954,128,0,270023:0:0:0:50:kick.wav
192,192,269954,1,0,0:0:0:0:
448,192,269954,128,0,270023:0:0:0:0:
320,192,270023,1,0,0:0:0:0:
64,192,270091,1,0,0:0:0:0:
448,192,270159,1,0,0:0:0:0:
192,192,270227,1,0,0:0:0:70:clap02.wav
64,192,270295,1,0,0:0:0:0:
320,192,270364,1,0,0:0:0:0:
192,192,270432,1,0,0:0:0:0:
64,192,270500,1,0,0:0:0:50:kick.wav
320,192,270500,1,0,0:0:0:0:
448,192,270500,1,0,0:0:0:0:
192,192,270568,1,0,0:0:0:0:
448,192,270636,1,0,0:0:0:0:
192,192,270704,1,0,0:0:0:0:
320,192,270773,1,0,0:0:0:0:
64,192,270841,1,0,0:0:0:0:
448,192,270909,1,0,0:0:0:70:clap02.wav
192,192,270977,1,0,0:0:0:0:
64,192,271045,128,0,271114:0:0:0:50:kick.wav
320,192,271045,1,0,0:0:0:0:
448,192,271045,128,0,271114:0:0:0:0:
192,192,271114,1,0,0:0:0:0:
320,192,271182,1,0,0:0:0:0:
448,192,271250,1,0,0:0:0:0:
64,192,271318,1,0,0:0:0:50:kick.wav
192,192,271318,1,0,0:0:0:70:clap02.wav
320,192,271386,1,0,0:0:0:50:kick.wav
448,192,271386,1,0,0:0:0:0:
64,192,271454,1,0,0:0:0:50:kick.wav
192,192,271454,1,0,0:0:0:0:
320,192,271523,1,0,0:0:0:50:kick.wav
64,192,271591,1,0,0:0:0:50:kick.wav
192,192,271591,1,0,0:0:0:50:cymbal_s.wav
448,192,271591,1,0,0:0:0:0:
64,192,271795,1,0,0:0:0:50:kick.wav
320,192,271795,1,0,0:0:0:50:cymbal_s.wav
448,192,271795,1,0,0:0:0:0:
64,192,272000,1,0,0:0:0:50:kick.wav
192,192,272000,1,0,0:0:0:50:cymbal_s.wav
448,192,272000,1,0,0:0:0:0:
192,192,272204,1,0,0:0:0:50:kick.wav
320,192,272204,1,0,0:0:0:50:cymbal_s.wav
448,192,272204,1,0,0:0:0:0:
64,192,272409,1,0,0:0:0:50:kick.wav
192,192,272409,1,0,0:0:0:50:cymbal_s.wav
448,192,272409,1,0,0:0:0:0:
192,192,272545,1,0,0:0:0:50:kick.wav
320,192,272545,1,0,0:0:0:50:cymbal_s.wav
64,192,272682,1,0,0:0:0:50:kick.wav
320,192,272682,1,0,0:0:0:50:cymbal.wav
448,192,272682,1,0,0:0:0:70:LR_Drum Rpd x2.wav
192,192,272750,1,0,0:0:0:0:
64,192,272818,1,0,0:0:0:0:
320,192,272886,1,0,0:0:0:0:
192,192,272954,1,0,0:0:0:50:kick.wav
448,192,272954,1,0,0:0:0:70:LR_Drum Rpd x2.wav
64,192,273023,1,0,0:0:0:0:
320,192,273091,1,0,0:0:0:0:
192,192,273159,1,0,0:0:0:0:
64,192,273227,1,0,0:0:0:50:kick.wav
320,192,273227,1,0,0:0:0:70:LR_Drum Rpd x2.wav
448,192,273227,1,0,0:0:0:0:
192,192,273295,1,0,0:0:0:0:
448,192,273364,1,0,0:0:0:70:tom01.wav
320,192,273432,1,0,0:0:0:0:
64,192,273500,1,0,0:0:0:50:kick.wav
192,192,273500,1,0,0:0:0:70:LR_Drum Rpd x2.wav
448,192,273568,1,0,0:0:0:0:
320,192,273636,1,0,0:0:0:0:
192,192,273704,1,0,0:0:0:0:
64,192,273773,1,0,0:0:0:50:kick.wav
320,192,273773,1,0,0:0:0:70:LR_Drum Rpd x2.wav
448,192,273773,1,0,0:0:0:0:
192,192,273841,1,0,0:0:0:0:
448,192,273909,1,0,0:0:0:0:
320,192,273977,1,0,0:0:0:0:
64,192,274045,1,0,0:0:0:50:kick.wav
448,192,274045,1,0,0:0:0:70:LR_Drum Rpd x2.wav
320,192,274114,1,0,0:0:0:0:
192,192,274182,1,0,0:0:0:0:
64,192,274250,1,0,0:0:0:0:
192,192,274318,1,0,0:0:0:50:kick.wav
320,192,274318,1,0,0:0:0:70:LR_Drum Rpd x2.wav
448,192,274318,1,0,0:0:0:0:
64,192,274386,1,0,0:0:0:0:
320,192,274454,1,0,0:0:0:70:tom01.wav
448,192,274454,1,0,0:0:0:0:
192,192,274523,1,0,0:0:0:0:
64,192,274591,1,0,0:0:0:50:kick.wav
448,192,274591,1,0,0:0:0:70:LR_Drum Rpd x2.wav
192,192,274727,1,0,0:0:0:50:kick.wav
320,192,274727,1,0,0:0:0:0:
64,192,274864,1,0,0:0:0:50:kick.wav
192,192,274864,1,0,0:0:0:70:LR_Drum Rpd x2.wav
448,192,274864,1,0,0:0:0:0:
320,192,274932,1,0,0:0:0:0:
64,192,275000,1,0,0:0:0:0:
192,192,275068,1,0,0:0:0:0:
320,192,275136,1,0,0:0:0:50:kick.wav
448,192,275136,1,0,0:0:0:70:LR_Drum Rpd x2.wav
64,192,275204,1,0,0:0:0:0:
192,192,275273,1,0,0:0:0:70:tom01.wav
320,192,275341,1,0,0:0:0:0:
64,192,275409,1,0,0:0:0:50:kick.wav
192,192,275409,1,0,0:0:0:70:LR_Drum Rpd x2.wav
448,192,275409,1,0,0:0:0:0:
320,192,275477,1,0,0:0:0:0:
192,192,275545,1,0,0:0:0:0:
64,192,275614,1,0,0:0:0:0:
320,192,275682,1,0,0:0:0:50:kick.wav
448,192,275682,1,0,0:0:0:70:LR_Drum Rpd x2.wav
192,192,275750,1,0,0:0:0:0:
448,192,275818,1,0,0:0:0:0:
320,192,275886,1,0,0:0:0:0:
64,192,275954,1,0,0:0:0:50:kick.wav
192,192,275954,1,0,0:0:0:70:LR_Drum Rpd x2.wav
448,192,275954,1,0,0:0:0:0:
320,192,276023,1,0,0:0:0:0:
64,192,276091,1,0,0:0:0:0:
192,192,276159,1,0,0:0:0:0:
320,192,276227,1,0,0:0:0:50:kick.wav
448,192,276227,1,0,0:0:0:70:LR_Drum Rpd x2.wav
64,192,276295,1,0,0:0:0:0:
192,192,276364,1,0,0:0:0:0:
320,192,276432,1,0,0:0:0:0:
64,192,276500,1,0,0:0:0:50:kick.wav
192,192,276500,1,0,0:0:0:70:LR_Drum Rpd x2.wav
448,192,276500,1,0,0:0:0:0:
320,192,276636,1,0,0:0:0:0:
64,192,276704,1,0,0:0:0:50:kick.wav
192,192,276704,1,0,0:0:0:0:
320,192,276773,1,0,0:0:0:50:kick.wav
448,192,276773,1,0,0:0:0:70:LR_Drum Rpd x2.wav
64,192,276909,1,0,0:0:0:50:kick.wav
192,192,276909,1,0,0:0:0:0:
64,192,277045,1,0,0:0:0:50:kick.wav
320,192,277045,1,0,0:0:0:50:cymbal.wav
448,192,277045,1,0,0:0:0:70:LR_Drum Rpd x2.wav
192,192,277114,1,0,0:0:0:50:LR_Drum Kick Low.wav
320,192,277182,1,0,0:0:0:50:kick.wav
448,192,277182,1,0,0:0:0:70:LR_Drum Rpd x2.wav
64,192,277250,1,0,0:0:0:50:LR_Drum Kick Low.wav
192,192,277318,1,0,0:0:0:50:kick.wav
320,192,277318,1,0,0:0:0:70:LR_Drum Rpd x2.wav
448,192,277386,1,0,0:0:0:50:LR_Drum Kick Low.wav
64,192,277454,1,0,0:0:0:50:kick.wav
192,192,277454,1,0,0:0:0:70:LR_Drum Rpd x2.wav
320,192,277523,1,0,0:0:0:50:LR_Drum Kick Low.wav
64,192,277591,1,0,0:0:0:50:kick.wav
448,192,277591,1,0,0:0:0:70:LR_Drum Rpd x2.wav
192,192,277659,1,0,0:0:0:50:LR_Drum Kick Low.wav
320,192,277727,1,0,0:0:0:50:kick.wav
448,192,277727,1,0,0:0:0:70:LR_Drum Rpd x2.wav
64,192,277795,1,0,0:0:0:50:LR_Drum Kick Low.wav
192,192,277864,1,0,0:0:0:50:kick.wav
320,192,277864,1,0,0:0:0:70:LR_Drum Rpd x2.wav
448,192,277932,1,0,0:0:0:50:LR_Drum Kick Low.wav
64,192,278000,1,0,0:0:0:50:kick.wav
192,192,278000,1,0,0:0:0:70:LR_Drum Rpd x2.wav
320,192,278068,1,0,0:0:0:50:LR_Drum Kick Low.wav
64,192,278136,1,0,0:0:0:50:kick.wav
448,192,278136,1,0,0:0:0:70:LR_Drum Rpd x2.wav
192,192,278204,1,0,0:0:0:50:LR_Drum Kick Low.wav
320,192,278273,1,0,0:0:0:50:kick.wav
448,192,278273,1,0,0:0:0:70:LR_Drum Rpd x2.wav
64,192,278341,1,0,0:0:0:50:LR_Drum Kick Low.wav
192,192,278409,1,0,0:0:0:50:kick.wav
320,192,278409,1,0,0:0:0:70:LR_Drum Rpd x2.wav
448,192,278477,1,0,0:0:0:50:LR_Drum Kick Low.wav
64,192,278545,1,0,0:0:0:50:kick.wav
192,192,278545,1,0,0:0:0:70:LR_Drum Rpd x2.wav
320,192,278614,1,0,0:0:0:50:LR_Drum Kick Low.wav
64,192,278682,1,0,0:0:0:50:kick.wav
448,192,278682,1,0,0:0:0:70:LR_Drum Rpd x2.wav
192,192,278750,1,0,0:0:0:50:LR_Drum Kick Low.wav
320,192,278818,1,0,0:0:0:50:kick.wav
448,192,278818,1,0,0:0:0:70:LR_Drum Rpd x2.wav
192,192,278886,1,0,0:0:0:50:LR_Drum Kick Low.wav
64,192,278954,1,0,0:0:0:50:kick.wav
320,192,278954,1,0,0:0:0:70:LR_Drum Rpd x2.wav
448,192,279023,1,0,0:0:0:50:LR_Drum Kick Low.wav
64,192,279091,1,0,0:0:0:50:kick.wav
192,192,279091,1,0,0:0:0:70:LR_Drum Rpd x2.wav
320,192,279159,1,0,0:0:0:50:LR_Drum Kick Low.wav
64,192,279227,1,0,0:0:0:50:kick.wav
448,192,279227,1,0,0:0:0:0:
192,192,279281,1,0,0:0:0:0:
320,192,279336,1,0,0:0:0:0:
64,192,279390,1,0,0:0:0:0:
192,192,279445,1,0,0:0:0:0:
320,192,279499,1,0,0:0:0:0:
64,192,279554,1,0,0:0:0:0:
192,192,279608,1,0,0:0:0:0:
448,192,279664,1,0,0:0:0:0:
320,192,279717,1,0,0:0:0:0:
64,192,279773,1,0,0:0:0:0:
448,192,279827,1,0,0:0:0:0:
192,192,279882,1,0,0:0:0:0:
64,192,279936,1,0,0:0:0:0:
448,192,279991,1,0,0:0:0:0:
192,192,280045,1,0,0:0:0:0:
64,192,280100,1,0,0:0:0:0:
448,192,280154,1,0,0:0:0:0:
192,192,280209,1,0,0:0:0:0:
64,192,280263,1,0,0:0:0:0:
320,192,280318,1,0,0:0:0:0:
448,192,280372,1,0,0:0:0:0:
192,192,280427,1,0,0:0:0:0:
320,192,280481,1,0,0:0:0:0:
448,192,280536,1,0,0:0:0:0:
192,192,280590,1,0,0:0:0:0:
320,192,280645,1,0,0:0:0:0:
448,192,280699,1,0,0:0:0:0:
64,192,280754,1,0,0:0:0:0:
192,192,280808,1,0,0:0:0:0:
320,192,280864,1,0,0:0:0:70:tom01.wav
64,192,280917,1,0,0:0:0:70:tom01.wav
448,192,280973,1,0,0:0:0:70:tom02.wav
320,192,281027,1,0,0:0:0:70:tom02.wav
64,192,281082,1,0,0:0:0:70:tom03.wav
448,192,281136,1,0,0:0:0:70:tom03.wav
320,192,281191,1,0,0:0:0:70:tom03.wav
64,192,281245,1,0,0:0:0:70:tom04.wav
192,192,281300,1,0,0:0:0:70:tom04.wav
448,192,281354,1,0,0:0:0:70:tom04.wav
64,192,281409,128,0,285773:0:0:0:50:kick.wav
192,192,281409,128,0,285773:0:0:0:50:cymbal.wav
320,192,281409,1,0,0:0:0:70:push_scratch.wav
