osu file format v14

[General]
AudioFilename: audio.mp3
AudioLeadIn: 0
PreviewTime: 69151
Countdown: 0
SampleSet: Normal
StackLeniency: 0.7
Mode: 1
LetterboxInBreaks: 0
WidescreenStoryboard: 0

[Editor]
DistanceSpacing: 1.5
BeatDivisor: 8
GridSize: 32
TimelineZoom: 4.899998

[Metadata]
Title:Dyscontrolled Galaxy
TitleUnicode:Dyscontrolled Galaxy
Artist:Camellia
ArtistUnicode:かめりあ
Creator:kei821
Version:Virtual Reality
Source:SOUND VOLTEX IV HEAVENLY HAVEN
Tags:Ω Dimension SDVX
BeatmapID:1478696
BeatmapSetID:698172

[Difficulty]
HPDrainRate:4
CircleSize:2
OverallDifficulty:8
ApproachRate:10
SliderMultiplier:1.4
SliderTickRate:1

[Events]
//Background and Video events
0,0,"865428.jpg",0,0
//Break Periods
2,57590,62903
//Storyboard Layer 0 (Background)
//Storyboard Layer 1 (Fail)
//Storyboard Layer 2 (Pass)
//Storyboard Layer 3 (Foreground)
//Storyboard Sound Samples

[TimingPoints]
745,372.670807453416,4,1,0,100,1,0
5403,-100,4,1,0,75,0,0
6707,-100,4,1,0,100,0,0
12670,-66.6666666666667,4,1,0,100,0,0
18633,-62.5,4,1,0,100,0,0
19378,-58.8235294117647,4,1,0,100,0,0
20123,-55.5555555555556,4,1,0,100,0,0
20869,-52.6315789473684,4,1,0,100,0,0
21614,-50,4,1,0,100,0,0
23105,-50,4,1,0,100,0,0
24595,-100,4,1,0,100,0,0
26086,-50,4,1,0,100,0,0
49192,-50,4,1,0,50,0,0
49937,-50,4,1,0,100,0,0
57390,-50,4,1,0,100,0,0
57577,-100,4,1,0,50,0,0
68571,-66.6666666666667,4,1,0,100,0,0
69316,-66.6666666666667,4,1,0,100,0,1
75279,-62.5,4,1,0,100,0,1
76024,-58.8235294117647,4,1,0,100,0,1
76769,-55.5555555555556,4,1,0,100,0,1
77515,-52.6315789473684,4,1,0,100,0,1
78260,-50,4,1,0,100,0,1
79751,-50,4,1,0,100,0,0
81055,-100,4,1,0,100,0,0
82732,-100,4,1,0,100,0,1
93167,-100,4,1,0,100,0,0
95030,-83.3333333333333,4,1,0,100,0,1
105838,-100,4,1,0,100,0,0
106583,-66.6666666666667,4,1,0,100,0,1
117763,-66.6666666666667,4,1,0,100,0,0
118508,-50,4,1,0,100,0,1
124471,-57.1428571428571,4,1,0,100,0,0
124658,-66.6666666666667,4,1,0,100,0,0

[HitObjects]
256,192,745,5,4,0:0:0:0:
256,192,1490,1,8,0:0:0:0:
256,192,1769,1,8,0:0:0:0:
256,192,2049,1,4,0:0:0:0:
256,192,2981,1,0,0:0:0:0:
256,192,3260,1,0,0:0:0:0:
256,192,3540,1,8,0:0:0:0:
256,192,3726,1,4,0:0:0:0:
256,192,4471,1,8,0:0:0:0:
256,192,4751,1,8,0:0:0:0:
256,192,5030,1,0,0:0:0:0:
256,192,5403,1,8,0:0:0:0:
256,192,5470,1,8,0:0:0:0:
256,192,5538,1,0,0:0:0:0:
256,192,5606,1,8,0:0:0:0:
256,192,5674,1,0,0:0:0:0:
256,192,5741,1,0,0:0:0:0:
256,192,5809,1,8,0:0:0:0:
256,192,5877,1,8,0:0:0:0:
256,192,5945,1,0,0:0:0:0:
256,192,6012,1,8,0:0:0:0:
256,192,6080,1,0,0:0:0:0:
256,192,6148,1,8,0:0:0:0:
256,192,6216,1,0,0:0:0:0:
256,192,6283,1,8,0:0:0:0:
256,192,6351,1,8,0:0:0:0:
256,192,6419,1,0,0:0:0:0:
256,192,6487,1,0,0:0:0:0:
256,192,6554,1,0,0:0:0:0:
256,192,6707,5,4,0:0:0:0:
256,192,7453,1,8,0:0:0:0:
256,192,7732,1,8,0:0:0:0:
256,192,8012,1,4,0:0:0:0:
256,192,8943,1,0,0:0:0:0:
256,192,9223,1,0,0:0:0:0:
256,192,9502,1,8,0:0:0:0:
256,192,9689,1,4,0:0:0:0:
256,192,10434,1,8,0:0:0:0:
256,192,10713,1,8,0:0:0:0:
256,192,10993,1,4,0:0:0:0:
256,192,11366,1,0,0:0:0:0:
256,192,12670,5,12,0:0:0:0:
256,192,12856,1,0,0:0:0:0:
256,192,13043,1,8,0:0:0:0:
256,192,13229,1,0,0:0:0:0:
256,192,13276,1,0,0:0:0:0:
256,192,13322,1,0,0:0:0:0:
256,192,13369,1,0,0:0:0:0:
256,192,13415,1,8,0:0:0:0:
256,192,13602,1,0,0:0:0:0:
256,192,13788,1,8,0:0:0:0:
256,192,13974,1,0,0:0:0:0:
256,192,14021,1,0,0:0:0:0:
256,192,14067,1,0,0:0:0:0:
256,192,14114,1,0,0:0:0:0:
256,192,14161,1,8,0:0:0:0:
256,192,14347,1,0,0:0:0:0:
256,192,14533,1,8,0:0:0:0:
256,192,14720,1,0,0:0:0:0:
256,192,14766,1,0,0:0:0:0:
256,192,14813,1,0,0:0:0:0:
256,192,14859,1,0,0:0:0:0:
256,192,14906,1,8,0:0:0:0:
256,192,14999,1,8,0:0:0:0:
256,192,15185,1,0,0:0:0:0:
256,192,15279,1,0,0:0:0:0:
256,192,15465,1,8,0:0:0:0:
256,192,15527,1,8,0:0:0:0:
256,192,15589,1,8,0:0:0:0:
256,192,15651,1,0,0:0:0:0:
256,192,15838,1,8,0:0:0:0:
256,192,16024,1,0,0:0:0:0:
256,192,16210,1,8,0:0:0:0:
256,192,16257,1,8,0:0:0:0:
256,192,16304,1,8,0:0:0:0:
256,192,16350,1,8,0:0:0:0:
256,192,16397,1,0,0:0:0:0:
256,192,16583,1,8,0:0:0:0:
256,192,16769,1,0,0:0:0:0:
256,192,16956,1,8,0:0:0:0:
256,192,17002,1,8,0:0:0:0:
256,192,17049,1,8,0:0:0:0:
256,192,17095,1,8,0:0:0:0:
256,192,17142,1,0,0:0:0:0:
256,192,17235,1,0,0:0:0:0:
256,192,17328,1,8,0:0:0:0:
256,192,17422,1,0,0:0:0:0:
256,192,17608,1,0,0:0:0:0:
256,192,17701,1,8,0:0:0:0:
256,192,17763,1,8,0:0:0:0:
256,192,17825,1,8,0:0:0:0:
256,192,17887,1,0,0:0:0:0:
256,192,17981,1,0,0:0:0:0:
256,192,18074,1,8,0:0:0:0:
256,192,18167,1,0,0:0:0:0:
256,192,18260,1,8,0:0:0:0:
256,192,18353,1,0,0:0:0:0:
256,192,18447,1,8,0:0:0:0:
256,192,18508,1,8,0:0:0:0:
256,192,18571,1,8,0:0:0:0:
256,192,18633,1,0,0:0:0:0:
256,192,18726,1,0,0:0:0:0:
256,192,18819,1,8,0:0:0:0:
256,192,18912,1,0,0:0:0:0:
256,192,19005,1,8,0:0:0:0:
256,192,19099,1,0,0:0:0:0:
256,192,19192,1,8,0:0:0:0:
256,192,19238,1,8,0:0:0:0:
256,192,19285,1,8,0:0:0:0:
256,192,19331,1,8,0:0:0:0:
256,192,19378,1,0,0:0:0:0:
256,192,19471,1,0,0:0:0:0:
256,192,19564,1,0,0:0:0:0:
256,192,19658,1,8,0:0:0:0:
256,192,19751,1,0,0:0:0:0:
256,192,19844,1,0,0:0:0:0:
256,192,19937,1,8,0:0:0:0:
256,192,19984,1,8,0:0:0:0:
256,192,20030,1,8,0:0:0:0:
256,192,20077,1,8,0:0:0:0:
256,192,20123,1,0,0:0:0:0:
256,192,20217,1,0,0:0:0:0:
256,192,20310,1,8,0:0:0:0:
256,192,20372,1,0,0:0:0:0:
256,192,20434,1,0,0:0:0:0:
256,192,20496,1,8,0:0:0:0:
256,192,20589,1,0,0:0:0:0:
256,192,20682,1,8,0:0:0:0:
256,192,20744,1,8,0:0:0:0:
256,192,20807,1,8,0:0:0:0:
256,192,20869,1,0,0:0:0:0:
256,192,20962,1,0,0:0:0:0:
256,192,21055,1,8,0:0:0:0:
256,192,21117,1,0,0:0:0:0:
256,192,21179,1,0,0:0:0:0:
256,192,21241,1,8,0:0:0:0:
256,192,21335,1,0,0:0:0:0:
256,192,21428,1,8,0:0:0:0:
256,192,21490,1,8,0:0:0:0:
256,192,21552,1,8,0:0:0:0:
256,192,21614,1,0,0:0:0:0:
256,192,21661,1,0,0:0:0:0:
256,192,21707,1,8,0:0:0:0:
256,192,21754,1,0,0:0:0:0:
256,192,21800,1,8,0:0:0:0:
256,192,21847,1,8,0:0:0:0:
256,192,21894,1,0,0:0:0:0:
256,192,21940,1,8,0:0:0:0:
256,192,21987,1,0,0:0:0:0:
256,192,22034,1,0,0:0:0:0:
256,192,22080,1,8,0:0:0:0:
256,192,22127,1,0,0:0:0:0:
256,192,22173,1,8,0:0:0:0:
256,192,22220,1,8,0:0:0:0:
256,192,22267,1,0,0:0:0:0:
256,192,22313,1,8,0:0:0:0:
256,192,22359,1,0,0:0:0:0:
256,192,22453,1,0,0:0:0:0:
256,192,22546,1,0,0:0:0:0:
256,192,22639,1,0,0:0:0:0:
256,192,22732,1,8,0:0:0:0:
256,192,22918,1,8,0:0:0:0:
256,192,23105,1,4,0:0:0:0:
256,192,24595,12,0,25713,0:0:0:0:
256,192,26086,5,4,0:0:0:0:
256,192,26272,1,8,0:0:0:0:
256,192,26366,1,8,0:0:0:0:
256,192,26459,1,0,0:0:0:0:
256,192,26552,1,8,0:0:0:0:
256,192,26645,1,8,0:0:0:0:
256,192,26738,1,8,0:0:0:0:
256,192,26831,1,0,0:0:0:0:
256,192,26925,1,0,0:0:0:0:
256,192,27018,1,8,0:0:0:0:
256,192,27111,1,8,0:0:0:0:
256,192,27204,1,0,0:0:0:0:
256,192,27297,1,8,0:0:0:0:
256,192,27390,1,8,0:0:0:0:
256,192,27484,1,8,0:0:0:0:
256,192,27577,1,0,0:0:0:0:
256,192,27670,1,0,0:0:0:0:
256,192,27763,1,8,0:0:0:0:
256,192,27825,1,8,0:0:0:0:
256,192,27887,1,8,0:0:0:0:
256,192,27949,1,0,0:0:0:0:
256,192,28043,1,8,0:0:0:0:
256,192,28136,1,8,0:0:0:0:
256,192,28229,1,8,0:0:0:0:
256,192,28322,1,0,0:0:0:0:
256,192,28415,1,0,0:0:0:0:
256,192,28508,1,8,0:0:0:0:
256,192,28695,1,0,0:0:0:0:
256,192,28788,1,8,0:0:0:0:
256,192,28881,1,0,0:0:0:0:
256,192,29067,1,4,0:0:0:0:
256,192,29254,1,8,0:0:0:0:
256,192,29347,1,8,0:0:0:0:
256,192,29440,1,0,0:0:0:0:
256,192,29533,1,8,0:0:0:0:
256,192,29626,1,8,0:0:0:0:
256,192,29720,1,8,0:0:0:0:
256,192,29813,1,0,0:0:0:0:
256,192,29906,1,8,0:0:0:0:
256,192,29999,1,0,0:0:0:0:
256,192,30046,1,8,0:0:0:0:
256,192,30092,1,8,0:0:0:0:
256,192,30139,1,8,0:0:0:0:
256,192,30185,1,0,0:0:0:0:
256,192,30279,1,8,0:0:0:0:
256,192,30465,1,8,0:0:0:0:
256,192,30558,1,0,0:0:0:0:
256,192,30651,1,0,0:0:0:0:
256,192,30744,1,8,0:0:0:0:
256,192,30791,1,8,0:0:0:0:
256,192,30838,1,0,0:0:0:0:
256,192,30931,1,0,0:0:0:0:
256,192,31024,1,8,0:0:0:0:
256,192,31117,1,8,0:0:0:0:
256,192,31210,1,0,0:0:0:0:
256,192,31304,1,0,0:0:0:0:
256,192,31397,1,0,0:0:0:0:
256,192,31583,1,0,0:0:0:0:
256,192,31676,1,8,0:0:0:0:
256,192,31769,1,8,0:0:0:0:
256,192,31863,1,0,0:0:0:0:
256,192,31956,1,8,0:0:0:0:
256,192,32142,1,0,0:0:0:0:
256,192,32328,1,0,0:0:0:0:
256,192,32422,1,0,0:0:0:0:
256,192,32515,1,0,0:0:0:0:
256,192,32608,1,8,0:0:0:0:
256,192,32701,1,0,0:0:0:0:
256,192,32794,1,0,0:0:0:0:
256,192,32887,1,8,0:0:0:0:
256,192,32981,1,0,0:0:0:0:
256,192,33074,1,8,0:0:0:0:
256,192,33167,1,8,0:0:0:0:
256,192,33260,1,0,0:0:0:0:
256,192,33353,1,0,0:0:0:0:
256,192,33446,1,0,0:0:0:0:
256,192,33912,5,0,0:0:0:0:
256,192,34005,1,8,0:0:0:0:
256,192,34099,1,8,0:0:0:0:
256,192,34192,1,8,0:0:0:0:
256,192,34285,1,0,0:0:0:0:
256,192,34378,1,8,0:0:0:0:
256,192,34471,1,0,0:0:0:0:
256,192,34658,1,0,0:0:0:0:
256,192,34751,1,0,0:0:0:0:
256,192,34937,1,0,0:0:0:0:
256,192,35030,1,8,0:0:0:0:
256,192,35217,1,0,0:0:0:0:
256,192,35310,1,0,0:0:0:0:
256,192,35403,1,8,0:0:0:0:
256,192,35496,1,8,0:0:0:0:
256,192,35589,1,0,0:0:0:0:
256,192,35682,1,0,0:0:0:0:
256,192,35776,1,0,0:0:0:0:
256,192,35962,1,0,0:0:0:0:
256,192,36055,1,0,0:0:0:0:
256,192,36148,1,8,0:0:0:0:
256,192,36241,1,0,0:0:0:0:
256,192,36335,1,0,0:0:0:0:
256,192,36521,1,0,0:0:0:0:
256,192,36707,1,0,0:0:0:0:
256,192,36894,1,8,0:0:0:0:
256,192,36987,1,0,0:0:0:0:
256,192,37080,1,8,0:0:0:0:
256,192,37266,1,4,0:0:0:0:
256,192,37639,1,8,0:0:0:0:
256,192,37732,1,8,0:0:0:0:
256,192,37825,1,8,0:0:0:0:
256,192,37918,1,8,0:0:0:0:
256,192,38012,1,0,0:0:0:0:
256,192,38198,1,8,0:0:0:0:
256,192,38291,1,0,0:0:0:0:
256,192,38477,1,0,0:0:0:0:
256,192,38571,1,0,0:0:0:0:
256,192,38664,1,8,0:0:0:0:
256,192,38850,1,0,0:0:0:0:
256,192,38943,1,0,0:0:0:0:
256,192,39036,1,8,0:0:0:0:
256,192,39130,1,0,0:0:0:0:
256,192,39176,1,0,0:0:0:0:
256,192,39223,1,0,0:0:0:0:
256,192,39316,1,0,0:0:0:0:
256,192,39409,1,0,0:0:0:0:
256,192,39502,1,8,0:0:0:0:
256,192,39595,1,0,0:0:0:0:
256,192,39782,1,0,0:0:0:0:
256,192,39968,1,8,0:0:0:0:
256,192,40061,1,0,0:0:0:0:
256,192,40108,1,0,0:0:0:0:
256,192,40154,1,0,0:0:0:0:
256,192,40248,1,8,0:0:0:0:
256,192,40341,1,0,0:0:0:0:
256,192,40434,1,0,0:0:0:0:
256,192,40620,1,0,0:0:0:0:
256,192,40713,1,0,0:0:0:0:
256,192,40807,1,8,0:0:0:0:
256,192,40900,1,0,0:0:0:0:
256,192,41086,1,0,0:0:0:0:
256,192,41179,1,8,0:0:0:0:
256,192,41226,1,8,0:0:0:0:
256,192,41272,1,0,0:0:0:0:
256,192,41366,1,8,0:0:0:0:
256,192,41458,1,0,0:0:0:0:
256,192,41552,1,0,0:0:0:0:
256,192,41645,1,0,0:0:0:0:
256,192,41738,1,8,0:0:0:0:
256,192,41831,1,0,0:0:0:0:
256,192,41925,1,0,0:0:0:0:
256,192,42018,1,8,0:0:0:0:
256,192,42111,1,0,0:0:0:0:
256,192,42158,1,0,0:0:0:0:
256,192,42204,1,0,0:0:0:0:
256,192,42297,1,0,0:0:0:0:
256,192,42390,1,0,0:0:0:0:
256,192,42577,1,0,0:0:0:0:
256,192,42670,1,0,0:0:0:0:
256,192,42763,1,8,0:0:0:0:
256,192,42810,1,8,0:0:0:0:
256,192,42856,1,0,0:0:0:0:
256,192,42949,1,8,0:0:0:0:
256,192,43043,1,0,0:0:0:0:
256,192,43136,1,0,0:0:0:0:
256,192,43322,1,8,0:0:0:0:
256,192,43415,1,0,0:0:0:0:
256,192,43601,1,8,0:0:0:0:
256,192,43695,1,0,0:0:0:0:
256,192,43788,1,8,0:0:0:0:
256,192,43881,1,0,0:0:0:0:
256,192,43974,1,0,0:0:0:0:
256,192,44067,1,8,0:0:0:0:
256,192,44161,1,0,0:0:0:0:
256,192,44207,1,0,0:0:0:0:
256,192,44254,1,0,0:0:0:0:
256,192,44347,1,8,0:0:0:0:
256,192,44394,1,8,0:0:0:0:
256,192,44440,1,0,0:0:0:0:
256,192,44533,1,0,0:0:0:0:
256,192,44626,1,0,0:0:0:0:
256,192,44673,1,0,0:0:0:0:
256,192,44720,1,8,0:0:0:0:
256,192,44813,1,0,0:0:0:0:
256,192,44906,1,0,0:0:0:0:
256,192,44999,1,8,0:0:0:0:
256,192,45092,1,0,0:0:0:0:
256,192,45139,1,0,0:0:0:0:
256,192,45185,1,0,0:0:0:0:
256,192,45279,1,0,0:0:0:0:
256,192,45372,1,0,0:0:0:0:
256,192,45465,1,8,0:0:0:0:
256,192,45558,1,0,0:0:0:0:
256,192,45744,1,0,0:0:0:0:
256,192,45931,1,0,0:0:0:0:
256,192,45977,1,0,0:0:0:0:
256,192,46024,1,0,0:0:0:0:
256,192,46117,1,0,0:0:0:0:
256,192,46210,1,8,0:0:0:0:
256,192,46304,1,0,0:0:0:0:
256,192,46397,1,0,0:0:0:0:
256,192,46490,1,0,0:0:0:0:
256,192,46536,1,0,0:0:0:0:
256,192,46583,1,8,0:0:0:0:
256,192,46676,1,0,0:0:0:0:
256,192,46863,1,0,0:0:0:0:
256,192,46956,1,8,0:0:0:0:
256,192,47002,1,8,0:0:0:0:
256,192,47049,1,0,0:0:0:0:
256,192,47142,1,0,0:0:0:0:
256,192,47235,1,0,0:0:0:0:
256,192,47328,1,8,0:0:0:0:
256,192,47422,1,0,0:0:0:0:
256,192,47515,1,0,0:0:0:0:
256,192,47608,1,8,0:0:0:0:
256,192,47701,1,8,0:0:0:0:
256,192,47748,1,8,0:0:0:0:
256,192,47794,1,0,0:0:0:0:
256,192,47887,1,0,0:0:0:0:
256,192,47981,1,0,0:0:0:0:
256,192,48074,1,8,0:0:0:0:
256,192,48167,1,8,0:0:0:0:
256,192,48260,1,0,0:0:0:0:
256,192,48353,1,0,0:0:0:0:
256,192,48446,1,8,0:0:0:0:
256,192,48493,1,8,0:0:0:0:
256,192,48540,1,0,0:0:0:0:
256,192,48633,1,0,0:0:0:0:
256,192,48726,1,8,0:0:0:0:
256,192,48772,1,8,0:0:0:0:
256,192,48819,1,0,0:0:0:0:
256,192,48912,1,0,0:0:0:0:
256,192,49005,1,0,0:0:0:0:
256,192,49099,1,0,0:0:0:0:
256,192,49192,12,0,49751,0:0:0:0:
256,192,49937,5,0,0:0:0:0:
256,192,49984,1,0,0:0:0:0:
256,192,50030,1,0,0:0:0:0:
256,192,50123,1,8,0:0:0:0:
256,192,50217,1,0,0:0:0:0:
256,192,50263,1,0,0:0:0:0:
256,192,50310,1,8,0:0:0:0:
256,192,50403,1,8,0:0:0:0:
256,192,50589,1,0,0:0:0:0:
256,192,50682,1,0,0:0:0:0:
256,192,50729,1,0,0:0:0:0:
256,192,50776,1,0,0:0:0:0:
256,192,50869,1,8,0:0:0:0:
256,192,50962,1,0,0:0:0:0:
256,192,51008,1,8,0:0:0:0:
256,192,51055,1,0,0:0:0:0:
256,192,51148,1,8,0:0:0:0:
256,192,51172,1,8,0:0:0:0:
256,192,51241,1,8,0:0:0:0:
256,192,51265,1,8,0:0:0:0:
256,192,51335,1,8,0:0:0:0:
256,192,51428,5,0,0:0:0:0:
256,192,51474,1,0,0:0:0:0:
256,192,51521,1,0,0:0:0:0:
256,192,51614,1,8,0:0:0:0:
256,192,51707,1,0,0:0:0:0:
256,192,51754,1,0,0:0:0:0:
256,192,51800,1,8,0:0:0:0:
256,192,51894,1,8,0:0:0:0:
256,192,51987,1,0,0:0:0:0:
256,192,52033,1,0,0:0:0:0:
256,192,52080,1,0,0:0:0:0:
256,192,52173,1,8,0:0:0:0:
256,192,52266,1,0,0:0:0:0:
256,192,52313,1,8,0:0:0:0:
256,192,52359,1,0,0:0:0:0:
256,192,52453,1,8,0:0:0:0:
256,192,52546,1,0,0:0:0:0:
256,192,52732,1,0,0:0:0:0:
256,192,52763,1,0,0:0:0:0:
256,192,52794,1,0,0:0:0:0:
256,192,52825,1,8,0:0:0:0:
256,192,52918,1,0,0:0:0:0:
256,192,52965,1,0,0:0:0:0:
256,192,53012,1,8,0:0:0:0:
256,192,53105,1,8,0:0:0:0:
256,192,53198,1,0,0:0:0:0:
256,192,53244,1,0,0:0:0:0:
256,192,53291,1,8,0:0:0:0:
256,192,53384,1,8,0:0:0:0:
256,192,53571,1,0,0:0:0:0:
256,192,53664,1,0,0:0:0:0:
256,192,53710,1,8,0:0:0:0:
256,192,53757,1,8,0:0:0:0:
256,192,53850,1,8,0:0:0:0:
256,192,53943,1,0,0:0:0:0:
256,192,53990,1,8,0:0:0:0:
256,192,54036,1,0,0:0:0:0:
256,192,54130,1,8,0:0:0:0:
256,192,54153,1,8,0:0:0:0:
256,192,54223,1,8,0:0:0:0:
256,192,54246,1,8,0:0:0:0:
256,192,54316,1,8,0:0:0:0:
256,192,54409,1,0,0:0:0:0:
256,192,54456,1,0,0:0:0:0:
256,192,54502,1,8,0:0:0:0:
256,192,54595,1,8,0:0:0:0:
256,192,54689,1,0,0:0:0:0:
256,192,54735,1,0,0:0:0:0:
256,192,54782,1,8,0:0:0:0:
256,192,54875,1,8,0:0:0:0:
256,192,54968,1,0,0:0:0:0:
256,192,55015,1,8,0:0:0:0:
256,192,55061,1,8,0:0:0:0:
256,192,55154,1,8,0:0:0:0:
256,192,55248,1,0,0:0:0:0:
256,192,55294,1,8,0:0:0:0:
256,192,55341,1,0,0:0:0:0:
256,192,55434,1,8,0:0:0:0:
256,192,55527,1,0,0:0:0:0:
256,192,55620,1,0,0:0:0:0:
256,192,55713,1,0,0:0:0:0:
256,192,55807,1,0,0:0:0:0:
256,192,55900,1,0,0:0:0:0:
256,192,56086,12,0,57204,0:0:0:0:
256,192,57390,5,4,0:0:0:0:
256,192,63353,5,0,0:0:0:0:
256,192,63540,1,8,0:0:0:0:
256,192,63633,1,0,0:0:0:0:
256,192,63819,1,8,0:0:0:0:
256,192,64005,1,8,0:0:0:0:
256,192,64192,1,8,0:0:0:0:
256,192,64285,1,0,0:0:0:0:
256,192,64471,1,0,0:0:0:0:
256,192,64564,1,0,0:0:0:0:
256,192,64658,1,8,0:0:0:0:
256,192,64844,1,0,0:0:0:0:
256,192,65030,1,8,0:0:0:0:
256,192,65123,1,0,0:0:0:0:
256,192,65310,1,8,0:0:0:0:
256,192,65496,1,8,0:0:0:0:
256,192,65682,1,8,0:0:0:0:
256,192,65776,1,8,0:0:0:0:
256,192,65869,1,0,0:0:0:0:
256,192,65962,1,8,0:0:0:0:
256,192,66148,1,0,0:0:0:0:
256,192,66335,1,8,0:0:0:0:
256,192,66521,1,0,0:0:0:0:
256,192,66614,1,0,0:0:0:0:
256,192,66800,1,8,0:0:0:0:
256,192,66987,1,8,0:0:0:0:
256,192,67173,1,0,0:0:0:0:
256,192,67266,1,0,0:0:0:0:
256,192,67453,1,0,0:0:0:0:
256,192,67546,1,0,0:0:0:0:
256,192,67639,1,8,0:0:0:0:
256,192,67825,1,0,0:0:0:0:
256,192,68012,1,8,0:0:0:0:
256,192,68105,1,0,0:0:0:0:
256,192,68291,1,8,0:0:0:0:
256,192,68384,1,0,0:0:0:0:
256,192,68477,1,8,0:0:0:0:
256,192,68571,5,0,0:0:0:0:
256,192,68664,1,0,0:0:0:0:
256,192,68757,1,8,0:0:0:0:
256,192,68850,1,0,0:0:0:0:
256,192,68943,1,8,0:0:0:0:
256,192,69005,1,8,0:0:0:0:
256,192,69067,1,8,0:0:0:0:
256,192,69130,1,0,0:0:0:0:
256,192,69223,1,0,0:0:0:0:
256,192,69316,5,12,0:0:0:0:
256,192,69502,1,0,0:0:0:0:
256,192,69595,1,0,0:0:0:0:
256,192,69689,1,8,0:0:0:0:
256,192,69875,1,0,0:0:0:0:
256,192,69922,1,0,0:0:0:0:
256,192,69968,1,0,0:0:0:0:
256,192,70015,1,0,0:0:0:0:
256,192,70061,1,8,0:0:0:0:
256,192,70154,1,0,0:0:0:0:
256,192,70248,1,8,0:0:0:0:
256,192,70434,1,8,0:0:0:0:
256,192,70620,1,0,0:0:0:0:
256,192,70667,1,0,0:0:0:0:
256,192,70713,1,0,0:0:0:0:
256,192,70760,1,0,0:0:0:0:
256,192,70807,1,8,0:0:0:0:
256,192,70993,1,8,0:0:0:0:
256,192,71086,1,0,0:0:0:0:
256,192,71179,1,8,0:0:0:0:
256,192,71272,1,8,0:0:0:0:
256,192,71366,1,0,0:0:0:0:
256,192,71412,1,0,0:0:0:0:
256,192,71459,1,0,0:0:0:0:
256,192,71505,1,0,0:0:0:0:
256,192,71552,1,8,0:0:0:0:
256,192,71645,1,0,0:0:0:0:
256,192,71738,1,8,0:0:0:0:
256,192,71831,1,8,0:0:0:0:
256,192,71925,1,0,0:0:0:0:
256,192,72018,1,0,0:0:0:0:
256,192,72111,1,8,0:0:0:0:
256,192,72173,1,8,0:0:0:0:
256,192,72235,1,8,0:0:0:0:
256,192,72297,1,0,0:0:0:0:
256,192,72484,1,8,0:0:0:0:
256,192,72577,1,0,0:0:0:0:
256,192,72670,1,8,0:0:0:0:
256,192,72763,1,0,0:0:0:0:
256,192,72856,1,8,0:0:0:0:
256,192,72903,1,8,0:0:0:0:
256,192,72950,1,8,0:0:0:0:
256,192,72996,1,8,0:0:0:0:
256,192,73043,1,0,0:0:0:0:
256,192,73136,1,0,0:0:0:0:
256,192,73229,1,8,0:0:0:0:
256,192,73415,1,8,0:0:0:0:
256,192,73508,1,0,0:0:0:0:
256,192,73602,1,8,0:0:0:0:
256,192,73648,1,8,0:0:0:0:
256,192,73695,1,8,0:0:0:0:
256,192,73741,1,8,0:0:0:0:
256,192,73788,1,0,0:0:0:0:
256,192,73881,1,0,0:0:0:0:
256,192,73974,1,8,0:0:0:0:
256,192,74068,1,0,0:0:0:0:
256,192,74161,1,8,0:0:0:0:
256,192,74207,1,8,0:0:0:0:
256,192,74254,1,0,0:0:0:0:
256,192,74347,1,8,0:0:0:0:
256,192,74409,1,8,0:0:0:0:
256,192,74471,1,8,0:0:0:0:
256,192,74533,1,0,0:0:0:0:
256,192,74627,1,0,0:0:0:0:
256,192,74720,1,8,0:0:0:0:
256,192,74813,1,0,0:0:0:0:
256,192,74906,5,8,0:0:0:0:
256,192,74968,1,8,0:0:0:0:
256,192,75030,1,0,0:0:0:0:
256,192,75092,1,8,0:0:0:0:
256,192,75154,1,8,0:0:0:0:
256,192,75217,1,0,0:0:0:0:
256,192,75279,5,0,0:0:0:0:
256,192,75372,1,0,0:0:0:0:
256,192,75465,1,8,0:0:0:0:
256,192,75558,1,0,0:0:0:0:
256,192,75651,1,8,0:0:0:0:
256,192,75744,1,0,0:0:0:0:
256,192,75838,1,8,0:0:0:0:
256,192,75884,1,8,0:0:0:0:
256,192,75931,1,8,0:0:0:0:
256,192,75977,1,8,0:0:0:0:
256,192,76024,1,0,0:0:0:0:
256,192,76117,1,0,0:0:0:0:
256,192,76210,1,0,0:0:0:0:
256,192,76304,1,8,0:0:0:0:
256,192,76397,1,0,0:0:0:0:
256,192,76490,1,0,0:0:0:0:
256,192,76583,1,8,0:0:0:0:
256,192,76630,1,8,0:0:0:0:
256,192,76676,1,8,0:0:0:0:
256,192,76723,1,8,0:0:0:0:
256,192,76769,1,0,0:0:0:0:
256,192,76863,1,0,0:0:0:0:
256,192,76956,1,8,0:0:0:0:
256,192,77018,1,0,0:0:0:0:
256,192,77080,1,0,0:0:0:0:
256,192,77142,1,8,0:0:0:0:
256,192,77235,1,0,0:0:0:0:
256,192,77328,1,8,0:0:0:0:
256,192,77390,1,8,0:0:0:0:
256,192,77453,1,8,0:0:0:0:
256,192,77515,1,0,0:0:0:0:
256,192,77608,1,0,0:0:0:0:
256,192,77701,1,8,0:0:0:0:
256,192,77763,1,0,0:0:0:0:
256,192,77825,1,0,0:0:0:0:
256,192,77887,1,8,0:0:0:0:
256,192,77981,1,0,0:0:0:0:
256,192,78074,1,8,0:0:0:0:
256,192,78136,1,8,0:0:0:0:
256,192,78198,1,8,0:0:0:0:
256,192,78260,1,0,0:0:0:0:
256,192,78307,1,0,0:0:0:0:
256,192,78353,1,8,0:0:0:0:
256,192,78400,1,0,0:0:0:0:
256,192,78446,1,8,0:0:0:0:
256,192,78493,1,8,0:0:0:0:
256,192,78540,1,0,0:0:0:0:
256,192,78586,1,8,0:0:0:0:
256,192,78633,1,0,0:0:0:0:
256,192,78680,1,0,0:0:0:0:
256,192,78726,1,8,0:0:0:0:
256,192,78773,1,0,0:0:0:0:
256,192,78819,1,8,0:0:0:0:
256,192,78866,1,8,0:0:0:0:
256,192,78913,1,0,0:0:0:0:
256,192,78959,1,8,0:0:0:0:
256,192,79005,1,0,0:0:0:0:
256,192,79099,1,0,0:0:0:0:
256,192,79192,1,0,0:0:0:0:
256,192,79285,1,0,0:0:0:0:
256,192,79378,1,8,0:0:0:0:
256,192,79564,1,8,0:0:0:0:
256,192,79751,1,4,0:0:0:0:
256,192,81055,1,0,0:0:0:0:
256,192,81148,1,0,0:0:0:0:
256,192,81241,1,8,0:0:0:0:
256,192,81335,1,0,0:0:0:0:
256,192,81428,1,8,0:0:0:0:
256,192,81521,1,8,0:0:0:0:
256,192,81614,1,0,0:0:0:0:
256,192,81707,1,0,0:0:0:0:
256,192,81800,1,8,0:0:0:0:
256,192,81894,1,8,0:0:0:0:
256,192,81987,1,0,0:0:0:0:
256,192,82080,1,8,0:0:0:0:
256,192,82173,1,8,0:0:0:0:
256,192,82266,1,8,0:0:0:0:
256,192,82359,1,0,0:0:0:0:
256,192,82453,1,8,0:0:0:0:
256,192,82546,1,8,0:0:0:0:
256,192,82732,1,4,0:0:0:0:
256,192,82918,1,8,0:0:0:0:
256,192,83012,1,0,0:0:0:0:
256,192,83105,1,0,0:0:0:0:
256,192,83198,1,8,0:0:0:0:
256,192,83291,1,0,0:0:0:0:
256,192,83384,1,8,0:0:0:0:
256,192,83477,1,0,0:0:0:0:
256,192,83664,1,8,0:0:0:0:
256,192,83757,1,8,0:0:0:0:
256,192,83850,1,0,0:0:0:0:
256,192,83943,1,0,0:0:0:0:
256,192,84036,1,0,0:0:0:0:
256,192,84130,1,8,0:0:0:0:
256,192,84223,1,0,0:0:0:0:
256,192,84316,1,8,0:0:0:0:
256,192,84409,1,0,0:0:0:0:
256,192,84595,1,0,0:0:0:0:
256,192,84689,1,8,0:0:0:0:
256,192,84875,1,8,0:0:0:0:
256,192,84968,1,0,0:0:0:0:
256,192,85061,1,8,0:0:0:0:
256,192,85154,1,0,0:0:0:0:
256,192,85248,1,0,0:0:0:0:
256,192,85341,1,0,0:0:0:0:
256,192,85434,1,8,0:0:0:0:
256,192,85527,1,8,0:0:0:0:
256,192,85620,1,0,0:0:0:0:
256,192,85714,1,0,0:0:0:0:
256,192,85807,1,8,0:0:0:0:
256,192,85900,1,0,0:0:0:0:
256,192,86086,1,0,0:0:0:0:
256,192,86179,1,8,0:0:0:0:
256,192,86366,1,8,0:0:0:0:
256,192,86459,1,0,0:0:0:0:
256,192,86552,1,8,0:0:0:0:
256,192,86645,1,8,0:0:0:0:
256,192,86738,1,0,0:0:0:0:
256,192,86831,1,0,0:0:0:0:
256,192,87018,1,0,0:0:0:0:
256,192,87111,1,8,0:0:0:0:
256,192,87204,1,0,0:0:0:0:
256,192,87297,1,8,0:0:0:0:
256,192,87390,1,8,0:0:0:0:
256,192,87484,1,0,0:0:0:0:
256,192,87670,1,0,0:0:0:0:
256,192,87763,1,0,0:0:0:0:
256,192,87856,1,8,0:0:0:0:
256,192,87949,1,8,0:0:0:0:
256,192,88043,1,0,0:0:0:0:
256,192,88136,1,8,0:0:0:0:
256,192,88229,1,0,0:0:0:0:
256,192,88322,1,0,0:0:0:0:
256,192,88415,1,8,0:0:0:0:
256,192,88508,1,0,0:0:0:0:
256,192,88602,1,0,0:0:0:0:
256,192,88695,1,0,0:0:0:0:
256,192,88881,1,0,0:0:0:0:
256,192,88974,1,8,0:0:0:0:
256,192,89067,1,0,0:0:0:0:
256,192,89161,1,0,0:0:0:0:
256,192,89254,1,0,0:0:0:0:
256,192,89347,1,8,0:0:0:0:
256,192,89440,1,0,0:0:0:0:
256,192,89626,1,8,0:0:0:0:
256,192,89720,1,8,0:0:0:0:
256,192,89813,1,0,0:0:0:0:
256,192,89906,1,0,0:0:0:0:
256,192,89999,1,8,0:0:0:0:
256,192,90092,1,8,0:0:0:0:
256,192,90185,1,0,0:0:0:0:
256,192,90279,1,0,0:0:0:0:
256,192,90372,1,0,0:0:0:0:
256,192,90465,1,8,0:0:0:0:
256,192,90558,1,0,0:0:0:0:
256,192,90651,1,0,0:0:0:0:
256,192,90744,1,8,0:0:0:0:
256,192,90838,1,8,0:0:0:0:
256,192,91024,1,8,0:0:0:0:
256,192,91117,1,8,0:0:0:0:
256,192,91210,1,0,0:0:0:0:
256,192,91304,1,8,0:0:0:0:
256,192,91397,1,0,0:0:0:0:
256,192,91490,1,8,0:0:0:0:
256,192,91583,1,8,0:0:0:0:
256,192,91676,1,0,0:0:0:0:
256,192,91769,1,0,0:0:0:0:
256,192,91956,1,8,0:0:0:0:
256,192,92049,1,8,0:0:0:0:
256,192,92142,1,0,0:0:0:0:
256,192,92235,1,8,0:0:0:0:
256,192,92328,1,0,0:0:0:0:
256,192,92422,1,8,0:0:0:0:
256,192,92484,1,8,0:0:0:0:
256,192,92546,1,8,0:0:0:0:
256,192,92608,1,0,0:0:0:0:
256,192,92794,1,12,0:0:0:0:
256,192,93167,1,0,0:0:0:0:
256,192,93260,1,0,0:0:0:0:
256,192,93353,1,8,0:0:0:0:
256,192,93446,1,0,0:0:0:0:
256,192,93633,1,8,0:0:0:0:
256,192,93726,1,0,0:0:0:0:
256,192,93912,1,0,0:0:0:0:
256,192,94005,1,0,0:0:0:0:
256,192,94098,1,8,0:0:0:0:
256,192,94191,1,0,0:0:0:0:
256,192,94378,1,8,0:0:0:0:
256,192,94471,1,0,0:0:0:0:
256,192,94658,1,8,0:0:0:0:
256,192,95030,1,4,0:0:0:0:
256,192,95217,1,8,0:0:0:0:
256,192,95310,1,8,0:0:0:0:
256,192,95403,1,0,0:0:0:0:
256,192,95496,1,8,0:0:0:0:
256,192,95589,1,0,0:0:0:0:
256,192,95776,1,0,0:0:0:0:
256,192,95869,1,0,0:0:0:0:
256,192,95962,1,0,0:0:0:0:
256,192,96055,1,8,0:0:0:0:
256,192,96148,1,0,0:0:0:0:
256,192,96241,1,0,0:0:0:0:
256,192,96335,1,8,0:0:0:0:
256,192,96428,1,8,0:0:0:0:
256,192,96521,1,0,0:0:0:0:
256,192,96707,1,0,0:0:0:0:
256,192,96800,1,8,0:0:0:0:
256,192,96894,1,0,0:0:0:0:
256,192,96987,1,8,0:0:0:0:
256,192,97080,1,8,0:0:0:0:
256,192,97173,1,0,0:0:0:0:
256,192,97266,1,8,0:0:0:0:
256,192,97359,1,8,0:0:0:0:
256,192,97453,1,0,0:0:0:0:
256,192,97546,1,0,0:0:0:0:
256,192,97639,1,0,0:0:0:0:
256,192,97732,1,8,0:0:0:0:
256,192,97825,1,8,0:0:0:0:
256,192,97918,1,0,0:0:0:0:
256,192,98012,1,0,0:0:0:0:
256,192,98105,1,8,0:0:0:0:
256,192,98198,1,0,0:0:0:0:
256,192,98291,1,8,0:0:0:0:
256,192,98384,1,0,0:0:0:0:
256,192,98571,1,8,0:0:0:0:
256,192,98664,1,0,0:0:0:0:
256,192,98757,1,0,0:0:0:0:
256,192,98850,1,0,0:0:0:0:
256,192,98943,1,8,0:0:0:0:
256,192,99036,1,8,0:0:0:0:
256,192,99130,1,0,0:0:0:0:
256,192,99223,1,8,0:0:0:0:
256,192,99316,1,8,0:0:0:0:
256,192,99409,1,0,0:0:0:0:
256,192,99595,1,8,0:0:0:0:
256,192,99689,1,0,0:0:0:0:
256,192,99782,1,8,0:0:0:0:
256,192,99875,1,0,0:0:0:0:
256,192,99968,1,0,0:0:0:0:
256,192,100061,1,8,0:0:0:0:
256,192,100154,1,0,0:0:0:0:
256,192,100341,1,8,0:0:0:0:
256,192,100434,1,8,0:0:0:0:
256,192,100527,1,0,0:0:0:0:
256,192,100620,1,0,0:0:0:0:
256,192,100713,1,0,0:0:0:0:
256,192,100807,1,8,0:0:0:0:
256,192,100869,1,8,0:0:0:0:
256,192,100931,1,8,0:0:0:0:
256,192,100993,1,0,0:0:0:0:
256,192,101086,1,8,0:0:0:0:
256,192,101179,1,0,0:0:0:0:
256,192,101366,1,0,0:0:0:0:
256,192,101459,1,0,0:0:0:0:
256,192,101552,1,8,0:0:0:0:
256,192,101645,1,0,0:0:0:0:
256,192,101738,1,0,0:0:0:0:
256,192,101831,1,8,0:0:0:0:
256,192,101925,1,0,0:0:0:0:
256,192,101971,1,0,0:0:0:0:
256,192,102018,1,0,0:0:0:0:
256,192,102064,1,0,0:0:0:0:
256,192,102111,1,0,0:0:0:0:
256,192,102204,1,0,0:0:0:0:
256,192,102297,1,8,0:0:0:0:
256,192,102359,1,8,0:0:0:0:
256,192,102422,1,8,0:0:0:0:
256,192,102484,1,0,0:0:0:0:
256,192,102670,1,0,0:0:0:0:
256,192,102763,1,8,0:0:0:0:
256,192,102856,1,0,0:0:0:0:
256,192,102949,1,0,0:0:0:0:
256,192,103043,1,8,0:0:0:0:
256,192,103136,1,8,0:0:0:0:
256,192,103229,1,0,0:0:0:0:
256,192,103415,1,0,0:0:0:0:
256,192,103462,1,0,0:0:0:0:
256,192,103508,1,0,0:0:0:0:
256,192,103555,1,0,0:0:0:0:
256,192,103602,1,0,0:0:0:0:
256,192,103695,1,0,0:0:0:0:
256,192,103788,1,8,0:0:0:0:
256,192,103850,1,8,0:0:0:0:
256,192,103912,1,8,0:0:0:0:
256,192,103974,1,0,0:0:0:0:
256,192,104067,1,8,0:0:0:0:
256,192,104161,1,0,0:0:0:0:
256,192,104347,1,8,0:0:0:0:
256,192,104440,1,0,0:0:0:0:
256,192,104487,1,0,0:0:0:0:
256,192,104533,1,0,0:0:0:0:
256,192,104626,1,8,0:0:0:0:
256,192,104813,1,0,0:0:0:0:
256,192,104906,1,0,0:0:0:0:
256,192,104999,1,8,0:0:0:0:
256,192,105092,1,8,0:0:0:0:
256,192,105185,1,0,0:0:0:0:
256,192,105279,1,0,0:0:0:0:
256,192,105372,1,8,0:0:0:0:
256,192,105465,1,0,0:0:0:0:
256,192,105558,1,0,0:0:0:0:
256,192,105651,1,8,0:0:0:0:
256,192,105744,1,8,0:0:0:0:
256,192,105838,1,0,0:0:0:0:
256,192,105931,1,0,0:0:0:0:
256,192,106024,1,8,0:0:0:0:
256,192,106117,1,0,0:0:0:0:
256,192,106210,1,8,0:0:0:0:
256,192,106272,1,0,0:0:0:0:
256,192,106335,1,0,0:0:0:0:
256,192,106397,1,8,0:0:0:0:
256,192,106490,1,0,0:0:0:0:
256,192,106583,1,12,0:0:0:0:
256,192,106956,1,0,0:0:0:0:
256,192,107049,1,8,0:0:0:0:
256,192,107142,1,8,0:0:0:0:
256,192,107235,1,8,0:0:0:0:
256,192,107328,1,0,0:0:0:0:
256,192,107515,1,8,0:0:0:0:
256,192,107608,1,0,0:0:0:0:
256,192,107701,1,0,0:0:0:0:
256,192,107794,1,0,0:0:0:0:
256,192,107887,1,8,0:0:0:0:
256,192,108074,1,0,0:0:0:0:
256,192,108260,1,8,0:0:0:0:
256,192,108353,1,8,0:0:0:0:
256,192,108446,1,0,0:0:0:0:
256,192,108540,1,8,0:0:0:0:
256,192,108633,1,0,0:0:0:0:
256,192,108819,1,0,0:0:0:0:
256,192,109005,1,8,0:0:0:0:
256,192,109099,1,0,0:0:0:0:
256,192,109192,1,8,0:0:0:0:
256,192,109378,1,0,0:0:0:0:
256,192,109564,1,12,0:0:0:0:
256,192,109937,1,0,0:0:0:0:
256,192,110030,1,8,0:0:0:0:
256,192,110123,1,8,0:0:0:0:
256,192,110217,1,8,0:0:0:0:
256,192,110310,1,0,0:0:0:0:
256,192,110496,1,8,0:0:0:0:
256,192,110589,1,8,0:0:0:0:
256,192,110682,1,0,0:0:0:0:
256,192,110869,1,8,0:0:0:0:
256,192,111055,1,0,0:0:0:0:
256,192,111148,1,0,0:0:0:0:
256,192,111241,1,8,0:0:0:0:
256,192,111288,1,8,0:0:0:0:
256,192,111335,1,8,0:0:0:0:
256,192,111428,1,0,0:0:0:0:
256,192,111521,1,8,0:0:0:0:
256,192,111614,1,0,0:0:0:0:
256,192,111707,1,0,0:0:0:0:
256,192,111800,1,0,0:0:0:0:
256,192,111894,1,0,0:0:0:0:
256,192,111987,1,8,0:0:0:0:
256,192,112080,1,0,0:0:0:0:
256,192,112173,1,0,0:0:0:0:
256,192,112359,1,0,0:0:0:0:
256,192,112546,1,8,0:0:0:0:
256,192,112639,1,0,0:0:0:0:
256,192,112825,1,0,0:0:0:0:
256,192,112918,1,12,0:0:0:0:
256,192,113291,1,0,0:0:0:0:
256,192,113477,1,8,0:0:0:0:
256,192,113571,1,0,0:0:0:0:
256,192,113664,1,0,0:0:0:0:
256,192,113757,1,0,0:0:0:0:
256,192,113850,1,8,0:0:0:0:
256,192,113943,1,0,0:0:0:0:
256,192,114036,1,0,0:0:0:0:
256,192,114223,1,8,0:0:0:0:
256,192,114316,1,8,0:0:0:0:
256,192,114409,1,0,0:0:0:0:
256,192,114502,1,8,0:0:0:0:
256,192,114595,1,8,0:0:0:0:
256,192,114689,1,8,0:0:0:0:
256,192,114782,1,0,0:0:0:0:
256,192,114968,1,8,0:0:0:0:
256,192,115061,1,0,0:0:0:0:
256,192,115154,1,8,0:0:0:0:
256,192,115248,1,0,0:0:0:0:
256,192,115341,1,0,0:0:0:0:
256,192,115527,1,8,0:0:0:0:
256,192,115620,1,0,0:0:0:0:
256,192,115713,1,0,0:0:0:0:
256,192,115807,1,8,0:0:0:0:
256,192,115993,1,0,0:0:0:0:
256,192,116086,1,8,0:0:0:0:
256,192,116179,1,0,0:0:0:0:
256,192,116273,1,0,0:0:0:0:
256,192,116459,1,0,0:0:0:0:
256,192,116552,1,8,0:0:0:0:
256,192,116738,1,8,0:0:0:0:
256,192,116831,1,0,0:0:0:0:
256,192,116925,1,0,0:0:0:0:
256,192,116971,1,0,0:0:0:0:
256,192,117018,1,0,0:0:0:0:
256,192,117111,1,0,0:0:0:0:
256,192,117204,1,0,0:0:0:0:
256,192,117297,1,8,0:0:0:0:
256,192,117344,1,8,0:0:0:0:
256,192,117390,1,8,0:0:0:0:
256,192,117484,1,8,0:0:0:0:
256,192,117577,1,0,0:0:0:0:
256,192,117623,1,0,0:0:0:0:
256,192,117670,1,0,0:0:0:0:
256,192,117717,1,0,0:0:0:0:
256,192,117763,1,0,0:0:0:0:
256,192,118508,5,0,0:0:0:0:
256,192,118555,1,0,0:0:0:0:
256,192,118601,1,0,0:0:0:0:
256,192,118695,1,8,0:0:0:0:
256,192,118788,1,0,0:0:0:0:
256,192,118834,1,0,0:0:0:0:
256,192,118881,1,8,0:0:0:0:
256,192,118974,1,8,0:0:0:0:
256,192,119067,1,0,0:0:0:0:
256,192,119099,1,8,0:0:0:0:
256,192,119130,1,8,0:0:0:0:
256,192,119161,1,0,0:0:0:0:
256,192,119253,1,0,0:0:0:0:
256,192,119300,1,0,0:0:0:0:
256,192,119347,1,0,0:0:0:0:
256,192,119440,1,8,0:0:0:0:
256,192,119533,1,0,0:0:0:0:
256,192,119579,1,8,0:0:0:0:
256,192,119626,1,0,0:0:0:0:
256,192,119719,1,8,0:0:0:0:
256,192,119743,1,8,0:0:0:0:
256,192,119812,1,8,0:0:0:0:
256,192,119836,1,8,0:0:0:0:
256,192,119906,1,8,0:0:0:0:
256,192,119999,5,0,0:0:0:0:
256,192,120045,1,0,0:0:0:0:
256,192,120092,1,0,0:0:0:0:
256,192,120185,1,8,0:0:0:0:
256,192,120278,1,0,0:0:0:0:
256,192,120325,1,0,0:0:0:0:
256,192,120371,1,8,0:0:0:0:
256,192,120465,1,8,0:0:0:0:
256,192,120496,1,8,0:0:0:0:
256,192,120527,1,8,0:0:0:0:
256,192,120558,1,0,0:0:0:0:
256,192,120651,1,0,0:0:0:0:
256,192,120698,1,0,0:0:0:0:
256,192,120744,1,8,0:0:0:0:
256,192,120838,1,0,0:0:0:0:
256,192,120884,1,8,0:0:0:0:
256,192,120931,1,0,0:0:0:0:
256,192,120977,1,0,0:0:0:0:
256,192,121024,1,8,0:0:0:0:
256,192,121117,1,0,0:0:0:0:
256,192,121304,1,0,0:0:0:0:
256,192,121335,1,0,0:0:0:0:
256,192,121366,1,0,0:0:0:0:
256,192,121397,1,8,0:0:0:0:
256,192,121443,1,8,0:0:0:0:
256,192,121489,1,0,0:0:0:0:
256,192,121536,1,0,0:0:0:0:
256,192,121583,1,8,0:0:0:0:
256,192,121676,1,8,0:0:0:0:
256,192,121769,1,0,0:0:0:0:
256,192,121815,1,0,0:0:0:0:
256,192,121862,1,8,0:0:0:0:
256,192,121955,1,8,0:0:0:0:
256,192,122048,1,0,0:0:0:0:
256,192,122080,1,8,0:0:0:0:
256,192,122111,1,8,0:0:0:0:
256,192,122142,1,0,0:0:0:0:
256,192,122235,1,0,0:0:0:0:
256,192,122281,1,8,0:0:0:0:
256,192,122328,1,8,0:0:0:0:
256,192,122421,1,8,0:0:0:0:
256,192,122514,1,0,0:0:0:0:
256,192,122561,1,8,0:0:0:0:
256,192,122607,1,0,0:0:0:0:
256,192,122701,1,8,0:0:0:0:
256,192,122724,1,8,0:0:0:0:
256,192,122794,1,8,0:0:0:0:
256,192,122817,1,8,0:0:0:0:
256,192,122887,1,8,0:0:0:0:
256,192,122980,1,0,0:0:0:0:
256,192,123027,1,0,0:0:0:0:
256,192,123073,1,8,0:0:0:0:
256,192,123166,1,8,0:0:0:0:
256,192,123260,1,0,0:0:0:0:
256,192,123306,1,0,0:0:0:0:
256,192,123353,1,8,0:0:0:0:
256,192,123446,1,8,0:0:0:0:
256,192,123493,1,8,0:0:0:0:
256,192,123539,1,0,0:0:0:0:
256,192,123586,1,0,0:0:0:0:
256,192,123632,1,8,0:0:0:0:
256,192,123725,1,8,0:0:0:0:
256,192,123819,1,0,0:0:0:0:
256,192,123865,1,8,0:0:0:0:
256,192,123912,1,0,0:0:0:0:
256,192,124005,1,8,0:0:0:0:
256,192,124052,1,8,0:0:0:0:
256,192,124098,1,0,0:0:0:0:
256,192,124191,1,0,0:0:0:0:
256,192,124284,1,0,0:0:0:0:
256,192,124378,1,0,0:0:0:0:
256,192,124471,1,0,0:0:0:0:
256,192,124658,1,12,0:0:0:0:
