osu file format v14

[General]
AudioFilename: audio.mp3
AudioLeadIn: 0
PreviewTime: 234346
Countdown: 0
SampleSet: Normal
StackLeniency: 0.3
Mode: 0
LetterboxInBreaks: 0
WidescreenStoryboard: 1

[Editor]
Bookmarks: 6318,46567,71908,95764,119610,125573,147933,171784,198616,222467,235883,259734,283585
DistanceSpacing: 1.8
BeatDivisor: 6
GridSize: 4
TimelineZoom: 2

[Metadata]
Title:Dyscontrolled Galaxy ("Apoptosis" Long ver.)
TitleUnicode:Dyscontrolled Galaxy ("Apoptosis" Long ver.)
Artist:Camellia
ArtistUnicode:かめりあ
Creator:Kaneko Chiharu
Version:CURVED//SPACETIME:General Theory of Relativity
Source:
Tags:cametek galaxy burst electro psytrance trance speedcore
BeatmapID:2260787
BeatmapSetID:1080629

[Difficulty]
HPDrainRate:2.6
CircleSize:4.2
OverallDifficulty:9.1
ApproachRate:9.8
SliderMultiplier:2.3
SliderTickRate:1

[Events]
//Background and Video events
0,0,"background.jpg",0,0
//Break Periods
//Storyboard Layer 0 (Background)
//Storyboard Layer 1 (Fail)
//Storyboard Layer 2 (Pass)
//Storyboard Layer 3 (Foreground)
//Storyboard Layer 4 (Overlay)
//Storyboard Sound Samples

[TimingPoints]
361,372.670807453416,4,2,0,40,1,0
6323,-250,4,2,0,40,0,0
18249,-250,4,2,0,35,0,0
18435,-285.714285714286,4,2,0,5,0,0
18528,-250,4,2,0,35,0,0
19739,-250,4,2,0,35,0,0
19925,-285.714285714286,4,2,0,5,0,0
20018,-250,4,2,0,35,0,0
20485,-250,4,2,0,35,0,0
20671,-285.714285714286,4,2,0,5,0,0
20764,-250,4,2,0,35,0,0
21230,-250,4,2,0,35,0,0
21416,-285.714285714286,4,2,0,5,0,0
21509,-250,4,2,0,35,0,0
22721,-250,4,2,0,35,0,0
22907,-285.714285714286,4,2,0,5,0,0
23000,-250,4,2,0,35,0,0
23466,-250,4,2,0,35,0,0
23652,-285.714285714286,4,2,0,5,0,0
23745,-250,4,2,0,35,0,0
23931,-285.714285714286,4,2,0,5,0,0
24024,-250,4,2,0,35,0,0
24211,-250,4,2,0,35,0,0
24397,-285.714285714286,4,2,0,5,0,0
24490,-250,4,2,0,35,0,0
25702,-250,4,2,0,35,0,0
25888,-285.714285714286,4,2,0,5,0,0
25981,-250,4,2,0,35,0,0
26447,-250,4,2,0,35,0,0
26633,-285.714285714286,4,2,0,5,0,0
26726,-250,4,2,0,35,0,0
27193,-250,4,2,0,35,0,0
27379,-285.714285714286,4,2,0,5,0,0
27472,-250,4,2,0,35,0,0
28683,-250,4,2,0,35,0,0
28869,-285.714285714286,4,2,0,5,0,0
28962,-250,4,2,0,35,0,0
29429,-250,4,2,0,35,0,0
29615,-285.714285714286,4,2,0,5,0,0
29708,-250,4,2,0,35,0,0
29894,-285.714285714286,4,2,0,5,0,0
29987,-250,4,2,0,35,0,0
30174,-250,4,2,0,40,0,0
42100,-666.666666666667,4,2,0,40,0,0
45267,-46.5116279069767,4,2,0,75,0,0
45640,-66.6666666666667,4,2,0,75,0,0
45826,-40,4,2,0,75,0,0
46199,-66.6666666666667,4,2,0,75,0,0
46572,-58.8235294117647,4,2,0,75,0,0
47317,-50,4,2,0,75,0,0
49553,-58.8235294117647,4,2,0,75,0,0
50298,-33.3333333333333,4,2,0,75,0,0
51044,-66.6666666666667,4,2,0,75,0,0
52534,-58.8235294117647,4,2,0,75,0,0
53280,-50,4,2,0,75,0,0
55516,-58.8235294117647,4,2,0,75,0,0
57193,-133.333333333333,4,2,0,75,0,0
58497,-47.6190476190476,4,2,0,75,0,0
64460,-41.6666666666667,4,2,0,75,0,0
67441,-50,4,2,0,75,0,0
70423,-100,4,2,0,75,0,0
71913,-30.03003003003,4,2,0,100,0,0
74336,-303.030303030303,4,2,0,100,0,0
74522,-30.03003003003,4,2,0,100,0,0
76572,-47.6190476190476,4,2,0,100,0,0
76758,-71.4285714285714,4,2,0,100,0,0
76944,-119.047619047619,4,2,0,100,0,0
77131,-100,4,2,0,100,0,0
77410,-55.5555555555556,4,2,0,100,0,0
77690,-30.8641975308642,4,2,0,100,0,0
77876,-30.03003003003,4,2,0,100,0,0
78062,-303.030303030303,4,2,0,100,0,0
78249,-30.03003003003,4,2,0,100,0,0
80298,-303.030303030303,4,2,0,100,0,0
80485,-625,4,2,0,100,0,0
80857,-30.03003003003,4,2,0,100,0,0
83093,-59.8802395209581,4,2,0,100,0,0
83466,-303.030303030303,4,2,0,100,0,0
83839,-625,4,2,0,100,0,0
85329,-30.03003003003,4,2,0,100,0,0
85516,-59.8802395209581,4,2,0,100,0,0
86261,-303.030303030303,4,2,0,100,0,0
86820,-30.03003003003,4,2,0,100,0,0
89056,-94.3396226415094,4,2,0,100,0,0
89336,-47.1698113207547,4,2,0,100,0,0
89615,-31.4465408805031,4,2,0,100,0,0
89801,-30.03003003003,4,2,0,100,0,0
90920,-59.8802395209581,4,2,0,100,0,0
91292,-625,4,2,0,100,0,0
92783,-30.03003003003,4,2,0,100,0,0
94274,-303.030303030303,4,2,0,100,0,0
94460,-30.03003003003,4,2,0,100,0,0
94739,-625,4,2,0,100,0,0
95764,-47.6190476190476,4,1,0,100,0,0
101727,-47.6190476190476,4,1,0,100,0,0
118124,-100,4,1,0,100,0,0
119615,-62.5,4,1,0,100,0,0
125578,-67.1140939597315,4,1,0,40,0,0
128559,-62.5,4,1,0,70,0,0
133031,-125,4,1,0,70,0,0
134149,-188.679245283019,4,1,0,70,0,0
134522,-71.4285714285714,4,2,0,75,0,0
145702,-588.235294117647,4,2,0,75,0,0
146447,-62.5,4,2,0,75,0,0
146634,-588.235294117647,4,2,0,75,0,0
147193,-62.5,4,2,0,75,0,0
147938,-500,4,2,0,100,0,0
148124,-27.7777777777778,4,2,0,100,0,0
148683,-500,4,2,0,100,0,0
148869,-27.7777777777778,4,2,0,100,0,0
149429,-500,4,2,0,100,0,0
149615,-27.7777777777778,4,2,0,100,0,0
150920,-500,4,2,0,100,0,0
151106,-27.7777777777778,4,2,0,100,0,0
151665,-500,4,2,0,100,0,0
151851,-27.7777777777778,4,2,0,100,0,0
152410,-500,4,2,0,100,0,0
152597,-27.7777777777778,4,2,0,100,0,0
153715,-83.3333333333333,4,2,0,100,0,0
154086,-27.7777777777778,4,2,0,100,0,0
154646,-500,4,2,0,100,0,0
154833,-27.7777777777778,4,2,0,100,0,0
155392,-500,4,2,0,100,0,0
155578,-27.7777777777778,4,2,0,100,0,0
156882,-500,4,2,0,100,0,0
157255,-27.7777777777778,4,2,0,100,0,0
157628,-500,4,2,0,100,0,0
157814,-27.7777777777778,4,2,0,100,0,0
158373,-27.7777777777778,4,2,0,40,0,0
159864,-500,4,2,0,100,0,0
160050,-27.7777777777778,4,2,0,100,0,0
160609,-500,4,2,0,100,0,0
160795,-27.7777777777778,4,2,0,100,0,0
161354,-500,4,2,0,100,0,0
161541,-27.7777777777778,4,2,0,100,0,0
162845,-500,4,2,0,100,0,0
163031,-27.7777777777778,4,2,0,100,0,0
163590,-500,4,2,0,100,0,0
163777,-27.7777777777778,4,2,0,100,0,0
164336,-500,4,2,0,100,0,0
164522,-27.7777777777778,4,2,0,100,0,0
165826,-500,4,2,0,100,0,0
166013,-27.7777777777778,4,2,0,100,0,0
166199,-83.3333333333333,4,2,0,100,0,0
171789,-100,4,2,0,100,0,0
177752,-41.6666666666667,4,2,0,100,0,0
188932,-100,4,2,0,100,0,0
189118,-71.4285714285714,4,2,0,100,0,0
189305,-52.6315789473684,4,2,0,100,0,0
189491,-40,4,2,0,100,0,0
189677,-100,4,2,0,100,0,0
198621,-333.333333333333,4,2,0,40,0,0
221727,-100,4,2,0,50,0,0
222472,-125,4,2,0,50,0,0
227690,-76.9230769230769,4,2,0,50,0,0
233652,-400,4,2,0,50,0,0
234398,-100,4,2,0,50,0,0
235888,-62.5,4,1,0,100,0,0
247814,-125,4,1,0,40,0,0
248187,-31.25,4,1,0,100,0,0
248466,-62.5,4,1,0,100,0,0
250795,-666.666666666667,4,1,0,40,0,0
251168,-62.5,4,1,0,100,0,0
253031,-62.5,4,1,0,60,0,0
258435,-666.666666666667,4,1,0,60,0,0

[Colours]
Combo1 : 0,0,45
Combo2 : 0,0,191
Combo3 : 0,255,255
Combo4 : 255,255,255

[HitObjects]
256,192,361,12,0,6230,0:0:0:0:
389,44,6323,6,0,P|426:55|450:124,1,115
450,121,6882,1,0,0:0:0:0:
443,213,7069,2,0,L|435:289,2,69
321,350,8000,2,0,L|303:301,2,46
367,270,8559,2,0,P|336:241|304:238,2,69
366,177,9305,6,0,P|330:166|250:191,1,115
257,185,9864,1,0,0:0:0:0:
177,230,10050,2,0,P|145:241|111:234,2,69
41,354,10982,2,0,L|31:304,2,46
105,288,11541,2,0,L|153:304,1,46
225,352,11913,2,0,L|273:335,1,46
345,288,12286,6,0,P|390:284|448:331,1,115
444,323,12845,1,0,0:0:0:0:
468,235,13031,2,0,L|457:166,2,69
498,53,13963,2,0,P|462:49|415:87,1,92
348,141,14522,2,0,P|322:162|288:162,2,69
286,72,15267,6,0,B|254:56|206:88|174:72,1,115
173,71,15826,1,0,0:0:0:0:
80,75,16013,2,0,P|43:62|23:38,2,69
105,256,16944,2,0,L|105:181,1,69
171,167,17317,2,0,L|171:242,1,69
171,305,17690,2,0,L|171:361,2,46
258,327,18249,6,0,L|268:278,1,46
283,215,18528,1,0,0:0:0:0:
391,37,19553,5,0,0:0:0:0:
394,59,19646,1,0,0:0:0:0:
398,82,19739,6,0,L|388:131,1,46
373,194,20018,1,0,0:0:0:0:
41,93,20485,6,0,L|90:102,1,46
153,118,20764,1,0,0:0:0:0:
461,272,21230,6,0,L|411:262,1,46
349,247,21509,1,0,0:0:0:0:
55,346,22534,5,0,0:0:0:0:
55,323,22627,1,0,0:0:0:0:
54,299,22721,6,0,L|54:253,1,46
100,201,23000,1,0,0:0:0:0:
404,38,23466,6,0,L|404:84,1,46
358,136,23746,2,0,L|358:182,1,46
404,234,24025,1,0,0:0:0:0:
501,331,24211,6,0,L|455:331,1,46
403,377,24490,1,0,0:0:0:0:
21,175,25516,5,0,0:0:0:0:
43,178,25609,1,0,0:0:0:0:
66,182,25702,6,0,L|120:191,1,46
179,202,25982,1,0,0:0:0:0:
500,78,26447,6,0,L|446:69,1,46
387,58,26727,1,0,0:0:0:0:
267,381,27193,6,0,L|276:327,1,46
287,268,27473,1,0,0:0:0:0:
132,33,28497,5,0,0:0:0:0:
126,55,28590,1,0,0:0:0:0:
121,77,28683,6,0,L|112:131,1,46
101,190,28963,1,0,0:0:0:0:
441,247,29429,6,0,L|387:238,1,46
328,227,29708,2,0,L|274:218,1,46
215,207,29988,1,0,0:0:0:0:
264,78,30174,5,0,0:0:0:0:
298,70,30454,1,0,0:0:0:0:
51,358,31479,5,0,0:0:0:0:
50,335,31572,1,0,0:0:0:0:
50,312,31665,5,0,0:0:0:0:
71,285,31944,1,0,0:0:0:0:
415,307,32410,5,0,0:0:0:0:
398,276,32690,1,0,0:0:0:0:
154,31,33156,5,0,0:0:0:0:
153,65,33435,1,0,0:0:0:0:
383,367,34460,5,0,0:0:0:0:
385,344,34553,1,0,0:0:0:0:
387,321,34646,5,0,0:0:0:0:
401,289,34926,1,0,0:0:0:0:
62,223,35392,5,0,0:0:0:0:
96,223,35671,1,0,0:0:0:0:
130,223,35951,1,0,0:0:0:0:
225,124,36137,5,0,0:0:0:0:
200,100,36416,1,0,0:0:0:0:
505,248,37441,5,0,0:0:0:0:
504,225,37534,1,0,0:0:0:0:
503,201,37628,5,0,0:0:0:0:
481,174,37907,1,0,0:0:0:0:
172,20,38373,5,0,0:0:0:0:
203,35,38652,1,0,0:0:0:0:
124,371,39118,5,0,0:0:0:0:
128,336,39398,1,0,0:0:0:0:
268,17,40423,5,0,0:0:0:0:
290,19,40516,1,0,0:0:0:0:
313,21,40609,5,0,0:0:0:0:
341,41,40888,1,0,0:0:0:0:
481,356,41354,5,0,0:0:0:0:
460,327,41634,1,0,0:0:0:0:
441,298,41913,1,0,0:0:0:0:
364,182,42100,6,0,B|325:138|274:207|236:164,1,137.999995788574
174,81,43963,1,0,0:0:0:0:
161,58,44336,1,0,0:0:0:0:
148,35,44895,1,0,0:0:0:0:
135,12,45081,6,0,L|126:13,1,8.6249997367859
12,3,45267,2,0,B|58:178|58:178|44:211|44:211|76:195|76:195|108:211|108:211|204:179,1,370.875005659103
284,151,45640,2,0,L|380:119,1,86.25
468,108,45826,6,0,B|463:179|463:179|441:185|441:185|461:215|461:215|457:290|457:290|476:316|476:316|455:322|455:322|405:312|405:312|389:339|389:339|383:317|383:317|312:313,1,431.250016450883
214,305,46199,2,0,B|0:283|0:283|41:267,1,258.75000987053
138,231,46572,5,0,0:0:0:0:
152,240,46665,2,0,P|172:296|148:348,2,97.7500018644333
88,260,46944,1,0,0:0:0:0:
24,232,47038,1,0,0:0:0:0:
0,167,47131,1,0,0:0:0:0:
21,102,47224,1,0,0:0:0:0:
78,46,47317,6,0,P|164:14|282:96,1,230
320,320,47597,2,0,B|268:356|268:356|304:176,1,230
496,72,47876,2,0,L|384:112,1,115
132,280,48249,5,8,0:0:0:0:
68,260,48342,1,8,0:0:0:0:
4,284,48435,1,8,0:0:0:0:
20,356,48528,1,8,0:0:0:0:
60,332,48621,1,8,0:0:0:0:
100,340,48715,1,8,0:0:0:0:
161,366,48808,5,0,0:0:0:0:
218,368,48901,1,0,0:0:0:0:
269,342,48994,1,0,0:0:0:0:
324,240,49087,5,0,0:0:0:0:
284,194,49180,1,0,0:0:0:0:
303,136,49274,1,0,0:0:0:0:
363,125,49367,1,0,0:0:0:0:
403,170,49460,1,0,0:0:0:0:
383,228,49553,6,0,B|376:284|432:312|432:312|524:264|512:120|436:64,1,391.000007457733,8|0,0:0|0:0,0:0:0:0:
51,38,50112,1,0,0:0:0:0:
56,56,50205,1,0,0:0:0:0:
61,74,50298,6,0,P|78:157|60:250,1,172.500006580353
180,359,50485,1,0,0:0:0:0:
265,208,50578,2,0,P|255:145|233:204,1,172.500006580353
305,384,50764,1,0,0:0:0:0:
424,293,50858,2,0,P|428:207|463:129,1,172.500006580353
363,27,51230,5,0,0:0:0:0:
396,48,51323,1,0,0:0:0:0:
477,53,51416,5,0,0:0:0:0:
434,73,51479,1,0,0:0:0:0:
403,107,51541,1,0,0:0:0:0:
386,149,51603,1,0,0:0:0:0:
384,194,51665,1,0,0:0:0:0:
396,238,51742,1,0,0:0:0:0:
438,271,51789,5,0,0:0:0:0:
422,310,51851,1,0,0:0:0:0:
390,338,51913,1,0,0:0:0:0:
322,371,51975,5,0,0:0:0:0:
326,342,52037,1,0,0:0:0:0:
317,314,52099,1,0,0:0:0:0:
240,257,52162,5,0,0:0:0:0:
203,240,52224,1,0,0:0:0:0:
162,238,52286,1,0,0:0:0:0:
123,251,52348,1,0,0:0:0:0:
93,278,52410,1,0,0:0:0:0:
77,314,52472,1,0,0:0:0:0:
73,354,52534,5,0,0:0:0:0:
61,272,52628,2,0,L|50:172,2,97.7500018644333
148,282,52907,1,0,0:0:0:0:
177,280,53000,1,0,0:0:0:0:
205,278,53093,1,0,0:0:0:0:
234,276,53187,1,0,0:0:0:0:
262,274,53280,6,0,B|304:134|304:134|343:218,1,230
421,83,53559,2,0,B|387:99|387:99|413:21,1,115
480,308,53746,1,0,0:0:0:0:
480,308,53839,2,0,L|364:324,1,115
321,271,54211,5,0,0:0:0:0:
249,217,54305,1,0,0:0:0:0:
215,135,54398,1,0,0:0:0:0:
237,46,54492,1,0,0:0:0:0:
335,85,54584,5,0,0:0:0:0:
245,188,54678,1,0,0:0:0:0:
118,169,54770,6,0,P|104:111|119:56,1,115
182,115,54957,1,0,0:0:0:0:
162,329,55050,2,0,P|118:370|63:384,1,115,0|0,3:0|3:0,3:0:0:0:
84,304,55236,1,0,0:0:0:0:
143,249,55329,1,0,0:0:0:0:
225,258,55423,1,0,0:0:0:0:
281,312,55516,5,0,0:0:0:0:
286,330,55609,1,0,0:0:0:0:
291,348,55702,1,0,0:0:0:0:
295,365,55795,2,0,B|354:392|464:376|498:315|498:315|453:248|419:230|419:230|360:242,1,391.000007457733
269,225,56261,6,0,P|249:159|320:59,1,195.500003728867
116,75,56541,2,0,P|103:12|139:71,1,195.500003728867
64,187,56820,2,0,L|91:284,1,97.7500018644333
113,364,57193,6,0,L|380:377,1,258.75000987053
433,34,58497,5,0,0:0:0:0:
308,55,58683,1,0,0:0:0:0:
183,77,58870,1,0,0:0:0:0:
58,99,59056,1,0,0:0:0:0:
58,99,59149,1,0,0:0:0:0:
58,99,59196,1,0,0:0:0:0:
58,99,59242,5,0,0:0:0:0:
207,114,59429,1,0,0:0:0:0:
355,129,59615,1,0,0:0:0:0:
498,144,59801,1,0,0:0:0:0:
498,144,59848,1,0,0:0:0:0:
498,144,59895,1,0,0:0:0:0:
498,144,59941,1,0,0:0:0:0:
498,144,59988,5,0,0:0:0:0:
383,157,60174,1,0,0:0:0:0:
268,170,60360,1,0,0:0:0:0:
153,183,60547,1,0,0:0:0:0:
153,183,60593,1,0,0:0:0:0:
153,183,60640,1,0,0:0:0:0:
153,183,60687,1,0,0:0:0:0:
153,183,60733,5,0,0:0:0:0:
160,352,60826,2,0,P|120:312|52:296,1,120.749996315003
240,216,61013,1,0,0:0:0:0:
44,148,61106,1,0,0:0:0:0:
64,80,61292,1,0,0:0:0:0:
68,68,61339,1,0,0:0:0:0:
72,56,61385,1,0,0:0:0:0:
76,44,61432,1,0,0:0:0:0:
79,34,61479,5,0,0:0:0:0:
204,55,61665,1,0,0:0:0:0:
329,77,61852,1,0,0:0:0:0:
454,99,62038,1,0,0:0:0:0:
454,99,62131,1,0,0:0:0:0:
454,99,62178,1,0,0:0:0:0:
454,99,62224,5,0,0:0:0:0:
305,114,62411,1,0,0:0:0:0:
157,129,62597,1,0,0:0:0:0:
14,144,62783,1,0,0:0:0:0:
14,144,62830,1,0,0:0:0:0:
14,144,62877,1,0,0:0:0:0:
14,144,62923,1,0,0:0:0:0:
14,144,62970,5,0,0:0:0:0:
48,220,63062,1,0,0:0:0:0:
160,236,63249,1,0,0:0:0:0:
275,249,63435,1,0,0:0:0:0:
390,262,63529,1,0,0:0:0:0:
390,262,63575,1,0,0:0:0:0:
390,262,63622,1,0,0:0:0:0:
390,262,63669,1,0,0:0:0:0:
392,264,63715,5,0,0:0:0:0:
388,336,63808,1,0,0:0:0:0:
324,304,63901,1,0,0:0:0:0:
260,336,63994,1,0,0:0:0:0:
176,320,64087,1,0,0:0:0:0:
112,264,64180,1,0,0:0:0:0:
100,180,64274,1,0,0:0:0:0:
104,156,64320,1,0,0:0:0:0:
108,132,64367,1,0,0:0:0:0:
112,108,64413,1,0,0:0:0:0:
116,84,64460,6,0,P|112:52|88:20,1,68.9999978942872
156,56,64553,1,0,0:0:0:0:
204,56,64646,1,0,0:0:0:0:
328,88,64739,5,0,0:0:0:0:
364,120,64833,1,0,0:0:0:0:
412,128,64926,1,0,0:0:0:0:
456,112,65019,2,0,L|468:44,1,68.9999978942872
476,128,65112,2,0,L|488:56,1,68.9999978942872
468,216,65205,5,0,0:0:0:0:
464,272,65298,1,0,0:0:0:0:
428,312,65392,1,0,0:0:0:0:
332,304,65485,1,0,0:0:0:0:
252,288,65578,1,0,0:0:0:0:
184,304,65671,1,0,0:0:0:0:
140,336,65764,2,0,L|80:300,1,68.9999978942872
116,368,65857,2,0,L|36:360,1,68.9999978942872
12,288,65951,5,0,0:0:0:0:
72,220,66044,1,0,0:0:0:0:
76,128,66137,1,0,0:0:0:0:
84,113,66183,1,0,0:0:0:0:
92,99,66230,1,0,0:0:0:0:
100,85,66277,1,0,0:0:0:0:
109,70,66323,1,0,0:0:0:0:
280,12,66416,5,0,0:0:0:0:
268,180,66510,1,0,0:0:0:0:
276,170,66556,1,0,0:0:0:0:
284,160,66603,1,0,0:0:0:0:
292,150,66649,1,0,0:0:0:0:
300,140,66696,1,0,0:0:0:0:
484,116,66789,5,0,0:0:0:0:
368,356,66882,1,0,0:0:0:0:
360,316,66929,1,0,0:0:0:0:
352,280,66975,1,0,0:0:0:0:
344,240,67022,1,0,0:0:0:0:
336,204,67069,1,0,0:0:0:0:
212,40,67162,5,0,0:0:0:0:
80,156,67255,1,0,0:0:0:0:
88,204,67301,1,0,0:0:0:0:
96,252,67348,1,0,0:0:0:0:
104,300,67395,1,0,0:0:0:0:
112,348,67441,6,0,P|140:320|148:300,7,57.5
224,328,67814,6,0,P|224:284|216:268,7,57.5
176,200,68187,1,0,0:0:0:0:
92,168,68280,1,0,0:0:0:0:
8,192,68373,1,0,0:0:0:0:
245,22,68467,5,0,0:0:0:0:
204,112,68559,1,0,0:0:0:0:
232,207,68653,1,0,0:0:0:0:
314,262,68745,1,0,0:0:0:0:
412,252,68838,1,0,0:0:0:0:
481,181,68932,5,0,0:0:0:0:
468,152,69305,1,0,0:0:0:0:
455,123,69677,2,0,B|456:104|456:104|456:124|456:124|456:104|456:104|456:124|456:124|456:104|456:104|456:124|456:124|456:104|456:104|456:124|456:124|456:104|456:104|456:124|456:124|456:104|456:104|456:124|456:124|456:104|456:104|456:124|456:124|456:104|456:104|456:124|456:124|456:104|456:104|456:124|456:124|456:104|456:104|456:124|456:124|472:28|356:-16|284:32|252:128|312:216|428:184,1,805
480,232,70423,6,0,L|460:352,1,115
352,264,70702,2,0,L|367:384,1,115
263,384,70982,1,0,0:0:0:0:
227,340,71075,1,0,0:0:0:0:
175,320,71168,5,0,0:0:0:0:
138,303,71261,1,0,0:0:0:0:
114,270,71354,1,0,0:0:0:0:
109,230,71447,1,0,0:0:0:0:
57,217,71541,5,0,0:0:0:0:
113,189,71634,1,0,0:0:0:0:
156,143,71727,1,0,0:0:0:0:
176,83,71820,1,0,0:0:0:0:
169,20,71913,6,0,B|410:22|410:22|363:73,1,287.5
319,91,72100,1,0,0:0:0:0:
320,102,72146,1,0,0:0:0:0:
323,114,72193,1,0,0:0:0:0:
330,124,72239,1,0,0:0:0:0:
330,124,72286,5,0,0:0:0:0:
350,167,72379,1,0,0:0:0:0:
385,199,72472,1,0,0:0:0:0:
430,214,72565,1,0,0:0:0:0:
478,212,72658,5,0,0:0:0:0:
442,210,72752,1,0,0:0:0:0:
408,222,72845,1,0,0:0:0:0:
381,246,72938,1,0,0:0:0:0:
367,278,73031,5,0,0:0:0:0:
394,276,73124,1,0,0:0:0:0:
419,285,73217,1,0,0:0:0:0:
439,303,73310,1,0,0:0:0:0:
450,327,73404,6,0,L|135:337,1,287.212507012024
100,309,73590,1,0,0:0:0:0:
97,285,73636,1,0,0:0:0:0:
95,261,73683,1,0,0:0:0:0:
93,237,73729,1,0,0:0:0:0:
90,213,73777,5,0,0:0:0:0:
89,143,73870,1,0,0:0:0:0:
129,84,73963,1,0,0:0:0:0:
195,60,74056,1,0,0:0:0:0:
263,79,74149,5,0,0:0:0:0:
315,77,74242,1,0,0:0:0:0:
359,107,74336,2,0,L|363:141,1,28.4624999131393
369,202,74522,5,0,0:0:0:0:
239,167,74615,1,0,0:0:0:0:
239,167,74895,6,0,B|130:175|93:148|93:148|84:184|55:216|55:216|86:212|110:238,1,287.212507012024
174,249,75081,1,0,0:0:0:0:
197,254,75127,1,0,0:0:0:0:
221,255,75174,1,0,0:0:0:0:
244,252,75220,1,0,0:0:0:0:
267,245,75267,5,0,0:0:0:0:
334,234,75360,1,0,0:0:0:0:
373,289,75453,1,0,0:0:0:0:
339,348,75546,1,0,0:0:0:0:
271,343,75639,5,0,0:0:0:0:
138,321,75733,1,0,0:0:0:0:
56,214,75826,1,0,0:0:0:0:
51,198,75873,1,0,0:0:0:0:
48,183,75920,1,0,0:0:0:0:
48,167,75966,1,0,0:0:0:0:
50,151,76013,5,0,0:0:0:0:
158,72,76106,5,0,0:0:0:0:
215,104,76199,5,0,0:0:0:0:
245,87,76292,5,0,0:0:0:0:
275,100,76385,6,0,B|388:122|478:90|478:90|455:133|465:174,1,287.212507012024
376,191,76572,6,0,B|307:206|248:184|248:184|264:217|256:237,1,181.124994472504
334,271,76758,6,0,B|379:280|418:266|418:266|408:288|413:301,1,120.749996315003
330,342,76944,6,0,B|302:347|279:339|279:339|285:352|282:360,1,72.4499977890015
202,351,77131,6,0,P|175:356|148:348,2,57.5
167,278,77410,2,0,P|124:250|100:204,2,103.499996841431
180,199,77690,2,0,P|160:108|189:21,1,186.30000454834
278,121,77876,6,0,B|100:77|23:95|23:95|57:48,1,287.212507012024
15,3,78062,2,0,L|43:2,1,28.4624999131393
106,29,78249,5,0,0:0:0:0:
173,53,78342,1,0,0:0:0:0:
244,61,78435,1,0,0:0:0:0:
315,54,78528,1,0,0:0:0:0:
383,31,78621,5,0,0:0:0:0:
364,81,78715,1,0,0:0:0:0:
358,134,78808,1,0,0:0:0:0:
363,187,78901,1,0,0:0:0:0:
380,238,78994,5,0,0:0:0:0:
342,223,79088,1,0,0:0:0:0:
302,218,79181,1,0,0:0:0:0:
263,222,79274,1,0,0:0:0:0:
224,235,79367,6,0,B|162:286|137:284|137:284|190:306|221:349|221:349|255:308|321:319,1,287.212507012024
357,319,79553,1,0,0:0:0:0:
357,319,79600,1,0,0:0:0:0:
357,319,79646,2,0,L|463:320,1,95.7375023373414
493,266,79739,5,0,0:0:0:0:
494,202,79832,1,0,0:0:0:0:
495,138,79925,1,0,0:0:0:0:
497,74,80018,1,0,0:0:0:0:
498,10,80111,5,0,0:0:0:0:
369,51,80205,1,0,0:0:0:0:
239,91,80298,2,0,L|210:102,1,28.4624999131393
146,122,80485,6,0,L|115:133,1,32.2
52,153,80857,6,0,B|63:65|11:17|11:17|79:37|174:35,1,287.212507012024
217,37,81044,1,0,0:0:0:0:
240,34,81090,1,0,0:0:0:0:
264,32,81137,1,0,0:0:0:0:
288,30,81183,1,0,0:0:0:0:
312,28,81230,5,0,0:0:0:0:
425,2,81323,1,0,0:0:0:0:
501,85,81416,1,0,0:0:0:0:
468,196,81510,1,0,0:0:0:0:
394,238,81603,5,0,0:0:0:0:
318,195,81696,1,0,0:0:0:0:
237,228,81789,1,0,0:0:0:0:
235,239,81836,1,0,0:0:0:0:
233,251,81882,1,0,0:0:0:0:
232,263,81929,1,0,0:0:0:0:
230,275,81975,5,0,0:0:0:0:
178,318,82069,1,0,0:0:0:0:
113,337,82162,1,0,0:0:0:0:
51,311,82255,1,0,0:0:0:0:
27,247,82348,6,0,L|50:153,1,95.7375023373414
67,88,82441,1,0,0:0:0:0:
74,57,82534,1,0,0:0:0:0:
82,26,82627,1,0,0:0:0:0:
89,0,82721,6,0,L|183:23,1,95.7375023373414
248,40,82814,1,0,0:0:0:0:
278,47,82907,1,0,0:0:0:0:
309,55,83000,1,0,0:0:0:0:
340,62,83093,6,0,L|397:83,7,48.0124984981442
416,90,83466,2,0,P|423:55|453:37,1,66.4124997973251
485,96,83839,6,0,L|489:127,1,32.2
490,197,84211,1,0,0:0:0:0:
485,197,84304,1,0,0:0:0:0:
480,198,84397,1,0,0:0:0:0:
476,199,84490,1,0,0:0:0:0:
421,257,84584,5,0,0:0:0:0:
408,257,84677,1,0,0:0:0:0:
398,254,84770,1,0,0:0:0:0:
386,252,84863,1,0,0:0:0:0:
324,305,84957,5,0,0:0:0:0:
291,305,85050,1,0,0:0:0:0:
266,312,85143,1,0,0:0:0:0:
236,317,85236,1,0,0:0:0:0:
181,246,85329,6,0,B|30:214|30:214|46:173|46:173|135:141,1,287.212507012024
196,126,85516,2,0,L|203:51,1,48.0124984981442
221,104,85609,2,0,L|227:43,1,48.0124984981442
246,82,85702,5,0,0:0:0:0:
339,44,85795,1,0,0:0:0:0:
438,63,85888,1,0,0:0:0:0:
508,134,85982,1,0,0:0:0:0:
438,174,86075,5,0,0:0:0:0:
368,145,86168,1,0,0:0:0:0:
294,159,86261,2,0,L|297:188,1,28.4624999131393
307,261,86447,5,0,0:0:0:0:
401,351,86541,1,0,0:0:0:0:
401,351,86820,6,0,B|299:318|170:355|170:355|147:303,1,287.212507012024
76,258,87006,1,0,0:0:0:0:
78,246,87053,1,0,0:0:0:0:
81,234,87100,2,0,L|110:127,1,95.7375023373414
128,58,87193,5,0,0:0:0:0:
199,52,87286,1,0,0:0:0:0:
271,46,87379,1,0,0:0:0:0:
342,40,87472,1,0,0:0:0:0:
400,105,87565,5,0,0:0:0:0:
342,109,87658,1,0,0:0:0:0:
283,113,87752,1,0,0:0:0:0:
271,114,87798,1,0,0:0:0:0:
259,115,87845,1,0,0:0:0:0:
247,117,87891,1,0,0:0:0:0:
235,118,87938,5,0,0:0:0:0:
177,183,88031,1,0,0:0:0:0:
216,260,88124,1,0,0:0:0:0:
222,259,88170,1,0,0:0:0:0:
228,259,88217,1,0,0:0:0:0:
234,258,88263,1,0,0:0:0:0:
240,257,88311,6,0,B|364:264|475:221|475:221|457:270|485:308,1,287.212507012024
405,327,88497,1,0,0:0:0:0:
328,172,88590,6,0,B|404:138|494:165|494:165|466:97|494:20,1,287.212507012024
399,74,88777,1,0,0:0:0:0:
228,96,88870,2,0,B|124:113|17:15|17:15|43:73|28:112,1,287.212507012024
62,140,89056,6,0,P|69:170|59:198,2,60.9500000930023
136,223,89336,2,0,P|86:275|17:270,2,121.900000186005
37,354,89615,2,0,P|130:346|197:275,1,182.850000279007
253,222,89801,6,0,B|297:284|241:362|241:362|254:349|254:349|243:362|243:362|242:362|242:362|255:349|255:349|242:361|242:361|255:350|255:350|241:363|241:363|252:350|252:350|241:364|241:364|280:344|359:365|408:358|450:342|478:305|485:240|479:192|452:161,1,670.16251636139
368,168,90174,5,0,0:0:0:0:
348,100,90267,1,0,0:0:0:0:
379,36,90360,1,0,0:0:0:0:
443,9,90453,1,0,0:0:0:0:
510,30,90547,5,0,0:0:0:0:
479,66,90640,1,0,0:0:0:0:
437,88,90733,1,0,0:0:0:0:
389,92,90826,1,0,0:0:0:0:
342,78,90920,6,0,L|250:51,1,95.7375023373414
269,136,91106,1,0,0:0:0:0:
269,136,91152,1,0,0:0:0:0:
269,136,91199,1,0,0:0:0:0:
155,173,91292,6,0,L|150:154,1,18.4
132,24,91665,5,0,0:0:0:0:
69,57,91758,1,0,0:0:0:0:
32,117,91851,1,0,0:0:0:0:
31,188,91944,1,0,0:0:0:0:
67,250,92038,5,0,0:0:0:0:
190,335,92131,1,0,0:0:0:0:
228,211,92224,2,0,L|228:196,1,13.8
234,124,92410,5,0,0:0:0:0:
319,48,92503,1,0,0:0:0:0:
319,48,92690,1,0,0:0:0:0:
417,105,92783,6,0,B|468:137|508:113|508:113|489:166|508:242|508:242|470:260|450:291,1,287.212507012024
381,314,92969,1,0,0:0:0:0:
381,314,93016,1,0,0:0:0:0:
381,314,93062,1,0,0:0:0:0:
381,314,93109,1,0,0:0:0:0:
381,314,93156,5,0,0:0:0:0:
324,354,93249,1,0,0:0:0:0:
257,338,93342,1,0,0:0:0:0:
225,276,93435,1,0,0:0:0:0:
252,212,93528,6,0,P|244:87|125:125,1,287.212507012024
102,211,93715,1,0,0:0:0:0:
102,211,93761,1,0,0:0:0:0:
102,211,93808,2,0,L|106:318,1,95.7375023373414
31,352,93901,5,0,0:0:0:0:
31,280,93994,1,0,0:0:0:0:
31,208,94087,2,0,P|20:105|90:35,1,191.475004674683
157,105,94274,6,0,P|183:110|190:106,1,28.4624999131393
269,97,94460,2,0,B|373:74|461:18|461:18|425:108|483:187|483:187|418:153|386:173,1,478.687511686707
326,191,94739,2,0,P|311:202|309:206,1,23
256,258,95019,5,0,0:0:0:0:
256,258,95392,5,0,0:0:0:0:
339,254,95485,1,0,0:0:0:0:
417,190,95578,1,0,0:0:0:0:
493,244,95671,1,0,0:0:0:0:
478,335,95764,5,0,0:0:0:0:
248,240,95951,1,0,0:0:0:0:
248,240,96044,1,0,0:0:0:0:
440,44,96230,1,0,0:0:0:0:
440,44,96323,5,0,0:0:0:0:
384,144,96416,1,0,0:0:0:0:
384,144,96463,1,0,0:0:0:0:
384,144,96510,2,0,L|264:128,1,120.749996315003
72,60,96696,1,0,0:0:0:0:
116,80,96789,1,0,0:0:0:0:
140,120,96882,5,0,0:0:0:0:
144,144,96929,1,0,0:0:0:0:
140,168,96975,1,0,0:0:0:0:
116,212,97069,1,0,0:0:0:0:
72,232,97162,1,0,0:0:0:0:
24,228,97255,1,0,0:0:0:0:
56,348,97348,5,0,0:0:0:0:
200,284,97441,1,0,0:0:0:0:
167,162,97534,2,0,P|146:154|104:155,2,60.3749981575013
120,296,97721,1,0,0:0:0:0:
120,296,97767,1,0,0:0:0:0:
120,296,97814,1,0,0:0:0:0:
212,364,97907,1,0,0:0:0:0:
271,240,98000,5,0,0:0:0:0:
308,192,98093,1,0,0:0:0:0:
364,164,98187,1,0,0:0:0:0:
424,160,98280,1,0,0:0:0:0:
484,172,98373,6,0,P|488:236|456:292,1,120.749996315003
384,372,98559,1,0,0:0:0:0:
352,40,98652,1,0,0:0:0:0:
424,60,98746,1,8,0:0:0:0:
432,88,98839,5,8,0:0:0:0:
264,144,99025,5,0,0:0:0:0:
268,120,99118,1,0,0:0:0:0:
112,24,99211,1,0,0:0:0:0:
112,24,99258,1,0,0:0:0:0:
112,24,99305,2,0,B|80:40|80:40|92:124,1,120.749996315003
48,340,99491,5,0,0:0:0:0:
88,296,99584,1,0,0:0:0:0:
144,272,99677,1,0,0:0:0:0:
204,272,99770,1,0,0:0:0:0:
260,296,99864,5,0,0:0:0:0:
276,320,99910,1,0,0:0:0:0:
300,340,99957,1,0,0:0:0:0:
384,336,100050,2,0,P|404:316|404:224,1,120.749996315003
160,120,100236,5,0,0:0:0:0:
476,64,100329,5,0,0:0:0:0:
216,56,100423,1,0,0:0:0:0:
292,20,100516,1,0,0:0:0:0:
372,40,100609,5,0,0:0:0:0:
416,112,100702,1,0,0:0:0:0:
420,132,100749,1,0,0:0:0:0:
424,152,100795,1,0,0:0:0:0:
404,236,100888,2,0,L|462:260,2,60.3749981575013
328,292,101075,5,0,0:0:0:0:
288,324,101168,1,0,0:0:0:0:
272,372,101261,1,0,0:0:0:0:
160,356,101354,5,0,0:0:0:0:
128,316,101447,1,0,0:0:0:0:
80,296,101541,2,0,P|56:292|96:252,1,120.749996315003
208,304,101727,6,0,L|328:292,1,120.749996315003
354,313,101913,1,0,0:0:0:0:
461,95,102193,5,0,0:0:0:0:
366,341,102286,2,0,L|497:352,1,120.749996315003
380,27,102565,5,0,0:0:0:0:
392,54,102612,1,0,0:0:0:0:
392,87,102658,1,0,0:0:0:0:
232,96,102752,5,0,0:0:0:0:
232,96,102845,5,0,3:0:0:0:
235,125,102891,1,0,3:0:0:0:
251,153,102938,1,0,3:0:0:0:
161,209,103031,6,0,P|147:189|104:174,1,60.3749981575013
40,248,103124,2,0,L|64:374,1,120.749996315003
279,345,103311,6,0,P|228:312|164:331,2,120.749996315003
512,228,103683,1,0,0:0:0:0:
251,162,103963,5,0,0:0:0:0:
289,149,104009,1,0,0:0:0:0:
321,119,104056,1,0,0:0:0:0:
413,15,104149,5,0,0:0:0:0:
413,15,104242,5,0,0:0:0:0:
419,54,104288,1,0,0:0:0:0:
443,91,104335,1,0,0:0:0:0:
421,225,104429,6,0,L|432:287,5,60.3749981575013
386,347,104708,5,0,3:0:0:0:
140,193,104895,5,0,3:0:0:0:
140,193,104988,1,0,0:0:0:0:
396,57,105174,5,0,3:0:0:0:
395,57,105267,1,0,0:0:0:0:
207,368,105454,5,0,3:0:0:0:
99,37,105641,5,0,3:0:0:0:
99,37,105734,1,0,0:0:0:0:
439,109,105920,5,0,3:0:0:0:
438,108,106013,1,0,0:0:0:0:
168,2,106199,5,0,3:0:0:0:
462,257,106385,5,0,3:0:0:0:
462,257,106479,1,0,0:0:0:0:
95,383,106665,5,0,3:0:0:0:
96,383,106758,1,0,0:0:0:0:
256,157,106944,5,0,0:0:0:0:
290,192,107038,1,0,0:0:0:0:
256,226,107131,1,0,0:0:0:0:
221,192,107224,1,0,0:0:0:0:
278,153,107317,5,0,3:0:0:0:
294,214,107411,1,0,3:0:0:0:
233,230,107504,1,0,3:0:0:0:
217,169,107597,1,0,3:0:0:0:
256,126,107690,5,0,0:0:0:0:
173,130,107783,1,0,0:0:0:0:
95,194,107876,1,0,0:0:0:0:
19,140,107969,1,0,0:0:0:0:
34,49,108062,5,0,0:0:0:0:
264,144,108156,1,0,0:0:0:0:
264,144,108249,1,0,0:0:0:0:
72,340,108435,5,0,0:0:0:0:
72,340,108528,1,0,0:0:0:0:
164,240,108621,1,0,0:0:0:0:
164,240,108668,1,0,0:0:0:0:
164,240,108715,2,0,P|204:284|212:348,1,120.749996315003
440,324,108901,5,0,0:0:0:0:
396,304,108994,1,0,0:0:0:0:
372,264,109087,1,0,0:0:0:0:
368,240,109134,1,0,0:0:0:0:
372,216,109180,1,0,0:0:0:0:
396,172,109274,5,0,0:0:0:0:
440,152,109367,1,0,0:0:0:0:
488,156,109460,1,0,0:0:0:0:
456,36,109553,5,0,0:0:0:0:
324,172,109646,1,0,0:0:0:0:
360,72,109739,1,0,0:0:0:0:
360,72,109786,1,0,0:0:0:0:
360,72,109833,1,0,0:0:0:0:
452,232,109926,6,0,B|460:268|460:268|448:296,2,60.3749981575013
300,20,110112,1,0,0:0:0:0:
241,144,110205,1,0,0:0:0:0:
204,192,110298,5,0,0:0:0:0:
148,220,110392,1,0,0:0:0:0:
88,224,110485,1,0,0:0:0:0:
28,212,110578,2,0,P|24:148|56:92,1,120.749996315003
128,12,110764,5,0,0:0:0:0:
160,344,110857,1,0,0:0:0:0:
88,324,110951,1,8,0:0:0:0:
80,296,111044,1,8,0:0:0:0:
248,240,111137,5,0,0:0:0:0:
244,264,111230,1,0,0:0:0:0:
400,360,111323,1,0,0:0:0:0:
400,360,111370,1,0,0:0:0:0:
400,360,111417,2,0,B|432:344|432:344|420:260,1,120.749996315003
464,44,111603,5,0,0:0:0:0:
424,88,111696,1,0,0:0:0:0:
368,112,111789,1,0,0:0:0:0:
308,112,111882,1,0,0:0:0:0:
252,88,111975,2,0,P|244:56|204:32,2,60.3749981575013
348,188,112162,6,0,L|372:312,1,120.749996315003
376,324,112348,1,0,0:0:0:0:
380,344,112441,5,0,0:0:0:0:
296,328,112535,1,0,0:0:0:0:
220,364,112628,1,0,0:0:0:0:
140,344,112721,1,0,0:0:0:0:
96,272,112814,5,0,0:0:0:0:
92,252,112861,1,0,0:0:0:0:
88,232,112907,1,0,0:0:0:0:
108,148,113000,2,0,L|50:124,2,60.3749981575013
184,92,113187,1,0,0:0:0:0:
224,128,113280,5,0,0:0:0:0:
232,176,113373,1,0,0:0:0:0:
344,100,113466,5,0,0:0:0:0:
360,56,113559,1,0,0:0:0:0:
396,40,113653,2,0,P|416:20|408:80,1,120.749996315003
304,79,113839,6,0,L|184:91,1,120.749996315003
158,71,114118,5,0,0:0:0:0:
51,289,114211,1,0,0:0:0:0:
146,43,114398,2,0,L|15:32,1,120.749996315003
132,357,114677,5,0,0:0:0:0:
120,330,114724,1,0,0:0:0:0:
120,297,114770,1,0,0:0:0:0:
280,288,114864,5,0,0:0:0:0:
280,288,114957,1,0,3:0:0:0:
277,259,115003,1,0,3:0:0:0:
261,231,115050,1,0,3:0:0:0:
351,175,115143,6,0,P|365:195|408:210,1,60.3749981575013
472,136,115236,2,0,L|448:10,1,120.749996315003
233,39,115423,6,0,P|284:72|348:53,2,120.749996315003
0,156,115795,1,0,0:0:0:0:
261,222,115982,5,0,0:0:0:0:
223,235,116028,1,0,0:0:0:0:
191,265,116075,1,0,0:0:0:0:
99,369,116168,5,0,0:0:0:0:
99,369,116261,1,0,0:0:0:0:
93,330,116307,1,0,0:0:0:0:
69,293,116354,1,0,0:0:0:0:
91,159,116448,2,0,L|80:97,3,60.3749981575013
108,68,116634,5,0,0:0:0:0:
168,76,116727,1,0,0:0:0:0:
216,112,116820,1,0,0:0:0:0:
308,72,116913,5,0,0:0:0:0:
312,128,117006,1,0,0:0:0:0:
280,168,117100,1,0,0:0:0:0:
372,260,117193,5,0,0:0:0:0:
312,240,117286,1,0,0:0:0:0:
452,232,117379,5,0,0:0:0:0:
424,172,117472,1,0,0:0:0:0:
368,152,117565,1,0,0:0:0:0:
288,256,117659,5,0,0:0:0:0:
248,296,117752,1,0,0:0:0:0:
200,320,117845,1,0,0:0:0:0:
84,280,117938,5,0,0:0:0:0:
44,244,118031,1,0,0:0:0:0:
44,188,118124,6,0,L|56:120,7,57.5
72,36,118870,5,0,0:0:0:0:
368,40,119615,5,0,0:0:0:0:
372,52,119662,1,0,0:0:0:0:
376,64,119708,1,0,0:0:0:0:
228,148,119801,1,0,0:0:0:0:
432,224,119895,5,0,0:0:0:0:
436,212,119942,1,0,0:0:0:0:
440,200,119988,1,0,0:0:0:0:
192,156,120081,1,0,0:0:0:0:
156,164,120267,1,0,0:0:0:0:
116,336,120360,5,0,0:0:0:0:
100,304,120407,1,0,0:0:0:0:
104,264,120454,1,0,0:0:0:0:
212,352,120547,1,0,0:0:0:0:
280,208,120640,5,0,0:0:0:0:
296,240,120687,1,0,0:0:0:0:
292,280,120734,1,0,0:0:0:0:
184,192,120826,1,0,0:0:0:0:
288,368,121013,1,0,0:0:0:0:
432,184,121106,5,0,0:0:0:0:
436,200,121152,1,0,0:0:0:0:
440,216,121199,1,0,0:0:0:0:
296,160,121292,1,0,0:0:0:0:
408,140,121385,5,0,0:0:0:0:
412,168,121432,1,0,0:0:0:0:
416,192,121479,1,0,0:0:0:0:
252,56,121572,1,0,0:0:0:0:
396,88,121665,5,0,0:0:0:0:
392,132,121711,1,0,0:0:0:0:
388,176,121758,1,0,0:0:0:0:
368,316,121851,1,0,0:0:0:0:
220,364,121944,5,0,0:0:0:0:
232,340,121991,1,0,0:0:0:0:
232,312,122038,1,0,0:0:0:0:
156,184,122131,1,0,0:0:0:0:
36,264,122224,5,0,0:0:0:0:
24,288,122271,1,0,0:0:0:0:
24,316,122318,1,0,0:0:0:0:
452,244,122597,5,0,0:0:0:0:
452,244,122643,1,0,0:0:0:0:
452,244,122690,1,0,0:0:0:0:
332,45,122783,1,0,0:0:0:0:
311,275,122876,5,0,0:0:0:0:
311,275,122923,1,0,0:0:0:0:
311,275,122969,1,0,0:0:0:0:
463,101,123062,1,0,0:0:0:0:
238,153,123249,1,0,0:0:0:0:
136,40,123342,5,0,0:0:0:0:
128,72,123388,1,0,0:0:0:0:
132,108,123435,1,0,0:0:0:0:
88,220,123528,1,0,0:0:0:0:
152,292,123621,5,0,0:0:0:0:
148,328,123668,1,0,0:0:0:0:
124,360,123715,1,0,0:0:0:0:
204,160,123808,1,0,0:0:0:0:
204,160,123994,1,0,0:0:0:0:
236,296,124087,5,0,0:0:0:0:
252,328,124134,1,0,0:0:0:0:
256,364,124180,1,0,0:0:0:0:
368,248,124274,1,0,0:0:0:0:
440,384,124367,5,0,0:0:0:0:
456,348,124413,1,0,0:0:0:0:
484,316,124460,1,0,0:0:0:0:
372,216,124553,1,0,0:0:0:0:
384,56,124646,5,0,0:0:0:0:
400,96,124693,1,0,0:0:0:0:
380,136,124739,1,0,0:0:0:0:
283,192,124833,1,0,0:0:0:0:
180,151,124926,1,0,0:0:0:0:
168,41,125019,5,0,0:0:0:0:
160,67,125112,1,0,0:0:0:0:
152,93,125205,1,0,0:0:0:0:
144,119,125298,1,0,0:0:0:0:
136,145,125392,1,0,0:0:0:0:
129,171,125485,1,0,0:0:0:0:
120,201,125578,6,0,B|94:263|53:280|53:280|54:279|102:301|77:362|77:362|132:329|199:364|219:289|219:289|197:235|197:235|253:263|301:217|301:217|314:266|275:364|275:364|326:343|358:366|358:366|357:306|377:265|377:265|415:260|445:295|445:295|438:358|494:369|494:369|512:304|512:261|510:215|490:177|490:177|445:210|445:210|391:208|362:174|372:143|372:143|427:137|423:113|423:113|466:133|492:91|492:91|477:28|477:28|452:28|419:53|392:37|392:37|334:8|330:61|330:61|325:120|287:68|287:68|252:10|228:90|228:90|221:117|179:24|179:24|139:78|132:49|116:35|88:26|57:37|39:49|26:71|15:104|22:133|50:143|73:151|103:120|103:120|145:126|170:142|185:155|214:165|244:202|261:169|274:144,1,2570.2498607729
322,45,128559,6,0,L|359:144,1,92
158,355,128746,2,0,L|175:254,1,92
322,45,131541,6,0,L|359:144,1,92
158,355,131728,2,0,L|175:254,1,92
322,45,133031,6,0,L|354:131,1,92
158,355,133311,2,0,L|173:264,1,92
322,45,133590,6,0,L|354:131,1,92
158,355,133870,2,0,L|173:264,1,92
322,45,134149,6,0,L|354:131,1,92
384,213,134522,6,0,L|264:197,1,120.749996315003
212,91,134708,2,0,L|138:187,1,120.749996315003
20,178,134895,2,0,L|66:289,1,120.749996315003
207,347,135081,1,0,0:0:0:0:
217,346,135127,1,0,0:0:0:0:
227,345,135174,1,0,0:0:0:0:
237,345,135220,1,0,0:0:0:0:
247,344,135267,6,0,L|367:337,1,120.749996315003
456,256,135454,2,0,L|335:263,1,120.749996315003
239,196,135640,2,0,L|359:188,1,120.749996315003
387,110,135826,1,0,0:0:0:0:
373,111,135872,1,0,0:0:0:0:
360,112,135919,1,0,0:0:0:0:
346,113,135965,1,0,0:0:0:0:
327,114,136013,6,0,P|270:106|247:53,1,120.749996315003
132,76,136199,2,0,P|123:133|70:155,1,120.749996315003
93,271,136385,2,0,P|150:279|172:332,1,120.749996315003
296,251,136572,1,0,0:0:0:0:
307,243,136618,1,0,0:0:0:0:
319,237,136665,1,0,0:0:0:0:
331,233,136711,1,0,0:0:0:0:
349,229,136758,6,0,L|420:222,1,40.2499987716675
505,208,136851,2,0,P|479:155|426:129,1,120.749996315003
305,126,137038,2,0,L|260:115,1,40.2499987716675
185,37,137131,2,0,P|159:90|106:116,1,120.749996315003
34,266,137317,1,0,0:0:0:0:
40,285,137363,1,0,0:0:0:0:
46,304,137410,1,0,0:0:0:0:
52,323,137456,1,0,0:0:0:0:
59,338,137503,6,0,P|121:355|163:309,1,120.749996315003
279,317,137690,2,0,P|262:255|201:241,1,120.749996315003
150,137,137876,2,0,P|104:182|123:241,1,120.749996315003
59,338,138062,5,0,0:0:0:0:
84,354,138108,1,0,0:0:0:0:
114,356,138155,1,0,0:0:0:0:
141,344,138201,1,0,0:0:0:0:
159,320,138249,6,0,B|220:296|220:296|274:315,1,120.749996315003
372,375,138435,2,0,B|367:309|367:309|402:264,1,120.749996315003
489,189,138621,2,0,B|425:173|425:173|392:126,1,120.749996315003,2|0,0:0|0:0,0:0:0:0:
349,20,138808,5,0,0:0:0:0:
332,45,138854,1,0,0:0:0:0:
316,71,138901,1,0,0:0:0:0:
290,82,138947,1,0,0:0:0:0:
261,91,138994,6,0,L|207:109,1,40.2499987716675
116,49,139087,2,0,P|60:45|35:97,1,120.749996315003
73,211,139274,2,0,L|86:344,1,120.749996315003
197,363,139460,2,0,L|207:311,1,40.2499987716675
308,205,139553,5,0,0:0:0:0:
323,213,139600,1,0,0:0:0:0:
343,224,139646,1,0,0:0:0:0:
358,232,139692,1,0,0:0:0:0:
368,256,139739,6,0,L|364:302,1,40.2499987716675
430,195,139833,2,0,L|452:250,1,40.2499987716675
442,114,139926,6,0,L|492:148,1,40.2499987716675
378,69,140019,2,0,L|432:38,1,40.2499987716675
299,81,140112,6,0,L|312:29,1,40.2499987716675
225,124,140205,2,0,L|221:61,1,40.2499987716675
124,274,140298,5,0,0:0:0:0:
139,299,140344,1,0,0:0:0:0:
136,323,140392,1,0,0:0:0:0:
151,348,140438,1,0,0:0:0:0:
167,362,140485,5,0,0:0:0:0:
233,316,140578,1,0,0:0:0:0:
311,297,140671,1,0,0:0:0:0:
390,308,140764,1,0,0:0:0:0:
459,279,140857,5,0,0:0:0:0:
448,205,140950,1,0,0:0:0:0:
373,197,141044,5,0,0:0:0:0:
352,189,141090,1,0,0:0:0:0:
338,183,141137,1,0,0:0:0:0:
317,163,141183,1,0,0:0:0:0:
308,137,141230,5,0,0:0:0:0:
268,70,141323,1,0,0:0:0:0:
192,41,141416,1,0,0:0:0:0:
126,86,141509,1,0,0:0:0:0:
89,155,141603,5,0,0:0:0:0:
113,235,141696,1,0,0:0:0:0:
139,306,141789,5,0,0:0:0:0:
132,333,141835,1,0,0:0:0:0:
126,351,141882,1,0,0:0:0:0:
164,346,141928,1,0,0:0:0:0:
197,338,141975,5,0,0:0:0:0:
294,335,142068,1,0,0:0:0:0:
372,311,142161,1,0,0:0:0:0:
420,237,142254,1,0,0:0:0:0:
418,155,142347,5,0,0:0:0:0:
323,119,142441,1,0,0:0:0:0:
260,66,142534,5,0,0:0:0:0:
284,56,142580,1,0,0:0:0:0:
303,45,142627,1,0,0:0:0:0:
324,37,142673,1,0,0:0:0:0:
351,26,142721,5,0,0:0:0:0:
387,84,142814,1,0,0:0:0:0:
293,184,142907,5,0,0:0:0:0:
263,172,142954,1,0,0:0:0:0:
232,160,143000,1,0,0:0:0:0:
207,144,143047,1,0,0:0:0:0:
185,130,143093,5,0,0:0:0:0:
92,121,143187,1,0,0:0:0:0:
45,198,143280,5,0,0:0:0:0:
36,236,143326,1,0,0:0:0:0:
28,274,143373,1,0,0:0:0:0:
45,317,143419,1,0,0:0:0:0:
55,346,143466,6,0,L|95:315,3,40.2499987716675
207,315,143652,2,0,L|217:353,3,40.2499987716675
333,262,143839,6,0,L|332:206,3,40.2499987716675
258,153,144025,2,0,L|205:148,3,40.2499987716675
110,160,144211,5,0,0:0:0:0:
94,172,144257,1,0,0:0:0:0:
85,190,144304,1,0,0:0:0:0:
86,210,144350,1,0,0:0:0:0:
97,226,144397,1,0,0:0:0:0:
114,236,144443,1,0,0:0:0:0:
134,237,144490,1,0,0:0:0:0:
151,227,144537,1,0,0:0:0:0:
161,209,144584,6,0,L|185:206,1,20.1249993858338
195,166,144631,2,0,L|228:169,1,20.1249993858338
247,149,144677,2,0,L|271:175,1,20.1249993858338
299,163,144724,2,0,L|298:203,1,20.1249993858338
335,204,144770,2,0,L|306:228,1,20.1249993858338
341,258,144817,2,0,L|308:262,1,20.1249993858338
321,308,144864,2,0,L|294:288,1,20.1249993858338
274,337,144910,2,0,L|253:318,1,20.1249993858338
220,336,144956,5,0,0:0:0:0:
220,336,145329,1,0,0:0:0:0:
220,336,145702,2,0,L|181:332,1,39.1000002386475
106,329,146261,2,0,L|94:329,1,9.77500005966187
33,268,146447,6,0,P|58:190|54:132,1,138
32,64,146634,2,0,L|63:51,1,34.2125002088165
137,40,147006,2,0,L|152:44,1,14.6625000894928
229,29,147193,6,0,B|226:75|226:75|247:116|247:116|194:132|194:132|134:109|134:109|150:177|150:177|135:223,1,322
259,207,147565,2,0,B|505:179|505:179|445:135,1,322
377,108,147938,6,0,L|377:89,1,17.25
330,29,148124,2,0,B|253:60|253:60|224:307|224:307|150:344,2,413.999987365723
147,260,148683,6,0,L|129:257,1,17.25
35,242,148870,2,0,B|59:158|59:158|388:90,2,413.999987365723
81,31,149429,6,0,L|99:37,1,17.25
190,27,149615,2,0,L|151:341,1,310.499990524292
239,358,149801,6,0,B|262:65|262:65|265:18|334:23|330:71|330:71|311:317|311:317|308:373|377:373|378:329|378:329|396:84|396:84|398:45|463:48|462:86|462:86|446:328|446:328|443:372|509:377|512:330|512:330|517:251|517:251|519:213|485:211|485:211|458:209|192:192|192:192|154:191|159:123|196:124|196:124|301:129,1,2069.99993682861
174,264,150920,6,0,L|172:284,1,17.25
167,357,151106,2,0,B|43:338|43:338|37:40,2,413.999987365723
108,33,151665,6,0,L|126:33,1,17.25
204,27,151851,2,0,B|487:20|487:20|357:58,2,413.999987365723
398,124,152410,6,0,L|419:120,1,17.25
495,98,152597,2,0,B|485:355|485:355|434:296,1,310.499990524292
388,262,152783,6,0,B|85:346|85:346|28:364|14:300|72:287|72:287|312:220|312:220|358:206|345:148|299:161|299:161|103:215|103:215|59:227|43:167|88:157|88:157|272:105|272:105|310:93|296:38|260:47|260:47|99:92|99:92|58:103|45:44|85:34|85:34|97:30,1,1655.99994946289
174,39,153715,6,0,L|185:80,2,34.4999989471436
232,151,153901,2,0,L|220:219,1,68.9999978942872
205,288,154087,2,0,B|61:324|61:324|337:351,2,413.999987365723
405,351,154646,6,0,L|403:332,1,17.25
397,257,154833,2,0,B|382:10|382:10|456:172,2,413.999987365723
323,175,155392,6,0,L|304:176,1,17.25
231,184,155578,2,0,B|70:193|70:193|10:196|13:288|76:286|76:286|103:285,1,310.499990524292
68,360,155764,6,0,B|116:364|157:347|173:306|174:276|159:256|159:256|199:281|252:259|252:259|234:298|254:353|254:353|289:305|328:300|328:300|357:350|389:326|389:326|408:373|459:373|459:373|512:333|481:295|481:295|465:252|501:200|501:200|449:168|386:184|386:184|412:128|391:91|391:91|450:103|509:78|509:78|488:17|418:24|418:24|379:8|349:8|349:8|329:64|255:80|255:80|184:72|152:11|152:11|128:66|34:20|34:20|54:82|21:125|21:125|83:101|131:127|131:127|172:159|239:149,1,2069.99993682861
314,156,156882,6,0,L|318:199,1,40.25
342,277,157255,2,0,B|43:229|43:229|141:298,1,413.999987365723
201,343,157628,6,0,L|218:345,1,17.25
294,351,157814,2,0,B|403:344|403:344|474:47,2,413.999987365723
422,311,158373,5,0,0:0:0:0:
435,351,158466,1,0,0:0:0:0:
477,337,158559,1,0,0:0:0:0:
462,296,158652,1,0,0:0:0:0:
431,219,158746,5,0,0:0:0:0:
457,165,158839,1,0,0:0:0:0:
401,137,158932,1,0,0:0:0:0:
376,193,159025,1,0,0:0:0:0:
301,211,159118,5,0,0:0:0:0:
233,243,159211,1,0,0:0:0:0:
170,203,159304,1,0,0:0:0:0:
170,129,159397,1,0,0:0:0:0:
232,89,159491,5,0,0:0:0:0:
228,63,159584,1,0,0:0:0:0:
215,41,159677,1,0,0:0:0:0:
194,26,159770,1,0,0:0:0:0:
169,19,159864,6,0,L|151:22,1,17.25
72,22,160050,2,0,B|28:335|28:335|137:368,2,413.999987365723
139,106,160609,6,0,L|157:109,1,17.25
233,119,160795,2,0,B|456:138|456:138|495:346,2,413.999987365723
270,206,161354,6,0,L|290:207,1,17.25
354,290,161541,2,0,L|38:243,1,310.499990524292
64,320,161727,6,0,B|368:368|368:368|432:336|464:272|432:208|368:176|368:176|64:128|64:128|32:112|16:80|32:48|64:32|64:32|368:80|368:80|432:112|464:176|432:240|368:272|368:272|64:224|64:224|32:208|16:176|32:144|64:128|64:128|158:142,1,2069.99993682861
231,197,162845,6,0,L|236:176,1,17.25
259,98,163031,2,0,B|288:10|288:10|352:326,2,413.999987365723
372,26,163590,6,0,L|375:44,1,17.25
389,117,163777,2,0,B|441:374|441:374|481:218,2,413.999987365723
326,180,164336,6,0,L|309:176,1,17.25
239,160,164522,2,0,B|19:122|19:122|113:73,1,310.499990524292
177,35,164708,6,0,B|277:63|277:63|313:73|313:73|314:75|314:75|277:62|277:62|314:74|314:74|278:64|278:64|314:73|314:73|277:64|277:64|313:74|313:74|278:63|278:63|315:74|315:74|278:62|278:62|279:63|279:63|316:73|316:73|317:75|317:75|275:62|275:62|316:77|316:77|279:64|279:64|318:73|318:73|276:64|276:64|316:75|316:75|276:65|276:65|275:64|275:64|317:76|317:76|319:77|319:77|321:74|321:74|276:66|276:66|322:71|322:71|274:60|274:60|271:64|271:64|324:77|324:77|274:57|275:60|275:60|274:56|274:56|285:64|285:64|306:69|306:69|281:69|281:69|305:73|305:73|286:67|286:67|298:73|298:73|290:71|290:71|330:80|330:80|292:66|292:66|269:58|269:58|314:67|314:67|283:74|283:74|306:64|306:64|286:60|286:60|305:80|305:80|330:73|330:73|296:60|296:60|270:71|270:71|295:77|295:77|337:77|336:77|336:77|338:77|338:77|276:73|276:73|334:84|334:84|279:58|279:58|426:116|426:116|450:206,1,2069.99993682861
449,248,165826,6,0,L|454:268,1,17.25
475,348,166013,2,0,L|170:288,1,310.499990524292
76,284,166199,5,0,0:0:0:0:
57,189,166292,2,0,L|39:115,1,68.9999978942872
93,39,166479,5,0,0:0:0:0:
181,76,166572,2,0,L|250:51,1,68.9999978942872
339,29,166758,5,0,0:0:0:0:
332,125,166851,2,0,L|325:207,1,68.9999978942872
410,242,167038,5,0,0:0:0:0:
417,146,167131,2,0,L|424:64,1,68.9999978942872
505,28,167317,6,0,L|501:119,1,68.9999978942872
495,193,167503,2,0,L|485:280,1,68.9999978942872
425,337,167690,5,0,0:0:0:0:
425,337,167783,2,0,L|338:329,1,68.9999978942872
260,323,167969,5,0,0:0:0:0:
260,323,168062,2,0,L|178:312,1,68.9999978942872
338,251,168249,5,0,0:0:0:0:
338,251,168342,2,0,L|251:243,1,68.9999978942872
173,237,168528,5,0,0:0:0:0:
173,237,168621,2,0,L|91:226,1,68.9999978942872
39,155,168808,5,0,0:0:0:0:
37,121,168901,1,0,0:0:0:0:
59,95,168994,1,0,0:0:0:0:
92,90,169087,1,0,0:0:0:0:
120,109,169180,5,0,0:0:0:0:
166,132,169273,1,0,0:0:0:0:
217,128,169366,1,0,0:0:0:0:
258,99,169459,1,0,0:0:0:0:
279,52,169553,5,0,0:0:0:0:
347,60,169646,5,0,0:0:0:0:
402,100,169739,5,0,0:0:0:0:
431,162,169832,5,0,0:0:0:0:
424,230,169925,5,0,0:0:0:0:
386,286,170018,5,0,0:0:0:0:
324,315,170112,5,0,0:0:0:0:
324,315,171789,5,0,0:0:0:0:
284,284,171882,1,0,0:0:0:0:
236,296,171975,1,0,0:0:0:0:
188,280,172069,1,0,0:0:0:0:
32,232,172162,5,0,0:0:0:0:
72,201,172255,1,0,0:0:0:0:
120,213,172348,1,0,0:0:0:0:
168,197,172442,1,0,0:0:0:0:
236,132,172534,5,0,0:0:0:0:
292,136,172628,1,0,0:0:0:0:
316,84,172721,1,0,0:0:0:0:
276,44,172814,1,0,0:0:0:0:
412,84,172907,5,0,0:0:0:0:
436,136,173000,1,0,0:0:0:0:
448,192,173093,2,0,L|488:188,1,28.75
444,248,173187,2,0,L|484:264,1,28.75
424,300,173280,5,0,0:0:0:0:
368,316,173373,1,0,0:0:0:0:
316,292,173466,1,0,0:0:0:0:
260,308,173559,1,0,0:0:0:0:
160,224,173652,5,0,0:0:0:0:
216,208,173745,1,0,0:0:0:0:
268,232,173838,1,0,0:0:0:0:
324,216,173931,1,0,0:0:0:0:
360,120,174025,5,0,0:0:0:0:
369,66,174118,1,0,0:0:0:0:
315,56,174211,1,0,0:0:0:0:
306,110,174305,1,0,0:0:0:0:
174,93,174398,5,0,0:0:0:0:
184,155,174491,1,0,0:0:0:0:
122,166,174585,1,0,0:0:0:0:
112,104,174677,1,0,0:0:0:0:
64,288,174770,6,0,P|56:316|40:340,1,57.5
152,280,174957,1,0,0:0:0:0:
204,308,175050,1,0,0:0:0:0:
260,296,175143,5,0,0:0:0:0:
296,340,175236,1,0,0:0:0:0:
352,340,175329,1,0,0:0:0:0:
388,292,175423,1,0,0:0:0:0:
376,236,175516,5,0,0:0:0:0:
420,184,175609,1,0,0:0:0:0:
432,116,175702,1,0,0:0:0:0:
420,48,175795,1,0,0:0:0:0:
308,28,175888,5,0,2:0:0:0:
272,87,175981,1,0,2:0:0:0:
260,155,176074,1,0,2:0:0:0:
284,218,176167,1,0,2:0:0:0:
220,280,176261,5,0,0:0:0:0:
152,296,176354,1,0,0:0:0:0:
84,312,176447,1,0,0:0:0:0:
16,324,176541,1,0,0:0:0:0:
220,304,176634,5,0,0:0:0:0:
168,316,176727,1,0,0:0:0:0:
120,328,176820,1,0,0:0:0:0:
72,340,176913,1,0,0:0:0:0:
24,240,177006,5,0,0:0:0:0:
96,260,177100,1,0,0:0:0:0:
168,280,177193,1,0,0:0:0:0:
240,300,177286,1,0,0:0:0:0:
344,336,177379,5,0,0:0:0:0:
340,312,177472,1,0,0:0:0:0:
356,296,177565,1,0,0:0:0:0:
380,296,177659,1,0,0:0:0:0:
396,312,177752,6,0,B|408:192|408:192|432:176|432:176|444:40,1,275.999991577149
260,124,178031,1,0,0:0:0:0:
260,124,178124,2,0,B|296:172|296:172|320:148|396:124,1,137.999995788574
148,56,178311,1,0,0:0:0:0:
148,56,178404,2,0,B|112:8|112:8|88:32|12:56,2,137.999995788574
160,136,178683,1,0,0:0:0:0:
152,192,178777,1,0,0:0:0:0:
208,256,178870,1,0,0:0:0:0:
200,312,178964,1,0,0:0:0:0:
96,348,179056,2,0,B|64:336|64:336|168:316,1,137.999995788574
304,304,179242,6,0,B|472:340|472:340|372:376,1,275.999991577149
384,244,179522,1,0,0:0:0:0:
384,244,179615,2,0,B|480:264|480:264|476:216,1,137.999995788574
404,36,179801,2,0,L|424:176,2,137.999995788574
292,96,180081,1,0,0:0:0:0:
228,124,180174,1,0,0:0:0:0:
160,120,180267,1,0,0:0:0:0:
104,80,180360,2,0,B|136:72|160:40|160:40|176:124,1,137.999995788574
68,216,180547,2,0,B|36:208|12:176|12:176|-4:260,1,137.999995788574
117,271,180733,5,0,0:0:0:0:
164,312,180826,1,0,0:0:0:0:
168,368,180920,1,0,0:0:0:0:
117,112,181013,5,0,0:0:0:0:
106,172,181106,1,0,0:0:0:0:
59,203,181200,1,0,0:0:0:0:
256,32,181292,5,0,0:0:0:0:
198,52,181385,1,0,0:0:0:0:
147,27,181479,1,0,0:0:0:0:
394,112,181572,5,0,0:0:0:0:
347,72,181665,1,0,0:0:0:0:
344,16,181759,1,0,0:0:0:0:
432,208,181851,5,0,0:0:0:0:
440,276,181944,1,0,0:0:0:0:
408,336,182038,1,0,0:0:0:0:
340,352,182131,1,0,0:0:0:0:
276,324,182224,6,0,B|264:212|264:212|284:180,1,137.999995788574
132,88,182410,1,0,0:0:0:0:
132,88,182503,2,0,B|144:200|144:200|124:232,1,137.999995788574
64,48,182690,1,0,0:0:0:0:
96,20,182783,1,0,0:0:0:0:
136,12,182876,1,0,0:0:0:0:
176,24,182969,5,0,0:0:0:0:
220,60,183062,1,0,0:0:0:0:
272,84,183156,1,0,0:0:0:0:
328,92,183249,1,0,0:0:0:0:
464,136,183342,5,0,0:0:0:0:
396,136,183435,1,0,0:0:0:0:
332,164,183528,1,0,0:0:0:0:
288,220,183621,1,0,0:0:0:0:
268,288,183715,5,0,0:0:0:0:
296,316,183808,1,0,0:0:0:0:
336,328,183901,1,0,0:0:0:0:
376,328,183994,1,0,0:0:0:0:
155,290,184087,1,0,0:0:0:0:
222,301,184180,1,0,0:0:0:0:
290,312,184274,1,0,0:0:0:0:
357,323,184367,1,0,0:0:0:0:
152,305,184460,5,0,0:0:0:0:
180,277,184553,1,0,0:0:0:0:
220,265,184646,1,0,0:0:0:0:
260,265,184739,1,0,0:0:0:0:
39,303,184832,1,0,0:0:0:0:
106,292,184925,1,0,0:0:0:0:
174,281,185019,1,0,0:0:0:0:
241,270,185112,1,0,0:0:0:0:
391,149,185205,5,0,0:0:0:0:
363,177,185298,1,0,0:0:0:0:
323,189,185391,1,0,0:0:0:0:
283,189,185484,1,0,0:0:0:0:
504,151,185577,1,0,0:0:0:0:
437,162,185670,1,0,0:0:0:0:
369,173,185764,1,0,0:0:0:0:
302,184,185857,1,0,0:0:0:0:
68,77,185951,5,0,0:0:0:0:
122,119,186044,1,0,0:0:0:0:
188,101,186137,1,0,0:0:0:0:
208,35,186230,1,0,0:0:0:0:
275,48,186323,5,0,0:0:0:0:
281,116,186416,1,0,0:0:0:0:
239,171,186510,1,0,0:0:0:0:
171,185,186603,1,0,0:0:0:0:
107,159,186696,5,0,0:0:0:0:
96,227,186789,1,0,0:0:0:0:
85,295,186882,1,0,0:0:0:0:
85,295,186975,1,0,0:0:0:0:
45,102,187069,1,0,0:0:0:0:
109,78,187162,1,0,0:0:0:0:
173,102,187255,1,0,0:0:0:0:
189,168,187348,1,0,0:0:0:0:
241,264,187441,5,0,0:0:0:0:
295,258,187534,1,0,0:0:0:0:
338,222,187628,1,0,0:0:0:0:
348,167,187721,1,0,0:0:0:0:
376,312,187814,1,0,0:0:0:0:
367,243,187907,1,0,0:0:0:0:
358,174,188000,1,0,0:0:0:0:
349,105,188093,1,0,0:0:0:0:
340,35,188187,5,0,0:0:0:0:
408,43,188280,1,0,0:0:0:0:
447,99,188373,1,0,0:0:0:0:
439,167,188466,1,0,0:0:0:0:
449,250,188559,1,0,0:0:0:0:
452,267,188652,1,0,0:0:0:0:
401,329,188746,1,0,0:0:0:0:
324,302,188839,1,0,0:0:0:0:
252,358,188932,6,0,P|244:316|252:292,1,57.5
161,331,189118,6,0,P|166:283|201:247,1,80.499997543335
77,275,189305,6,0,P|103:216|158:183,1,109.24999708271
22,159,189491,6,0,P|62:123|165:114,1,143.75
234,75,189677,5,0,0:0:0:0:
240,103,189724,1,0,0:0:0:0:
246,130,189770,1,0,0:0:0:0:
285,312,189864,1,0,0:0:0:0:
438,196,189957,5,0,0:0:0:0:
415,178,190003,1,0,0:0:0:0:
386,176,190050,1,0,0:0:0:0:
160,245,190143,1,0,0:0:0:0:
409,335,190236,5,0,0:0:0:0:
398,308,190283,1,0,0:0:0:0:
400,279,190329,1,0,0:0:0:0:
146,333,190423,1,0,0:0:0:0:
267,284,190516,5,0,0:0:0:0:
275,256,190562,1,0,0:0:0:0:
295,235,190609,1,0,0:0:0:0:
45,181,190702,1,0,0:0:0:0:
179,23,190795,6,0,L|153:143,1,115
154,135,191168,5,0,0:0:0:0:
188,129,191215,1,0,0:0:0:0:
221,123,191261,1,0,0:0:0:0:
335,28,191354,1,0,0:0:0:0:
444,129,191447,5,0,0:0:0:0:
434,162,191494,1,0,0:0:0:0:
440,196,191541,1,0,0:0:0:0:
353,358,191634,1,0,0:0:0:0:
487,305,191727,5,0,0:0:0:0:
465,277,191774,1,0,0:0:0:0:
432,266,191820,1,0,0:0:0:0:
160,315,191913,1,0,0:0:0:0:
314,165,192006,5,0,0:0:0:0:
314,199,192053,1,0,0:0:0:0:
302,231,192100,1,0,0:0:0:0:
121,280,192193,1,0,0:0:0:0:
245,362,192286,5,0,0:0:0:0:
245,362,192472,1,0,0:0:0:0:
170,56,192659,5,0,0:0:0:0:
193,80,192705,1,0,0:0:0:0:
184,113,192752,1,0,0:0:0:0:
118,187,192845,1,0,0:0:0:0:
66,318,192938,5,0,0:0:0:0:
43,294,192984,1,0,0:0:0:0:
52,261,193031,1,0,0:0:0:0:
232,201,193124,1,0,0:0:0:0:
346,215,193311,1,0,0:0:0:0:
346,215,193404,5,0,0:0:0:0:
349,249,193451,1,0,0:0:0:0:
352,282,193497,1,0,0:0:0:0:
467,230,193590,1,0,0:0:0:0:
416,126,193683,5,0,0:0:0:0:
413,92,193730,1,0,0:0:0:0:
410,59,193776,1,0,0:0:0:0:
431,343,193870,1,0,0:0:0:0:
331,373,193963,1,0,0:0:0:0:
234,335,194056,1,0,0:0:0:0:
73,307,194149,5,0,0:0:0:0:
74,280,194196,1,0,0:0:0:0:
71,254,194242,1,0,0:0:0:0:
107,105,194336,1,0,0:0:0:0:
204,245,194429,5,0,0:0:0:0:
191,216,194475,1,0,0:0:0:0:
188,184,194522,1,0,0:0:0:0:
214,50,194615,1,0,0:0:0:0:
328,36,194708,5,0,0:0:0:0:
344,70,194755,1,0,0:0:0:0:
349,106,194801,1,0,0:0:0:0:
321,204,194895,1,0,0:0:0:0:
371,295,194988,5,0,0:0:0:0:
384,335,195034,1,0,0:0:0:0:
416,305,195081,1,0,0:0:0:0:
166,350,195174,1,0,0:0:0:0:
474,252,195267,5,0,0:0:0:0:
259,236,195360,1,0,0:0:0:0:
451,135,195454,5,0,0:0:0:0:
334,110,195547,1,0,0:0:0:0:
364,15,195640,5,0,0:0:0:0:
256,192,195687,12,0,196944,0:0:0:0:
116,156,197131,6,0,P|153:134|196:130,1,86.25
196,130,197317,2,0,P|238:138|269:167,1,86.25
269,167,197503,2,0,P|290:204|330:220,1,86.25
329,218,197690,2,0,P|341:227|355:230,1,28.75
355,230,197783,2,0,P|397:228|433:252,1,86.25
433,252,197969,2,0,P|439:297|395:333,1,86.25
414,326,198156,2,0,P|390:340|369:340,1,28.75
389,340,198249,2,0,L|300:328,1,86.25
303,328,198435,2,0,P|261:336|219:328,1,86.25
216,336,198621,6,0,B|174:386|174:386|210:-22|210:-22|414:328|414:328|49:171|49:171|435:83|435:83|176:383,1,2069.99993682861
75,323,210547,6,0,B|255:426|435:322|438:113|253:7|253:7|73:111|75:323|255:426|435:322|435:322|438:113|253:7|73:111|75:323|75:323|125:352|187:356,1,2035.49993788147
260,353,221727,5,0,0:0:0:0:
288,352,221820,1,0,0:0:0:0:
315,342,221913,1,0,0:0:0:0:
336,323,222006,1,0,0:0:0:0:
349,297,222100,5,0,0:0:0:0:
363,242,222193,1,0,0:0:0:0:
357,185,222286,1,0,0:0:0:0:
332,134,222379,1,0,0:0:0:0:
290,95,222472,5,0,0:0:0:0:
159,158,222659,1,0,0:0:0:0:
222,289,222845,1,0,0:0:0:0:
353,226,223032,5,0,0:0:0:0:
357,205,223078,1,0,0:0:0:0:
361,185,223124,1,0,0:0:0:0:
365,164,223171,1,0,0:0:0:0:
369,143,223218,5,0,0:0:0:0:
207,79,223404,1,0,0:0:0:0:
143,241,223590,1,0,0:0:0:0:
305,305,223777,5,0,0:0:0:0:
321,292,223823,1,0,0:0:0:0:
337,279,223870,1,0,0:0:0:0:
353,267,223916,1,0,0:0:0:0:
369,254,223963,5,0,0:0:0:0:
318,79,224149,1,0,0:0:0:0:
143,130,224336,1,0,0:0:0:0:
194,305,224522,5,0,0:0:0:0:
214,308,224569,1,0,0:0:0:0:
234,311,224615,1,0,0:0:0:0:
254,314,224662,1,0,0:0:0:0:
274,317,224708,5,0,0:0:0:0:
304,128,224801,1,0,0:0:0:0:
336,116,224988,1,0,0:0:0:0:
380,332,225081,1,0,0:0:0:0:
380,332,225267,5,0,0:0:0:0:
385,311,225314,1,0,0:0:0:0:
389,291,225360,1,0,0:0:0:0:
394,270,225407,1,0,0:0:0:0:
399,249,225454,5,0,0:0:0:0:
313,49,225640,1,0,0:0:0:0:
113,135,225826,1,0,0:0:0:0:
199,335,226013,5,0,0:0:0:0:
216,323,226059,1,0,0:0:0:0:
236,317,226106,1,0,0:0:0:0:
256,318,226152,1,0,0:0:0:0:
275,326,226199,5,0,0:0:0:0:
390,173,226385,1,0,0:0:0:0:
237,58,226572,1,0,0:0:0:0:
122,211,226758,5,0,0:0:0:0:
124,231,226805,1,0,0:0:0:0:
132,249,226851,1,0,0:0:0:0:
149,259,226898,1,0,0:0:0:0:
169,262,226944,5,0,0:0:0:0:
348,244,227038,1,0,0:0:0:0:
368,276,227224,1,0,0:0:0:0:
148,344,227317,1,0,0:0:0:0:
148,344,227503,5,0,0:0:0:0:
168,344,227550,1,0,0:0:0:0:
188,345,227597,1,0,0:0:0:0:
208,346,227643,1,0,0:0:0:0:
228,347,227690,5,0,0:0:0:0:
315,378,227783,1,0,0:0:0:0:
493,278,227876,2,0,P|445:284|422:299,1,74.7499965782167
280,162,228062,5,0,0:0:0:0:
367,193,228155,1,0,0:0:0:0:
496,69,228249,2,0,L|445:77,1,37.3749982891084
424,59,228342,2,0,L|373:67,1,37.3749982891084
288,44,228435,5,0,0:0:0:0:
264,48,228528,1,0,0:0:0:0:
244,52,228621,1,0,0:0:0:0:
220,56,228715,1,0,0:0:0:0:
136,20,228808,1,0,0:0:0:0:
128,40,228901,1,0,0:0:0:0:
120,60,228994,1,0,0:0:0:0:
112,80,229087,1,0,0:0:0:0:
344,152,229180,5,0,0:0:0:0:
316,143,229273,1,0,0:0:0:0:
293,138,229366,1,0,0:0:0:0:
267,131,229460,1,0,0:0:0:0:
196,53,229553,1,0,0:0:0:0:
178,69,229646,1,0,0:0:0:0:
160,86,229739,1,0,0:0:0:0:
142,103,229832,1,0,0:0:0:0:
348,288,229926,5,0,0:0:0:0:
323,265,230019,1,0,0:0:0:0:
301,248,230112,1,0,0:0:0:0:
278,228,230206,1,0,0:0:0:0:
241,113,230299,1,0,0:0:0:0:
215,120,230392,1,0,0:0:0:0:
188,129,230485,1,0,0:0:0:0:
161,138,230578,1,0,0:0:0:0:
276,384,230671,5,0,0:0:0:0:
263,352,230764,1,0,0:0:0:0:
250,327,230857,1,0,0:0:0:0:
237,300,230951,1,0,0:0:0:0:
252,180,231044,1,0,0:0:0:0:
226,175,231137,1,0,0:0:0:0:
198,172,231230,1,0,0:0:0:0:
169,169,231323,1,0,0:0:0:0:
52,188,231416,6,0,L|68:232,7,37.3749982891084
112,292,231789,2,0,L|104:340,7,37.3749982891084
196,344,232162,5,0,0:0:0:0:
272,296,232255,1,0,0:0:0:0:
360,316,232348,1,0,0:0:0:0:
432,264,232441,5,0,0:0:0:0:
456,176,232534,1,0,0:0:0:0:
436,88,232628,1,0,0:0:0:0:
368,28,232721,1,0,0:0:0:0:
296,48,232814,1,0,0:0:0:0:
240,32,232907,5,0,0:0:0:0:
232,48,233280,1,0,0:0:0:0:
224,64,233652,2,0,L|212:152,1,86.25
212,149,234398,5,0,0:0:0:0:
248,164,234491,1,0,0:0:0:0:
288,156,234584,1,0,0:0:0:0:
180,224,234677,5,0,0:0:0:0:
128,220,234770,1,0,0:0:0:0:
92,256,234864,1,0,0:0:0:0:
248,336,234957,6,0,L|244:272,1,57.5
320,228,235143,5,0,0:0:0:0:
372,236,235236,1,0,0:0:0:0:
416,264,235329,1,0,0:0:0:0:
440,312,235423,1,0,0:0:0:0:
440,364,235516,1,0,0:0:0:0:
444,307,235609,1,0,0:0:0:0:
448,249,235702,1,0,0:0:0:0:
452,191,235796,1,0,0:0:0:0:
456,134,235888,5,0,0:0:0:0:
391,80,235982,1,0,0:0:0:0:
318,120,236075,1,0,0:0:0:0:
256,65,236168,1,0,0:0:0:0:
110,109,236261,1,0,0:0:0:0:
166,182,236354,2,0,L|259:204,1,92
63,337,236541,6,0,L|56:244,1,92
200,348,236727,1,0,0:0:0:0:
290,376,236820,2,0,L|283:283,1,92
338,158,237006,5,0,0:0:0:0:
364,70,237100,1,0,0:0:0:0:
452,96,237193,1,0,0:0:0:0:
425,184,237286,1,0,0:0:0:0:
338,158,237379,5,0,0:0:0:0:
103,181,237472,2,0,L|196:169,1,92
388,263,237659,2,0,L|295:251,1,92
130,23,237845,2,0,L|141:114,1,92
448,357,238031,6,0,L|466:267,1,92
399,167,238218,1,0,0:0:0:0:
300,191,238311,1,0,0:0:0:0:
219,122,238404,1,0,0:0:0:0:
325,91,238497,5,0,0:0:0:0:
407,81,238590,1,0,0:0:0:0:
478,131,238683,1,0,0:0:0:0:
475,216,238777,1,0,0:0:0:0:
397,262,238870,5,0,0:0:0:0:
349,280,238963,1,0,0:0:0:0:
297,278,239056,1,0,0:0:0:0:
248,268,239149,2,0,L|154:251,1,92
270,37,239336,2,0,L|360:53,1,92
83,49,239522,6,0,L|81:140,1,92
124,349,239708,1,0,0:0:0:0:
130,350,239801,1,0,0:0:0:0:
149,356,239895,1,0,0:0:0:0:
197,364,239988,5,0,0:0:0:0:
234,349,240081,1,0,0:0:0:0:
252,301,240174,1,0,0:0:0:0:
224,219,240267,1,0,0:0:0:0:
266,132,240360,5,0,0:0:0:0:
332,201,240454,1,0,0:0:0:0:
387,151,240547,1,0,0:0:0:0:
453,220,240641,1,0,0:0:0:0:
508,170,240733,5,0,0:0:0:0:
441,73,240826,1,0,0:0:0:0:
332,51,240920,1,0,0:0:0:0:
219,65,241013,1,0,0:0:0:0:
112,24,241106,5,0,0:0:0:0:
22,95,241199,1,0,0:0:0:0:
70,198,241292,1,0,0:0:0:0:
185,218,241385,1,0,0:0:0:0:
120,56,241479,6,0,L|135:108,1,46
57,105,241572,1,0,0:0:0:0:
90,177,241665,1,0,0:0:0:0:
171,191,241758,1,0,0:0:0:0:
208,119,241851,5,0,0:0:0:0:
231,112,241944,1,0,0:0:0:0:
282,116,242038,1,0,0:0:0:0:
341,144,242131,1,0,0:0:0:0:
394,200,242224,1,0,0:0:0:0:
431,268,242317,2,0,P|437:326|409:362,1,92
230,282,242503,6,0,P|224:224|252:188,1,92
373,37,242690,1,0,0:0:0:0:
362,150,242783,2,0,L|352:255,1,92
301,344,242969,5,0,0:0:0:0:
214,371,243062,1,0,0:0:0:0:
130,338,243155,1,0,0:0:0:0:
85,260,243248,1,0,0:0:0:0:
99,170,243341,5,0,0:0:0:0:
158,31,243435,1,0,0:0:0:0:
174,84,243528,1,0,0:0:0:0:
188,137,243621,2,0,L|210:229,1,92
323,366,243808,2,0,L|345:274,1,92
454,58,243994,6,0,L|352:81,1,92
263,101,244180,1,0,0:0:0:0:
318,178,244274,1,0,0:0:0:0:
417,206,244367,1,0,0:0:0:0:
490,290,244460,5,0,0:0:0:0:
410,333,244553,1,0,0:0:0:0:
319,334,244646,1,0,0:0:0:0:
238,291,244739,1,0,0:0:0:0:
188,215,244832,5,0,0:0:0:0:
108,144,244926,1,0,0:0:0:0:
15,204,245019,1,0,0:0:0:0:
48,304,245112,1,0,0:0:0:0:
143,312,245205,5,0,0:0:0:0:
123,189,245298,1,0,0:0:0:0:
176,85,245392,1,0,0:0:0:0:
265,26,245485,1,0,0:0:0:0:
381,18,245578,5,0,0:0:0:0:
461,120,245671,1,0,0:0:0:0:
401,229,245764,1,0,0:0:0:0:
276,244,245857,1,0,0:0:0:0:
219,140,245951,5,0,0:0:0:0:
314,120,246044,1,0,0:0:0:0:
400,151,246137,1,0,0:0:0:0:
472,204,246230,1,0,0:0:0:0:
501,295,246323,5,0,0:0:0:0:
381,348,246416,1,0,0:0:0:0:
297,309,246510,1,0,0:0:0:0:
227,355,246603,1,0,0:0:0:0:
21,292,246696,5,0,0:0:0:0:
141,239,246789,1,0,0:0:0:0:
225,278,246883,1,0,0:0:0:0:
295,232,246976,1,0,0:0:0:0:
216,149,247069,5,0,0:0:0:0:
119,162,247162,1,0,0:0:0:0:
38,116,247255,1,0,0:0:0:0:
21,16,247348,1,0,0:0:0:0:
211,122,247441,6,0,L|206:76,1,46
133,132,247534,1,0,0:0:0:0:
68,95,247627,1,0,0:0:0:0:
55,15,247720,1,0,0:0:0:0:
143,48,247814,5,0,0:0:0:0:
143,48,247907,2,0,L|195:48,1,46
259,68,248093,1,0,0:0:0:0:
322,28,248187,2,0,B|395:49|469:23|469:23|421:71|412:95|414:120|429:150|450:160|474:169|504:154|512:135|459:97,1,368
353,108,248466,6,0,L|336:206,1,92
319,335,248652,1,0,0:0:0:0:
501,303,248746,2,0,L|399:279,1,92
182,268,248932,5,0,0:0:0:0:
55,292,249025,1,0,0:0:0:0:
130,343,249118,1,0,0:0:0:0:
106,216,249211,1,0,0:0:0:0:
82,89,249305,5,0,0:0:0:0:
182,43,249398,1,0,0:0:0:0:
247,131,249491,1,0,0:0:0:0:
347,85,249584,2,0,P|311:56|266:45,1,92
315,260,249770,2,0,P|327:303|320:349,1,92
437,159,249957,6,0,P|480:142|512:108,1,92
416,9,250143,1,0,0:0:0:0:
300,84,250236,1,0,0:0:0:0:
179,150,250329,1,0,0:0:0:0:
203,50,250423,5,0,0:0:0:0:
247,131,250516,1,0,0:0:0:0:
335,179,250609,1,0,0:0:0:0:
379,260,250702,1,0,0:0:0:0:
467,308,250795,6,0,L|465:299,1,8.6249997367859
465,299,250982,2,0,L|467:308,1,8.6249997367859
457,169,251168,1,0,0:0:0:0:
393,361,251261,2,0,L|297:349,1,92
32,320,251447,6,0,L|132:309,1,92
241,236,251634,1,0,0:0:0:0:
104,216,251727,1,0,0:0:0:0:
204,310,251820,1,0,0:0:0:0:
180,174,251913,5,0,0:0:0:0:
184,91,252006,1,0,0:0:0:0:
244,33,252100,1,0,0:0:0:0:
326,25,252193,1,0,0:0:0:0:
405,48,252286,6,0,L|407:101,1,46
410,177,252379,1,0,0:0:0:0:
340,130,252472,1,0,0:0:0:0:
481,127,252565,1,0,0:0:0:0:
341,341,252659,6,0,L|339:288,1,46
336,212,252752,1,0,0:0:0:0:
406,259,252845,1,0,0:0:0:0:
265,262,252938,1,0,0:0:0:0:
218,103,253031,5,0,0:0:0:0:
213,80,253124,1,0,0:0:0:0:
196,65,253217,1,0,0:0:0:0:
174,62,253310,1,0,0:0:0:0:
154,73,253403,1,0,0:0:0:0:
144,93,253496,1,0,0:0:0:0:
148,116,253590,1,0,0:0:0:0:
165,131,253683,1,0,0:0:0:0:
187,135,253777,6,0,L|188:236,1,92
193,337,253963,1,0,0:0:0:0:
310,76,254056,2,0,L|312:168,1,92
377,280,254242,1,0,0:0:0:0:
454,23,254336,2,0,L|456:115,1,92
429,207,254522,5,0,0:0:0:0:
418,203,254615,1,0,0:0:0:0:
406,200,254708,1,0,0:0:0:0:
395,200,254801,1,0,0:0:0:0:
384,201,254894,1,0,0:0:0:0:
372,202,254988,5,0,0:0:0:0:
361,201,255081,1,0,0:0:0:0:
349,199,255174,1,0,0:0:0:0:
339,195,255267,6,0,L|247:193,1,92
135,191,255454,1,0,0:0:0:0:
190,341,255547,2,0,L|191:249,1,92
194,137,255734,1,0,0:0:0:0:
313,25,255826,2,0,L|310:137,1,92
309,284,256013,5,0,0:0:0:0:
314,283,256106,1,0,0:0:0:0:
319,286,256199,1,0,0:0:0:0:
322,291,256292,1,0,0:0:0:0:
320,296,256385,1,0,0:0:0:0:
316,299,256478,1,0,0:0:0:0:
311,300,256572,1,0,0:0:0:0:
306,297,256665,1,0,0:0:0:0:
306,297,256758,6,0,L|215:286,1,92
64,219,256944,2,0,L|155:207,1,92
244,47,257131,5,0,0:0:0:0:
247,43,257224,1,0,0:0:0:0:
253,42,257318,1,0,0:0:0:0:
257,46,257411,1,0,0:0:0:0:
257,46,257504,6,0,L|348:57,1,92
500,124,257690,2,0,L|408:135,1,92
257,195,257876,1,0,0:0:0:0:
252,189,257969,1,0,0:0:0:0:
259,192,258062,1,0,0:0:0:0:
252,194,258156,1,0,0:0:0:0:
257,188,258249,5,0,0:0:0:0:
255,79,258435,6,0,L|255:71,15,5.74999982452393
