osu file format v14

[General]
AudioFilename: audio.mp3
AudioLeadIn: 0
PreviewTime: 81527
Countdown: 0
SampleSet: Normal
StackLeniency: 0.7
Mode: 1
LetterboxInBreaks: 0
WidescreenStoryboard: 1

[Editor]
Bookmarks: 1032,12957,26373,38299,44261,57677,69603,83019,95317,106870,118795
DistanceSpacing: 0.1
BeatDivisor: 8
GridSize: 16
TimelineZoom: 2.200001

[Metadata]
Title:Dyscontrolled Galaxy
TitleUnicode:Dyscontrolled Galaxy
Artist:Camellia
ArtistUnicode:かめりあ
Creator:-Dusk
Version:NOVICE
Source:SOUND VOLTEX IV HEAVENLY HAVEN
Tags:sdvx 4 かめるかめりあ KamelCamellia Cametek 大箭将也 Masaya Oya galaxy burst electronic instrumental yassu- _dusk_ gaston_2199 fa featured artist
BeatmapID:3333715
BeatmapSetID:1628718

[Difficulty]
HPDrainRate:7
CircleSize:5
OverallDifficulty:4
ApproachRate:9
SliderMultiplier:1.4
SliderTickRate:1

[Events]
//Background and Video events
0,0,"737febff7b339619bc7f11b91187f485.jpg",0,0
//Break Periods
2,57922,69048
//Storyboard Layer 0 (Background)
//Storyboard Layer 1 (Fail)
//Storyboard Layer 2 (Pass)
//Storyboard Layer 3 (Foreground)
//Storyboard Layer 4 (Overlay)
//Storyboard Sound Samples

[TimingPoints]
1077,372.670807453416,4,1,0,90,1,0
12070,-100,4,1,0,80,0,0
13002,-100,4,1,0,90,0,0
24927,-100,4,1,0,80,0,0
26418,-100,4,1,0,90,0,0
50269,-90.9090909090909,4,1,0,100,0,1
56232,-90.9090909090909,4,1,0,100,0,0
59213,-142.857142857143,4,1,0,60,0,0
69648,-100,4,1,0,90,0,0
81573,-100,4,1,0,80,0,0
82505,-100,4,1,0,90,0,0
83064,-90.9090909090909,4,1,0,100,0,1
92754,-90.9090909090909,4,1,0,100,0,0
93499,-100,4,1,0,90,0,0
95362,-90.9090909090909,4,1,0,100,0,1
102070,-90.9090909090909,4,1,0,100,0,0
102443,-90.9090909090909,4,1,0,100,0,1
103561,-90.9090909090909,4,1,0,100,0,0
103934,-90.9090909090909,4,1,0,100,0,1
106915,-90.9090909090909,4,1,0,90,0,0
107288,-100,4,1,0,90,0,0
115859,-100,4,1,0,90,0,0
116136,-100,4,1,0,90,0,0
116415,-100,4,1,0,90,0,0
116601,-100,4,1,0,90,0,0
116881,-100,4,1,0,90,0,0
117160,-100,4,1,0,90,0,0
117254,-100,4,1,0,90,0,0
117347,-100,4,1,0,90,0,0
117533,-100,4,1,0,90,0,0
117627,-100,4,1,0,90,0,0
117719,-100,4,1,0,90,0,0
117906,-100,4,1,0,90,0,0
118092,-100,4,1,0,90,0,0
118840,-90.9090909090909,4,1,0,100,0,1
124803,-90.9090909090909,4,1,0,100,0,1
124990,-90.9090909090909,4,1,0,100,0,0
125036,-90.9090909090909,4,1,0,20,0,0
126294,-100,4,1,0,20,0,0
126620,-100,4,1,0,15,0,0
127785,-100,4,1,0,15,0,0
128111,-100,4,1,0,10,0,0
129275,-100,4,1,0,10,0,0

[HitObjects]
256,192,1077,5,4,0:0:0:0:
256,192,1822,1,8,0:0:0:0:
256,192,2381,1,0,0:0:0:0:
256,192,3313,1,8,0:0:0:0:
256,192,4058,1,4,0:0:0:0:
256,192,4803,1,8,0:0:0:0:
256,192,5362,1,0,0:0:0:0:
256,192,7039,1,4,0:0:0:0:
256,192,7785,1,8,0:0:0:0:
256,192,8344,1,0,0:0:0:0:
256,192,9275,1,8,0:0:0:0:
256,192,10021,1,4,0:0:0:0:
256,192,10766,1,8,0:0:0:0:
256,192,11325,1,4,0:0:0:0:
256,192,11698,1,0,0:0:0:0:
256,192,13002,1,4,0:0:0:0:
256,192,13375,1,8,0:0:0:0:
256,192,13561,1,8,0:0:0:0:
256,192,13747,1,0,0:0:0:0:
256,192,14120,1,8,0:0:0:0:
256,192,14493,1,0,0:0:0:0:
256,192,14865,1,8,0:0:0:0:
256,192,15052,1,8,0:0:0:0:
256,192,15238,1,0,0:0:0:0:
256,192,15424,1,0,0:0:0:0:
256,192,15611,1,8,0:0:0:0:
256,192,15983,1,8,0:0:0:0:
256,192,16356,1,0,0:0:0:0:
256,192,16542,1,0,0:0:0:0:
256,192,16729,1,8,0:0:0:0:
256,192,17101,1,0,0:0:0:0:
256,192,17474,1,8,0:0:0:0:
256,192,17754,1,8,0:0:0:0:
256,192,18033,1,8,0:0:0:0:
256,192,18219,1,0,0:0:0:0:
256,192,18965,1,0,0:0:0:0:
256,192,19151,1,0,0:0:0:0:
256,192,19337,1,8,0:0:0:0:
256,192,19710,1,8,0:0:0:0:
256,192,19896,1,0,0:0:0:0:
256,192,20083,1,8,0:0:0:0:
256,192,20455,1,8,0:0:0:0:
256,192,20642,1,8,0:0:0:0:
256,192,20828,1,8,0:0:0:0:
256,192,21201,1,0,0:0:0:0:
256,192,21387,1,0,0:0:0:0:
256,192,21573,1,8,0:0:0:0:
256,192,21760,1,8,0:0:0:0:
256,192,21946,12,0,23437,0:0:0:0:
256,192,24927,5,0,0:0:0:0:
256,192,26418,1,4,0:0:0:0:
256,192,26791,1,8,0:0:0:0:
256,192,26977,1,8,0:0:0:0:
256,192,27163,1,0,0:0:0:0:
256,192,27350,1,0,0:0:0:0:
256,192,27536,1,8,0:0:0:0:
256,192,27909,1,0,0:0:0:0:
256,192,28281,1,8,0:0:0:0:
256,192,28654,1,0,0:0:0:0:
256,192,28840,1,0,0:0:0:0:
256,192,29027,1,8,0:0:0:0:
256,192,29213,1,0,0:0:0:0:
256,192,29399,1,0,0:0:0:0:
256,192,29772,1,8,0:0:0:0:
256,192,30145,1,8,0:0:0:0:
256,192,30331,1,0,0:0:0:0:
256,192,30517,1,8,0:0:0:0:
256,192,30704,1,8,0:0:0:0:
256,192,30890,1,0,0:0:0:0:
256,192,31263,1,8,0:0:0:0:
256,192,31636,1,0,0:0:0:0:
256,192,31915,1,0,0:0:0:0:
256,192,32754,1,8,0:0:0:0:
256,192,33126,1,0,0:0:0:0:
256,192,33313,1,0,0:0:0:0:
256,192,33499,1,8,0:0:0:0:
256,192,33685,1,0,0:0:0:0:
256,192,34244,1,0,0:0:0:0:
256,192,34617,1,8,0:0:0:0:
256,192,34803,1,8,0:0:0:0:
256,192,34990,1,0,0:0:0:0:
256,192,35362,1,0,0:0:0:0:
256,192,35642,1,0,0:0:0:0:
256,192,36108,1,8,0:0:0:0:
256,192,36387,1,8,0:0:0:0:
256,192,36853,1,8,0:0:0:0:
256,192,37039,1,8,0:0:0:0:
256,192,37319,1,8,0:0:0:0:
256,192,37598,1,0,0:0:0:0:
256,192,38344,1,4,0:0:0:0:
256,192,38623,1,8,0:0:0:0:
256,192,38903,1,0,0:0:0:0:
256,192,39182,1,0,0:0:0:0:
256,192,39462,1,8,0:0:0:0:
256,192,39927,1,0,0:0:0:0:
256,192,40114,1,0,0:0:0:0:
256,192,40393,1,0,0:0:0:0:
256,192,40673,1,0,0:0:0:0:
256,192,40859,1,8,0:0:0:0:
256,192,41045,1,8,0:0:0:0:
256,192,41232,1,0,0:0:0:0:
256,192,41418,1,8,0:0:0:0:
256,192,41604,1,0,0:0:0:0:
256,192,42163,1,0,0:0:0:0:
256,192,42443,1,0,0:0:0:0:
256,192,42722,1,8,0:0:0:0:
256,192,42909,1,8,0:0:0:0:
256,192,43188,1,0,0:0:0:0:
256,192,43468,1,8,0:0:0:0:
256,192,43747,1,0,0:0:0:0:
256,192,44027,1,0,0:0:0:0:
256,192,44306,1,12,0:0:0:0:
256,192,45052,1,0,0:0:0:0:
256,192,45424,1,8,0:0:0:0:
256,192,45611,1,8,0:0:0:0:
256,192,45890,1,0,0:0:0:0:
256,192,46076,1,0,0:0:0:0:
256,192,46356,1,0,0:0:0:0:
256,192,46542,1,8,0:0:0:0:
256,192,46822,1,0,0:0:0:0:
256,192,47101,1,8,0:0:0:0:
256,192,47288,1,0,0:0:0:0:
256,192,47474,1,0,0:0:0:0:
256,192,47660,1,8,0:0:0:0:
256,192,48033,1,8,0:0:0:0:
256,192,48219,1,0,0:0:0:0:
256,192,48406,1,8,0:0:0:0:
256,192,48778,1,8,0:0:0:0:
256,192,49058,1,8,0:0:0:0:
256,192,49337,1,8,0:0:0:0:
256,192,49524,1,0,0:0:0:0:
256,192,50269,1,8,0:0:0:0:
256,192,50549,1,8,0:0:0:0:
256,192,51014,1,8,0:0:0:0:
256,192,51294,1,8,0:0:0:0:
256,192,51760,1,8,0:0:0:0:
256,192,52039,1,8,0:0:0:0:
256,192,52319,1,8,0:0:0:0:
256,192,52598,1,8,0:0:0:0:
256,192,52878,1,8,0:0:0:0:
256,192,53250,1,0,0:0:0:0:
256,192,53530,1,0,0:0:0:0:
256,192,53996,1,0,0:0:0:0:
256,192,54275,1,0,0:0:0:0:
256,192,54741,1,0,0:0:0:0:
256,192,55021,1,0,0:0:0:0:
256,192,55300,1,0,0:0:0:0:
256,192,55580,1,0,0:0:0:0:
256,192,55859,1,0,0:0:0:0:
256,192,56232,1,0,0:0:0:0:
256,192,57722,1,4,0:0:0:0:
256,192,69648,5,12,0:0:0:0:
256,192,70021,1,0,0:0:0:0:
256,192,70207,1,0,0:0:0:0:
256,192,70393,1,8,0:0:0:0:
256,192,70580,1,8,0:0:0:0:
256,192,70766,1,0,0:0:0:0:
256,192,71139,1,8,0:0:0:0:
256,192,71511,1,0,0:0:0:0:
256,192,71698,1,8,0:0:0:0:
256,192,71884,1,0,0:0:0:0:
256,192,72070,1,8,0:0:0:0:
256,192,72257,1,0,0:0:0:0:
256,192,72629,1,8,0:0:0:0:
256,192,73002,1,8,0:0:0:0:
256,192,73188,1,8,0:0:0:0:
256,192,73375,1,0,0:0:0:0:
256,192,73561,1,0,0:0:0:0:
256,192,73747,1,8,0:0:0:0:
256,192,74120,1,8,0:0:0:0:
256,192,74493,1,8,0:0:0:0:
256,192,74679,1,0,0:0:0:0:
256,192,74865,1,8,0:0:0:0:
256,192,75611,1,8,0:0:0:0:
256,192,75797,1,8,0:0:0:0:
256,192,75983,1,0,0:0:0:0:
256,192,76356,1,0,0:0:0:0:
256,192,76542,1,8,0:0:0:0:
256,192,76729,1,0,0:0:0:0:
256,192,77101,1,0,0:0:0:0:
256,192,77288,1,0,0:0:0:0:
256,192,77474,1,8,0:0:0:0:
256,192,77847,1,8,0:0:0:0:
256,192,78033,1,0,0:0:0:0:
256,192,78219,1,8,0:0:0:0:
256,192,78406,1,8,0:0:0:0:
256,192,78592,12,0,80083,0:0:0:0:
256,192,82691,5,8,0:0:0:0:
256,192,83064,1,4,0:0:0:0:
256,192,83437,1,8,0:0:0:0:
256,192,83809,1,0,0:0:0:0:
256,192,83996,1,0,0:0:0:0:
256,192,84182,1,8,0:0:0:0:
256,192,84368,1,8,0:0:0:0:
256,192,84555,1,0,0:0:0:0:
256,192,84927,1,8,0:0:0:0:
256,192,85300,1,8,0:0:0:0:
256,192,85486,1,0,0:0:0:0:
256,192,85673,1,8,0:0:0:0:
256,192,85859,1,8,0:0:0:0:
256,192,86045,1,0,0:0:0:0:
256,192,86418,1,8,0:0:0:0:
256,192,86791,1,0,0:0:0:0:
256,192,87163,1,8,0:0:0:0:
256,192,87350,1,8,0:0:0:0:
256,192,87536,1,0,0:0:0:0:
256,192,87722,1,0,0:0:0:0:
256,192,87909,1,8,0:0:0:0:
256,192,88095,1,8,0:0:0:0:
256,192,88281,1,0,0:0:0:0:
256,192,89027,1,0,0:0:0:0:
256,192,89213,1,0,0:0:0:0:
256,192,89399,1,8,0:0:0:0:
256,192,89772,1,8,0:0:0:0:
256,192,89958,1,0,0:0:0:0:
256,192,90145,1,8,0:0:0:0:
256,192,90331,1,8,0:0:0:0:
256,192,90517,1,0,0:0:0:0:
256,192,90890,1,8,0:0:0:0:
256,192,91263,1,0,0:0:0:0:
256,192,91449,1,8,0:0:0:0:
256,192,91636,1,8,0:0:0:0:
256,192,91822,1,0,0:0:0:0:
256,192,92008,1,0,0:0:0:0:
256,192,92381,1,0,0:0:0:0:
256,192,92754,1,8,0:0:0:0:
256,192,93499,1,8,0:0:0:0:
256,192,93778,1,8,0:0:0:0:
256,192,93965,1,8,0:0:0:0:
256,192,94244,1,8,0:0:0:0:
256,192,94524,1,8,0:0:0:0:
256,192,94710,1,8,0:0:0:0:
256,192,95362,1,12,0:0:0:0:
256,192,95735,1,0,0:0:0:0:
256,192,95921,1,0,0:0:0:0:
256,192,96108,1,8,0:0:0:0:
256,192,96294,1,8,0:0:0:0:
256,192,96480,1,0,0:0:0:0:
256,192,96853,1,8,0:0:0:0:
256,192,97226,1,0,0:0:0:0:
256,192,97412,1,8,0:0:0:0:
256,192,97598,1,0,0:0:0:0:
256,192,97785,1,0,0:0:0:0:
256,192,97971,1,8,0:0:0:0:
256,192,98344,1,8,0:0:0:0:
256,192,98716,1,8,0:0:0:0:
256,192,98902,1,0,0:0:0:0:
256,192,99089,1,0,0:0:0:0:
256,192,99462,1,0,0:0:0:0:
256,192,99648,1,0,0:0:0:0:
256,192,99834,1,8,0:0:0:0:
256,192,100021,1,8,0:0:0:0:
256,192,100207,1,0,0:0:0:0:
256,192,100952,1,8,0:0:0:0:
256,192,101232,1,0,0:0:0:0:
256,192,101511,1,0,0:0:0:0:
256,192,101698,1,8,0:0:0:0:
256,192,101977,1,0,0:0:0:0:
256,192,102443,1,8,0:0:0:0:
256,192,102722,1,0,0:0:0:0:
256,192,103002,1,8,0:0:0:0:
256,192,103188,1,0,0:0:0:0:
256,192,103468,1,8,0:0:0:0:
256,192,103934,1,8,0:0:0:0:
256,192,104213,1,8,0:0:0:0:
256,192,104493,1,0,0:0:0:0:
256,192,104679,1,8,0:0:0:0:
256,192,104958,1,8,0:0:0:0:
256,192,105238,1,8,0:0:0:0:
256,192,105424,1,0,0:0:0:0:
256,192,105611,1,0,0:0:0:0:
256,192,105797,1,8,0:0:0:0:
256,192,105983,1,8,0:0:0:0:
256,192,106170,1,0,0:0:0:0:
256,192,106915,1,4,0:0:0:0:
256,192,107288,1,0,0:0:0:0:
256,192,107474,1,8,0:0:0:0:
256,192,107660,1,8,0:0:0:0:
256,192,107940,1,8,0:0:0:0:
256,192,108219,1,8,0:0:0:0:
256,192,108406,1,0,0:0:0:0:
256,192,108778,1,8,0:0:0:0:
256,192,109151,1,0,0:0:0:0:
256,192,109431,1,0,0:0:0:0:
256,192,109710,1,0,0:0:0:0:
256,192,109896,1,0,0:0:0:0:
256,192,110269,1,8,0:0:0:0:
256,192,110455,1,0,0:0:0:0:
256,192,110642,1,8,0:0:0:0:
256,192,110921,1,8,0:0:0:0:
256,192,111201,1,0,0:0:0:0:
256,192,111387,1,8,0:0:0:0:
256,192,111573,1,0,0:0:0:0:
256,192,111853,1,0,0:0:0:0:
256,192,112132,1,8,0:0:0:0:
256,192,112412,1,8,0:0:0:0:
256,192,113250,1,8,0:0:0:0:
256,192,113623,1,0,0:0:0:0:
256,192,113903,1,0,0:0:0:0:
256,192,114182,1,8,0:0:0:0:
256,192,114368,1,0,0:0:0:0:
256,192,114555,1,0,0:0:0:0:
256,192,114741,1,8,0:0:0:0:
256,192,115114,1,0,0:0:0:0:
256,192,115393,1,0,0:0:0:0:
256,192,115673,1,0,0:0:0:0:
256,192,115859,1,8,0:0:0:0:
256,192,116139,1,8,0:0:0:0:
256,192,116418,1,0,0:0:0:0:
256,192,116604,1,8,0:0:0:0:
256,192,116884,1,8,0:0:0:0:
256,192,117163,1,8,0:0:0:0:
256,192,117350,1,0,0:0:0:0:
256,192,117536,1,0,0:0:0:0:
256,192,117722,1,8,0:0:0:0:
256,192,117909,1,8,0:0:0:0:
256,192,118095,1,0,0:0:0:0:
256,192,118840,1,8,0:0:0:0:
256,192,119120,1,8,0:0:0:0:
256,192,119586,1,8,0:0:0:0:
256,192,119865,1,8,0:0:0:0:
256,192,120331,1,8,0:0:0:0:
256,192,120611,1,8,0:0:0:0:
256,192,120890,1,8,0:0:0:0:
256,192,121170,1,8,0:0:0:0:
256,192,121449,1,8,0:0:0:0:
256,192,121822,1,0,0:0:0:0:
256,192,122101,1,0,0:0:0:0:
256,192,122567,1,0,0:0:0:0:
256,192,122847,1,0,0:0:0:0:
256,192,123313,1,0,0:0:0:0:
256,192,123592,1,0,0:0:0:0:
256,192,123872,1,0,0:0:0:0:
256,192,124151,1,0,0:0:0:0:
256,192,124431,1,0,0:0:0:0:
256,192,124990,1,4,0:0:0:0:
256,192,125176,12,0,129275,0:0:0:0:
