osu file format v14

[General]
AudioFilename: audio.mp3
AudioLeadIn: 0
PreviewTime: 81527
Countdown: 0
SampleSet: Normal
StackLeniency: 0.7
Mode: 1
LetterboxInBreaks: 0
WidescreenStoryboard: 1

[Editor]
DistanceSpacing: 1
BeatDivisor: 8
GridSize: 32
TimelineZoom: 3.299999

[Metadata]
Title:Dyscontrolled Galaxy
TitleUnicode:Dyscontrolled Galaxy
Artist:Camellia
ArtistUnicode:かめりあ
Creator:-Dusk
Version:EXHAUST
Source:SOUND VOLTEX IV HEAVENLY HAVEN
Tags:sdvx 4 かめるかめりあ KamelCamellia Cametek 大箭将也 Masaya Oya galaxy burst electronic instrumental yassu- _dusk_ gaston_2199 fa featured artist
BeatmapID:3326992
BeatmapSetID:1628718

[Difficulty]
HPDrainRate:5.5
CircleSize:5
OverallDifficulty:6
ApproachRate:9
SliderMultiplier:1.4
SliderTickRate:1

[Events]
//Background and Video events
0,0,"737febff7b339619bc7f11b91187f485.jpg",0,0
//Break Periods
2,57922,69048
//Storyboard Layer 0 (Background)
//Storyboard Layer 1 (Fail)
//Storyboard Layer 2 (Pass)
//Storyboard Layer 3 (Foreground)
//Storyboard Layer 4 (Overlay)
//Storyboard Sound Samples

[TimingPoints]
1077,372.670807453416,4,1,0,100,1,0
1077,-66.6666666666667,4,1,0,100,0,0
1449,-100,4,1,0,100,0,0
4058,-66.6666666666667,4,1,0,100,0,0
4431,-100,4,1,0,100,0,0
5735,-102.040816326531,4,1,0,100,0,0
6014,-105.263157894737,4,1,0,100,0,0
6294,-108.695652173913,4,1,0,100,0,0
6573,-112.359550561798,4,1,0,100,0,0
6853,-116.279069767442,4,1,0,100,0,0
7039,-66.6666666666667,4,1,0,100,0,0
7412,-100,4,1,0,100,0,0
10021,-66.6666666666667,4,1,0,100,0,0
10393,-100,4,1,0,100,0,0
13002,-95.2380952380952,4,1,0,100,0,0
15983,-90.9090909090909,4,1,0,100,0,0
18965,-86.9565217391304,4,1,0,100,0,0
19151,-86.3309600952403,4,1,0,100,0,0
19337,-85.7142612244968,4,1,0,100,0,0
19431,-85.4092769848475,4,1,0,100,0,0
19524,-85.1063829787234,4,1,0,100,0,0
19617,-84.8056297369244,4,1,0,100,0,0
19710,-84.5070660583285,4,1,0,100,0,0
19896,-83.91606044306,4,1,0,100,0,0
20083,-83.3333333333333,4,1,0,100,0,0
20176,-83.0449597107378,4,1,0,100,0,0
20269,-82.7586435196258,4,1,0,100,0,0
20362,-82.4742268041237,4,1,0,100,0,0
20455,-82.1917583036279,4,1,0,100,0,0
20642,-81.6326530612245,4,1,0,100,0,0
20735,-81.3559101407701,4,1,0,100,0,0
20828,-81.0811029948927,4,1,0,100,0,0
21014,-80.5368911310359,4,1,0,100,0,0
21108,-80.2675800047037,4,1,0,100,0,0
21201,-80,4,1,0,100,0,0
21387,-79.4702197272105,4,1,0,100,0,0
21480,-79.2079207920792,4,1,0,100,0,0
21573,-78.9473476454348,4,1,0,100,0,0
21760,-78.4313725490196,4,1,0,100,0,0
21853,-78.1758753939087,4,1,0,100,0,0
21946,-77.9220981615839,4,1,0,100,0,0
22132,-77.4193348595265,4,1,0,100,0,0
22226,-77.1704378573474,4,1,0,100,0,0
22319,-76.9230769230769,4,1,0,100,0,0
22412,-76.6772966958986,4,1,0,100,0,0
22505,-76.4331404925199,4,1,0,100,0,0
22691,-75.9493478609246,4,1,0,100,0,0
22785,-75.7097982863844,4,1,0,100,0,0
22878,-75.4716981132076,4,1,0,100,0,0
22971,-75.235090850134,4,1,0,100,0,0
23064,-75.0000187500047,4,1,0,100,0,0
23250,-74.5341429728837,4,1,0,100,0,0
23437,-74.0740740740741,4,1,0,100,0,0
24927,-111.111111111111,4,1,0,100,0,0
26418,-90.9090909090909,4,1,0,100,0,0
37971,-90.0900900900901,4,1,0,100,0,0
38064,-89.2857142857143,4,1,0,100,0,0
38157,-88.4955752212389,4,1,0,100,0,0
38250,-87.719298245614,4,1,0,100,0,0
38344,-86.9565217391304,4,1,0,100,0,0
44306,-86.9565217391304,4,1,0,100,0,0
44586,-86.1550549755406,4,1,0,100,0,0
44772,-85.6288281437982,4,1,0,100,0,0
44865,-85.3681544344061,4,1,0,100,0,0
45238,-84.3411396680839,4,1,0,100,0,0
45424,-83.8368434422402,4,1,0,100,0,0
45517,-83.5868802032833,4,1,0,100,0,0
45611,-83.3384725391399,4,1,0,100,0,0
45704,-83.0915369607775,4,1,0,100,0,0
45890,-82.60203002749,4,1,0,100,0,0
46076,-82.118256859338,4,1,0,100,0,0
46356,-81.4030631972681,4,1,0,100,0,0
46449,-81.167447632792,4,1,0,100,0,0
46636,-80.700284791305,4,1,0,100,0,0
46729,-80.4687141662757,4,1,0,100,0,0
46915,-80.0095371368267,4,1,0,100,0,0
47008,-79.7818445243327,4,1,0,100,0,0
47195,-79.3304509936139,4,1,0,100,0,0
47288,-79.1066642618241,4,1,0,100,0,0
47381,-78.8841365579065,4,1,0,100,0,0
47474,-78.6628572866978,4,1,0,100,0,0
47660,-78.2240022528513,4,1,0,100,0,0
47754,-78.0063450361052,4,1,0,100,0,0
47847,-77.7899562275916,4,1,0,100,0,0
48033,-77.3607603015522,4,1,0,100,0,0
48126,-77.1479334768799,4,1,0,100,0,0
48219,-76.9362744532331,4,1,0,100,0,0
48406,-76.5164215718156,4,1,0,100,0,0
48499,-76.3082088555676,4,1,0,100,0,0
48592,-76.1010683067969,4,1,0,100,0,0
48778,-75.6902573014607,4,1,0,100,0,0
48872,-75.4865105605628,4,1,0,100,0,0
48965,-75.2838577857813,4,1,0,100,0,0
49058,-75.0822901900483,4,1,0,100,0,0
49151,-74.881799080152,4,1,0,100,0,0
49244,-74.6823758554866,4,1,0,100,0,0
49337,-74.4839565281836,4,1,0,100,0,0
49524,-71.4285714285714,4,1,0,100,0,0
49710,-83.3333333333333,4,1,0,100,0,0
50269,-71.4285714285714,4,1,0,100,0,1
56232,-71.4285714285714,4,1,0,100,0,0
57722,-66.6666666666667,4,1,0,100,0,0
59213,-200,4,1,0,100,0,0
68809,-111.111111111111,4,1,0,80,0,0
69648,-95.2380952380952,4,1,0,100,0,0
72629,-90.9090909090909,4,1,0,100,0,0
75611,-86.9565217391304,4,1,0,100,0,0
75797,-86.3309600952403,4,1,0,100,0,0
75983,-85.7142612244968,4,1,0,100,0,0
76077,-85.4092769848475,4,1,0,100,0,0
76170,-85.1063829787234,4,1,0,100,0,0
76263,-84.8056297369244,4,1,0,100,0,0
76356,-84.5070660583285,4,1,0,100,0,0
76542,-83.91606044306,4,1,0,100,0,0
76729,-83.3333333333333,4,1,0,100,0,0
76822,-83.0449597107378,4,1,0,100,0,0
76915,-82.7586435196258,4,1,0,100,0,0
77008,-82.4742268041237,4,1,0,100,0,0
77101,-82.1917583036279,4,1,0,100,0,0
77288,-81.6326530612245,4,1,0,100,0,0
77381,-81.3559101407701,4,1,0,100,0,0
77474,-81.0811029948927,4,1,0,100,0,0
77660,-80.5368911310359,4,1,0,100,0,0
77754,-80.2675800047037,4,1,0,100,0,0
77847,-80,4,1,0,100,0,0
78033,-79.4702197272105,4,1,0,100,0,0
78126,-79.2079207920792,4,1,0,100,0,0
78219,-78.9473476454348,4,1,0,100,0,0
78406,-78.4313725490196,4,1,0,100,0,0
78499,-78.1758753939087,4,1,0,100,0,0
78592,-77.9220981615839,4,1,0,100,0,0
78778,-77.4193348595265,4,1,0,100,0,0
78872,-77.1704378573474,4,1,0,100,0,0
78965,-76.9230769230769,4,1,0,100,0,0
79058,-76.6772966958986,4,1,0,100,0,0
79151,-76.4331404925199,4,1,0,100,0,0
79337,-75.9493478609246,4,1,0,100,0,0
79431,-75.7097982863844,4,1,0,100,0,0
79524,-75.4716981132076,4,1,0,100,0,0
79617,-75.235090850134,4,1,0,100,0,0
79710,-75.0000187500047,4,1,0,100,0,0
79896,-74.5341429728837,4,1,0,100,0,0
80083,-74.0740740740741,4,1,0,100,0,0
81573,-111.111111111111,4,1,0,100,0,0
81760,-108.695652173913,4,1,0,100,0,0
81853,-107.52688172043,4,1,0,100,0,0
82039,-105.263157894737,4,1,0,100,0,0
82132,-104.166666666667,4,1,0,100,0,0
82319,-102.040816326531,4,1,0,100,0,0
82505,-100,4,1,0,100,0,0
82598,-98.0392156862745,4,1,0,100,0,0
82691,-96.1538461538461,4,1,0,100,0,0
83064,-86.9565217391304,4,1,0,100,0,1
92754,-86.9565217391304,4,1,0,100,0,0
93126,-90.9090909090909,4,1,0,100,0,0
93499,-100,4,1,0,100,0,0
94990,-99.9999999999999,4,1,0,100,0,0
95362,-86.9565217391304,4,1,0,100,0,1
102070,-86.9565217391304,4,1,0,100,0,0
102443,-80,4,1,0,100,0,1
103561,-80,4,1,0,100,0,0
103934,-76.9230769230769,4,1,0,100,0,1
104027,-76.6772966958986,4,1,0,100,0,1
104120,-76.4331404925199,4,1,0,100,0,1
104213,-76.1904761904762,4,1,0,100,0,1
104399,-75.7097982863844,4,1,0,100,0,1
104493,-75.4716981132076,4,1,0,100,0,1
104679,-75.0000187500047,4,1,0,100,0,1
104772,-74.7663551401869,4,1,0,100,0,1
104865,-74.5341429728837,4,1,0,100,0,1
104958,-74.3034239760802,4,1,0,100,0,1
105145,-73.8461356686435,4,1,0,100,0,1
105238,-73.6196499680123,4,1,0,100,0,1
105331,-73.394495412844,4,1,0,100,0,1
105424,-73.1707138608015,4,1,0,100,0,1
105517,-72.9483460056768,4,1,0,100,0,1
105704,-72.5075353456108,4,1,0,100,0,1
105797,-72.2891740455841,4,1,0,100,0,1
105890,-72.0720720720721,4,1,0,100,0,1
105983,-71.856270214067,4,1,0,100,0,1
106076,-71.6418081532676,4,1,0,100,0,1
106170,-71.4285714285714,4,1,0,100,0,1
106915,-83.3333333333333,4,1,0,100,0,0
107288,-98.0392156862745,4,1,0,100,0,0
114368,-98.0392156862745,4,1,0,100,0,0
114555,-96.7145113354243,4,1,0,100,0,0
114741,-95.4251284899355,4,1,0,100,0,0
114927,-94.1696730334782,4,1,0,100,0,0
115114,-92.9468232634745,4,1,0,100,0,0
115393,-91.1710003282156,4,1,0,100,0,0
115580,-90.0243155676348,4,1,0,100,0,0
115673,-89.4617622535776,4,1,0,100,0,0
115859,-88.3574092547318,4,1,0,100,0,0
116045,-87.2799889678094,4,1,0,100,0,0
116139,-86.7511101973328,4,1,0,100,0,0
116325,-85.7122775980677,4,1,0,100,0,0
116511,-84.6980303473043,4,1,0,100,0,0
116604,-84.1998196439863,4,1,0,100,0,0
116791,-83.2208464891622,4,1,0,100,0,0
116884,-82.7398815330376,4,1,0,100,0,0
117070,-81.7943722200138,4,1,0,100,0,0
117163,-81.32970819714,4,1,0,100,0,0
117257,-80.8702283532638,4,1,0,100,0,0
117350,-80.4159757594083,4,1,0,100,0,0
117536,-79.5225466300333,4,1,0,100,0,0
117629,-79.0832042300024,4,1,0,100,0,0
117722,-78.6487515297182,4,1,0,100,0,0
117816,-78.2189849991631,4,1,0,100,0,0
117909,-77.7939502756629,4,1,0,100,0,0
118002,-77.3735097862015,4,1,0,100,0,0
118095,-76.9575302173742,4,1,0,100,0,0
118840,-71.4285714285714,4,1,0,100,0,1
124990,-71.4285714285714,4,1,0,100,0,0
125036,-50,4,1,0,20,0,0
126294,-83.3333333333333,4,1,0,20,0,0
126620,-90.9090909090909,4,1,0,15,0,0
127785,-100,4,1,0,15,0,0
128111,-100,4,1,0,10,0,0
129275,-100,4,1,0,10,0,0

[HitObjects]
256,192,1077,5,4,0:0:0:0:
256,192,1636,1,0,0:0:0:0:
256,192,1822,1,8,0:0:0:0:
256,192,2101,1,8,0:0:0:0:
256,192,2381,1,4,0:0:0:0:
256,192,3313,1,8,0:0:0:0:
256,192,3592,1,8,0:0:0:0:
256,192,3872,1,8,0:0:0:0:
256,192,4058,1,4,0:0:0:0:
256,192,4617,1,0,0:0:0:0:
256,192,4803,1,8,0:0:0:0:
256,192,5083,1,8,0:0:0:0:
256,192,5362,1,4,0:0:0:0:
256,192,5735,1,0,0:0:0:0:
256,192,6014,1,0,0:0:0:0:
256,192,6294,1,8,0:0:0:0:
256,192,6573,1,8,0:0:0:0:
256,192,6853,1,8,0:0:0:0:
256,192,7039,1,4,0:0:0:0:
256,192,7598,1,0,0:0:0:0:
256,192,7785,1,8,0:0:0:0:
256,192,8064,1,8,0:0:0:0:
256,192,8344,1,4,0:0:0:0:
256,192,9275,1,8,0:0:0:0:
256,192,9555,1,8,0:0:0:0:
256,192,9834,1,8,0:0:0:0:
256,192,10021,1,4,0:0:0:0:
256,192,10580,1,0,0:0:0:0:
256,192,10766,1,8,0:0:0:0:
256,192,11045,1,8,0:0:0:0:
256,192,11325,1,4,0:0:0:0:
256,192,11698,1,0,0:0:0:0:
256,192,13002,1,4,0:0:0:0:
256,192,13188,1,8,0:0:0:0:
256,192,13375,1,0,0:0:0:0:
256,192,13561,1,0,0:0:0:0:
256,192,13654,1,0,0:0:0:0:
256,192,13747,1,8,0:0:0:0:
256,192,13934,1,8,0:0:0:0:
256,192,14120,1,0,0:0:0:0:
256,192,14306,1,0,0:0:0:0:
256,192,14399,1,0,0:0:0:0:
256,192,14493,1,8,0:0:0:0:
256,192,14679,1,8,0:0:0:0:
256,192,14865,1,0,0:0:0:0:
256,192,15052,1,0,0:0:0:0:
256,192,15145,1,0,0:0:0:0:
256,192,15238,1,8,0:0:0:0:
256,192,15331,1,0,0:0:0:0:
256,192,15517,1,0,0:0:0:0:
256,192,15611,1,8,0:0:0:0:
256,192,15983,1,8,0:0:0:0:
256,192,16170,1,0,0:0:0:0:
256,192,16356,1,8,0:0:0:0:
256,192,16542,1,8,0:0:0:0:
256,192,16636,1,8,0:0:0:0:
256,192,16729,1,0,0:0:0:0:
256,192,16915,1,8,0:0:0:0:
256,192,17101,1,0,0:0:0:0:
256,192,17288,1,8,0:0:0:0:
256,192,17381,1,8,0:0:0:0:
256,192,17474,1,0,0:0:0:0:
256,192,17567,1,8,0:0:0:0:
256,192,17754,1,0,0:0:0:0:
256,192,17940,1,0,0:0:0:0:
256,192,18033,1,8,0:0:0:0:
256,192,18126,1,8,0:0:0:0:
256,192,18219,1,0,0:0:0:0:
256,192,18406,1,0,0:0:0:0:
256,192,18499,1,0,0:0:0:0:
256,192,18592,1,0,0:0:0:0:
256,192,18965,1,8,0:0:0:0:
256,192,19151,1,0,0:0:0:0:
256,192,19337,1,8,0:0:0:0:
256,192,19431,1,8,0:0:0:0:
256,192,19524,1,0,0:0:0:0:
256,192,19617,1,0,0:0:0:0:
256,192,19710,1,8,0:0:0:0:
256,192,19896,1,8,0:0:0:0:
256,192,20083,1,0,0:0:0:0:
256,192,20176,1,0,0:0:0:0:
256,192,20269,1,8,0:0:0:0:
256,192,20362,1,8,0:0:0:0:
256,192,20455,1,0,0:0:0:0:
256,192,20642,1,8,0:0:0:0:
256,192,20735,1,8,0:0:0:0:
256,192,20828,1,0,0:0:0:0:
256,192,21014,1,8,0:0:0:0:
256,192,21108,1,0,0:0:0:0:
256,192,21201,1,0,0:0:0:0:
256,192,21387,1,0,0:0:0:0:
256,192,21480,1,8,0:0:0:0:
256,192,21573,1,0,0:0:0:0:
256,192,21760,1,8,0:0:0:0:
256,192,21946,1,0,0:0:0:0:
256,192,22039,1,8,0:0:0:0:
256,192,22132,1,0,0:0:0:0:
256,192,22226,1,0,0:0:0:0:
256,192,22319,1,8,0:0:0:0:
256,192,22505,1,0,0:0:0:0:
256,192,22691,1,8,0:0:0:0:
256,192,22785,1,0,0:0:0:0:
256,192,22878,1,8,0:0:0:0:
256,192,22971,1,8,0:0:0:0:
256,192,23064,1,0,0:0:0:0:
256,192,23250,1,8,0:0:0:0:
256,192,23437,1,0,0:0:0:0:
256,192,24927,1,0,0:0:0:0:
256,192,26418,1,4,0:0:0:0:
256,192,26791,1,8,0:0:0:0:
256,192,26977,1,0,0:0:0:0:
256,192,27070,1,0,0:0:0:0:
256,192,27163,1,8,0:0:0:0:
256,192,27350,1,0,0:0:0:0:
256,192,27536,1,8,0:0:0:0:
256,192,27629,1,8,0:0:0:0:
256,192,27722,1,0,0:0:0:0:
256,192,27909,1,8,0:0:0:0:
256,192,28188,1,0,0:0:0:0:
256,192,28281,1,8,0:0:0:0:
256,192,28468,1,0,0:0:0:0:
256,192,28654,1,8,0:0:0:0:
256,192,28747,1,0,0:0:0:0:
256,192,28840,1,8,0:0:0:0:
256,192,29027,1,0,0:0:0:0:
256,192,29213,1,0,0:0:0:0:
256,192,29399,1,0,0:0:0:0:
256,192,29772,1,0,0:0:0:0:
256,192,29958,1,8,0:0:0:0:
256,192,30052,1,8,0:0:0:0:
256,192,30145,1,0,0:0:0:0:
256,192,30331,1,8,0:0:0:0:
256,192,30517,1,0,0:0:0:0:
256,192,30611,1,8,0:0:0:0:
256,192,30797,1,8,0:0:0:0:
256,192,30890,1,0,0:0:0:0:
256,192,31076,1,8,0:0:0:0:
256,192,31170,1,0,0:0:0:0:
256,192,31263,1,8,0:0:0:0:
256,192,31449,1,8,0:0:0:0:
256,192,31636,1,0,0:0:0:0:
256,192,31729,1,0,0:0:0:0:
256,192,31915,1,0,0:0:0:0:
256,192,32195,1,0,0:0:0:0:
256,192,32474,1,0,0:0:0:0:
256,192,32660,1,0,0:0:0:0:
256,192,32754,1,8,0:0:0:0:
256,192,33033,1,0,0:0:0:0:
256,192,33126,1,0,0:0:0:0:
256,192,33313,1,8,0:0:0:0:
256,192,33499,1,8,0:0:0:0:
256,192,33592,1,0,0:0:0:0:
256,192,33685,1,0,0:0:0:0:
256,192,33778,1,0,0:0:0:0:
256,192,34244,1,0,0:0:0:0:
256,192,34524,1,8,0:0:0:0:
256,192,34617,1,0,0:0:0:0:
256,192,34803,1,0,0:0:0:0:
256,192,34990,1,0,0:0:0:0:
256,192,35083,1,0,0:0:0:0:
256,192,35269,1,0,0:0:0:0:
256,192,35362,1,0,0:0:0:0:
256,192,35549,1,8,0:0:0:0:
256,192,35642,1,0,0:0:0:0:
256,192,35921,1,0,0:0:0:0:
256,192,36014,1,0,0:0:0:0:
256,192,36108,1,0,0:0:0:0:
256,192,36294,1,8,0:0:0:0:
256,192,36387,1,0,0:0:0:0:
256,192,36573,1,0,0:0:0:0:
256,192,36667,1,0,0:0:0:0:
256,192,36853,1,8,0:0:0:0:
256,192,37039,1,8,0:0:0:0:
256,192,37319,1,8,0:0:0:0:
256,192,37598,1,0,0:0:0:0:
256,192,37971,1,0,0:0:0:0:
256,192,38064,1,0,0:0:0:0:
256,192,38157,1,0,0:0:0:0:
256,192,38250,1,0,0:0:0:0:
256,192,38344,1,12,0:0:0:0:
256,192,38623,1,0,0:0:0:0:
256,192,38809,1,0,0:0:0:0:
256,192,38903,1,0,0:0:0:0:
256,192,39182,1,0,0:0:0:0:
256,192,39275,1,8,0:0:0:0:
256,192,39462,1,0,0:0:0:0:
256,192,39555,1,8,0:0:0:0:
256,192,39648,1,0,0:0:0:0:
256,192,39741,1,0,0:0:0:0:
256,192,39927,1,0,0:0:0:0:
256,192,40114,1,0,0:0:0:0:
256,192,40300,1,8,0:0:0:0:
256,192,40393,1,0,0:0:0:0:
256,192,40486,1,0,0:0:0:0:
256,192,40673,1,0,0:0:0:0:
256,192,40766,1,0,0:0:0:0:
256,192,40952,1,8,0:0:0:0:
256,192,41045,1,0,0:0:0:0:
256,192,41232,1,0,0:0:0:0:
256,192,41418,1,8,0:0:0:0:
256,192,41604,1,0,0:0:0:0:
256,192,41884,1,0,0:0:0:0:
256,192,42163,1,0,0:0:0:0:
256,192,42257,1,8,0:0:0:0:
256,192,42443,1,0,0:0:0:0:
256,192,42536,1,8,0:0:0:0:
256,192,42629,1,8,0:0:0:0:
256,192,42722,1,0,0:0:0:0:
256,192,42909,1,0,0:0:0:0:
256,192,43188,1,0,0:0:0:0:
256,192,43281,1,8,0:0:0:0:
256,192,43468,1,0,0:0:0:0:
256,192,43561,1,8,0:0:0:0:
256,192,43747,1,0,0:0:0:0:
256,192,44027,1,0,0:0:0:0:
256,192,44120,1,0,0:0:0:0:
256,192,44213,1,0,0:0:0:0:
256,192,44306,1,12,0:0:0:0:
256,192,44586,1,0,0:0:0:0:
256,192,44772,1,0,0:0:0:0:
256,192,44865,1,8,0:0:0:0:
256,192,45238,1,8,0:0:0:0:
256,192,45424,1,8,0:0:0:0:
256,192,45517,1,8,0:0:0:0:
256,192,45611,1,0,0:0:0:0:
256,192,45704,1,0,0:0:0:0:
256,192,45890,1,0,0:0:0:0:
256,192,46076,1,8,0:0:0:0:
256,192,46356,1,0,0:0:0:0:
256,192,46449,1,0,0:0:0:0:
256,192,46636,1,0,0:0:0:0:
256,192,46729,1,8,0:0:0:0:
256,192,46915,1,0,0:0:0:0:
256,192,47008,1,0,0:0:0:0:
256,192,47288,1,8,0:0:0:0:
256,192,47381,1,8,0:0:0:0:
256,192,47474,1,8,0:0:0:0:
256,192,47660,1,0,0:0:0:0:
256,192,47847,1,8,0:0:0:0:
256,192,48033,1,8,0:0:0:0:
256,192,48126,1,8,0:0:0:0:
256,192,48219,1,8,0:0:0:0:
256,192,48406,1,0,0:0:0:0:
256,192,48592,1,8,0:0:0:0:
256,192,48778,1,8,0:0:0:0:
256,192,48872,1,0,0:0:0:0:
256,192,48965,1,0,0:0:0:0:
256,192,49058,1,8,0:0:0:0:
256,192,49244,1,0,0:0:0:0:
256,192,49337,1,8,0:0:0:0:
256,192,49524,1,0,0:0:0:0:
256,192,49772,1,8,0:0:0:0:
256,192,49896,1,0,0:0:0:0:
256,192,50269,1,8,0:0:0:0:
256,192,50455,1,0,0:0:0:0:
256,192,50549,1,8,0:0:0:0:
256,192,50735,1,0,0:0:0:0:
256,192,50921,1,0,0:0:0:0:
256,192,51014,1,8,0:0:0:0:
256,192,51201,1,0,0:0:0:0:
256,192,51294,1,8,0:0:0:0:
256,192,51480,1,0,0:0:0:0:
256,192,51667,1,0,0:0:0:0:
256,192,51760,1,8,0:0:0:0:
256,192,51946,1,0,0:0:0:0:
256,192,52039,1,8,0:0:0:0:
256,192,52226,1,0,0:0:0:0:
256,192,52319,1,8,0:0:0:0:
256,192,52505,1,0,0:0:0:0:
256,192,52598,1,8,0:0:0:0:
256,192,52691,1,0,0:0:0:0:
256,192,52785,1,0,0:0:0:0:
256,192,52878,1,8,0:0:0:0:
256,192,53250,1,0,0:0:0:0:
256,192,53437,1,8,0:0:0:0:
256,192,53530,1,0,0:0:0:0:
256,192,53716,1,8,0:0:0:0:
256,192,53903,1,8,0:0:0:0:
256,192,53996,1,0,0:0:0:0:
256,192,54182,1,8,0:0:0:0:
256,192,54275,1,0,0:0:0:0:
256,192,54462,1,8,0:0:0:0:
256,192,54648,1,8,0:0:0:0:
256,192,54741,1,0,0:0:0:0:
256,192,54927,1,8,0:0:0:0:
256,192,55021,1,0,0:0:0:0:
256,192,55207,1,8,0:0:0:0:
256,192,55300,1,0,0:0:0:0:
256,192,55486,1,8,0:0:0:0:
256,192,55580,1,0,0:0:0:0:
256,192,55766,1,8,0:0:0:0:
256,192,55859,1,0,0:0:0:0:
256,192,56045,1,8,0:0:0:0:
256,192,56139,1,8,0:0:0:0:
256,192,56232,1,0,0:0:0:0:
256,192,57722,1,4,0:0:0:0:
256,192,69648,5,4,0:0:0:0:
256,192,69834,1,8,0:0:0:0:
256,192,70021,1,0,0:0:0:0:
256,192,70207,1,0,0:0:0:0:
256,192,70300,1,0,0:0:0:0:
256,192,70393,1,8,0:0:0:0:
256,192,70580,1,8,0:0:0:0:
256,192,70766,1,0,0:0:0:0:
256,192,70952,1,0,0:0:0:0:
256,192,71045,1,0,0:0:0:0:
256,192,71139,1,8,0:0:0:0:
256,192,71325,1,8,0:0:0:0:
256,192,71511,1,0,0:0:0:0:
256,192,71698,1,0,0:0:0:0:
256,192,71791,1,0,0:0:0:0:
256,192,71884,1,8,0:0:0:0:
256,192,71977,1,0,0:0:0:0:
256,192,72163,1,0,0:0:0:0:
256,192,72257,1,8,0:0:0:0:
256,192,72629,1,8,0:0:0:0:
256,192,72816,1,0,0:0:0:0:
256,192,73002,1,8,0:0:0:0:
256,192,73188,1,8,0:0:0:0:
256,192,73282,1,8,0:0:0:0:
256,192,73375,1,0,0:0:0:0:
256,192,73561,1,8,0:0:0:0:
256,192,73747,1,0,0:0:0:0:
256,192,73934,1,8,0:0:0:0:
256,192,74027,1,8,0:0:0:0:
256,192,74120,1,0,0:0:0:0:
256,192,74213,1,8,0:0:0:0:
256,192,74400,1,0,0:0:0:0:
256,192,74586,1,0,0:0:0:0:
256,192,74679,1,8,0:0:0:0:
256,192,74772,1,8,0:0:0:0:
256,192,74865,1,0,0:0:0:0:
256,192,75052,1,0,0:0:0:0:
256,192,75145,1,0,0:0:0:0:
256,192,75238,1,0,0:0:0:0:
256,192,75611,1,12,0:0:0:0:
256,192,75797,1,0,0:0:0:0:
256,192,75983,1,8,0:0:0:0:
256,192,76077,1,8,0:0:0:0:
256,192,76170,1,0,0:0:0:0:
256,192,76263,1,0,0:0:0:0:
256,192,76356,1,8,0:0:0:0:
256,192,76542,1,8,0:0:0:0:
256,192,76729,1,0,0:0:0:0:
256,192,76822,1,0,0:0:0:0:
256,192,76915,1,8,0:0:0:0:
256,192,77008,1,8,0:0:0:0:
256,192,77101,1,0,0:0:0:0:
256,192,77288,1,8,0:0:0:0:
256,192,77381,1,8,0:0:0:0:
256,192,77474,1,0,0:0:0:0:
256,192,77660,1,8,0:0:0:0:
256,192,77754,1,0,0:0:0:0:
256,192,77847,1,0,0:0:0:0:
256,192,78033,1,0,0:0:0:0:
256,192,78126,1,8,0:0:0:0:
256,192,78219,1,0,0:0:0:0:
256,192,78406,1,8,0:0:0:0:
256,192,78592,1,0,0:0:0:0:
256,192,78685,1,8,0:0:0:0:
256,192,78778,1,0,0:0:0:0:
256,192,78872,1,0,0:0:0:0:
256,192,78965,1,8,0:0:0:0:
256,192,79151,1,0,0:0:0:0:
256,192,79337,1,8,0:0:0:0:
256,192,79431,1,0,0:0:0:0:
256,192,79524,1,8,0:0:0:0:
256,192,79617,1,8,0:0:0:0:
256,192,79710,1,0,0:0:0:0:
256,192,79896,1,8,0:0:0:0:
256,192,80083,1,0,0:0:0:0:
256,192,81573,1,0,0:0:0:0:
256,192,81760,1,0,0:0:0:0:
256,192,81853,1,8,0:0:0:0:
256,192,82132,1,8,0:0:0:0:
256,192,82319,1,0,0:0:0:0:
256,192,82505,1,0,0:0:0:0:
256,192,82598,1,0,0:0:0:0:
256,192,82691,1,8,0:0:0:0:
256,192,83064,1,4,0:0:0:0:
256,192,83250,1,8,0:0:0:0:
256,192,83344,1,0,0:0:0:0:
256,192,83530,1,0,0:0:0:0:
256,192,83716,1,8,0:0:0:0:
256,192,83903,1,0,0:0:0:0:
256,192,83996,1,8,0:0:0:0:
256,192,84275,1,0,0:0:0:0:
256,192,84368,1,8,0:0:0:0:
256,192,84462,1,8,0:0:0:0:
256,192,84555,1,0,0:0:0:0:
256,192,84741,1,0,0:0:0:0:
256,192,84834,1,8,0:0:0:0:
256,192,85021,1,0,0:0:0:0:
256,192,85207,1,8,0:0:0:0:
256,192,85393,1,8,0:0:0:0:
256,192,85486,1,0,0:0:0:0:
256,192,85580,1,0,0:0:0:0:
256,192,85673,1,8,0:0:0:0:
256,192,85859,1,8,0:0:0:0:
256,192,86045,1,0,0:0:0:0:
256,192,86232,1,0,0:0:0:0:
256,192,86325,1,0,0:0:0:0:
256,192,86511,1,8,0:0:0:0:
256,192,86698,1,0,0:0:0:0:
256,192,86884,1,0,0:0:0:0:
256,192,86977,1,8,0:0:0:0:
256,192,87070,1,8,0:0:0:0:
256,192,87257,1,8,0:0:0:0:
256,192,87350,1,0,0:0:0:0:
256,192,87443,1,0,0:0:0:0:
256,192,87536,1,8,0:0:0:0:
256,192,87816,1,0,0:0:0:0:
256,192,87909,1,8,0:0:0:0:
256,192,88095,1,8,0:0:0:0:
256,192,88281,1,0,0:0:0:0:
256,192,88375,1,0,0:0:0:0:
256,192,88561,1,0,0:0:0:0:
256,192,88747,1,0,0:0:0:0:
256,192,88840,1,8,0:0:0:0:
256,192,89027,1,0,0:0:0:0:
256,192,89213,1,0,0:0:0:0:
256,192,89399,1,0,0:0:0:0:
256,192,89679,1,8,0:0:0:0:
256,192,89865,1,0,0:0:0:0:
256,192,89958,1,0,0:0:0:0:
256,192,90238,1,0,0:0:0:0:
256,192,90331,1,8,0:0:0:0:
256,192,90424,1,8,0:0:0:0:
256,192,90517,1,0,0:0:0:0:
256,192,90704,1,8,0:0:0:0:
256,192,90797,1,0,0:0:0:0:
256,192,90983,1,0,0:0:0:0:
256,192,91170,1,8,0:0:0:0:
256,192,91356,1,8,0:0:0:0:
256,192,91449,1,0,0:0:0:0:
256,192,91542,1,0,0:0:0:0:
256,192,91636,1,8,0:0:0:0:
256,192,91915,1,0,0:0:0:0:
256,192,92008,1,0,0:0:0:0:
256,192,92101,1,0,0:0:0:0:
256,192,92288,1,0,0:0:0:0:
256,192,92381,1,0,0:0:0:0:
256,192,92567,1,0,0:0:0:0:
256,192,93499,1,8,0:0:0:0:
256,192,93685,1,8,0:0:0:0:
256,192,93778,1,8,0:0:0:0:
256,192,93965,1,8,0:0:0:0:
256,192,94244,1,8,0:0:0:0:
256,192,94431,1,8,0:0:0:0:
256,192,94524,1,8,0:0:0:0:
256,192,94710,1,8,0:0:0:0:
256,192,94803,1,8,0:0:0:0:
256,192,94896,1,8,0:0:0:0:
256,192,95362,1,4,0:0:0:0:
256,192,95642,1,8,0:0:0:0:
256,192,95828,1,0,0:0:0:0:
256,192,95921,1,8,0:0:0:0:
256,192,96201,1,0,0:0:0:0:
256,192,96387,1,0,0:0:0:0:
256,192,96480,1,8,0:0:0:0:
256,192,96667,1,8,0:0:0:0:
256,192,96760,1,0,0:0:0:0:
256,192,96946,1,0,0:0:0:0:
256,192,97132,1,8,0:0:0:0:
256,192,97319,1,8,0:0:0:0:
256,192,97412,1,8,0:0:0:0:
256,192,97505,1,8,0:0:0:0:
256,192,97598,1,0,0:0:0:0:
256,192,97785,1,0,0:0:0:0:
256,192,97878,1,8,0:0:0:0:
256,192,97971,1,0,0:0:0:0:
256,192,98157,1,8,0:0:0:0:
256,192,98250,1,0,0:0:0:0:
256,192,98437,1,0,0:0:0:0:
256,192,98623,1,8,0:0:0:0:
256,192,98809,1,0,0:0:0:0:
256,192,98903,1,8,0:0:0:0:
256,192,98996,1,8,0:0:0:0:
256,192,99182,1,8,0:0:0:0:
256,192,99275,1,0,0:0:0:0:
256,192,99368,1,0,0:0:0:0:
256,192,99462,1,8,0:0:0:0:
256,192,99648,1,0,0:0:0:0:
256,192,99834,1,8,0:0:0:0:
256,192,99927,1,0,0:0:0:0:
256,192,100207,1,0,0:0:0:0:
256,192,100300,1,0,0:0:0:0:
256,192,100486,1,0,0:0:0:0:
256,192,100580,1,8,0:0:0:0:
256,192,100766,1,0,0:0:0:0:
256,192,100952,1,8,0:0:0:0:
256,192,101045,1,8,0:0:0:0:
256,192,101139,1,0,0:0:0:0:
256,192,101232,1,0,0:0:0:0:
256,192,101325,1,8,0:0:0:0:
256,192,101511,1,0,0:0:0:0:
256,192,101698,1,8,0:0:0:0:
256,192,101791,1,8,0:0:0:0:
256,192,101977,1,8,0:0:0:0:
256,192,102070,1,0,0:0:0:0:
256,192,102443,1,8,0:0:0:0:
256,192,102536,1,8,0:0:0:0:
256,192,102629,1,0,0:0:0:0:
256,192,102722,1,8,0:0:0:0:
256,192,102816,1,0,0:0:0:0:
256,192,103002,1,0,0:0:0:0:
256,192,103188,1,8,0:0:0:0:
256,192,103281,1,8,0:0:0:0:
256,192,103468,1,8,0:0:0:0:
256,192,103561,1,0,0:0:0:0:
256,192,103934,1,8,0:0:0:0:
256,192,104027,1,8,0:0:0:0:
256,192,104120,1,0,0:0:0:0:
256,192,104213,1,8,0:0:0:0:
256,192,104399,1,0,0:0:0:0:
256,192,104493,1,8,0:0:0:0:
256,192,104679,1,8,0:0:0:0:
256,192,104772,1,0,0:0:0:0:
256,192,104865,1,0,0:0:0:0:
256,192,104958,1,8,0:0:0:0:
256,192,105145,1,0,0:0:0:0:
256,192,105238,1,8,0:0:0:0:
256,192,105331,1,0,0:0:0:0:
256,192,105424,1,8,0:0:0:0:
256,192,105517,1,8,0:0:0:0:
256,192,105704,1,8,0:0:0:0:
256,192,105890,1,0,0:0:0:0:
256,192,105983,1,0,0:0:0:0:
256,192,106076,1,8,0:0:0:0:
256,192,106170,1,0,0:0:0:0:
256,192,106915,1,4,0:0:0:0:
256,192,107288,1,0,0:0:0:0:
256,192,107474,1,8,0:0:0:0:
256,192,107660,1,0,0:0:0:0:
256,192,107940,1,8,0:0:0:0:
256,192,108033,1,0,0:0:0:0:
256,192,108219,1,8,0:0:0:0:
256,192,108406,1,0,0:0:0:0:
256,192,108778,1,0,0:0:0:0:
256,192,108965,1,8,0:0:0:0:
256,192,109151,1,0,0:0:0:0:
256,192,109431,1,0,0:0:0:0:
256,192,109524,1,8,0:0:0:0:
256,192,109710,1,0,0:0:0:0:
256,192,109896,1,0,0:0:0:0:
256,192,110269,1,0,0:0:0:0:
256,192,110455,1,8,0:0:0:0:
256,192,110642,1,0,0:0:0:0:
256,192,110921,1,8,0:0:0:0:
256,192,111014,1,0,0:0:0:0:
256,192,111201,1,8,0:0:0:0:
256,192,111387,1,0,0:0:0:0:
256,192,111573,1,0,0:0:0:0:
256,192,111667,1,8,0:0:0:0:
256,192,111760,1,8,0:0:0:0:
256,192,111853,1,0,0:0:0:0:
256,192,112039,1,0,0:0:0:0:
256,192,112226,1,0,0:0:0:0:
256,192,112319,1,0,0:0:0:0:
256,192,112505,1,0,0:0:0:0:
256,192,112691,1,0,0:0:0:0:
256,192,112971,1,0,0:0:0:0:
256,192,113157,1,0,0:0:0:0:
256,192,113250,1,8,0:0:0:0:
256,192,113437,1,8,0:0:0:0:
256,192,113623,1,0,0:0:0:0:
256,192,113903,1,8,0:0:0:0:
256,192,113996,1,0,0:0:0:0:
256,192,114182,1,0,0:0:0:0:
256,192,114275,1,0,0:0:0:0:
256,192,114368,1,0,0:0:0:0:
256,192,114555,1,0,0:0:0:0:
256,192,114741,1,0,0:0:0:0:
256,192,114927,1,8,0:0:0:0:
256,192,115114,1,0,0:0:0:0:
256,192,115393,1,0,0:0:0:0:
256,192,115580,1,0,0:0:0:0:
256,192,115673,1,0,0:0:0:0:
256,192,115859,1,8,0:0:0:0:
256,192,116045,1,8,0:0:0:0:
256,192,116139,1,8,0:0:0:0:
256,192,116325,1,8,0:0:0:0:
256,192,116511,1,8,0:0:0:0:
256,192,116604,1,8,0:0:0:0:
256,192,116791,1,8,0:0:0:0:
256,192,116884,1,8,0:0:0:0:
256,192,117070,1,8,0:0:0:0:
256,192,117163,1,8,0:0:0:0:
256,192,117257,1,8,0:0:0:0:
256,192,117350,1,0,0:0:0:0:
256,192,117536,1,8,0:0:0:0:
256,192,117722,1,0,0:0:0:0:
256,192,117816,1,0,0:0:0:0:
256,192,117909,1,8,0:0:0:0:
256,192,118002,1,8,0:0:0:0:
256,192,118095,1,0,0:0:0:0:
256,192,118840,1,8,0:0:0:0:
256,192,119027,1,0,0:0:0:0:
256,192,119120,1,8,0:0:0:0:
256,192,119306,1,0,0:0:0:0:
256,192,119493,1,0,0:0:0:0:
256,192,119586,1,8,0:0:0:0:
256,192,119772,1,0,0:0:0:0:
256,192,119865,1,8,0:0:0:0:
256,192,120052,1,0,0:0:0:0:
256,192,120238,1,0,0:0:0:0:
256,192,120331,1,8,0:0:0:0:
256,192,120517,1,0,0:0:0:0:
256,192,120611,1,8,0:0:0:0:
256,192,120797,1,0,0:0:0:0:
256,192,120890,1,8,0:0:0:0:
256,192,121076,1,0,0:0:0:0:
256,192,121170,1,8,0:0:0:0:
256,192,121263,1,0,0:0:0:0:
256,192,121356,1,0,0:0:0:0:
256,192,121449,1,8,0:0:0:0:
256,192,121822,1,0,0:0:0:0:
256,192,122008,1,8,0:0:0:0:
256,192,122101,1,0,0:0:0:0:
256,192,122288,1,8,0:0:0:0:
256,192,122474,1,8,0:0:0:0:
256,192,122567,1,0,0:0:0:0:
256,192,122754,1,8,0:0:0:0:
256,192,122847,1,0,0:0:0:0:
256,192,123033,1,8,0:0:0:0:
256,192,123219,1,8,0:0:0:0:
256,192,123313,1,0,0:0:0:0:
256,192,123499,1,8,0:0:0:0:
256,192,123592,1,0,0:0:0:0:
256,192,123778,1,8,0:0:0:0:
256,192,123872,1,0,0:0:0:0:
256,192,124058,1,8,0:0:0:0:
256,192,124151,1,0,0:0:0:0:
256,192,124337,1,0,0:0:0:0:
256,192,124431,1,8,0:0:0:0:
256,192,124617,1,8,0:0:0:0:
256,192,124710,1,8,0:0:0:0:
256,192,124803,1,0,0:0:0:0:
256,192,124990,1,4,0:0:0:0:
256,192,125083,12,0,129275,0:0:0:0:
