osu file format v14

[General]
AudioFilename: Camellia - Drumstep4 (The project file of this song was deleted X[ ).mp3
AudioLeadIn: 1500
PreviewTime: 52200
Countdown: 0
SampleSet: Soft
StackLeniency: 0.7
Mode: 0
LetterboxInBreaks: 0
WidescreenStoryboard: 0

[Editor]
Bookmarks: 67,10501,20936,31371,41806,52240,62675,63001,73110,83545,93980,104414,104740,114849
DistanceSpacing: 1.1
BeatDivisor: 4
GridSize: 4
TimelineZoom: 2.799999

[Metadata]
Title:Drumstep4 (The project file of this song was deleted X[ )
TitleUnicode:Drumstep4 (The project file of this song was deleted X[ )
Artist:Camellia
ArtistUnicode:かめりあ
Creator:Krimek
Version:Hyper
Source:
Tags:masaya oya cametek drumstep Farewell
BeatmapID:775604
BeatmapSetID:351593

[Difficulty]
HPDrainRate:6
CircleSize:4
OverallDifficulty:6.5
ApproachRate:7.8
SliderMultiplier:1.6
SliderTickRate:1

[Events]
//Background and Video events
0,0,"background.jpg",0,0
//Break Periods
//Storyboard Layer 0 (Background)
//Storyboard Layer 1 (Fail)
//Storyboard Layer 2 (Pass)
//Storyboard Layer 3 (Foreground)
//Storyboard Sound Samples

[TimingPoints]
67,326.086956521739,4,2,0,45,1,0
31371,-100,4,2,0,55,0,0
52240,-100,4,2,0,65,0,1
62675,-100,4,2,0,65,0,0
63001,-100,4,2,0,65,0,1
73110,-100,4,2,0,55,0,0
93980,-100,4,2,0,65,0,1
94306,-100,4,2,0,65,0,0
96588,-100,4,2,0,65,0,1
96914,-100,4,2,0,65,0,0
99197,-100,4,2,0,65,0,1
99523,-100,4,2,0,65,0,0
101806,-100,4,2,0,65,0,1
102132,-100,4,2,0,65,0,0
104414,-100,4,2,0,65,0,0
104740,-100,4,2,0,65,0,1
105066,-100,4,2,0,65,0,0
107023,-100,4,2,0,65,0,1
107349,-100,4,2,0,65,0,0
109632,-100,4,2,0,65,0,1
109958,-100,4,2,0,65,0,0
112240,-100,4,2,0,65,0,1
112566,-100,4,2,0,65,0,0
114849,-100,4,2,0,55,0,0
116153,-100,4,2,0,45,0,0
116480,-100,4,2,0,35,0,0
116806,-100,4,2,0,25,0,0
117132,-100,4,2,0,15,0,0
117458,-100,4,2,0,5,0,0

[Colours]
Combo1 : 185,119,187
Combo2 : 66,227,240
Combo3 : 38,107,176
Combo4 : 58,64,126

[HitObjects]
80,92,67,6,0,B|184:112|184:112|236:96,2,160
116,172,882,1,0,0:0:0:0:
116,172,1045,2,0,P|120:211|107:251,1,80
56,320,1371,6,0,P|129:290|208:297,1,160
379,343,2023,2,0,P|366:306|369:266,1,80
440,216,2349,2,0,P|453:178|450:138,1,80
404,64,2675,6,0,B|384:96|336:100|336:100|288:96|264:64,2,160
492,60,3490,1,0,0:0:0:0:
450,138,3653,2,0,P|437:176|440:216,1,80
464,300,3980,6,0,B|408:296|408:296|364:308|364:308|304:304,1,160
148,228,4632,2,0,L|134:306,1,80
220,284,4958,2,0,L|233:205,1,80
248,120,5284,6,0,P|199:60|124:74,2,160
233,205,6099,1,0,0:0:0:0:
233,205,6181,1,0,0:0:0:0:
233,205,6262,2,0,P|229:244|245:280,1,80
328,312,6588,6,0,B|381:307|381:307|436:316|436:316|488:312,1,160
456,140,7240,6,0,L|464:92,2,40
439,227,7566,2,0,P|409:202|370:194,1,80
284,216,7893,6,0,L|304:48,2,160
268,304,8708,1,0,0:0:0:0:
180,288,8871,2,0,L|189:367,1,80
108,340,9197,6,0,L|60:332,2,40
180,288,9523,2,0,L|228:280,2,40
135,211,9849,6,0,P|123:174|129:134,1,80
156,52,10175,2,0,P|182:22|219:7,1,80
308,4,10501,6,0,B|360:0|403:28|412:56|412:56|376:64|360:44,1,160
296,92,10990,1,0,0:0:0:0:
368,140,11153,2,0,P|387:174|390:214,1,80
324,276,11480,2,0,P|304:241|301:201,1,80
396,328,11806,5,0,0:0:0:0:
396,328,11969,2,0,P|327:364|257:331,1,160
236,292,12376,2,0,P|232:312|224:330,1,40
52,324,12784,1,0,0:0:0:0:
92,248,12947,1,0,0:0:0:0:
132,172,13110,6,0,B|148:124|148:124|133:15,1,160
176,92,13599,1,0,0:0:0:0:
176,92,13762,2,0,P|248:108|316:60,1,160
464,152,14414,5,0,0:0:0:0:
488,76,14577,2,0,L|500:36,2,40
464,152,14903,2,0,L|475:190,1,40
488,228,15066,2,0,P|492:276|392:324,1,160
324,292,15556,1,0,0:0:0:0:
256,348,15719,6,0,P|180:322|102:334,1,160
24,292,16208,1,0,0:0:0:0:
100,248,16371,2,0,L|116:152,1,80
108,80,16697,2,0,P|141:101|180:108,1,80
268,88,17023,5,0,0:0:0:0:
268,88,17186,2,0,P|344:60|420:96,1,160
413,89,17594,1,0,0:0:0:0:
413,89,17675,2,0,P|400:128|399:167,1,80
440,244,18001,2,0,P|439:283|426:321,1,80
356,372,18327,5,0,0:0:0:0:
196,296,18653,2,0,P|197:257|210:218,1,80
281,164,18980,2,0,B|313:61|313:61|268:88,1,160
96,128,19632,5,0,0:0:0:0:
116,212,19795,2,0,P|108:250|80:278,1,80
128,352,20121,1,0,0:0:0:0:
128,352,20202,1,0,0:0:0:0:
128,352,20284,6,0,B|164:332|200:340|200:340|248:296|324:316|324:316|284:316|256:344,1,280
257,342,20936,6,0,L|232:224,1,120
208,96,21425,2,0,L|322:133,1,120
445,176,21914,1,0,0:0:0:0:
445,176,22240,6,0,P|393:181|349:229,1,120
320,356,22730,2,0,B|252:372|252:372|202:362,1,120
76,328,23219,1,0,0:0:0:0:
76,327,23545,6,0,P|100:272|96:212,1,120
32,100,24034,1,0,0:0:0:0:
112,60,24197,6,0,B|168:80|168:80|228:72,1,120
360,48,24686,1,0,0:0:0:0:
440,84,24849,6,0,L|428:216,1,120
416,336,25338,1,0,0:0:0:0:
344,288,25501,6,0,P|288:272|232:292,1,120
132,380,25990,1,0,0:0:0:0:
80,308,26153,6,0,P|71:269|75:229,1,80
136,164,26480,2,0,P|139:124|131:85,1,80
52,44,26806,5,0,0:0:0:0:
52,44,26969,1,0,0:0:0:0:
131,85,27132,1,0,0:0:0:0:
212,56,27295,1,0,0:0:0:0:
291,97,27458,6,0,P|330:101|367:87,1,80
456,92,27784,2,0,P|432:123|426:162,1,80
468,240,28110,5,0,0:0:0:0:
475,323,28273,1,0,0:0:0:0:
403,365,28436,1,0,0:0:0:0:
334,318,28599,1,0,0:0:0:0:
252,288,28762,6,0,P|232:284|204:288,3,40
172,304,29088,2,0,P|152:305|132:301,3,40
96,276,29414,6,0,P|80:263|69:246,3,40
56,204,29740,2,0,P|54:184|58:164,3,40
80,128,30066,5,0,0:0:0:0:
432,128,31371,6,0,B|444:92|480:80|480:80|480:132|424:184|424:184|480:228|456:296,1,280
452,300,32023,6,0,L|464:344,2,40
364,284,32349,2,0,L|374:322,2,40
275,267,32675,6,0,P|236:265|200:283,1,80
132,336,33001,2,0,P|96:353|56:351,1,80
8,276,33327,2,0,B|0:180|0:180|28:122,1,160
68,44,33816,1,0,0:0:0:0:
144,88,33980,6,0,P|163:91|183:89,3,40
224,68,34306,2,0,P|243:65|263:69,3,40
300,92,34632,2,0,P|376:108|428:48,1,160
426,52,35039,1,0,0:0:0:0:
426,52,35121,2,0,L|431:92,1,40
464,124,35284,6,0,B|470:168|470:168|440:236|440:236|444:280,1,160
456,364,35773,1,0,0:0:0:0:
376,328,35936,2,0,B|336:328|312:312|312:312|272:368|204:368|168:336|168:336|200:344|232:336,1,280
216,338,36588,6,0,P|200:266|125:260,1,160
112,278,36996,1,0,0:0:0:0:
100,296,37078,1,0,0:0:0:0:
87,314,37159,1,0,0:0:0:0:
76,332,37240,6,0,L|91:368,2,40
40,252,37566,2,0,L|0:247,2,40
126,259,37893,6,0,L|149:226,2,40
216,276,38219,2,0,L|263:211,1,80
263,211,38463,1,0,0:0:0:0:
263,211,38545,2,0,P|288:232|340:240,1,80
420,232,38871,2,0,P|450:220|482:179,1,80
504,99,39197,6,0,P|497:41|452:3,1,120
412,24,39523,2,0,L|292:32,1,120
248,20,39849,2,0,B|216:72|216:72|144:88,1,120
116,72,40175,2,0,P|59:84|32:136,1,120
44,180,40501,6,0,L|38:219,2,40
124,220,40827,2,0,L|135:258,2,40
196,168,41153,6,0,P|216:164|236:164,3,40
276,180,41480,2,0,P|295:179|315:175,3,40
352,152,41806,6,0,B|380:112|428:112|472:128|480:172|484:220|433:249|433:249|456:296,1,280
450,285,42458,6,0,P|412:274|374:286,1,80
307,344,42784,2,0,P|270:354|231:344,1,80
168,284,43110,6,0,L|160:204,1,80
92,148,43436,2,0,P|54:158|15:148,1,80
15,148,43681,1,0,0:0:0:0:
15,148,43762,2,0,P|31:95|143:91,1,160
192,132,44251,1,0,0:0:0:0:
265,188,44414,6,0,P|284:191|304:189,3,40
345,168,44740,2,0,P|364:165|384:169,3,40
420,196,45066,6,0,L|427:235,2,40
468,120,45393,2,0,L|475:80,2,40
436,204,45719,6,0,B|452:304|452:304|421:354,1,160
336,328,46208,1,0,0:0:0:0:
252,352,46371,6,0,B|185:348|165:284|165:284|137:308|89:308|89:308|73:264|101:228,1,280
98,231,47023,6,0,P|116:175|92:122,1,120
56,96,47349,2,0,L|16:100,2,40
52,8,47675,1,0,0:0:0:0:
132,48,47838,6,0,P|166:66|206:64,1,80
248,44,48083,2,0,P|287:42|322:60,1,80
344,100,48327,6,0,L|336:144,2,40
404,36,48653,5,0,0:0:0:0:
422,24,48734,1,0,0:0:0:0:
443,18,48816,1,0,0:0:0:0:
465,20,48897,1,0,0:0:0:0:
485,28,48980,6,0,P|511:79|496:132,1,106.666666666667
500,125,49306,2,0,P|474:120|452:106,2,53.3333333333333
508,184,49632,6,0,P|509:209|504:228,3,40
488,264,49958,2,0,P|474:285|459:298,3,40
428,320,50284,6,0,P|404:330|384:331,3,40
348,328,50610,2,0,P|323:322|305:312,3,40
280,284,50936,6,0,P|237:255|148:291,1,120
144,300,51262,2,0,L|140:344,2,40
129,211,51588,6,0,P|162:190|200:183,1,80
232,155,51833,2,0,P|195:139|155:139,1,80
120,117,52077,1,0,0:0:0:0:
172,48,52240,6,0,P|204:26|243:19,1,80
