osu file format v14

[General]
AudioFilename: audio.mp3
AudioLeadIn: 0
PreviewTime: 52800
Countdown: 1
SampleSet: Soft
StackLeniency: 0.2
Mode: 0
LetterboxInBreaks: 0
WidescreenStoryboard: 0

[Editor]
Bookmarks: 216550
DistanceSpacing: 3.9
BeatDivisor: 8
GridSize: 16
TimelineZoom: 3.187999

[Metadata]
Title:Distorted Space
TitleUnicode:Distorted Space
Artist:Camellia
ArtistUnicode:かめりあ
Creator:JeZag
Version:Distraught
Source:
Tags:Planet Shaper Cametek KamelCamellia Hardstyle Pumpcore Dubstep Trap ctcd-011 かめるかめりあ
BeatmapID:1407861
BeatmapSetID:665200

[Difficulty]
HPDrainRate:6
CircleSize:3.1
OverallDifficulty:9
ApproachRate:9.7
SliderMultiplier:1.9
SliderTickRate:1

[Events]
//Background and Video events
0,0,"the verge.jpg",0,0
//Break Periods
2,31800,33505
2,44600,46305
2,143000,154741
//Storyboard Layer 0 (Background)
//Storyboard Layer 1 (Fail)
//Storyboard Layer 2 (Pass)
//Storyboard Layer 3 (Foreground)
//Storyboard Sound Samples

[TimingPoints]
2000,400,4,2,1,100,1,0
7200,-50,4,2,1,100,0,0
7600,-100,4,2,1,100,0,0
14700,-100,4,2,1,5,0,0
14800,-100,4,2,1,100,0,0
20000,-50,4,2,1,100,0,0
20400,-100,4,2,1,100,0,0
21200,-100,4,2,1,100,0,0
27600,-500,4,2,1,100,0,0
31600,-500,4,2,1,5,0,0
34000,-500,4,2,1,100,0,0
38000,-500,4,2,1,5,0,0
38600,-500,4,2,1,100,0,0
40300,-500,4,2,1,5,0,0
40400,-500,4,2,1,100,0,0
44400,-500,4,2,1,5,0,0
46800,-500,4,2,1,100,0,0
50800,-500,4,2,1,5,0,0
51400,-500,4,2,1,100,0,0
53200,-200,4,2,1,100,0,0
58000,-100,4,2,1,100,0,0
59600,-200,4,2,1,100,0,0
70800,-100,4,2,1,100,0,0
72400,-200,4,2,1,100,0,0
78700,-200,4,2,1,5,0,0
78800,-100,4,2,1,100,0,0
79000,-100,4,2,1,5,0,0
79100,-100,4,2,1,100,0,0
79300,-100,4,2,1,5,0,0
79400,-100,4,2,1,100,0,0
79500,-100,4,2,1,5,0,0
79600,-100,4,2,1,100,0,0
80600,-100,4,2,1,5,0,0
80700,-100,4,2,1,100,0,0
80900,-100,4,2,1,5,0,0
81000,-100,4,2,1,100,0,0
81200,-100,4,2,1,5,0,0
81300,-100,4,2,1,100,0,0
81500,-100,4,2,1,5,0,0
81600,-100,4,2,1,100,0,0
82200,-100,4,2,1,5,0,0
82300,-100,4,2,1,100,0,0
82500,-100,4,2,1,5,0,0
82600,-100,4,2,1,100,0,0
82700,-100,4,2,1,5,0,0
82800,-100,4,2,1,100,0,0
83800,-100,4,2,1,5,0,0
83900,-100,4,2,1,100,0,0
84100,-100,4,2,1,5,0,0
84200,-100,4,2,1,100,0,0
84300,-100,4,2,1,5,0,0
84400,-100,4,2,1,100,0,0
85200,-86.9565217391304,4,2,1,100,0,0
86000,-76.9230769230769,4,2,1,100,0,0
86400,-71.4285714285714,4,2,1,100,0,0
86800,-64.5161290322581,4,2,1,100,0,0
87200,-60.6060606060606,4,2,1,100,0,0
87600,-55.5555555555556,4,2,1,100,0,0
88000,-51.2820512820513,4,2,1,100,0,0
88400,-100,4,2,1,100,0,0
90000,-66.6666666666667,4,2,1,100,0,0
90900,-66.6666666666667,4,2,1,5,0,0
91200,-66.6666666666667,4,2,1,100,0,0
91500,-66.6666666666667,4,2,1,5,0,0
91600,-50,4,2,1,100,0,0
92000,-50,4,2,1,100,0,0
94950,-50,4,2,1,5,0,0
95000,-50,4,2,1,100,0,0
96950,-50,4,2,1,5,0,0
97000,-50,4,2,1,100,0,0
101350,-50,4,2,1,5,0,0
101400,-50,4,2,1,100,0,0
103700,-50,4,2,1,5,0,0
104000,-50,4,2,1,100,0,0
104400,-50,4,2,1,100,0,0
110400,-100,4,2,1,100,0,0
110800,-50,4,2,1,100,0,0
116500,-50,4,2,1,5,0,0
116800,-50,4,2,1,100,0,0
117100,-50,4,2,1,5,0,0
117200,-50,4,2,1,100,0,0
117600,-33.3333333333333,4,2,1,100,0,0
118000,-33.3333333333333,4,2,1,100,0,0
123600,-50,4,2,1,100,0,0
124000,-33.3333333333333,4,2,1,100,0,0
124100,-33.3333333333333,4,2,1,100,0,0
128400,-50,4,2,1,100,0,0
129300,-50,4,2,1,5,0,0
129600,-50,4,2,1,100,0,0
129900,-50,4,2,1,5,0,0
130000,-33.3333333333333,4,2,1,100,0,0
139600,-33.3333333333333,4,2,1,100,0,0
142800,400,4,2,1,100,1,0
144389,394.736842105263,4,2,1,100,1,0
145967,392.156862745098,4,2,1,100,1,0
147535,389.61038961039,4,2,1,100,1,0
149093,387.096774193548,4,2,1,100,1,0
150641,384.615384615385,4,2,1,100,1,0
152179,382.165605095541,4,2,1,100,1,0
153718,379.746835443038,4,2,1,100,1,0
155236,377.358490566038,4,2,1,100,1,0
155236,-66.6666666666667,4,2,1,100,0,0
156745,375,4,2,1,100,1,0
156745,-66.6666666666667,4,2,1,100,0,0
158245,372.670807453416,4,2,1,100,1,0
158245,-66.6666666666667,4,2,1,100,0,0
159735,370.37037037037,4,2,1,100,1,0
159735,-66.6666666666667,4,2,1,100,0,0
161154,-66.6666666666667,4,2,1,5,0,0
161216,368.098159509202,4,2,1,100,1,0
161216,-66.6666666666667,4,2,1,100,0,0
162688,365.853658536585,4,2,1,100,1,0
162688,-66.6666666666667,4,2,1,100,0,0
164151,363.636363636364,4,2,1,100,1,0
164151,-66.6666666666667,4,2,1,100,0,0
164514,-74.0740740740741,4,2,1,100,0,0
164878,-83.3333333333333,4,2,1,95,0,0
165241,-95.2380952380952,4,2,1,85,0,0
165587,361.44578313253,4,2,1,75,1,0
165587,-111.111111111111,4,2,1,60,0,0
165948,-133.333333333333,4,2,1,45,0,0
166309,-153.846153846154,4,2,1,30,0,0
166671,-200,4,2,1,15,0,0
167022,357.142857142857,4,2,1,100,1,0
167022,-66.6666666666667,4,2,1,100,0,0
169879,352.941176470588,4,2,1,100,1,0
169879,-66.6666666666667,4,2,1,100,0,0
172702,348.837209302326,4,2,1,100,1,0
172702,-66.6666666666667,4,2,1,100,0,0
175492,344.827586206897,4,2,1,100,1,0
178250,-133.333333333333,4,2,1,100,0,0
179227,-133.333333333333,4,2,1,5,0,0
179285,-50,4,2,1,100,0,0
180377,-50,4,2,1,5,0,0
180664,-50,4,2,1,100,0,0
181009,342.857142857143,4,2,1,100,1,0
181009,-33.3333333333333,4,2,1,100,0,1
186151,-50,4,2,1,100,0,1
186494,-33.3333333333333,4,2,1,100,0,1
189237,-33.3333333333333,4,2,1,100,0,0
190609,-100,4,2,1,100,0,0
190951,-50,4,2,1,100,0,0
191637,-30,4,2,1,100,0,0
191980,-33.3333333333333,4,2,1,100,0,1
202951,342.857142857143,4,2,1,100,1,0
204322,352.941176470588,4,2,1,100,1,0
205027,357.142857142857,4,2,1,100,1,0
205741,363.636363636364,4,2,1,100,1,0
206831,369.230769230769,4,2,1,100,1,0
207569,375,4,2,1,100,1,0
208319,380.952380952381,4,2,1,100,1,0
209842,387.096774193548,4,2,1,100,1,0
210229,393.44262295082,4,2,1,100,1,0
213376,-50,4,2,1,100,0,0
214212,-50,4,2,1,5,0,0
214556,-50,4,2,1,100,0,0
214851,-50,4,2,1,5,0,0
214950,400,4,2,1,100,1,0
214950,-33.3333333333333,4,2,1,100,0,1
240550,-33.3333333333333,4,2,1,100,0,0

[Colours]
Combo1 : 194,196,136
Combo2 : 128,187,132
Combo3 : 119,155,191
Combo4 : 125,125,125
Combo5 : 183,183,183
Combo6 : 172,149,96

[HitObjects]
43,169,2000,38,0,L|71:165,1,23.75,2|0,0:0|0:0,0:0:0:0:
64,160,2400,2,0,L|92:164,1,23.75,2|0,0:0|0:0,0:0:0:0:
86,168,2800,2,0,L|114:164,1,23.75,2|0,0:0|0:0,0:0:0:0:
107,159,3200,2,0,L|135:163,1,23.75,2|0,0:0|0:0,0:0:0:0:
285,197,3400,5,0,0:0:0:0:
425,156,3600,2,0,P|459:173|424:189,1,95,2|0,0:0|0:0,0:0:0:0:
132,169,4000,2,0,L|160:165,1,23.75,2|0,0:0|0:0,0:0:0:0:
424,188,4200,70,0,P|459:173|426:156,1,95,0|2,0:0|0:0,0:0:0:0:
272,210,4600,1,0,0:0:0:0:
41,151,4800,2,0,P|88:157|135:159,1,95,2|0,0:0|0:0,0:0:0:0:
279,189,5200,6,0,L|303:185,1,23.75,2|0,0:0|0:0,0:0:0:0:
300,192,5600,2,0,L|331:196,1,23.75,2|0,0:0|0:0,0:0:0:0:
322,190,6000,2,0,L|347:186,1,23.75,2|0,0:0|0:0,0:0:0:0:
343,193,6400,2,0,L|371:197,1,23.75,2|0,0:0|0:0,0:0:0:0:
380,195,6800,70,0,L|386:243,1,47.5,2|0,0:0|0:0,0:0:0:0:
265,243,7000,2,0,L|271:195,1,47.5
162,144,7200,6,0,P|36:199|194:248,1,380,2|0,0:0|0:0,0:0:0:0:
245,188,7700,70,0,L|278:210,1,23.75
285,174,7800,1,0,0:0:0:0:
328,171,7900,1,0,0:0:0:0:
370,179,8000,1,0,0:0:0:0:
409,196,8100,1,0,0:0:0:0:
442,222,8200,1,0,0:0:0:0:
468,256,8300,1,0,0:0:0:0:
483,296,8400,6,0,L|459:292,1,23.75,2|0,0:0|0:0,0:0:0:0:
462,298,8800,2,0,L|434:302,1,23.75,2|0,0:0|0:0,0:0:0:0:
440,297,9200,2,0,L|404:293,1,23.75,2|0,0:0|0:0,0:0:0:0:
419,299,9600,2,0,L|390:303,1,23.75,2|0,0:0|0:0,0:0:0:0:
154,313,9800,70,0,P|119:297|153:279,2,95,0|2|0,0:0|0:0|0:0,0:0:0:0:
395,308,10400,2,0,L|371:304,1,23.75,2|0,0:0|0:0,0:0:0:0:
154,279,10600,6,0,P|119:296|154:311,1,95,0|2,0:0|0:0,0:0:0:0:
362,300,11000,1,0,0:0:0:0:
154,313,11200,2,0,P|109:318|58:317,1,95,2|0,0:0|0:0,0:0:0:0:
331,262,11600,70,0,L|354:258,1,23.75,2|0,0:0|0:0,0:0:0:0:
352,253,12000,2,0,L|375:256,1,23.75,2|0,0:0|0:0,0:0:0:0:
374,261,12400,2,0,L|397:257,1,23.75,2|0,0:0|0:0,0:0:0:0:
395,253,12800,2,0,L|434:257,1,23.75,2|0,0:0|0:0,0:0:0:0:
508,196,13000,5,0,0:0:0:0:
314,211,13200,2,0,P|259:215|210:213,1,95,2|0,0:0|0:0,0:0:0:0:
65,178,13600,1,2,0:0:0:0:
65,178,13800,1,0,0:0:0:0:
421,179,14000,70,0,L|380:178,1,23.75,2|0,0:0|0:0,0:0:0:0:
89,169,14400,2,0,P|153:155|242:165,1,142.5,2|0,0:0|0:0,0:0:0:0:
379,242,14800,38,0,L|402:238,1,23.75,6|0,0:0|0:0,0:0:0:0:
219,252,15000,2,0,L|167:247,1,47.5
400,233,15200,2,0,L|423:236,1,23.75,2|0,0:0|0:0,0:0:0:0:
237,244,15400,2,0,L|185:249,1,47.5
422,241,15600,2,0,L|445:237,1,23.75,2|0,0:0|0:0,0:0:0:0:
254,252,15800,2,0,L|202:247,1,47.5
443,232,16000,2,0,L|466:235,1,23.75,2|0,0:0|0:0,0:0:0:0:
272,244,16200,2,0,L|220:249,1,47.5
486,259,16400,70,0,P|521:238|484:221,1,95,2|0,0:0|0:0,0:0:0:0:
263,235,16800,2,0,L|286:239,1,23.75,2|0,0:0|0:0,0:0:0:0:
486,259,17000,6,0,P|521:238|484:221,1,95,0|2,0:0|0:0,0:0:0:0:
287,248,17400,2,0,L|240:244,1,47.5
56,252,17600,69,2,3:2:0:0:
249,155,17800,1,2,3:2:0:0:
481,255,18000,6,0,L|458:251,1,23.75,10|0,3:2|0:0,0:0:0:0:
215,249,18200,2,0,L|267:244,1,47.5
460,246,18400,2,0,L|437:249,1,23.75,2|0,0:0|0:0,0:0:0:0:
197,241,18600,2,0,L|249:246,1,47.5
438,254,18800,2,0,L|415:250,1,23.75,2|0,0:0|0:0,0:0:0:0:
180,249,19000,2,0,L|232:244,1,47.5
417,245,19200,2,0,L|394:248,1,23.75,2|0,0:0|0:0,0:0:0:0:
164,242,19400,2,0,L|211:246,1,47.5
401,252,19600,70,0,L|392:202,1,47.5,2|0,0:0|0:0,0:0:0:0:
176,207,19800,2,0,L|170:254,1,47.5
393,126,20000,6,0,P|329:53|178:162,1,285,2|0,0:0|0:0,0:0:0:0:
205,233,20400,70,0,L|205:269,2,23.75,2|0|0,3:2|3:2|3:2,3:2:0:0:
359,242,20600,2,0,L|312:231,1,47.5,0|0,3:0|0:0,0:0:0:0:
224,145,20800,2,0,L|176:150,1,47.5,2|0,3:2|0:0,0:0:0:0:
82,230,21000,2,0,L|35:219,1,47.5,0|0,3:0|0:0,0:0:0:0:
61,60,21200,5,2,3:2:0:0:
109,55,21300,1,0,3:2:0:0:
156,49,21400,1,0,3:2:0:0:
203,43,21500,1,0,3:2:0:0:
250,38,21600,1,2,3:2:0:0:
211,67,21700,1,0,3:2:0:0:
174,96,21800,1,0,3:2:0:0:
136,124,21900,1,0,3:2:0:0:
98,152,22000,69,2,3:2:0:0:
139,166,22100,1,0,3:2:0:0:
179,179,22200,1,0,3:2:0:0:
220,193,22300,1,0,3:2:0:0:
261,207,22400,1,2,3:2:0:0:
225,230,22500,1,0,3:2:0:0:
189,252,22600,1,0,3:2:0:0:
152,274,22700,1,0,3:2:0:0:
116,297,22800,5,2,3:2:0:0:
116,260,22900,1,0,3:2:0:0:
115,222,23000,1,0,3:2:0:0:
114,184,23100,1,0,3:2:0:0:
113,146,23200,1,2,3:2:0:0:
151,152,23300,1,0,3:2:0:0:
189,158,23400,1,0,3:2:0:0:
226,164,23500,1,0,3:2:0:0:
264,169,23600,69,2,3:2:0:0:
272,137,23700,1,0,3:2:0:0:
280,105,23800,1,0,3:2:0:0:
288,73,23900,1,0,3:2:0:0:
296,40,24000,1,2,3:2:0:0:
325,40,24100,1,0,3:2:0:0:
353,40,24200,1,0,3:2:0:0:
382,39,24300,1,0,3:2:0:0:
410,39,24400,5,2,3:2:0:0:
418,67,24500,1,0,3:2:0:0:
426,94,24600,1,0,3:2:0:0:
434,122,24700,1,0,3:2:0:0:
441,149,24800,1,2,3:2:0:0:
425,166,24900,1,0,3:2:0:0:
408,183,25000,1,0,3:2:0:0:
391,200,25100,1,0,3:2:0:0:
373,215,25200,69,2,3:2:0:0:
355,213,25300,1,0,3:2:0:0:
336,211,25400,1,0,3:2:0:0:
317,208,25500,1,0,3:2:0:0:
298,206,25600,1,2,3:2:0:0:
281,211,25700,1,0,3:2:0:0:
262,215,25800,1,0,3:2:0:0:
243,219,25900,1,0,3:2:0:0:
227,223,26000,6,0,L|243:189,1,23.75,2|0,0:0|0:0,0:0:0:0:
213,183,26100,2,0,L|209:146,1,23.75,0|0,0:0|0:0,0:0:0:0:
180,152,26200,2,0,L|156:124,1,23.75,0|0,0:0|0:0,0:0:0:0:
131,142,26300,2,0,L|95:131,1,23.75,0|0,0:0|0:0,0:0:0:0:
83,165,26400,2,0,L|47:175,1,23.75,2|0,0:0|0:0,0:0:0:0:
53,207,26500,2,0,L|28:235,1,23.75,0|0,0:0|0:0,0:0:0:0:
53,261,26600,2,0,L|47:298,1,23.75,0|0,0:0|0:0,0:0:0:0:
90,308,26700,2,0,L|106:342,1,23.75,0|0,0:0|0:0,0:0:0:0:
147,325,26800,70,0,L|179:345,1,23.75,2|0,0:0|0:0,0:0:0:0:
206,309,26900,2,0,L|243:308,1,23.75
251,261,27000,2,0,L|281:240,1,23.75
262,197,27100,2,0,L|277:163,1,23.75,0|0,0:0|0:0,0:0:0:0:
237,133,27200,2,0,L|231:96,1,23.75,2|0,0:0|0:0,0:0:0:0:
181,87,27300,2,0,L|155:60,1,23.75,0|0,0:0|0:0,0:0:0:0:
110,72,27400,2,0,L|73:63,1,23.75,0|0,0:0|0:0,0:0:0:0:
43,108,27500,2,0,L|7:119,1,23.75,0|0,0:0|0:0,0:0:0:0:
9,191,27600,54,0,P|8:242|2:285,1,95,4|0,0:0|0:0,0:0:0:0:
0,297,28800,1,0,0:0:0:0:
154,166,29000,2,0,P|155:217|163:280,1,114
172,291,30400,1,0,0:0:0:0:
24,146,30600,2,0,P|26:187|25:242,1,95
25,240,34000,6,0,P|64:239|124:243,1,95
130,234,35200,1,0,0:0:0:0:
359,237,35400,2,0,P|322:238|279:235,1,76
278,223,36400,1,0,0:0:0:0:
119,232,36600,1,0,0:0:0:0:
283,235,36800,1,0,0:0:0:0:
18,221,37000,2,0,P|53:220|117:222,1,95
127,227,38600,69,0,0:0:0:0:
150,229,38700,1,0,0:0:0:0:
173,228,38800,2,0,L|194:226,1,19
395,202,39200,1,0,0:0:0:0:
242,186,39400,2,0,L|199:189,1,38
44,177,40000,2,0,B|72:174,1,28.5
84,171,40400,6,0,P|131:164|179:165,1,95
186,174,41600,1,0,0:0:0:0:
430,165,41800,2,0,P|380:169|316:164,1,114
315,158,43200,1,0,0:0:0:0:
64,154,43400,2,0,P|110:153|158:157,1,95
169,151,46800,70,0,P|167:201|163:245,1,95
154,247,48000,1,0,0:0:0:0:
328,160,48200,2,0,P|331:199|336:235,1,76
350,237,49200,1,0,0:0:0:0:
150,248,49400,1,0,0:0:0:0:
358,242,49600,1,0,0:0:0:0:
136,244,49800,2,0,P|142:195|142:150,1,95
152,141,51400,5,0,0:0:0:0:
235,128,51500,1,0,0:0:0:0:
319,137,51600,2,0,L|340:136,1,19
467,118,52000,1,0,0:0:0:0:
265,137,52200,2,0,L|227:135,1,38
138,120,52800,2,0,L|117:121,1,19
22,119,53200,6,0,P|29:163|29:313,1,190,4|0,0:0|0:0,0:0:0:0:
12,310,54200,1,0,0:0:0:0:
205,289,54400,1,0,0:0:0:0:
446,315,54600,2,0,P|439:271|449:72,1,237.5
281,108,55800,1,0,0:0:0:0:
86,92,56000,1,0,0:0:0:0:
268,103,56200,2,0,P|275:147|276:272,1,166.25
240,334,57000,6,0,L|245:360,2,15.8333333333333
200,269,57200,2,0,L|199:242,2,15.8333333333333
170,336,57400,2,0,L|165:362,2,15.8333333333333
126,271,57600,2,0,L|122:246,2,15.8333333333333
94,335,57800,2,0,L|93:350,2,15.8333333333333
50,276,58000,69,0,0:0:0:0:
200,320,58200,2,0,L|251:322,1,47.5
174,239,58400,2,0,L|268:242,1,95
205,156,58700,1,0,0:0:0:0:
205,156,58750,1,0,0:0:0:0:
205,156,58800,2,0,L|262:157,1,47.5
174,239,59000,2,0,L|268:242,1,95
200,320,59400,2,0,L|251:322,1,47.5
483,317,59600,6,0,P|471:211|473:124,1,190
486,112,60600,1,0,0:0:0:0:
307,126,60800,1,0,0:0:0:0:
89,103,61000,2,0,P|93:196|90:246,1,142.5
81,254,61800,1,0,0:0:0:0:
369,257,62000,1,0,0:0:0:0:
89,246,62200,1,0,0:0:0:0:
360,257,62400,1,0,0:0:0:0:
95,258,62600,2,0,P|107:152|108:93,1,166.25
150,28,63400,70,0,L|153:5,2,15.8333333333333
182,99,63600,2,0,L|180:129,2,15.8333333333333
224,34,63800,2,0,L|222:3,2,15.8333333333333,0|0|0,0:3|0:3|0:3,0:3:0:0:
255,101,64000,2,0,L|253:131,2,15.8333333333333
298,40,64200,5,0,0:0:0:0:
306,173,64300,1,0,0:0:0:0:
302,290,64400,2,0,L|300:341,1,47.5
312,159,64800,1,0,0:0:0:0:
315,354,65000,2,0,L|314:291,1,47.5
328,68,65400,1,0,0:0:0:0:
330,283,65600,2,0,P|327:322|327:369,1,83.125
449,319,66000,70,0,P|442:269|447:124,1,190
466,119,67000,1,0,0:0:0:0:
273,138,67200,1,0,0:0:0:0:
48,104,67400,2,0,P|50:154|31:342,1,237.5
23,342,68600,1,0,0:0:0:0:
229,321,68800,1,0,0:0:0:0:
465,348,69000,2,0,P|458:298|462:175,1,166.25
436,107,69800,6,0,L|435:77,2,15.8333333333333
390,168,70000,2,0,L|385:196,2,15.8333333333333
365,99,70200,2,0,L|359:70,2,15.8333333333333
316,155,70400,2,0,L|317:185,2,15.8333333333333
290,88,70600,2,0,L|286:58,2,15.8333333333333
242,146,70800,69,0,0:0:0:0:
133,165,70900,1,0,0:0:0:0:
10,135,71000,2,0,L|17:181,1,47.5
117,74,71200,2,0,L|110:174,1,95
221,152,71500,1,0,0:0:0:0:
221,152,71550,1,0,0:0:0:0:
221,152,71600,2,0,L|203:194,1,47.5
117,74,71800,2,0,L|110:174,1,95
10,135,72200,2,0,L|17:181,1,47.5
88,352,72400,6,0,B|157:342|285:354,1,190
287,367,73400,1,0,0:0:0:0:
264,205,73600,1,0,0:0:0:0:
315,21,73800,2,0,B|195:38|125:32,1,190
111,29,74800,1,0,0:0:0:0:
128,307,75000,1,0,0:0:0:0:
127,34,75200,1,0,0:0:0:0:
118,311,75400,2,0,P|214:307|296:311,1,166.25
352,274,76200,70,0,L|374:277,2,15.8333333333333
282,234,76400,2,0,L|259:236,2,15.8333333333333
353,197,76600,2,0,L|380:197,2,15.8333333333333
287,162,76800,2,0,L|266:159,2,15.8333333333333
353,122,77000,5,0,0:0:0:0:
195,97,77100,1,0,0:0:0:0:
48,121,77200,2,0,L|-16:126,1,47.5
264,122,77600,1,0,0:0:0:0:
21,148,77800,2,0,L|68:151,1,47.5
344,148,78200,1,0,0:0:0:0:
42,200,78400,2,0,P|93:196|134:201,1,71.25
200,214,78800,38,0,P|263:217|334:212,1,95,6|0,0:0|0:0,0:0:0:0:
473,248,79100,2,0,P|425:249|378:246,1,95
200,289,79400,2,0,P|263:292|286:291,1,47.5
471,326,79600,5,2,0:0:0:0:
471,326,80000,1,2,0:0:0:0:
215,355,80200,69,0,0:0:0:0:
215,355,80300,1,0,0:0:0:0:
215,355,80400,2,0,P|221:301|221:235,1,95,2|0,0:0|0:0,0:0:0:0:
253,85,80700,2,0,P|259:139|259:205,1,95,0|2,0:0|0:0,0:0:0:0:
292,359,81000,2,0,P|298:305|298:239,1,95,0|8,0:0|0:0,0:0:0:0:
329,80,81300,2,0,P|335:134|335:200,1,95
374,361,81600,5,2,0:0:0:0:
164,289,81800,1,2,0:0:0:0:
371,197,82000,70,0,P|305:202|244:203,1,95,2|0,0:0|0:0,0:0:0:0:
84,161,82300,2,0,P|150:166|211:167,1,95
369,120,82600,2,0,P|303:125|279:126,1,47.5
84,84,82800,5,2,0:0:0:0:
84,84,83200,1,2,0:0:0:0:
336,28,83400,69,0,0:0:0:0:
336,28,83500,1,0,0:0:0:0:
336,28,83600,2,0,P|341:83|340:139,1,95,2|0,0:0|0:0,0:0:0:0:
295,328,83900,2,0,P|300:273|299:217,1,95
251,33,84200,2,0,P|256:71|255:99,1,47.5
223,232,84400,6,0,L|221:270,2,23.75,2|0|0,3:2|3:2|3:2,3:2:0:0:
171,104,84600,2,0,L|123:107,1,47.5,0|0,3:0|0:0,0:0:0:0:
145,208,84800,2,0,L|97:207,1,47.5,2|0,3:2|0:0,0:0:0:0:
121,310,85000,2,0,L|73:305,1,47.5,0|0,3:0|0:0,0:0:0:0:
226,355,85200,22,0,L|217:285,1,54.6250010418892,2|0,3:2|3:2,3:2:0:0:
255,164,85400,1,0,3:2:0:0:
255,164,85500,2,0,L|264:234,1,54.6250010418892,0|2,3:2|3:2,3:2:0:0:
322,357,85700,1,0,3:2:0:0:
322,357,85800,2,0,L|313:287,1,54.6250010418892,0|0,3:2|3:2,3:2:0:0:
333,136,86000,70,0,L|342:217,1,61.7499971733095,2|0,3:2|3:2,3:2:0:0:
164,196,86200,2,0,L|155:115,1,61.7499971733095,0|0,3:2|3:2,3:2:0:0:
348,132,86400,2,0,L|357:210,1,66.4999979705811,2|0,3:2|3:2,3:2:0:0:
149,200,86600,2,0,L|140:122,1,66.4999979705811,0|0,3:2|3:2,3:2:0:0:
363,128,86800,6,0,L|374:216,1,73.6250005617142,2|0,3:2|3:2,3:2:0:0:
134,204,87000,2,0,L|123:116,1,73.6250005617142,0|0,3:2|3:2,3:2:0:0:
378,125,87200,2,0,L|389:209,1,78.3750007474423,2|0,3:2|3:2,3:2:0:0:
119,207,87400,2,0,L|108:123,1,78.3750007474423,0|0,3:2|3:2,3:2:0:0:
393,121,87600,70,0,L|404:211,1,85.4999973907472,2|0,3:2|3:2,3:2:0:0:
104,211,87800,2,0,L|93:121,1,85.4999973907472,0|0,3:2|3:2,3:2:0:0:
408,117,88000,2,0,L|418:223,1,92.6250003533363,2|0,3:2|3:2,3:2:0:0:
89,215,88200,2,0,L|79:109,1,92.6250003533363,0|0,3:2|3:2,3:2:0:0:
290,0,88400,5,0,3:2:0:0:
360,28,88500,1,0,3:2:0:0:
414,81,88600,1,0,3:2:0:0:
443,150,88700,1,0,3:2:0:0:
443,226,88800,1,0,3:2:0:0:
414,296,88900,1,0,3:2:0:0:
360,349,89000,1,0,3:2:0:0:
290,377,89100,1,0,3:2:0:0:
215,376,89200,1,0,3:2:0:0:
146,347,89300,1,0,3:2:0:0:
93,292,89400,1,0,3:2:0:0:
66,222,89500,1,0,3:2:0:0:
67,146,89600,1,0,3:2:0:0:
98,77,89700,1,0,3:2:0:0:
153,26,89800,1,0,3:2:0:0:
223,0,89900,1,0,3:2:0:0:
256,71,90000,69,0,0:0:0:0:
255,357,90200,1,0,0:0:0:0:
256,71,90400,1,0,0:0:0:0:
255,357,90600,1,0,0:0:0:0:
256,71,90800,6,0,L|269:147,1,71.2500027179719
255,357,91200,2,0,B|242:293|242:293|267:214|267:214|255:141,1,213.750008153916
256,71,91600,6,0,L|256:12,7,47.5
290,126,92000,6,0,P|301:25|234:131,1,332.5,4|0,0:0|0:0,0:0:0:0:
115,143,92400,69,2,0:0:0:0:
115,143,92500,1,0,0:0:0:0:
115,143,92600,2,0,P|165:148|212:144,1,95
417,232,92800,5,2,0:0:0:0:
417,232,92900,1,0,0:0:0:0:
417,232,93000,2,0,P|464:235|512:231,1,95
115,218,93200,69,2,0:0:0:0:
115,218,93300,1,0,0:0:0:0:
115,218,93400,2,0,P|165:223|212:219,1,95
417,307,93600,5,2,0:0:0:0:
417,307,93700,1,0,0:0:0:0:
417,307,93800,2,0,P|464:310|512:306,1,95
255,343,94000,69,2,0:0:0:0:
255,343,94100,1,0,0:0:0:0:
255,343,94200,2,0,P|302:348|350:345,1,95
87,379,94400,5,2,0:0:0:0:
87,379,94500,1,0,0:0:0:0:
87,379,94600,2,0,P|134:382|182:378,1,95
5,369,94800,38,0,L|18:225,1,142.5,2|0,0:0|0:0,0:0:0:0:
29,111,95000,1,0,0:0:0:0:
27,132,95100,1,0,0:0:0:0:
108,280,95200,6,0,L|113:233,1,47.5,2|0,0:0|0:0,0:0:0:0:
113,233,95400,2,0,L|118:186,1,47.5
118,186,95600,2,0,L|123:139,1,47.5,2|0,0:0|0:0,0:0:0:0:
123,139,95800,2,0,L|128:92,1,47.5
134,18,96000,70,0,L|106:302,1,285,2|0,0:0|0:0,0:0:0:0:
217,23,96400,2,0,L|189:307,1,285,2|0,0:0|0:0,0:0:0:0:
300,27,96800,6,0,L|283:205,1,142.5,2|0,0:0|0:0,0:0:0:0:
276,269,97000,1,0,0:0:0:0:
279,247,97100,1,0,0:0:0:0:
217,23,97200,70,0,L|188:306,1,285,2|0,0:0|0:0,0:0:0:0:
106,301,97600,6,0,L|134:17,1,285,8|0,0:0|0:0,0:0:0:0:
51,60,98000,6,0,L|-8:60,7,47.5,2|0|0|0|0|0|0|0,0:0|0:0|0:0|0:0|0:0|0:0|0:0|0:0,0:0:0:0:
106,28,98400,6,0,P|-13:60|104:95,1,332.5,2|0,0:0|0:0,0:0:0:0:
175,65,98800,69,2,0:0:0:0:
175,65,98900,1,0,0:0:0:0:
175,65,99000,2,0,P|230:57|288:64,1,95
512,101,99200,5,2,0:0:0:0:
512,101,99300,1,0,0:0:0:0:
512,101,99400,2,0,P|457:93|399:100,1,95
174,144,99600,69,2,0:0:0:0:
174,144,99700,1,0,0:0:0:0:
174,144,99800,2,0,P|229:136|287:143,1,95
428,187,100000,5,2,0:0:0:0:
428,187,100100,1,0,0:0:0:0:
428,187,100200,2,0,P|373:179|315:186,1,95
170,220,100400,69,2,0:0:0:0:
170,220,100500,1,0,0:0:0:0:
169,220,100600,2,0,P|216:212|264:216,1,95
9,257,100800,5,2,0:0:0:0:
9,257,100900,1,0,0:0:0:0:
9,257,101000,2,0,P|57:255|104:263,1,95
29,363,101200,38,0,L|173:350,1,142.5,2|0,0:0|0:0,0:0:0:0:
291,339,101400,1,0,0:0:0:0:
268,341,101500,1,0,0:0:0:0:
156,271,101600,6,0,L|204:268,1,47.5,2|0,0:0|0:0,0:0:0:0:
203,268,101800,2,0,L|251:265,1,47.5
250,265,102000,2,0,L|298:262,1,47.5,2|0,0:0|0:0,0:0:0:0:
297,262,102200,2,0,L|345:259,1,47.5
426,252,102400,70,0,L|141:273,1,285,2|0,0:0|0:0,0:0:0:0:
436,168,102800,6,0,L|232:183,1,190
67,181,103200,1,0,0:0:0:0:
436,168,103400,1,0,0:0:0:0:
67,181,103600,70,0,B|109:170|109:170|163:173,1,95
410,157,104000,2,0,B|298:136|298:136|124:171,1,285
13,160,104400,53,6,0:0:0:0:
13,160,104500,1,0,0:0:0:0:
13,160,104600,1,0,0:0:0:0:
13,160,104700,1,0,0:0:0:0:
82,122,104800,2,0,P|146:104|63:181,1,332.5
130,170,105200,6,0,B|225:148|225:148|438:185,1,285,8|0,0:0|0:0,0:0:0:0:
492,139,105600,69,2,0:0:0:0:
492,139,105700,1,0,0:0:0:0:
492,139,105800,1,0,0:0:0:0:
492,139,105900,1,0,0:0:0:0:
492,139,106000,1,0,0:0:0:0:
492,139,106100,1,0,0:0:0:0:
484,223,106200,5,2,0:0:0:0:
484,223,106300,1,0,0:0:0:0:
504,310,106400,69,2,0:0:0:0:
504,310,106500,1,0,0:0:0:0:
504,310,106600,1,0,0:0:0:0:
504,310,106700,1,0,0:0:0:0:
423,280,106800,6,0,B|379:275|379:275|294:291,1,95,8|0,0:0|0:0,0:0:0:0:
229,312,107000,69,2,0:0:0:0:
229,312,107100,1,0,0:0:0:0:
229,312,107200,1,0,0:0:0:0:
229,312,107300,1,0,0:0:0:0:
229,312,107400,1,0,0:0:0:0:
229,312,107500,1,0,0:0:0:0:
316,379,107600,22,0,L|303:235,1,142.5,2|0,0:0|0:0,0:0:0:0:
293,122,107800,1,0,0:0:0:0:
295,147,107900,1,0,0:0:0:0:
217,264,108000,6,0,L|214:216,1,47.5
213,217,108200,2,0,L|210:169,1,47.5
210,169,108400,2,0,L|207:121,1,47.5,8|0,0:0|0:0,0:0:0:0:
207,122,108600,2,0,L|204:74,1,47.5
198,1,108800,70,0,L|219:286,1,285,2|0,0:0|0:0,0:0:0:0:
117,0,109200,2,0,L|138:285,1,285
37,2,109600,6,0,L|50:184,1,142.5,2|0,0:0|0:0,0:0:0:0:
58,250,109800,1,0,0:0:0:0:
56,226,109900,1,0,0:0:0:0:
117,0,110000,70,0,L|138:285,1,285,8|0,0:0|0:0,0:0:0:0:
220,286,110400,6,0,L|209:130,1,142.5
200,59,110800,37,2,0:0:0:0:
200,59,110900,1,0,0:0:0:0:
200,59,111000,1,0,0:0:0:0:
200,59,111100,1,0,0:0:0:0:
264,105,111200,2,0,P|384:62|264:18,1,332.5
316,61,111600,6,0,B|354:149|354:149|309:362,1,285,8|0,0:0|0:0,0:0:0:0:
396,368,112000,69,2,0:0:0:0:
396,368,112100,1,0,0:0:0:0:
396,368,112200,1,0,0:0:0:0:
396,368,112300,1,0,0:0:0:0:
396,368,112400,1,0,0:0:0:0:
396,368,112500,1,0,0:0:0:0:
314,334,112600,5,2,0:0:0:0:
314,334,112700,1,0,0:0:0:0:
228,366,112800,69,2,0:0:0:0:
228,366,112900,1,0,0:0:0:0:
228,366,113000,1,0,0:0:0:0:
228,366,113100,1,0,0:0:0:0:
131,341,113200,6,0,B|144:289|144:289|135:227,1,95,8|0,0:0|0:0,0:0:0:0:
109,169,113400,69,2,0:0:0:0:
109,169,113500,1,0,0:0:0:0:
109,169,113600,1,0,0:0:0:0:
109,169,113700,1,0,0:0:0:0:
109,169,113800,1,0,0:0:0:0:
109,169,113900,1,0,0:0:0:0:
129,84,114000,22,0,L|186:83,1,47.5,2|0,0:0|0:0,0:0:0:0:
367,159,114200,2,0,L|424:158,1,47.5
109,169,114400,2,0,L|166:168,1,47.5,2|0,0:0|0:0,0:0:0:0:
382,73,114600,2,0,L|439:72,1,47.5
74,72,114800,6,0,L|131:71,1,47.5,2|0,0:0|0:0,0:0:0:0:
408,188,115000,2,0,L|465:187,1,47.5
59,208,115200,2,0,L|116:207,1,47.5,2|0,0:0|0:0,0:0:0:0:
425,44,115400,2,0,L|482:43,1,47.5
25,130,115600,69,2,0:0:0:0:
490,132,115800,1,0,0:0:0:0:
25,130,116000,1,2,0:0:0:0:
490,132,116200,1,0,0:0:0:0:
25,130,116400,6,0,P|92:120|162:134,1,95
490,132,116800,2,0,B|355:148|355:148|192:131,1,285
129,105,117200,6,0,L|70:105,7,47.5,6|0|0|0|0|0|0|0,0:0|0:0|0:0|0:0|0:0|0:0|0:0|0:0,0:0:0:0:
168,122,117600,6,0,P|82:298|64:113,1,498.750019025803,2|0,0:0|0:0,0:0:0:0:
40,38,118000,69,2,0:0:0:0:
40,38,118100,1,0,0:0:0:0:
40,38,118200,2,0,P|126:29|226:62,1,142.500005435944
452,259,118400,5,2,0:0:0:0:
452,259,118500,1,0,0:0:0:0:
452,259,118600,2,0,P|365:250|265:283,1,142.500005435944
41,126,118800,69,2,0:0:0:0:
41,126,118900,1,0,0:0:0:0:
41,126,119000,2,0,P|127:117|227:150,1,142.500005435944
451,165,119200,5,2,0:0:0:0:
451,165,119300,1,0,0:0:0:0:
451,165,119400,2,0,P|364:156|264:189,1,142.500005435944
182,214,119600,69,2,0:0:0:0:
182,214,119700,1,0,0:0:0:0:
182,214,119800,2,0,P|112:201|41:211,1,142.500005435944
39,308,120000,5,2,0:0:0:0:
39,308,120100,1,0,0:0:0:0:
38,307,120200,2,0,P|107:319|178:309,1,142.500005435944
277,265,120400,38,0,L|325:265,6,35.625001358986
385,296,120600,2,0,L|456:303,1,71.2500027179719,2|0,0:0|0:0,0:0:0:0:
377,219,120800,6,0,L|448:226,1,71.2500027179719,2|0,0:0|0:0,0:0:0:0:
278,265,121000,1,0,0:0:0:0:
253,263,121100,1,0,0:0:0:0:
366,139,121200,70,0,L|437:146,1,71.2500027179719,2|0,0:0|0:0,0:0:0:0:
253,263,121400,2,0,P|240:168|262:105,1,142.500005435944
108,66,121600,6,0,P|134:196|105:389,1,285.000010871888,2|0,0:0|0:0,0:0:0:0:
226,318,121900,1,0,0:0:0:0:
226,318,121950,1,0,0:0:0:0:
226,318,122000,70,0,L|328:305,1,71.2500027179719,2|0,0:0|0:0,0:0:0:0:
512,272,122200,2,0,P|442:258|373:272,1,142.500005435944
228,234,122400,6,0,L|330:221,1,71.2500027179719,2|0,0:0|0:0,0:0:0:0:
512,182,122600,2,0,P|442:168|373:182,1,142.500005435944
226,153,122800,70,0,L|328:140,1,71.2500027179719,2|0,0:0|0:0,0:0:0:0:
510,101,123000,2,0,P|440:87|371:101,1,142.500005435944,8|0,0:0|0:0,0:0:0:0:
19,140,123200,6,0,P|157:169|296:144,1,285.000010871888,8|0,0:0|0:0,0:0:0:0:
380,90,123600,6,0,L|378:1,7,47.5,2|0|0|0|0|0|0|0,0:0|0:0|0:0|0:0|0:0|0:0|0:0|0:0,0:0:0:0:
435,150,124000,6,0,P|375:329|316:150,1,498.750019025803,2|0,0:0|0:0,0:0:0:0:
445,30,124400,69,2,0:0:0:0:
445,30,124500,1,0,0:0:0:0:
445,30,124600,2,0,P|367:42|270:23,1,142.500005435944
60,244,124800,5,2,0:0:0:0:
60,244,124900,1,0,0:0:0:0:
60,244,125000,2,0,P|138:256|235:237,1,142.500005435944
446,113,125200,69,2,0:0:0:0:
446,113,125300,1,0,0:0:0:0:
446,113,125400,2,0,P|368:125|271:106,1,142.500005435944
62,150,125600,5,2,0:0:0:0:
62,150,125700,1,0,0:0:0:0:
62,150,125800,2,0,P|140:162|237:143,1,142.500005435944
305,209,126000,69,2,0:0:0:0:
305,209,126100,1,0,0:0:0:0:
305,209,126200,2,0,P|375:216|445:204,1,142.500005435944
445,307,126400,5,2,0:0:0:0:
445,307,126500,1,0,0:0:0:0:
445,307,126600,2,0,P|374:295|304:302,1,142.500005435944
191,347,126800,38,0,L|190:394,6,35.625001358986
232,278,127000,6,0,L|220:177,1,71.2500027179719,2|0,0:0|0:0,0:0:0:0:
157,282,127200,2,0,L|145:181,1,71.2500027179719,2|0,0:0|0:0,0:0:0:0:
129,71,127400,1,0,0:0:0:0:
132,95,127500,1,0,0:0:0:0:
82,287,127600,70,0,L|70:186,1,71.2500027179719,2|0,0:0|0:0,0:0:0:0:
35,5,127800,2,0,P|44:103|26:191,1,142.500005435944
10,291,128000,2,0,L|-2:190,1,71.2500027179719,2|0,0:0|0:0,0:0:0:0:
120,27,128200,5,0,0:0:0:0:
487,67,128400,2,0,P|400:90|269:75,1,190
90,113,128800,1,0,0:0:0:0:
90,113,129000,1,0,0:0:0:0:
458,62,129200,70,0,B|411:48|411:48|353:63,1,95
1,73,129600,2,0,B|96:110|96:110|183:63|183:63|287:104,1,308.75
347,154,130000,54,0,L|438:155,7,71.2500027179719,6|0|0|0|0|0|0|0,0:0|0:0|0:0|0:0|0:0|0:0|0:0|0:0,0:0:0:0:
415,200,130450,6,0,P|339:236|428:148,1,427.500016307831
480,164,130800,70,0,B|365:150|365:150|277:98|277:98|191:150|191:150|63:158,1,427.500016307831,8|0,0:0|0:0,0:0:0:0:
14,202,131200,6,0,P|89:238|1:150,1,427.500016307831,2|0,0:0|0:0,0:0:0:0:
82,157,131600,1,0,0:0:0:0:
96,157,131650,1,0,0:0:0:0:
110,157,131700,1,0,0:0:0:0:
124,157,131750,1,0,0:0:0:0:
138,158,131800,70,0,P|202:161|283:155,1,142.500005435944,2|0,0:0|0:0,0:0:0:0:
353,117,132000,6,0,P|198:151|349:200,1,427.500016307831,2|0,0:0|0:0,0:0:0:0:
280,155,132400,70,0,P|208:151|137:157,1,142.500005435944,8|0,0:0|0:0,0:0:0:0:
69,202,132600,6,0,P|220:154|66:119,1,427.500016307831,2|0,0:0|0:0,0:0:0:0:
138,158,133000,1,0,0:0:0:0:
152,158,133050,1,0,0:0:0:0:
166,158,133100,1,0,0:0:0:0:
180,158,133150,1,0,0:0:0:0:
187,158,133200,6,0,L|231:159,6,35.625001358986,2|0|0|0|0|0|0,0:0|0:0|0:0|0:0|0:0|0:0|0:0,0:0:0:0:
311,180,133400,5,0,0:0:0:0:
313,155,133500,1,0,0:0:0:0:
415,72,133600,2,0,L|397:312,1,213.750008153916
298,369,133800,1,0,0:0:0:0:
300,344,133900,1,0,0:0:0:0:
311,180,134000,70,0,L|303:274,1,71.2500027179719,8|0,0:0|0:0,0:0:0:0:
206,315,134200,2,0,L|221:174,1,142.500005435944
142,72,134400,6,0,L|116:361,1,285.000010871888,2|0,0:0|0:0,0:0:0:0:
206,315,134700,1,0,0:0:0:0:
206,315,134750,1,0,0:0:0:0:
206,315,134800,70,0,L|214:221,1,71.2500027179719
311,179,135000,2,0,L|296:320,1,142.500005435944,2|0,0:0|0:0,0:0:0:0:
116,310,135200,6,0,L|124:216,1,71.2500027179719,2|0,0:0|0:0,0:0:0:0:
221,174,135400,2,0,L|206:315,1,142.500005435944
25,304,135600,70,0,L|33:210,1,71.2500027179719,8|0,0:0|0:0,0:0:0:0:
130,168,135800,2,0,L|115:309,1,142.500005435944,2|0,0:0|0:0,0:0:0:0:
39,162,136000,6,0,L|23:321,1,142.500005435944
115,310,136200,70,0,L|130:168,1,142.500005435944
71,79,136400,54,0,L|-1:78,7,71.2500027179719,2|0|0|0|0|0|0|0,0:0|0:0|0:0|0:0|0:0|0:0|0:0|0:0,0:0:0:0:
139,124,136800,6,0,P|63:160|152:72,1,427.500016307831
71,79,137200,70,0,B|185:77|185:77|255:5|255:5|329:77|329:77|460:90,1,427.500016307831,8|0,0:0|0:0,0:0:0:0:
506,132,137600,6,0,P|430:168|519:80,1,427.500016307831,2|0,0:0|0:0,0:0:0:0:
438,88,138000,1,0,0:0:0:0:
424,88,138050,1,0,0:0:0:0:
410,88,138100,1,0,0:0:0:0:
396,88,138150,1,0,0:0:0:0:
382,89,138200,70,0,P|317:92|237:86,1,142.500005435944,2|0,0:0|0:0,0:0:0:0:
168,47,138400,6,0,P|322:82|171:130,1,427.500016307831,2|0,0:0|0:0,0:0:0:0:
240,86,138800,70,0,P|311:82|382:88,1,142.500005435944,8|0,0:0|0:0,0:0:0:0:
450,134,139000,6,0,P|300:83|455:50,1,427.500016307831,2|0,0:0|0:0,0:0:0:0:
450,134,139400,1,0,0:0:0:0:
450,159,139500,1,0,0:0:0:0:
395,252,139600,6,0,P|262:296|132:246,1,285.000010871888,4|0,0:0|0:0,0:0:0:0:
132,226,139900,1,0,0:0:0:0:
132,227,140000,6,0,P|262:276|394:232,1,285.000010871888
395,211,140300,1,0,0:0:0:0:
395,212,140400,70,0,P|262:256|132:206,1,285.000010871888,0|0,0:0|0:0,0:0:0:0:
132,186,140700,1,0,0:0:0:0:
132,187,140800,6,0,P|262:236|394:192,1,285.000010871888
395,181,141100,1,0,0:0:0:0:
395,182,141200,70,0,L|391:117,1,35.625001358986,0|0,3:0|0:0,0:0:0:0:
132,176,141400,2,0,L|135:111,1,35.625001358986,0|0,3:0|0:0,0:0:0:0:
410,172,141600,6,0,L|406:107,1,35.625001358986,0|0,3:0|0:0,0:0:0:0:
117,166,141800,2,0,L|120:101,1,35.625001358986,0|0,3:0|0:0,0:0:0:0:
425,162,142000,70,0,L|421:97,1,35.625001358986,0|0,3:0|0:0,0:0:0:0:
102,156,142200,2,0,L|105:91,1,35.625001358986,0|0,3:0|0:0,0:0:0:0:
440,152,142400,6,0,L|436:87,1,35.625001358986,0|0,3:0|0:0,0:0:0:0:
87,146,142600,2,0,L|90:81,1,35.625001358986,0|0,3:0|0:0,0:0:0:0:
261,41,142800,69,4,0:0:0:0:
130,120,155236,86,0,L|112:331,1,190.000007247925,4|0,0:0|0:0,0:0:0:0:
288,262,155613,6,0,L|277:142,1,95.0000036239625
260,155,155864,1,0,0:0:0:0:
405,265,155990,70,0,L|415:144,1,95.0000036239625
396,154,156241,1,0,0:0:0:0:
288,262,156368,6,0,L|277:142,1,95.0000036239625
260,155,156619,1,0,0:0:0:0:
173,285,156745,70,0,L|141:168,1,95.0000036239625
126,184,156996,1,0,0:0:0:0:
288,262,157120,6,0,L|277:142,1,95.0000036239625
260,155,157371,1,0,0:0:0:0:
64,328,157495,70,0,L|12:218,1,95.0000036239625
0,236,157746,1,0,0:0:0:0:
173,285,157870,6,0,L|141:168,1,95.0000036239625
127,184,158121,1,0,0:0:0:0:
293,305,158245,70,0,L|242:118,1,190.000007247925
135,134,158617,6,0,L|137:249,1,95.0000036239625
153,243,158866,1,0,0:0:0:0:
18,120,158990,70,0,L|0:234,1,95.0000036239625
17,232,159238,1,0,0:0:0:0:
135,134,159363,6,0,L|137:249,1,95.0000036239625
153,243,159611,1,0,0:0:0:0:
251,121,159735,70,0,L|273:243,1,95.0000036239625
289,225,159981,1,0,0:0:0:0:
135,134,160105,6,0,L|137:255,1,95.0000036239625
153,243,160352,1,0,0:0:0:0:
364,92,160475,70,0,L|404:211,1,95.0000036239625
419,185,160722,1,0,0:0:0:0:
251,121,160846,6,0,B|263:187|263:187|237:268|237:268|266:360,1,237.500009059906
275,361,161216,70,0,L|85:346,1,190.000007247925,4|0,0:0|0:0,0:0:0:0:
39,218,161584,6,0,L|160:229,1,95.0000036239625
146,213,161829,1,0,0:0:0:0:
23,104,161952,70,0,L|117:114,1,95.0000036239625
130,102,162197,1,0,0:0:0:0:
39,218,162320,6,0,L|160:229,1,95.0000036239625
146,213,162565,1,0,0:0:0:0:
65,320,162688,70,0,L|171:330,1,95.0000036239625
172,315,162932,1,0,0:0:0:0:
39,218,163053,6,0,L|145:228,1,95.0000036239625
146,213,163297,1,0,0:0:0:0:
0,18,163419,70,0,L|106:28,1,95.0000036239625
107,13,163663,1,0,0:0:0:0:
26,120,163785,6,0,L|132:130,1,95.0000036239625
133,115,164029,1,0,0:0:0:0:
39,218,164151,70,0,L|272:236,1,190.000007247925
321,278,164514,6,0,L|311:169,1,85.5000003261566
303,184,164757,1,0,0:0:0:0:
431,257,164878,70,0,L|421:150,1,75.9999976806641
414,169,165121,1,0,0:0:0:0:
321,278,165241,6,0,L|312:179,1,66.4999979705811
306,199,165484,1,0,0:0:0:0:
231,297,165587,70,0,L|222:202,1,56.9999982604981
215,233,165827,1,0,0:0:0:0:
154,309,165948,6,0,L|147:246,1,47.5000018119813
140,255,166189,1,0,0:0:0:0:
107,320,166309,70,0,L|100:262,1,41.1666647822063
93,273,166550,1,0,0:0:0:0:
87,326,166671,6,0,L|78:281,1,31.6666666666667
73,296,166912,1,0,0:0:0:0:
74,332,167022,38,0,L|358:321,1,285.000010871888,6|0,0:0|0:0,0:0:0:0:
486,234,167736,6,0,L|202:245,1,285.000010871888,2|0,0:0|0:0,0:0:0:0:
37,166,168450,70,0,L|321:155,1,285.000010871888,2|0,0:0|0:0,0:0:0:0:
472,56,169164,6,0,L|215:65,1,190.000007247925,2|0,0:0|0:0,0:0:0:0:
92,69,169522,2,0,L|281:62,1,190.000007247925,2|2,0:0|0:0,0:0:0:0:
481,140,169879,70,0,L|188:149,1,285.000010871888,2|0,0:0|0:0,0:0:0:0:
39,233,170584,6,0,L|323:224,1,285.000010871888,2|0,0:0|0:0,0:0:0:0:
444,310,171290,70,0,L|159:318,1,285.000010871888,2|0,0:0|0:0,0:0:0:0:
66,322,171996,5,2,0:0:0:0:
106,237,172114,1,2,0:0:0:0:
159,318,172231,1,2,0:0:0:0:
43,337,172349,69,2,0:0:0:0:
105,215,172467,1,2,0:0:0:0:
185,331,172584,1,2,0:0:0:0:
34,342,172702,22,0,L|46:177,1,142.500005435944,6|0,0:0|0:0,0:0:0:0:
58,113,172934,2,0,L|194:205,1,142.500005435944,2|0,0:0|0:0,0:0:0:0:
244,254,173167,2,0,L|95:326,1,142.500005435944,2|0,0:0|0:3,0:3:0:0:
118,206,173399,6,0,L|266:133,1,142.500005435944,2|0,0:0|0:0,0:0:0:0:
343,54,173631,2,0,L|331:219,1,142.500005435944,2|0,0:0|0:0,0:0:0:0:
358,322,173864,2,0,L|221:229,1,142.500005435944,2|0,0:0|0:3,0:3:0:0:
176,99,174097,70,0,L|312:191,1,142.500005435944,2|0,0:0|0:0,0:0:0:0:
450,195,174329,2,0,L|301:267,1,142.500005435944,2|0,0:0|0:0,0:0:0:0:
230,384,174562,2,0,L|242:218,1,142.500005435944,2|0,0:0|0:3,0:3:0:0:
305,37,174795,6,0,L|293:202,1,142.500005435944,2|0,0:0|0:0,0:0:0:0:
440,337,175027,2,0,L|303:244,1,142.500005435944,2|0,0:0|0:0,0:0:0:0:
113,305,175260,2,0,L|261:232,1,142.500005435944,2|0,0:0|0:3,0:3:0:0:
295,167,175492,69,2,0:0:0:0:
331,263,175606,1,2,0:0:0:0:
229,247,175721,1,2,0:0:0:0:
299,151,175836,5,2,0:0:0:0:
345,274,175950,1,2,0:0:0:0:
214,254,176065,1,2,0:0:0:0:
303,125,176181,69,2,0:0:0:0:
365,291,176295,1,2,0:0:0:0:
189,263,176410,1,2,0:0:0:0:
307,101,176526,5,2,0:0:0:0:
384,305,176641,1,2,0:0:0:0:
166,272,176756,1,2,0:0:0:0:
326,68,176871,70,0,P|359:69|374:73,1,31.6666666666667,2|0,0:0|0:0,0:0:0:0:
186,110,176986,2,0,P|152:111|137:115,1,31.6666666666667,2|0,0:0|0:0,0:0:0:0:
326,148,177101,2,0,P|359:149|374:153,1,31.6666666666667,2|0,0:0|0:0,0:0:0:0:
174,190,177216,6,0,P|140:191|125:195,1,31.6666666666667,2|0,0:0|0:0,0:0:0:0:
340,227,177331,2,0,P|373:228|388:232,1,31.6666666666667,2|0,0:0|0:0,0:0:0:0:
174,271,177446,2,0,P|140:272|125:276,1,31.6666666666667,2|0,0:0|0:0,0:0:0:0:
376,315,177560,70,0,P|347:297|331:281,1,31.6666666666667,2|0,0:0|0:0,0:0:0:0:
130,274,177675,2,0,P|159:256|175:240,1,31.6666666666667,2|0,0:0|0:0,0:0:0:0:
363,214,177790,2,0,P|334:196|318:180,1,31.6666666666667,2|0,0:0|0:0,0:0:0:0:
167,179,177905,6,0,P|196:161|212:145,1,31.6666666666667,2|0,0:0|0:0,0:0:0:0:
332,113,178020,2,0,P|303:95|290:84,1,31.6666666666667,2|0,0:0|0:0,0:0:0:0:
196,61,178135,2,0,P|225:43|241:27,1,31.6666666666667,2|0,0:0|0:0,0:0:0:0:
305,149,178250,54,0,P|303:280|219:144,1,403.750015401841
410,98,179285,5,0,0:0:0:0:
117,97,179629,1,0,0:0:0:0:
410,98,179859,1,0,0:0:0:0:
117,97,179974,5,0,0:0:0:0:
410,98,180204,1,0,0:0:0:0:
54,97,180319,70,0,P|88:95|165:106,1,63.3333333333333
512,112,180664,2,0,P|396:135|188:117,1,316.666666666667
87,70,181009,22,0,L|110:258,1,190.000007247925,6|0,0:0|0:0,0:0:0:0:
44,353,181237,1,0,0:0:0:0:
200,120,181351,6,0,L|223:308,2,190.000007247925,2|0|0,0:0|0:0|0:0,0:0:0:0:
337,48,181694,69,2,0:0:0:0:
330,188,181809,1,0,0:0:0:0:
385,328,181923,1,0,0:0:0:0:
200,120,182037,6,0,L|223:308,2,190.000007247925,2|0|0,0:0|0:0|0:0,0:0:0:0:
51,81,182380,69,2,0:0:0:0:
93,214,182495,1,0,0:0:0:0:
77,363,182609,1,0,0:0:0:0:
188,21,182723,5,2,0:0:0:0:
200,120,182837,2,0,L|223:308,1,190.000007247925
9,82,183066,69,2,0:0:0:0:
21,182,183180,2,0,L|44:370,1,190.000007247925
95,16,183409,5,2,0:0:0:0:
107,116,183523,2,0,L|130:304,1,190.000007247925
195,84,183751,70,0,L|218:272,1,190.000007247925,2|0,0:0|0:0,0:0:0:0:
179,384,183979,1,0,0:0:0:0:
290,108,184094,6,0,L|313:296,2,190.000007247925,2|0|0,0:0|0:0|0:0,0:0:0:0:
422,57,184437,69,2,0:0:0:0:
495,179,184551,1,0,0:0:0:0:
467,322,184666,1,0,0:0:0:0:
290,108,184780,6,0,L|313:296,2,190.000007247925,2|0|0,0:0|0:0|0:0,0:0:0:0:
130,90,185123,69,2,0:0:0:0:
91,229,185237,1,0,0:0:0:0:
178,354,185352,1,0,0:0:0:0:
290,108,185466,6,0,L|313:296,1,190.000007247925,2|0,0:0|0:0,0:0:0:0:
411,334,185694,1,0,0:0:0:0:
512,203,185809,38,0,B|375:13|375:13|406:251,1,475.000018119813,2|0,0:0|0:0,0:0:0:0:
512,203,186151,6,0,P|412:135|305:192,1,253.333333333333,8|0,0:0|0:0,0:0:0:0:
289,343,186494,6,0,L|309:129,1,190.000007247925,2|0,0:0|0:0,0:0:0:0:
374,62,186723,1,0,0:0:0:0:
202,305,186837,6,0,L|222:91,1,190.000007247925,2|0,0:0|0:0,0:0:0:0:
227,33,187066,1,0,0:0:0:0:
52,323,187180,69,2,0:0:0:0:
104,185,187294,1,0,0:0:0:0:
72,50,187409,1,0,0:0:0:0:
202,305,187523,6,0,L|222:91,1,190.000007247925,2|0,0:0|0:0,0:0:0:0:
227,33,187752,1,0,0:0:0:0:
346,349,187866,69,2,0:0:0:0:
318,203,187980,1,0,0:0:0:0:
373,76,188095,1,0,0:0:0:0:
202,305,188209,6,0,L|222:91,1,190.000007247925,2|0,0:0|0:0,0:0:0:0:
227,33,188438,1,0,0:0:0:0:
424,312,188551,70,0,L|444:98,1,190.000007247925,2|0,0:0|0:0,0:0:0:0:
449,40,188780,1,0,0:0:0:0:
308,341,188894,6,0,L|328:127,1,190.000007247925,2|0,0:0|0:0,0:0:0:0:
333,69,189123,1,0,0:0:0:0:
210,366,189237,38,8,B|184:251|184:251|230:105|230:105|200:1,1,380.00001449585,0|0,0:0|0:0,0:0:0:0:
198,2,189580,6,0,B|175:109|175:109|231:251|231:251|213:368,1,380.00001449585
145,321,189923,70,0,P|232:154|299:330,1,475.000018119813
213,368,190266,6,0,B|231:251|231:251|175:109|175:109|198:2,1,380.00001449585
116,25,190609,38,0,B|96:112|96:112|127:197,1,158.333333333333
171,224,190951,6,0,P|181:146|81:236,1,316.666666666667
171,224,191294,2,0,P|181:146|81:236,1,316.666666666667
65,221,191637,70,0,P|123:108|164:231,1,316.666666666667
17,327,191980,54,0,L|207:314,1,190.000007247925,6|0,0:0|0:0,0:0:0:0:
328,339,192209,1,0,0:0:0:0:
93,239,192323,6,0,L|283:226,2,190.000007247925,2|0|0,0:0|0:0|0:0,0:0:0:0:
50,106,192666,69,2,0:0:0:0:
211,142,192780,1,0,0:0:0:0:
375,102,192894,1,0,0:0:0:0:
164,41,193009,6,0,L|190:241,1,190.000007247925,8|0,0:0|0:0,0:0:0:0:
259,162,193237,2,0,L|283:350,1,190.000007247925,8|0,0:0|0:0,0:0:0:0:
135,293,193466,1,0,0:0:0:0:
359,253,193580,1,0,0:0:0:0:
69,148,193694,70,0,L|291:164,1,190.000007247925,2|0,0:0|0:0,0:0:0:0:
377,135,193923,1,0,0:0:0:0:
121,256,194037,6,0,L|343:272,1,190.000007247925,2|0,0:0|0:0,0:0:0:0:
419,321,194266,1,2,0:0:0:0:
194,307,194380,38,0,P|317:147|419:321,1,475.000018119813,8|0,0:0|0:0,0:0:0:0:
311,270,194723,38,0,L|342:61,1,190.000007247925,2|0,0:0|0:0,0:0:0:0:
431,24,194951,1,0,0:0:0:0:
225,218,195066,70,0,L|256:9,2,190.000007247925,2|0|0,0:0|0:0|0:0,0:0:0:0:
55,302,195409,5,2,0:0:0:0:
119,157,195523,1,0,0:0:0:0:
76,1,195637,1,0,0:0:0:0:
397,40,195751,70,0,L|208:61,1,190.000007247925,8|0,0:0|0:0,0:0:0:0:
308,136,195980,2,0,L|119:157,1,190.000007247925,8|0,0:0|0:0,0:0:0:0:
38,271,196209,1,0,0:0:0:0:
82,69,196323,1,0,0:0:0:0:
192,259,196437,6,0,L|162:53,1,190.000007247925,2|0,0:0|0:0,0:0:0:0:
239,3,196666,1,0,0:0:0:0:
378,118,196780,38,0,B|296:338|296:338|262:100,1,475.000018119813,2|0,0:0|0:3,0:3:0:0:
262,100,197123,6,0,P|317:222|496:128,1,380.00001449585,8|0,0:0|0:3,0:3:0:0:
512,25,197466,6,0,L|317:35,1,190.000007247925,2|0,0:0|0:0,0:0:0:0:
191,6,197694,1,0,0:0:0:0:
415,114,197809,6,0,L|220:124,2,190.000007247925,2|0|0,0:0|0:0|0:0,0:0:0:0:
471,233,198151,69,2,0:0:0:0:
316,286,198266,1,0,0:0:0:0:
163,222,198380,1,0,0:0:0:0:
341,3,198494,6,0,L|303:201,1,190.000007247925,8|0,0:0|0:0,0:0:0:0:
405,144,198723,2,0,L|367:342,1,190.000007247925,8|0,0:0|0:0,0:0:0:0:
213,326,198951,1,0,0:0:0:0:
463,272,199066,1,0,0:0:0:0:
160,170,199180,69,2,0:0:0:0:
275,179,199294,2,0,L|499:197,1,190.000007247925
59,324,199523,5,2,0:0:0:0:
174,333,199637,2,0,L|398:351,1,190.000007247925
107,248,199866,69,2,0:0:0:0:
222,257,199980,2,0,L|446:275,1,190.000007247925
496,31,200209,69,8,0:0:0:0:
470,175,200323,1,0,0:0:0:0:
510,325,200437,1,0,0:0:0:0:
243,14,200551,69,8,0:0:0:0:
242,160,200665,1,0,0:0:0:0:
176,300,200779,1,0,0:0:0:0:
368,39,200894,6,0,L|348:281,1,190.000007247925,8|0,0:0|0:0,0:0:0:0:
344,336,201123,1,0,0:0:0:0:
432,160,201237,69,8,0:0:0:0:
279,205,201351,1,0,0:0:0:0:
123,152,201466,1,0,0:0:0:0:
433,63,201580,5,8,0:0:0:0:
281,108,201694,1,0,0:0:0:0:
125,56,201809,1,0,0:0:0:0:
360,201,201923,70,0,L|142:227,2,190.000007247925,8|0|0,0:0|0:0|0:0,0:0:0:0:
449,60,202266,6,0,L|432:290,1,190.000007247925,8|0,0:0|0:0,0:0:0:0:
463,359,202494,1,0,0:0:0:0:
160,60,202609,70,0,L|177:290,1,190.000007247925,8|0,0:0|0:0,0:0:0:0:
146,359,202837,1,0,0:0:0:0:
307,32,202951,53,4,3:2:0:0:
282,144,203293,1,0,3:2:0:0:
318,261,203637,1,0,3:2:0:0:
284,357,203979,1,0,3:2:0:0:
287,40,204322,5,0,3:2:0:0:
267,143,204674,1,0,3:2:0:0:
335,247,205027,1,0,3:2:0:0:
282,356,205384,1,0,3:2:0:0:
307,32,205562,1,0,3:2:0:0:
282,356,205741,69,0,3:2:0:0:
315,243,206104,1,0,3:2:0:0:
281,145,206468,1,0,3:2:0:0:
316,40,206831,1,0,3:2:0:0:
283,329,207200,5,0,3:2:0:0:
325,233,207569,1,0,3:2:0:0:
281,145,207819,1,0,3:2:0:0:
281,145,207944,2,0,L|237:142,2,23.75,0|0|0,3:2|3:2|3:2,3:2:0:0:
316,55,208131,1,0,3:2:0:0:
316,55,208319,69,0,3:2:0:0:
316,55,208509,1,0,3:2:0:0:
283,323,208699,37,0,3:2:0:0:
316,55,208890,1,0,3:2:0:0:
387,266,209080,2,0,L|409:159,1,95,0|0,3:2|3:2,3:2:0:0:
125,266,209461,2,0,L|103:159,1,95,0|0,3:2|3:2,3:2:0:0:
387,266,209842,2,0,L|409:159,1,95,0|0,3:2|3:2,3:2:0:0:
105,173,210229,70,0,L|86:80,1,95,0|0,3:2|3:2,3:2:0:0:
407,173,210622,2,0,L|427:80,1,95,0|0,3:2|3:2,3:2:0:0:
125,266,211015,2,0,L|103:163,1,95,0|0,3:2|3:2,3:2:0:0:
387,266,211409,2,0,L|409:163,1,95,0|0,3:2|3:2,3:2:0:0:
222,384,211802,5,0,3:2:0:0:
152,356,211901,1,0,3:2:0:0:
98,303,211999,1,0,3:2:0:0:
69,234,212097,1,0,3:2:0:0:
69,158,212196,1,0,3:2:0:0:
98,88,212294,1,0,3:2:0:0:
152,35,212392,1,0,3:2:0:0:
222,7,212491,1,0,3:2:0:0:
297,8,212589,1,0,3:2:0:0:
366,37,212688,1,0,3:2:0:0:
419,92,212786,1,0,3:2:0:0:
446,162,212884,1,0,3:2:0:0:
445,238,212983,1,0,3:2:0:0:
414,307,213081,1,0,3:2:0:0:
359,358,213179,1,0,3:2:0:0:
289,384,213278,1,0,3:2:0:0:
256,253,213376,69,0,0:0:0:0:
256,23,213573,1,0,0:0:0:0:
256,253,213769,1,0,0:0:0:0:
256,253,213966,1,0,0:0:0:0:
256,23,214163,6,0,L|255:79,1,47.5
260,362,214556,2,0,B|234:284|234:284|281:176|281:176|259:80,1,285
392,83,214950,6,0,L|363:373,1,285.000010871888,6|0,0:0|0:0,0:0:0:0:
363,366,215250,1,0,0:0:0:0:
97,101,215350,6,0,L|126:391,1,285.000010871888,2|0,0:0|0:0,0:0:0:0:
482,33,215750,70,0,L|462:227,1,142.500005435944,2|0,0:0|0:0,0:0:0:0:
453,316,215950,2,2,L|468:175,1,142.500005435944,0|0,0:0|0:0,0:0:0:0:
189,31,216150,6,0,L|218:321,1,285.000010871888,2|0,0:0|0:0,0:0:0:0:
392,83,216450,1,0,0:0:0:0:
392,83,216550,70,0,L|372:277,1,142.500005435944,2|0,0:0|0:0,0:0:0:0:
362,366,216750,2,2,L|377:225,1,142.500005435944,0|0,0:0|0:0,0:0:0:0:
106,56,216950,6,0,L|135:346,1,285.000010871888,2|0,0:0|0:0,0:0:0:0:
210,17,217350,70,0,L|230:211,1,142.500005435944,2|0,0:0|0:0,0:0:0:0:
239,301,217550,2,2,L|225:160,1,142.500005435944,0|0,0:0|0:0,0:0:0:0:
412,45,217750,6,0,L|441:335,1,285.000010871888,2|0,0:0|0:0,0:0:0:0:
315,66,218150,70,0,L|344:356,1,285.000010871888,2|0,0:0|0:0,0:0:0:0:
343,349,218450,1,0,0:0:0:0:
128,92,218550,6,0,L|99:382,1,285.000010871888,2|0,0:0|0:0,0:0:0:0:
393,53,218950,70,0,L|415:275,1,142.500005435944,2|0,0:0|0:0,0:0:0:0:
421,336,219150,2,2,L|407:194,1,142.500005435944,0|0,0:0|0:0,0:0:0:0:
39,59,219350,6,0,L|10:349,1,285.000010871888,2|0,0:0|0:0,0:0:0:0:
271,27,219650,1,0,0:0:0:0:
271,27,219750,70,0,L|293:249,1,142.500005435944,2|0,0:0|0:0,0:0:0:0:
299,310,219950,2,2,L|285:168,1,142.500005435944,0|0,0:0|0:0,0:0:0:0:
153,95,220150,6,0,L|124:385,1,285.000010871888,2|0,0:0|0:0,0:0:0:0:
478,163,220550,38,0,P|332:179|276:63,1,285.000010871888,2|0,0:0|0:0,0:0:0:0:
0,137,220950,6,0,P|54:254|91:75,1,427.500016307831,8|0,0:0|0:0,0:0:0:0:
25,23,221350,5,6,0:0:0:0:
487,186,221550,5,2,0:0:0:0:
24,341,221750,70,0,L|51:40,1,285.000010871888,2|0,0:0|0:0,0:0:0:0:
369,66,222150,6,0,L|382:208,1,142.500005435944,2|0,0:0|0:0,0:0:0:0:
395,350,222350,2,2,L|382:208,1,142.500005435944,0|0,0:0|0:0,0:0:0:0:
138,86,222550,70,0,L|113:370,1,285.000010871888,2|0,0:0|0:0,0:0:0:0:
113,369,222850,1,0,0:0:0:0:
489,317,222950,6,0,L|463:33,1,285.000010871888,2|0,0:0|0:0,0:0:0:0:
36,30,223350,70,0,L|11:314,1,285.000010871888,2|0,0:0|0:0,0:0:0:0:
411,382,223750,6,0,L|398:240,1,142.500005435944,2|0,0:0|0:0,0:0:0:0:
385,98,223950,2,2,L|398:240,1,142.500005435944,0|0,0:0|0:0,0:0:0:0:
118,361,224150,70,0,L|143:77,1,285.000010871888,2|0,0:0|0:0,0:0:0:0:
284,74,224550,6,0,L|310:358,1,285.000010871888,2|0,0:0|0:0,0:0:0:0:
309,357,224850,1,0,0:0:0:0:
24,341,224950,70,0,L|43:145,1,142.500005435944,2|0,0:0|0:0,0:0:0:0:
20,61,225150,70,0,P|46:100|29:93,1,142.500005435944
24,341,225350,70,0,P|-14:301|40:304,1,142.500005435944
86,88,225750,6,0,P|30:85|69:124,1,142.500005435944
124,232,225950,69,2,0:0:0:0:
123,209,226050,1,2,0:0:0:0:
206,44,226150,6,0,L|218:328,1,285.000010871888,2|0,0:0|0:0,0:0:0:0:
289,13,226450,70,0,L|296:191,1,142.500005435944,2|0,0:0|0:0,0:0:0:0:
133,367,226650,1,2,0:0:0:0:
133,367,226750,2,0,L|125:188,1,142.500005435944,2|0,0:0|0:0,0:0:0:0:
56,39,226950,5,2,0:0:0:0:
218,328,227150,1,2,0:0:0:0:
382,14,227350,70,0,P|421:140|309:209,2,285.000010871888,2|2|0,0:0|0:0|0:0,0:0:0:0:
40,71,227950,21,0,0:0:0:0:
324,101,228050,1,8,0:0:0:0:
324,101,228150,2,0,L|40:71,1,285.000010871888,6|8,0:0|0:0,0:0:0:0:
18,377,228550,6,0,L|302:348,1,285.000010871888,2|0,0:0|0:0,0:0:0:0:
0,148,228850,69,8,0:0:0:0:
0,148,228950,2,0,L|284:178,1,285.000010871888,2|8,0:0|0:0,0:0:0:0:
384,192,229250,1,0,0:0:0:0:
380,340,229350,6,0,L|96:369,1,285.000010871888,2|0,0:0|0:0,0:0:0:0:
40,71,229650,69,8,0:0:0:0:
40,71,229750,2,0,L|324:101,1,285.000010871888,2|8,0:0|0:0,0:0:0:0:
437,227,230150,6,0,L|296:242,1,142.500005435944,2|0,0:0|0:0,0:0:0:0:
154,256,230350,2,0,L|296:242,1,142.500005435944,8|0,0:0|0:0,0:0:0:0:
497,30,230550,70,0,L|356:16,1,142.500005435944,2|0,0:0|0:0,0:0:0:0:
213,2,230751,2,0,L|355:16,1,142.500005435944,8|0,0:0|0:0,0:0:0:0:
469,120,230950,6,0,L|186:91,1,285.000010871888,2|0,0:0|0:0,0:0:0:0:
512,293,231250,69,8,0:0:0:0:
512,293,231350,2,0,L|228:263,1,285.000010871888,2|8,0:0|0:0,0:0:0:0:
0,72,231750,6,0,L|284:102,1,285.000010871888,2|0,0:0|0:0,0:0:0:0:
60,338,232050,69,8,0:0:0:0:
60,338,232150,2,0,L|344:368,1,285.000010871888,2|8,0:0|0:0,0:0:0:0:
446,380,232450,1,0,0:0:0:0:
314,199,232550,6,0,L|31:170,1,285.000010871888,2|0,0:0|0:0,0:0:0:0:
188,272,232850,69,8,0:0:0:0:
188,272,232950,2,0,L|472:302,1,285.000010871888,2|8,0:0|0:0,0:0:0:0:
464,192,233250,1,0,0:0:0:0:
464,192,233350,70,0,P|376:159|309:188,1,142.500005435944,8|0,0:0|0:0,0:0:0:0:
6,68,233550,2,0,P|93:35|160:64,1,142.500005435944,2|0,0:0|0:0,0:0:0:0:
502,88,233750,70,0,P|297:71|159:225,1,427.500016307831,10|0,0:0|0:0,0:0:0:0:
127,328,234150,22,0,L|447:357,1,285.000010871888,6|0,0:0|0:0,0:0:0:0:
512,368,234450,1,8,0:0:0:0:
358,225,234550,6,0,L|38:254,1,285.000010871888,2|8,0:0|0:0,0:0:0:0:
155,115,234950,70,0,L|296:127,1,142.500005435944,2|0,0:0|0:0,0:0:0:0:
439,139,235150,2,2,L|188:117,1,142.500005435944,0|8,0:0|0:0,0:0:0:0:
76,30,235350,6,0,L|360:5,1,285.000010871888,2|8,0:0|0:0,0:0:0:0:
438,361,235650,1,0,0:0:0:0:
438,361,235750,70,0,L|155:336,1,285.000010871888,2|0,0:0|0:0,0:0:0:0:
155,115,236050,5,8,0:0:0:0:
155,115,236150,2,0,L|475:144,1,285.000010871888,2|8,0:0|0:0,0:0:0:0:
74,250,236550,70,0,L|314:230,1,142.500005435944,2|0,0:0|0:0,0:0:0:0:
358,226,236750,2,2,L|216:238,1,142.500005435944,8|0,0:0|0:0,0:0:0:0:
154,115,236950,6,0,L|295:127,1,142.500005435944,2|0,0:0|0:0,0:0:0:0:
438,140,237150,2,0,L|296:127,1,142.500005435944,8|0,0:0|0:0,0:0:0:0:
22,45,237350,37,2,3:2:0:0:
25,87,237450,1,0,3:2:0:0:
29,130,237550,1,0,3:2:0:0:
33,172,237650,1,0,3:2:0:0:
37,215,237750,5,2,3:2:0:0:
77,185,237850,1,0,3:2:0:0:
117,155,237950,1,0,3:2:0:0:
157,125,238050,1,0,3:2:0:0:
196,95,238150,69,2,3:2:0:0:
191,152,238250,1,0,3:2:0:0:
186,208,238350,1,0,3:2:0:0:
181,265,238450,1,0,3:2:0:0:
175,322,238550,5,2,3:2:0:0:
239,312,238650,1,0,3:2:0:0:
302,303,238750,1,0,3:2:0:0:
366,293,238850,1,0,3:2:0:0:
429,283,238950,69,2,3:2:0:0:
351,272,239050,1,0,3:2:0:0:
274,261,239150,1,0,3:2:0:0:
196,250,239250,1,0,3:2:0:0:
119,239,239350,5,2,3:2:0:0:
204,229,239450,1,0,3:2:0:0:
289,220,239550,1,0,3:2:0:0:
374,210,239650,1,0,3:2:0:0:
459,201,239750,69,10,3:2:0:0:
367,189,239850,1,0,3:2:0:0:
275,177,239950,1,0,3:2:0:0:
183,166,240050,1,0,3:2:0:0:
91,154,240150,5,10,3:2:0:0:
190,143,240250,1,0,3:2:0:0:
289,131,240350,1,0,3:2:0:0:
388,120,240450,1,0,3:2:0:0:
495,109,240550,69,4,3:2:0:0:
