osu file format v14

[General]
AudioFilename: audio.mp3
AudioLeadIn: 0
PreviewTime: 26313
Countdown: 0
SampleSet: Normal
StackLeniency: 0.7
Mode: 1
LetterboxInBreaks: 0
WidescreenStoryboard: 0

[Editor]
DistanceSpacing: 0.8
BeatDivisor: 4
GridSize: 32
TimelineZoom: 1.8

[Metadata]
Title:Diastrophism
TitleUnicode:Diastrophism
Artist:Camellia
ArtistUnicode:かめりあ
Creator:rubies87
Version:Volcanic Oni
Source:jubeat clan
Tags:かめるかめりあ KamelCamellia Cametek Instrumental Video Game The 7th KONAMI Arcade Championship KAC Speedcore Electronic Rock Genre Switches Genjuro Nwolf HiroK
BeatmapID:2234262
BeatmapSetID:1067161

[Difficulty]
HPDrainRate:5
CircleSize:2
OverallDifficulty:7
ApproachRate:10
SliderMultiplier:1.4
SliderTickRate:1

[Events]
//Background and Video events
0,0,"bg.jpg",0,-50
//Break Periods
2,66313,70523
//Storyboard Layer 0 (Background)
//Storyboard Layer 1 (Fail)
//Storyboard Layer 2 (Pass)
//Storyboard Layer 3 (Foreground)
//Storyboard Layer 4 (Overlay)
//Storyboard Sound Samples

[TimingPoints]
1050,263.157894736842,4,1,0,70,1,0
1050,-133.333333333333,4,1,0,70,0,0
8813,-122.850122850123,4,1,0,70,0,0
8878,-120.336943441637,4,1,0,70,0,0
8944,-117.924528301887,4,1,0,70,0,0
9076,-113.122171945701,4,1,0,70,0,0
9207,-108.5776330076,4,1,0,70,0,0
9339,-104.166666666667,4,1,0,70,0,0
9471,-100,4,1,0,70,0,0
9734,-125,4,1,0,70,0,0
15901,-100,4,1,0,70,0,0
16032,-105.263157894737,4,1,0,70,0,0
16164,-111.731843575419,4,1,0,70,0,0
16296,-100,4,1,0,70,0,0
16427,-105.263157894737,4,1,0,70,0,0
16559,-111.731843575419,4,1,0,70,0,0
16690,-117.647058823529,4,1,0,70,0,0
16822,-100,4,1,0,70,0,0
16888,-102.564102564103,4,1,0,70,0,0
16954,-105.263157894737,4,1,0,70,0,0
17019,-108.108108108108,4,1,0,70,0,0
17085,-111.731843575419,4,1,0,70,0,0
17217,-100,4,1,0,70,0,0
17283,-102.564102564103,4,1,0,70,0,0
17349,-105.263157894737,4,1,0,70,0,0
17414,-108.108108108108,4,1,0,70,0,0
17480,-111.111111111111,4,1,0,70,0,0
17612,-100,4,1,0,70,0,0
17875,-100,4,1,0,70,0,0
17940,-97.65625,4,1,0,70,0,0
18006,-95.3288846520496,4,1,0,70,0,0
18138,-100,4,1,0,70,0,0
18269,-100,4,1,0,70,0,0
18335,-97.65625,4,1,0,70,0,0
18401,-95.3288846520496,4,1,0,70,0,0
18533,-100,4,1,0,70,0,0
18665,-100,4,1,0,70,0,0
18730,-97.65625,4,1,0,70,0,0
18796,-95.3288846520496,4,1,0,70,0,0
18928,-95.3288846520496,4,1,0,70,0,0
18994,-97.65625,4,1,0,70,0,0
19059,-100,4,1,0,70,0,0
19191,-100,4,1,0,70,0,0
19323,-95.3288846520496,4,1,0,70,0,0
19389,-97.65625,4,1,0,70,0,0
19454,-100,4,1,0,70,0,0
19586,-100,4,1,0,70,0,0
19717,-95.3288846520496,4,1,0,70,0,0
19783,-97.65625,4,1,0,70,0,0
19848,-100,4,1,0,70,0,0
19980,-100,4,1,0,70,0,0
20045,-97.65625,4,1,0,70,0,0
20111,-95.3288846520496,4,1,0,70,0,0
20243,-100,4,1,0,70,0,0
20374,-100,4,1,0,70,0,0
20440,-97.65625,4,1,0,70,0,0
20506,-95.3288846520496,4,1,0,70,0,0
20638,-100,4,1,0,70,0,0
20770,-100,4,1,0,70,0,0
20835,-97.65625,4,1,0,70,0,0
20901,-95.3288846520496,4,1,0,70,0,0
21033,-95.3288846520496,4,1,0,70,0,0
21099,-97.65625,4,1,0,70,0,0
21164,-100,4,1,0,70,0,0
21296,-100,4,1,0,70,0,0
21428,-95.3288846520496,4,1,0,70,0,0
21494,-97.65625,4,1,0,70,0,0
21559,-100,4,1,0,70,0,0
21691,-100,4,1,0,70,0,0
21822,-95.3288846520496,4,1,0,70,0,0
21888,-97.65625,4,1,0,70,0,0
21953,-100,4,1,0,70,0,0
22151,-99.502487562189,4,1,0,70,0,0
22217,-99.009900990099,4,1,0,70,0,0
22282,-98.5221674876847,4,1,0,70,0,0
22348,-98.0392156862745,4,1,0,70,0,0
22414,-97.5609756097561,4,1,0,70,0,0
22480,-97.0873786407767,4,1,0,70,0,0
22546,-96.6183574879227,4,1,0,70,0,0
22611,-96.1538461538461,4,1,0,70,0,0
22677,-95.6937799043062,4,1,0,70,0,0
22743,-95.2380952380952,4,1,0,70,0,0
22809,-94.7867298578199,4,1,0,70,0,0
22875,-94.3396226415094,4,1,0,70,0,0
22940,-93.8967136150235,4,1,0,70,0,0
23006,-93.4579439252336,4,1,0,70,0,0
23072,-93.0232558139535,4,1,0,70,0,0
23138,-92.5925925925926,4,1,0,70,0,0
23182,-92.3105326317733,4,1,0,70,0,0
23225,-92.0217171252416,4,1,0,70,0,0
23269,-91.743119266055,4,1,0,70,0,0
23335,-91.324200913242,4,1,0,70,0,0
23401,-90.9090909090909,4,1,0,70,0,0
23445,-90.637179370978,4,1,0,70,0,0
23489,-90.3587241348152,4,1,0,70,0,0
23532,-90.0900900900901,4,1,0,70,0,0
23598,-89.6860986547085,4,1,0,70,0,0
23664,-89.2857142857143,4,1,0,70,0,0
23708,-89.0234131576605,4,1,0,70,0,0
23752,-88.7547705689181,4,1,0,70,0,0
23796,-88.4955752212389,4,1,0,70,0,0
23861,-88.1057268722467,4,1,0,70,0,0
23927,-87.719298245614,4,1,0,70,0,0
23971,-87.4661068835826,4,1,0,70,0,0
24015,-87.2067672451382,4,1,0,70,0,0
24059,-86.9565217391304,4,1,0,70,0,0
24125,-86.5800865800866,4,1,0,70,0,0
24190,-86.2068965517241,4,1,0,70,0,0
26559,-82.6446280991736,4,1,0,70,0,0
26839,-90.9090909090909,4,1,0,70,0,1
26889,-93.1098696461825,4,1,0,70,0,1
26955,-95.3288846520496,4,1,0,70,0,1
27020,-97.65625,4,1,0,70,0,1
27086,-90.9090909090909,4,1,0,70,0,1
27152,-93.1098696461825,4,1,0,70,0,1
27218,-95.3288846520496,4,1,0,70,0,1
27283,-97.65625,4,1,0,70,0,1
27349,-100,4,1,0,70,0,1
27415,-102.459016393443,4,1,0,70,0,1
27480,-104.931794333683,4,1,0,70,0,1
27546,-107.411385606874,4,1,0,70,0,1
27612,-90.9090909090909,4,1,0,70,0,1
27678,-93.1098696461825,4,1,0,70,0,1
27744,-95.3288846520496,4,1,0,70,0,1
27809,-97.65625,4,1,0,70,0,1
27875,-90.9090909090909,4,1,0,70,0,1
27941,-93.1098696461825,4,1,0,70,0,1
28007,-95.3288846520496,4,1,0,70,0,1
28072,-97.65625,4,1,0,70,0,1
28138,-100,4,1,0,70,0,1
28204,-102.459016393443,4,1,0,70,0,1
28269,-104.931794333683,4,1,0,70,0,1
28335,-107.411385606874,4,1,0,70,0,1
28401,-110.01100110011,4,1,0,70,0,1
28665,-100,4,1,0,70,0,1
28928,-90.9090909090909,4,1,0,70,0,1
28994,-93.1098696461825,4,1,0,70,0,1
29060,-95.3288846520496,4,1,0,70,0,1
29125,-97.65625,4,1,0,70,0,1
29191,-90.9090909090909,4,1,0,70,0,1
29257,-93.1098696461825,4,1,0,70,0,1
29323,-95.3288846520496,4,1,0,70,0,1
29388,-97.65625,4,1,0,70,0,1
29454,-100,4,1,0,70,0,1
29520,-102.459016393443,4,1,0,70,0,1
29585,-104.931794333683,4,1,0,70,0,1
29651,-107.411385606874,4,1,0,70,0,1
29717,-90.9090909090909,4,1,0,70,0,1
29783,-93.1098696461825,4,1,0,70,0,1
29849,-95.3288846520496,4,1,0,70,0,1
29914,-97.65625,4,1,0,70,0,1
29980,-90.9090909090909,4,1,0,70,0,1
30024,-92.3361034164358,4,1,0,70,0,1
30068,-93.8086303939962,4,1,0,70,0,1
30112,-95.3288846520496,4,1,0,70,0,1
30177,-97.65625,4,1,0,70,0,1
30243,-100,4,1,0,70,0,1
30375,-104.931794333683,4,1,0,70,0,1
30507,-100,4,1,0,70,0,1
30770,-82.6446280991736,4,1,0,70,0,1
31033,-90.9090909090909,4,1,0,70,0,1
31099,-93.1098696461825,4,1,0,70,0,1
31165,-95.3288846520496,4,1,0,70,0,1
31230,-97.65625,4,1,0,70,0,1
31296,-90.9090909090909,4,1,0,70,0,1
31362,-93.1098696461825,4,1,0,70,0,1
31428,-95.3288846520496,4,1,0,70,0,1
31493,-97.65625,4,1,0,70,0,1
31559,-100,4,1,0,70,0,1
31625,-102.459016393443,4,1,0,70,0,1
31690,-104.931794333683,4,1,0,70,0,1
31756,-107.411385606874,4,1,0,70,0,1
31822,-90.9090909090909,4,1,0,70,0,1
31888,-93.1098696461825,4,1,0,70,0,1
31954,-95.3288846520496,4,1,0,70,0,1
32019,-97.65625,4,1,0,70,0,1
32086,-82.6446280991736,4,1,0,70,0,1
32174,-85.3242320819113,4,1,0,70,0,1
32262,-88.0281690140845,4,1,0,70,0,1
32349,-90.9090909090909,4,1,0,70,0,1
32437,-93.8086303939962,4,1,0,70,0,1
32525,-96.8992248062015,4,1,0,70,0,1
32611,-100,4,1,0,70,0,1
32744,-104.931794333683,4,1,0,70,0,1
32875,-110.01100110011,4,1,0,70,0,1
33138,-121.065375302663,4,1,0,70,0,1
33401,-133.155792276964,4,1,0,70,0,1
33665,-146.412884333821,4,1,0,70,0,1
33796,-139.664804469274,4,1,0,70,0,1
33862,-136.239782016349,4,1,0,70,0,1
33928,-133.155792276964,4,1,0,70,0,1
34059,-126.903553299492,4,1,0,70,0,1
34191,-121.065375302663,4,1,0,70,0,1
34257,-118.203309692671,4,1,0,70,0,1
34323,-115.340253748558,4,1,0,70,0,1
34388,-112.612612612613,4,1,0,70,0,1
34454,-110.01100110011,4,1,0,70,0,1
34586,-104.931794333683,4,1,0,70,0,1
34717,-100,4,1,0,70,0,1
34980,-82.6446280991736,4,1,0,70,0,1
35244,-90.9090909090909,4,1,0,70,0,1
35309,-93.1098696461825,4,1,0,70,0,1
35375,-95.3288846520496,4,1,0,70,0,1
35440,-97.65625,4,1,0,70,0,1
35506,-90.9090909090909,4,1,0,70,0,1
35572,-93.1098696461825,4,1,0,70,0,1
35638,-95.3288846520496,4,1,0,70,0,1
35703,-97.65625,4,1,0,70,0,1
35769,-100,4,1,0,70,0,1
35835,-102.459016393443,4,1,0,70,0,1
35900,-104.931794333683,4,1,0,70,0,1
35966,-107.411385606874,4,1,0,70,0,1
36032,-90.9090909090909,4,1,0,70,0,1
36098,-93.1098696461825,4,1,0,70,0,1
36164,-95.3288846520496,4,1,0,70,0,1
36229,-97.65625,4,1,0,70,0,1
36296,-90.9090909090909,4,1,0,70,0,1
36362,-93.1098696461825,4,1,0,70,0,1
36428,-95.3288846520496,4,1,0,70,0,1
36493,-97.65625,4,1,0,70,0,1
36559,-100,4,1,0,70,0,1
36625,-102.459016393443,4,1,0,70,0,1
36690,-104.931794333683,4,1,0,70,0,1
36756,-107.411385606874,4,1,0,70,0,1
36822,-110.01100110011,4,1,0,70,0,1
37086,-100,4,1,0,70,0,1
37349,-90.9090909090909,4,1,0,70,0,1
37414,-93.1098696461825,4,1,0,70,0,1
37480,-95.3288846520496,4,1,0,70,0,1
37545,-97.65625,4,1,0,70,0,1
37611,-90.9090909090909,4,1,0,70,0,1
37677,-93.1098696461825,4,1,0,70,0,1
37743,-95.3288846520496,4,1,0,70,0,1
37808,-97.65625,4,1,0,70,0,1
37874,-100,4,1,0,70,0,1
37940,-102.459016393443,4,1,0,70,0,1
38005,-104.931794333683,4,1,0,70,0,1
38071,-107.411385606874,4,1,0,70,0,1
38137,-90.9090909090909,4,1,0,70,0,1
38203,-93.1098696461825,4,1,0,70,0,1
38269,-95.3288846520496,4,1,0,70,0,1
38334,-97.65625,4,1,0,70,0,1
38401,-90.9090909090909,4,1,0,70,0,1
38445,-92.3361034164358,4,1,0,70,0,1
38489,-93.8086303939962,4,1,0,70,0,1
38533,-95.3288846520496,4,1,0,70,0,1
38598,-97.65625,4,1,0,70,0,1
38664,-100,4,1,0,70,0,1
38796,-104.931794333683,4,1,0,70,0,1
38928,-110.01100110011,4,1,0,70,0,1
39059,-86.6551126516464,4,1,0,70,0,1
39125,-84.6023688663283,4,1,0,70,0,1
39191,-82.6446280991736,4,1,0,70,0,1
39256,-80.7102502017756,4,1,0,70,0,1
39322,-78.8022064617809,4,1,0,70,0,1
39455,-75.1314800901578,4,1,0,70,0,1
39717,-90.9090909090909,4,1,0,70,0,1
39783,-93.1098696461825,4,1,0,70,0,1
39849,-95.3288846520496,4,1,0,70,0,1
39914,-97.65625,4,1,0,70,0,1
39980,-100,4,1,0,70,0,1
40112,-86.6551126516464,4,1,0,70,0,1
40178,-84.6023688663283,4,1,0,70,0,1
40244,-82.6446280991736,4,1,0,70,0,1
40309,-80.7102502017756,4,1,0,70,0,1
40375,-78.8022064617809,4,1,0,70,0,1
40507,-75.1314800901578,4,1,0,70,0,1
40770,-90.9090909090909,4,1,0,70,0,1
40836,-93.1098696461825,4,1,0,70,0,1
40902,-95.3288846520496,4,1,0,70,0,1
40967,-97.65625,4,1,0,70,0,1
41033,-100,4,1,0,70,0,1
41165,-104.931794333683,4,1,0,70,0,1
41428,-95.3288846520496,4,1,0,70,0,1
41559,-100,4,1,0,70,0,1
41691,-104.931794333683,4,1,0,70,0,1
41954,-90.9090909090909,4,1,0,70,0,1
42102,-95.3288846520496,4,1,0,70,0,0
43155,-117.647058823529,4,1,0,70,0,0
43418,-133.333333333333,4,1,0,70,0,0
46839,-80,4,1,0,70,0,0
47365,-100,4,1,0,70,0,0
55770,-100,4,1,0,70,0,0
55835,-97.65625,4,1,0,70,0,0
55901,-95.3288846520496,4,1,0,70,0,0
56033,-100,4,1,0,70,0,0
56164,-100,4,1,0,70,0,0
56230,-97.65625,4,1,0,70,0,0
56296,-95.3288846520496,4,1,0,70,0,0
56428,-100,4,1,0,70,0,0
56560,-100,4,1,0,70,0,0
56625,-97.65625,4,1,0,70,0,0
56691,-95.3288846520496,4,1,0,70,0,0
56823,-95.3288846520496,4,1,0,70,0,0
56889,-97.65625,4,1,0,70,0,0
56954,-100,4,1,0,70,0,0
57086,-100,4,1,0,70,0,0
57218,-95.3288846520496,4,1,0,70,0,0
57284,-97.65625,4,1,0,70,0,0
57349,-100,4,1,0,70,0,0
57481,-100,4,1,0,70,0,0
57612,-95.3288846520496,4,1,0,70,0,0
57678,-97.65625,4,1,0,70,0,0
57743,-100,4,1,0,70,0,0
57875,-100,4,1,0,70,0,0
57940,-97.65625,4,1,0,70,0,0
58006,-95.3288846520496,4,1,0,70,0,0
58138,-100,4,1,0,70,0,0
58269,-100,4,1,0,70,0,0
58335,-97.65625,4,1,0,70,0,0
58401,-95.3288846520496,4,1,0,70,0,0
58533,-100,4,1,0,70,0,0
58665,-100,4,1,0,70,0,0
58730,-97.65625,4,1,0,70,0,0
58796,-95.3288846520496,4,1,0,70,0,0
58928,-95.3288846520496,4,1,0,70,0,0
58994,-97.65625,4,1,0,70,0,0
59059,-100,4,1,0,70,0,0
59191,-100,4,1,0,70,0,0
59323,-95.3288846520496,4,1,0,70,0,0
59389,-97.65625,4,1,0,70,0,0
59454,-100,4,1,0,70,0,0
59586,-100,4,1,0,70,0,0
59717,-95.3288846520496,4,1,0,70,0,0
59783,-97.65625,4,1,0,70,0,0
59848,-100,4,1,0,70,0,0
59980,-100,4,1,0,70,0,0
60045,-97.65625,4,1,0,70,0,0
60111,-95.3288846520496,4,1,0,70,0,0
60243,-100,4,1,0,70,0,0
60374,-100,4,1,0,70,0,0
60440,-97.65625,4,1,0,70,0,0
60506,-95.3288846520496,4,1,0,70,0,0
60638,-100,4,1,0,70,0,0
60770,-100,4,1,0,70,0,0
60835,-97.65625,4,1,0,70,0,0
60901,-95.3288846520496,4,1,0,70,0,0
61033,-95.3288846520496,4,1,0,70,0,0
61099,-97.65625,4,1,0,70,0,0
61164,-100,4,1,0,70,0,0
61296,-100,4,1,0,70,0,0
61428,-95.3288846520496,4,1,0,70,0,0
61494,-97.65625,4,1,0,70,0,0
61559,-100,4,1,0,70,0,0
61691,-100,4,1,0,70,0,0
61822,-95.3288846520496,4,1,0,70,0,0
61888,-97.65625,4,1,0,70,0,0
61953,-100,4,1,0,70,0,0
62086,-93.1098696461825,4,1,0,70,0,0
62217,-100,4,1,0,70,0,0
62480,-93.1098696461825,4,1,0,70,0,0
62611,-100,4,1,0,70,0,0
62875,-93.1098696461825,4,1,0,70,0,0
63006,-100,4,1,0,70,0,0
63533,-97.65625,4,1,0,70,0,0
63599,-95.3288846520496,4,1,0,70,0,0
63665,-93.1098696461825,4,1,0,70,0,0
63796,-88.7311446317657,4,1,0,70,0,0
63928,-84.6023688663283,4,1,0,70,0,0
64059,-80.7102502017756,4,1,0,70,0,0
64191,-76.9230769230769,4,1,0,70,0,0
65260,-133.333333333333,4,1,0,70,0,0
71954,-122.850122850123,4,1,0,70,0,0
72019,-120.336943441637,4,1,0,70,0,0
72085,-117.924528301887,4,1,0,70,0,0
72217,-113.122171945701,4,1,0,70,0,0
72348,-108.5776330076,4,1,0,70,0,0
72480,-104.166666666667,4,1,0,70,0,0
72612,-100,4,1,0,70,0,0
72892,-125,4,1,0,70,0,0
80128,-120.772946859903,4,1,0,70,0,0
80260,-116.686114352392,4,1,0,70,0,0
80392,-112.739571589628,4,1,0,70,0,0
80523,-108.932461873638,4,1,0,70,0,0
80655,-105.263157894737,4,1,0,70,0,0
80786,-101.83299389002,4,1,0,70,0,0
80918,-98.4251968503937,4,1,0,70,0,0
81049,-80,4,1,0,70,0,0
81971,-88.8888888888889,4,1,0,70,0,0
82102,-100,4,1,0,70,0,0
83155,-80,4,1,0,70,0,0
84076,-88.8888888888889,4,1,0,70,0,0
84207,-100,4,1,0,70,0,0
85260,-80,4,1,0,70,0,0
86181,-88.8888888888889,4,1,0,70,0,0
86313,-100,4,1,0,70,0,0
87365,-80,4,1,0,70,0,0
88155,-66.6666666666667,4,1,0,70,0,0
88286,-57.1428571428571,4,1,0,70,0,0
88418,-100,4,1,0,70,0,0
89076,-100,4,1,0,70,0,0
89454,-100,4,1,0,70,0,0
89519,-97.65625,4,1,0,70,0,0
89585,-95.3288846520496,4,1,0,70,0,0
89717,-100,4,1,0,70,0,0
89848,-100,4,1,0,70,0,0
89914,-97.65625,4,1,0,70,0,0
89980,-95.3288846520496,4,1,0,70,0,0
90112,-100,4,1,0,70,0,0
90244,-100,4,1,0,70,0,0
90309,-97.65625,4,1,0,70,0,0
90375,-95.3288846520496,4,1,0,70,0,0
90507,-95.3288846520496,4,1,0,70,0,0
90573,-97.65625,4,1,0,70,0,0
90638,-100,4,1,0,70,0,0
90770,-100,4,1,0,70,0,0
90902,-95.3288846520496,4,1,0,70,0,0
90968,-97.65625,4,1,0,70,0,0
91033,-100,4,1,0,70,0,0
91165,-100,4,1,0,70,0,0
91296,-95.3288846520496,4,1,0,70,0,0
91362,-97.65625,4,1,0,70,0,0
91427,-100,4,1,0,70,0,0
91559,-100,4,1,0,70,0,0
91624,-97.65625,4,1,0,70,0,0
91690,-95.3288846520496,4,1,0,70,0,0
91822,-100,4,1,0,70,0,0
91953,-100,4,1,0,70,0,0
92019,-97.65625,4,1,0,70,0,0
92085,-95.3288846520496,4,1,0,70,0,0
92217,-100,4,1,0,70,0,0
92349,-100,4,1,0,70,0,0
92414,-97.65625,4,1,0,70,0,0
92480,-95.3288846520496,4,1,0,70,0,0
92612,-95.3288846520496,4,1,0,70,0,0
92678,-97.65625,4,1,0,70,0,0
92743,-100,4,1,0,70,0,0
92875,-100,4,1,0,70,0,0
93007,-95.3288846520496,4,1,0,70,0,0
93073,-97.65625,4,1,0,70,0,0
93138,-100,4,1,0,70,0,0
93270,-100,4,1,0,70,0,0
93401,-95.3288846520496,4,1,0,70,0,0
93467,-97.65625,4,1,0,70,0,0
93532,-100,4,1,0,70,0,0
93730,-99.502487562189,4,1,0,70,0,0
93796,-99.009900990099,4,1,0,70,0,0
93861,-98.5221674876847,4,1,0,70,0,0
93927,-98.0392156862745,4,1,0,70,0,0
93993,-97.5609756097561,4,1,0,70,0,0
94059,-97.0873786407767,4,1,0,70,0,0
94125,-96.6183574879227,4,1,0,70,0,0
94190,-96.1538461538461,4,1,0,70,0,0
94256,-95.6937799043062,4,1,0,70,0,0
94322,-95.2380952380952,4,1,0,70,0,0
94388,-94.7867298578199,4,1,0,70,0,0
94454,-94.3396226415094,4,1,0,70,0,0
94519,-93.8967136150235,4,1,0,70,0,0
94585,-93.4579439252336,4,1,0,70,0,0
94651,-93.0232558139535,4,1,0,70,0,0
94717,-92.5925925925926,4,1,0,70,0,0
94761,-92.3105326317733,4,1,0,70,0,0
94804,-92.0217171252416,4,1,0,70,0,0
94848,-91.743119266055,4,1,0,70,0,0
94914,-91.324200913242,4,1,0,70,0,0
94980,-90.9090909090909,4,1,0,70,0,0
95024,-90.637179370978,4,1,0,70,0,0
95068,-90.3587241348152,4,1,0,70,0,0
95111,-90.0900900900901,4,1,0,70,0,0
95177,-89.6860986547085,4,1,0,70,0,0
95243,-89.2857142857143,4,1,0,70,0,0
95287,-89.0234131576605,4,1,0,70,0,0
95331,-88.7547705689181,4,1,0,70,0,0
95375,-88.4955752212389,4,1,0,70,0,0
95440,-88.1057268722467,4,1,0,70,0,0
95506,-87.719298245614,4,1,0,70,0,0
95550,-87.4661068835826,4,1,0,70,0,0
95594,-87.2067672451382,4,1,0,70,0,0
95638,-86.9565217391304,4,1,0,70,0,0
95704,-86.5800865800866,4,1,0,70,0,0
95769,-86.2068965517241,4,1,0,70,0,0
98023,-90.9090909090909,4,1,0,70,0,0
98138,-82.6446280991736,4,1,0,70,0,0
98418,-90.9090909090909,4,1,0,70,0,1
98468,-93.1098696461825,4,1,0,70,0,1
98534,-95.3288846520496,4,1,0,70,0,1
98599,-97.65625,4,1,0,70,0,1
98665,-90.9090909090909,4,1,0,70,0,1
98731,-93.1098696461825,4,1,0,70,0,1
98797,-95.3288846520496,4,1,0,70,0,1
98862,-97.65625,4,1,0,70,0,1
98928,-90.9090909090909,4,1,0,70,0,1
98994,-93.1098696461825,4,1,0,70,0,1
99060,-95.3288846520496,4,1,0,70,0,1
99125,-97.65625,4,1,0,70,0,1
99191,-90.9090909090909,4,1,0,70,0,1
99257,-93.1098696461825,4,1,0,70,0,1
99323,-95.3288846520496,4,1,0,70,0,1
99388,-97.65625,4,1,0,70,0,1
99454,-90.9090909090909,4,1,0,70,0,1
99520,-93.1098696461825,4,1,0,70,0,1
99586,-95.3288846520496,4,1,0,70,0,1
99651,-97.65625,4,1,0,70,0,1
99717,-90.9090909090909,4,1,0,70,0,1
99783,-93.1098696461825,4,1,0,70,0,1
99849,-95.3288846520496,4,1,0,70,0,1
99914,-97.65625,4,1,0,70,0,1
99980,-100,4,1,0,70,0,1
100507,-90.9090909090909,4,1,0,70,0,1
100573,-93.1098696461825,4,1,0,70,0,1
100639,-95.3288846520496,4,1,0,70,0,1
100704,-97.65625,4,1,0,70,0,1
100770,-90.9090909090909,4,1,0,70,0,1
100836,-93.1098696461825,4,1,0,70,0,1
100902,-95.3288846520496,4,1,0,70,0,1
100967,-97.65625,4,1,0,70,0,1
101033,-90.9090909090909,4,1,0,70,0,1
101099,-93.1098696461825,4,1,0,70,0,1
101165,-95.3288846520496,4,1,0,70,0,1
101230,-97.65625,4,1,0,70,0,1
101296,-90.9090909090909,4,1,0,70,0,1
101362,-93.1098696461825,4,1,0,70,0,1
101428,-95.3288846520496,4,1,0,70,0,1
101493,-97.65625,4,1,0,70,0,1
101559,-90.9090909090909,4,1,0,70,0,1
101603,-92.3361034164358,4,1,0,70,0,1
101647,-93.8086303939962,4,1,0,70,0,1
101691,-95.3288846520496,4,1,0,70,0,1
101756,-97.65625,4,1,0,70,0,1
101822,-100,4,1,0,70,0,1
101954,-104.931794333683,4,1,0,70,0,1
102086,-100,4,1,0,70,0,1
102349,-82.6446280991736,4,1,0,70,0,1
102612,-90.9090909090909,4,1,0,70,0,1
102678,-93.1098696461825,4,1,0,70,0,1
102744,-95.3288846520496,4,1,0,70,0,1
102809,-97.65625,4,1,0,70,0,1
102875,-90.9090909090909,4,1,0,70,0,1
102941,-93.1098696461825,4,1,0,70,0,1
103007,-95.3288846520496,4,1,0,70,0,1
103072,-97.65625,4,1,0,70,0,1
103138,-90.9090909090909,4,1,0,70,0,1
103204,-93.1098696461825,4,1,0,70,0,1
103270,-95.3288846520496,4,1,0,70,0,1
103335,-97.65625,4,1,0,70,0,1
103401,-90.9090909090909,4,1,0,70,0,1
103467,-93.1098696461825,4,1,0,70,0,1
103533,-95.3288846520496,4,1,0,70,0,1
103598,-97.65625,4,1,0,70,0,1
103665,-82.6446280991736,4,1,0,70,0,1
103753,-85.3242320819113,4,1,0,70,0,1
103841,-88.0281690140845,4,1,0,70,0,1
103928,-90.9090909090909,4,1,0,70,0,1
104016,-93.8086303939962,4,1,0,70,0,1
104104,-96.8992248062015,4,1,0,70,0,1
104190,-100,4,1,0,70,0,1
104323,-104.931794333683,4,1,0,70,0,1
104454,-110.01100110011,4,1,0,70,0,1
104717,-121.065375302663,4,1,0,70,0,1
104980,-133.155792276964,4,1,0,70,0,1
105244,-146.412884333821,4,1,0,70,0,1
105375,-139.664804469274,4,1,0,70,0,1
105441,-136.239782016349,4,1,0,70,0,1
105507,-133.155792276964,4,1,0,70,0,1
105638,-126.903553299492,4,1,0,70,0,1
105770,-121.065375302663,4,1,0,70,0,1
105836,-118.203309692671,4,1,0,70,0,1
105902,-115.340253748558,4,1,0,70,0,1
105967,-112.612612612613,4,1,0,70,0,1
106033,-110.01100110011,4,1,0,70,0,1
106165,-104.931794333683,4,1,0,70,0,1
106296,-100,4,1,0,70,0,1
106428,-90.9090909090909,4,1,0,70,0,1
106559,-82.6446280991736,4,1,0,70,0,1
106823,-90.9090909090909,4,1,0,70,0,1
106889,-93.1098696461825,4,1,0,70,0,1
106955,-95.3288846520496,4,1,0,70,0,1
107020,-97.65625,4,1,0,70,0,1
107086,-90.9090909090909,4,1,0,70,0,1
107152,-93.1098696461825,4,1,0,70,0,1
107218,-95.3288846520496,4,1,0,70,0,1
107283,-97.65625,4,1,0,70,0,1
107349,-90.9090909090909,4,1,0,70,0,1
107415,-93.1098696461825,4,1,0,70,0,1
107481,-95.3288846520496,4,1,0,70,0,1
107546,-97.65625,4,1,0,70,0,1
107612,-90.9090909090909,4,1,0,70,0,1
107678,-93.1098696461825,4,1,0,70,0,1
107744,-95.3288846520496,4,1,0,70,0,1
107809,-97.65625,4,1,0,70,0,1
107875,-90.9090909090909,4,1,0,70,0,1
107941,-93.1098696461825,4,1,0,70,0,1
108007,-95.3288846520496,4,1,0,70,0,1
108072,-97.65625,4,1,0,70,0,1
108138,-90.9090909090909,4,1,0,70,0,1
108204,-93.1098696461825,4,1,0,70,0,1
108270,-95.3288846520496,4,1,0,70,0,1
108335,-97.65625,4,1,0,70,0,1
108401,-100,4,1,0,70,0,1
108467,-102.459016393443,4,1,0,70,0,1
108533,-104.931794333683,4,1,0,70,0,1
108665,-100,4,1,0,70,0,1
108928,-90.9090909090909,4,1,0,70,0,1
108994,-93.1098696461825,4,1,0,70,0,1
109060,-95.3288846520496,4,1,0,70,0,1
109125,-97.65625,4,1,0,70,0,1
109191,-100,4,1,0,70,0,1
109323,-95.3288846520496,4,1,0,70,0,1
109454,-90.9090909090909,4,1,0,70,0,1
109520,-93.1098696461825,4,1,0,70,0,1
109586,-95.3288846520496,4,1,0,70,0,1
109651,-97.65625,4,1,0,70,0,1
109717,-100,4,1,0,70,0,1
109849,-95.3288846520496,4,1,0,70,0,1
109914,-97.65625,4,1,0,70,0,1
109980,-100,4,1,0,70,0,1
110046,-102.459016393443,4,1,0,70,0,1
110112,-104.931794333683,4,1,0,70,0,1
110178,-107.411385606874,4,1,0,70,0,1
110244,-110.01100110011,4,1,0,70,0,1
110375,-115.340253748558,4,1,0,70,0,1
110507,-121.065375302663,4,1,0,70,0,1
110638,-86.6551126516464,4,1,0,70,0,1
110704,-84.6023688663283,4,1,0,70,0,1
110770,-82.6446280991736,4,1,0,70,0,1
110835,-80.7102502017756,4,1,0,70,0,1
110901,-78.8022064617809,4,1,0,70,0,1
111033,-75.1314800901578,4,1,0,70,0,1
111296,-90.9090909090909,4,1,0,70,0,1
111362,-93.1098696461825,4,1,0,70,0,1
111428,-95.3288846520496,4,1,0,70,0,1
111493,-97.65625,4,1,0,70,0,1
111559,-100,4,1,0,70,0,1
111691,-86.6551126516464,4,1,0,70,0,1
111757,-84.6023688663283,4,1,0,70,0,1
111823,-82.6446280991736,4,1,0,70,0,1
111888,-80.7102502017756,4,1,0,70,0,1
111954,-78.8022064617809,4,1,0,70,0,1
112086,-75.1314800901578,4,1,0,70,0,1
112349,-90.9090909090909,4,1,0,70,0,1
112415,-93.1098696461825,4,1,0,70,0,1
112481,-95.3288846520496,4,1,0,70,0,1
112546,-97.65625,4,1,0,70,0,1
112612,-100,4,1,0,70,0,1
112744,-104.931794333683,4,1,0,70,0,1
113007,-95.3288846520496,4,1,0,70,0,1
113138,-100,4,1,0,70,0,1
113270,-104.931794333683,4,1,0,70,0,1
113533,-90.9090909090909,4,1,0,70,0,1
113681,-95.3288846520496,4,1,0,70,0,0
117892,-69.4444444444444,4,1,0,70,0,0
118023,-72.2543352601156,4,1,0,70,0,0
118155,-75.1314800901578,4,1,0,70,0,0
118286,-78.1860828772479,4,1,0,70,0,0
118352,-79.7448165869218,4,1,0,70,0,0
118418,-81.3008130081301,4,1,0,70,0,0
118549,-84.6023688663283,4,1,0,70,0,0
118681,-88.0281690140845,4,1,0,70,0,0
118813,-91.5750915750916,4,1,0,70,0,0
118944,-95.2380952380952,4,1,0,70,0,0
121049,-83.3333333333333,4,1,0,70,0,0
121181,-77.4593338497289,4,1,0,70,0,0
121444,-66.9344042838019,4,1,0,70,0,0
121707,-57.8703703703704,4,1,0,70,0,0
121839,-53.7923614846692,4,1,0,70,0,0
121971,-50,4,1,0,70,0,0

[HitObjects]
256,192,1050,5,8,0:0:0:0:
256,192,1181,1,8,0:0:0:0:
256,192,1444,1,8,0:0:0:0:
256,192,1707,1,8,0:0:0:0:
256,192,1839,1,0,0:0:0:0:
256,192,1971,1,8,0:0:0:0:
256,192,2234,1,0,0:0:0:0:
256,192,2365,1,8,0:0:0:0:
256,192,2628,1,8,0:0:0:0:
256,192,2892,1,0,0:0:0:0:
256,192,3155,1,8,0:0:0:0:
256,192,3286,1,8,0:0:0:0:
256,192,3549,1,8,0:0:0:0:
256,192,3813,1,8,0:0:0:0:
256,192,3944,1,0,0:0:0:0:
256,192,4076,1,8,0:0:0:0:
256,192,4339,1,0,0:0:0:0:
256,192,4471,1,8,0:0:0:0:
256,192,4734,1,8,0:0:0:0:
256,192,4865,1,0,0:0:0:0:
256,192,4997,1,8,0:0:0:0:
256,192,5260,1,8,0:0:0:0:
256,192,5391,1,8,0:0:0:0:
256,192,5654,1,8,0:0:0:0:
256,192,5917,1,8,0:0:0:0:
256,192,6049,1,0,0:0:0:0:
256,192,6181,1,8,0:0:0:0:
256,192,6444,1,0,0:0:0:0:
256,192,6575,1,8,0:0:0:0:
256,192,6838,1,8,0:0:0:0:
256,192,7102,1,0,0:0:0:0:
256,192,7365,1,8,0:0:0:0:
256,192,7496,1,8,0:0:0:0:
256,192,7759,1,8,0:0:0:0:
256,192,8023,1,8,0:0:0:0:
256,192,8154,1,0,0:0:0:0:
256,192,8286,1,8,0:0:0:0:
256,192,8549,1,8,0:0:0:0:
256,192,8681,1,0,0:0:0:0:
256,192,8813,1,0,0:0:0:0:
256,192,8878,1,0,0:0:0:0:
256,192,8944,1,8,0:0:0:0:
256,192,9076,1,0,0:0:0:0:
256,192,9207,1,8,0:0:0:0:
256,192,9339,1,8,0:0:0:0:
256,192,9471,1,4,0:0:0:0:
256,192,9734,1,8,0:0:0:0:
256,192,9997,1,0,0:0:0:0:
256,192,10128,1,0,0:0:0:0:
256,192,10392,1,8,0:0:0:0:
256,192,10655,1,8,0:0:0:0:
256,192,10786,1,0,0:0:0:0:
256,192,10918,1,0,0:0:0:0:
256,192,11049,1,8,0:0:0:0:
256,192,11181,1,8,0:0:0:0:
256,192,11313,1,0,0:0:0:0:
256,192,11576,1,8,0:0:0:0:
256,192,11707,1,8,0:0:0:0:
256,192,11839,1,0,0:0:0:0:
256,192,12102,1,8,0:0:0:0:
256,192,12365,1,8,0:0:0:0:
256,192,12497,1,0,0:0:0:0:
256,192,12760,1,0,0:0:0:0:
256,192,12892,1,8,0:0:0:0:
256,192,13155,1,8,0:0:0:0:
256,192,13418,1,8,0:0:0:0:
256,192,13681,1,0,0:0:0:0:
256,192,13944,1,8,0:0:0:0:
256,192,14207,1,0,0:0:0:0:
256,192,14338,1,0,0:0:0:0:
256,192,14602,1,8,0:0:0:0:
256,192,14865,1,8,0:0:0:0:
256,192,14996,1,0,0:0:0:0:
256,192,15128,1,0,0:0:0:0:
256,192,15259,1,8,0:0:0:0:
256,192,15391,1,8,0:0:0:0:
256,192,15523,1,0,0:0:0:0:
256,192,15786,1,0,0:0:0:0:
256,192,15918,1,8,0:0:0:0:
256,192,16049,1,0,0:0:0:0:
256,192,16181,1,0,0:0:0:0:
256,192,16313,1,8,0:0:0:0:
256,192,16444,1,0,0:0:0:0:
256,192,16576,1,8,0:0:0:0:
256,192,16707,1,0,0:0:0:0:
256,192,16839,1,8,0:0:0:0:
256,192,16905,1,8,0:0:0:0:
256,192,16971,1,0,0:0:0:0:
256,192,17036,1,8,0:0:0:0:
256,192,17102,1,0,0:0:0:0:
256,192,17234,1,8,0:0:0:0:
256,192,17299,1,8,0:0:0:0:
256,192,17365,1,0,0:0:0:0:
256,192,17431,1,8,0:0:0:0:
256,192,17497,1,0,0:0:0:0:
256,192,17628,1,8,0:0:0:0:
256,192,17892,1,0,0:0:0:0:
256,192,17957,1,0,0:0:0:0:
256,192,18023,1,0,0:0:0:0:
256,192,18155,1,8,0:0:0:0:
256,192,18286,1,0,0:0:0:0:
256,192,18352,1,0,0:0:0:0:
256,192,18418,1,0,0:0:0:0:
256,192,18549,1,8,0:0:0:0:
256,192,18681,1,0,0:0:0:0:
256,192,18747,1,0,0:0:0:0:
256,192,18813,1,0,0:0:0:0:
256,192,18944,1,8,0:0:0:0:
256,192,19010,1,8,0:0:0:0:
256,192,19076,1,0,0:0:0:0:
256,192,19207,1,8,0:0:0:0:
256,192,19339,1,0,0:0:0:0:
256,192,19405,1,0,0:0:0:0:
256,192,19471,1,8,0:0:0:0:
256,192,19602,1,0,0:0:0:0:
256,192,19734,1,8,0:0:0:0:
256,192,19799,1,8,0:0:0:0:
256,192,19865,1,0,0:0:0:0:
256,192,19997,1,0,0:0:0:0:
256,192,20062,1,0,0:0:0:0:
256,192,20128,1,0,0:0:0:0:
256,192,20260,1,8,0:0:0:0:
256,192,20391,1,0,0:0:0:0:
256,192,20457,1,0,0:0:0:0:
256,192,20523,1,0,0:0:0:0:
256,192,20654,1,8,0:0:0:0:
256,192,20786,1,0,0:0:0:0:
256,192,20852,1,0,0:0:0:0:
256,192,20918,1,0,0:0:0:0:
256,192,21049,1,8,0:0:0:0:
256,192,21115,1,8,0:0:0:0:
256,192,21181,1,0,0:0:0:0:
256,192,21312,1,8,0:0:0:0:
256,192,21444,1,0,0:0:0:0:
256,192,21510,1,0,0:0:0:0:
256,192,21576,1,8,0:0:0:0:
256,192,21707,1,0,0:0:0:0:
256,192,21839,1,8,0:0:0:0:
256,192,21904,1,8,0:0:0:0:
256,192,21970,1,0,0:0:0:0:
256,192,22102,1,8,0:0:0:0:
256,192,22168,1,8,0:0:0:0:
256,192,22234,1,0,0:0:0:0:
256,192,22299,1,0,0:0:0:0:
256,192,22365,1,8,0:0:0:0:
256,192,22431,1,8,0:0:0:0:
256,192,22497,1,0,0:0:0:0:
256,192,22563,1,0,0:0:0:0:
256,192,22628,1,8,0:0:0:0:
256,192,22694,1,8,0:0:0:0:
256,192,22760,1,0,0:0:0:0:
256,192,22826,1,0,0:0:0:0:
256,192,22892,1,8,0:0:0:0:
256,192,22957,1,8,0:0:0:0:
256,192,23023,1,0,0:0:0:0:
256,192,23089,1,0,0:0:0:0:
256,192,23155,1,8,0:0:0:0:
256,192,23199,1,8,0:0:0:0:
256,192,23242,1,8,0:0:0:0:
256,192,23286,1,0,0:0:0:0:
256,192,23352,1,0,0:0:0:0:
256,192,23418,1,8,0:0:0:0:
256,192,23462,1,0,0:0:0:0:
256,192,23506,1,0,0:0:0:0:
256,192,23549,1,8,0:0:0:0:
256,192,23615,1,0,0:0:0:0:
256,192,23681,1,8,0:0:0:0:
256,192,23725,1,8,0:0:0:0:
256,192,23769,1,8,0:0:0:0:
256,192,23813,1,0,0:0:0:0:
256,192,23878,1,0,0:0:0:0:
256,192,23944,1,8,0:0:0:0:
256,192,23988,1,0,0:0:0:0:
256,192,24032,1,0,0:0:0:0:
256,192,24076,1,8,0:0:0:0:
256,192,24142,1,8,0:0:0:0:
256,192,24207,1,0,0:0:0:0:
256,192,26313,1,4,0:0:0:0:
256,192,26576,1,12,0:0:0:0:
256,192,26839,1,8,0:0:0:0:
256,192,26905,1,0,0:0:0:0:
256,192,26971,1,8,0:0:0:0:
256,192,27036,1,8,0:0:0:0:
256,192,27102,1,0,0:0:0:0:
256,192,27168,1,0,0:0:0:0:
256,192,27234,1,8,0:0:0:0:
256,192,27299,1,0,0:0:0:0:
256,192,27365,1,8,0:0:0:0:
256,192,27431,1,8,0:0:0:0:
256,192,27497,1,8,0:0:0:0:
256,192,27563,1,8,0:0:0:0:
256,192,27628,1,0,0:0:0:0:
256,192,27694,1,0,0:0:0:0:
256,192,27760,1,8,0:0:0:0:
256,192,27826,1,0,0:0:0:0:
256,192,27892,1,8,0:0:0:0:
256,192,27957,1,0,0:0:0:0:
256,192,28023,1,8,0:0:0:0:
256,192,28089,1,8,0:0:0:0:
256,192,28155,1,0,0:0:0:0:
256,192,28221,1,0,0:0:0:0:
256,192,28286,1,0,0:0:0:0:
256,192,28352,1,0,0:0:0:0:
256,192,28418,1,12,0:0:0:0:
256,192,28681,1,8,0:0:0:0:
256,192,28714,1,8,0:0:0:0:
256,192,28813,1,0,0:0:0:0:
256,192,28846,1,0,0:0:0:0:
256,192,28944,1,8,0:0:0:0:
256,192,29010,1,0,0:0:0:0:
256,192,29076,1,8,0:0:0:0:
256,192,29141,1,8,0:0:0:0:
256,192,29207,1,0,0:0:0:0:
256,192,29273,1,0,0:0:0:0:
256,192,29339,1,8,0:0:0:0:
256,192,29404,1,0,0:0:0:0:
256,192,29470,1,8,0:0:0:0:
256,192,29536,1,8,0:0:0:0:
256,192,29602,1,8,0:0:0:0:
256,192,29668,1,8,0:0:0:0:
256,192,29733,1,0,0:0:0:0:
256,192,29799,1,0,0:0:0:0:
256,192,29865,1,8,0:0:0:0:
256,192,29931,1,0,0:0:0:0:
256,192,29997,1,8,0:0:0:0:
256,192,30041,1,8,0:0:0:0:
256,192,30085,1,8,0:0:0:0:
256,192,30128,1,0,0:0:0:0:
256,192,30194,1,0,0:0:0:0:
256,192,30260,1,8,0:0:0:0:
256,192,30392,1,8,0:0:0:0:
256,192,30523,1,4,0:0:0:0:
256,192,30786,1,12,0:0:0:0:
256,192,31049,1,8,0:0:0:0:
256,192,31115,1,0,0:0:0:0:
256,192,31181,1,8,0:0:0:0:
256,192,31246,1,8,0:0:0:0:
256,192,31312,1,0,0:0:0:0:
256,192,31378,1,0,0:0:0:0:
256,192,31444,1,8,0:0:0:0:
256,192,31509,1,0,0:0:0:0:
256,192,31575,1,8,0:0:0:0:
256,192,31641,1,8,0:0:0:0:
256,192,31707,1,8,0:0:0:0:
256,192,31773,1,8,0:0:0:0:
256,192,31838,1,0,0:0:0:0:
256,192,31904,1,0,0:0:0:0:
256,192,31970,1,8,0:0:0:0:
256,192,32036,1,0,0:0:0:0:
256,192,32102,1,8,0:0:0:0:
256,192,32190,1,8,0:0:0:0:
256,192,32278,1,8,0:0:0:0:
256,192,32365,1,8,0:0:0:0:
256,192,32453,1,8,0:0:0:0:
256,192,32541,1,8,0:0:0:0:
256,192,32628,1,0,0:0:0:0:
256,192,32661,1,0,0:0:0:0:
256,192,32760,1,0,0:0:0:0:
256,192,32793,1,0,0:0:0:0:
256,192,32892,1,0,0:0:0:0:
256,192,32924,1,0,0:0:0:0:
256,192,33155,1,8,0:0:0:0:
256,192,33188,1,8,0:0:0:0:
256,192,33418,1,0,0:0:0:0:
256,192,33451,1,0,0:0:0:0:
256,192,33681,1,8,0:0:0:0:
256,192,33813,1,0,0:0:0:0:
256,192,33878,1,0,0:0:0:0:
256,192,33944,1,8,0:0:0:0:
256,192,34076,1,0,0:0:0:0:
256,192,34207,1,8,0:0:0:0:
256,192,34273,1,8,0:0:0:0:
256,192,34339,1,0,0:0:0:0:
256,192,34405,1,0,0:0:0:0:
256,192,34471,1,8,0:0:0:0:
256,192,34602,1,8,0:0:0:0:
256,192,34734,1,4,0:0:0:0:
256,192,34997,1,12,0:0:0:0:
256,192,35260,1,8,0:0:0:0:
256,192,35326,1,0,0:0:0:0:
256,192,35392,1,8,0:0:0:0:
256,192,35457,1,8,0:0:0:0:
256,192,35523,1,0,0:0:0:0:
256,192,35589,1,0,0:0:0:0:
256,192,35655,1,8,0:0:0:0:
256,192,35720,1,0,0:0:0:0:
256,192,35786,1,8,0:0:0:0:
256,192,35852,1,8,0:0:0:0:
256,192,35918,1,8,0:0:0:0:
256,192,35984,1,8,0:0:0:0:
256,192,36049,1,0,0:0:0:0:
256,192,36115,1,0,0:0:0:0:
256,192,36181,1,8,0:0:0:0:
256,192,36247,1,0,0:0:0:0:
256,192,36313,1,8,0:0:0:0:
256,192,36378,1,0,0:0:0:0:
256,192,36444,1,8,0:0:0:0:
256,192,36510,1,8,0:0:0:0:
256,192,36576,1,0,0:0:0:0:
256,192,36642,1,0,0:0:0:0:
256,192,36707,1,0,0:0:0:0:
256,192,36773,1,0,0:0:0:0:
256,192,36839,1,12,0:0:0:0:
256,192,37102,1,8,0:0:0:0:
256,192,37135,1,8,0:0:0:0:
256,192,37234,1,0,0:0:0:0:
256,192,37267,1,0,0:0:0:0:
256,192,37365,1,8,0:0:0:0:
256,192,37431,1,0,0:0:0:0:
256,192,37497,1,8,0:0:0:0:
256,192,37562,1,8,0:0:0:0:
256,192,37628,1,0,0:0:0:0:
256,192,37694,1,0,0:0:0:0:
256,192,37760,1,8,0:0:0:0:
256,192,37825,1,0,0:0:0:0:
256,192,37891,1,8,0:0:0:0:
256,192,37957,1,8,0:0:0:0:
256,192,38023,1,8,0:0:0:0:
256,192,38089,1,8,0:0:0:0:
256,192,38154,1,0,0:0:0:0:
256,192,38220,1,0,0:0:0:0:
256,192,38286,1,8,0:0:0:0:
256,192,38352,1,0,0:0:0:0:
256,192,38418,1,8,0:0:0:0:
256,192,38462,1,8,0:0:0:0:
256,192,38506,1,8,0:0:0:0:
256,192,38549,1,0,0:0:0:0:
256,192,38615,1,0,0:0:0:0:
256,192,38681,1,8,0:0:0:0:
256,192,38813,1,8,0:0:0:0:
256,192,38944,1,0,0:0:0:0:
256,192,39142,1,0,0:0:0:0:
256,192,39273,1,0,0:0:0:0:
256,192,39339,1,0,0:0:0:0:
256,192,39471,1,12,0:0:0:0:
256,192,39734,1,8,0:0:0:0:
256,192,39799,1,8,0:0:0:0:
256,192,39865,1,8,0:0:0:0:
256,192,39931,1,8,0:0:0:0:
256,192,39997,1,0,0:0:0:0:
256,192,40194,1,0,0:0:0:0:
256,192,40326,1,0,0:0:0:0:
256,192,40392,1,0,0:0:0:0:
256,192,40523,1,12,0:0:0:0:
256,192,40786,1,0,0:0:0:0:
256,192,40852,1,0,0:0:0:0:
256,192,40918,1,0,0:0:0:0:
256,192,40984,1,0,0:0:0:0:
256,192,41049,1,8,0:0:0:0:
256,192,41181,1,0,0:0:0:0:
256,192,41444,1,0,0:0:0:0:
256,192,41576,1,8,0:0:0:0:
256,192,41707,1,0,0:0:0:0:
256,192,41971,1,0,0:0:0:0:
256,192,42102,12,0,42892,0:0:0:0:
256,192,43155,5,4,0:0:0:0:
256,192,43418,1,8,0:0:0:0:
256,192,43681,1,0,0:0:0:0:
256,192,43812,1,0,0:0:0:0:
256,192,44076,1,8,0:0:0:0:
256,192,44339,1,8,0:0:0:0:
256,192,44470,1,0,0:0:0:0:
256,192,44602,1,0,0:0:0:0:
256,192,44733,1,8,0:0:0:0:
256,192,44865,1,8,0:0:0:0:
256,192,44997,1,0,0:0:0:0:
256,192,45260,1,8,0:0:0:0:
256,192,45391,1,8,0:0:0:0:
256,192,45523,1,0,0:0:0:0:
256,192,45786,1,8,0:0:0:0:
256,192,46049,1,8,0:0:0:0:
256,192,46181,1,0,0:0:0:0:
256,192,46444,1,0,0:0:0:0:
256,192,46576,1,8,0:0:0:0:
256,192,46839,1,8,0:0:0:0:
256,192,47365,1,0,0:0:0:0:
256,192,47497,1,8,0:0:0:0:
256,192,47563,1,8,0:0:0:0:
256,192,47628,1,0,0:0:0:0:
256,192,47760,1,0,0:0:0:0:
256,192,47892,1,8,0:0:0:0:
256,192,48023,1,0,0:0:0:0:
256,192,48089,1,0,0:0:0:0:
256,192,48155,1,8,0:0:0:0:
256,192,48221,1,8,0:0:0:0:
256,192,48286,1,0,0:0:0:0:
256,192,48418,1,8,0:0:0:0:
256,192,48549,1,0,0:0:0:0:
256,192,48681,1,0,0:0:0:0:
256,192,48747,1,8,0:0:0:0:
256,192,48813,1,0,0:0:0:0:
256,192,48878,1,0,0:0:0:0:
256,192,48944,1,8,0:0:0:0:
256,192,49010,1,8,0:0:0:0:
256,192,49076,1,0,0:0:0:0:
256,192,49207,1,8,0:0:0:0:
256,192,49339,1,0,0:0:0:0:
256,192,49471,1,8,0:0:0:0:
256,192,49603,1,0,0:0:0:0:
256,192,49734,1,8,0:0:0:0:
256,192,49799,1,0,0:0:0:0:
256,192,49866,1,8,0:0:0:0:
256,192,49931,1,8,0:0:0:0:
256,192,49998,1,0,0:0:0:0:
256,192,50129,1,0,0:0:0:0:
256,192,50261,1,8,0:0:0:0:
256,192,50392,1,0,0:0:0:0:
256,192,50457,1,0,0:0:0:0:
256,192,50524,1,8,0:0:0:0:
256,192,50655,1,0,0:0:0:0:
256,192,50786,1,8,0:0:0:0:
256,192,50919,1,0,0:0:0:0:
256,192,51050,1,8,0:0:0:0:
256,192,51116,1,8,0:0:0:0:
256,192,51182,1,0,0:0:0:0:
256,192,51313,1,12,0:0:0:0:
256,192,51444,1,0,0:0:0:0:
256,192,51576,1,12,0:0:0:0:
256,192,51708,1,8,0:0:0:0:
256,192,51774,1,8,0:0:0:0:
256,192,51839,1,0,0:0:0:0:
256,192,51971,1,0,0:0:0:0:
256,192,52103,1,8,0:0:0:0:
256,192,52234,1,0,0:0:0:0:
256,192,52300,1,0,0:0:0:0:
256,192,52366,1,8,0:0:0:0:
256,192,52432,1,8,0:0:0:0:
256,192,52497,1,0,0:0:0:0:
256,192,52629,1,8,0:0:0:0:
256,192,52760,1,0,0:0:0:0:
256,192,52892,1,0,0:0:0:0:
256,192,52958,1,8,0:0:0:0:
256,192,53024,1,0,0:0:0:0:
256,192,53089,1,0,0:0:0:0:
256,192,53155,1,8,0:0:0:0:
256,192,53221,1,8,0:0:0:0:
256,192,53287,1,0,0:0:0:0:
256,192,53418,1,8,0:0:0:0:
256,192,53550,1,0,0:0:0:0:
256,192,53682,1,8,0:0:0:0:
256,192,53814,1,0,0:0:0:0:
256,192,53945,1,8,0:0:0:0:
256,192,54010,1,0,0:0:0:0:
256,192,54077,1,8,0:0:0:0:
256,192,54142,1,8,0:0:0:0:
256,192,54207,1,0,0:0:0:0:
256,192,54340,1,0,0:0:0:0:
256,192,54472,1,8,0:0:0:0:
256,192,54603,1,0,0:0:0:0:
256,192,54668,1,0,0:0:0:0:
256,192,54735,1,8,0:0:0:0:
256,192,54866,1,0,0:0:0:0:
256,192,54997,1,8,0:0:0:0:
256,192,55128,1,0,0:0:0:0:
256,192,55261,1,8,0:0:0:0:
256,192,55293,1,8,0:0:0:0:
256,192,55786,1,0,0:0:0:0:
256,192,55851,1,0,0:0:0:0:
256,192,55917,1,0,0:0:0:0:
256,192,56049,1,8,0:0:0:0:
256,192,56180,1,0,0:0:0:0:
256,192,56246,1,0,0:0:0:0:
256,192,56312,1,0,0:0:0:0:
256,192,56443,1,8,0:0:0:0:
256,192,56575,1,0,0:0:0:0:
256,192,56641,1,0,0:0:0:0:
256,192,56707,1,0,0:0:0:0:
256,192,56838,1,8,0:0:0:0:
256,192,56904,1,8,0:0:0:0:
256,192,56970,1,0,0:0:0:0:
256,192,57101,1,8,0:0:0:0:
256,192,57233,1,0,0:0:0:0:
256,192,57299,1,0,0:0:0:0:
256,192,57365,1,8,0:0:0:0:
256,192,57496,1,0,0:0:0:0:
256,192,57628,1,8,0:0:0:0:
256,192,57693,1,8,0:0:0:0:
256,192,57759,1,0,0:0:0:0:
256,192,57891,1,0,0:0:0:0:
256,192,57956,1,0,0:0:0:0:
256,192,58022,1,0,0:0:0:0:
256,192,58154,1,8,0:0:0:0:
256,192,58285,1,0,0:0:0:0:
256,192,58351,1,0,0:0:0:0:
256,192,58417,1,0,0:0:0:0:
256,192,58548,1,8,0:0:0:0:
256,192,58680,1,0,0:0:0:0:
256,192,58746,1,0,0:0:0:0:
256,192,58812,1,0,0:0:0:0:
256,192,58943,1,8,0:0:0:0:
256,192,59009,1,8,0:0:0:0:
256,192,59075,1,0,0:0:0:0:
256,192,59206,1,8,0:0:0:0:
256,192,59338,1,0,0:0:0:0:
256,192,59404,1,0,0:0:0:0:
256,192,59470,1,8,0:0:0:0:
256,192,59601,1,0,0:0:0:0:
256,192,59733,1,8,0:0:0:0:
256,192,59798,1,8,0:0:0:0:
256,192,59864,1,0,0:0:0:0:
256,192,59997,1,0,0:0:0:0:
256,192,60062,1,0,0:0:0:0:
256,192,60128,1,0,0:0:0:0:
256,192,60260,1,8,0:0:0:0:
256,192,60391,1,0,0:0:0:0:
256,192,60457,1,0,0:0:0:0:
256,192,60523,1,0,0:0:0:0:
256,192,60654,1,8,0:0:0:0:
256,192,60786,1,0,0:0:0:0:
256,192,60852,1,0,0:0:0:0:
256,192,60918,1,0,0:0:0:0:
256,192,61049,1,8,0:0:0:0:
256,192,61115,1,8,0:0:0:0:
256,192,61181,1,0,0:0:0:0:
256,192,61312,1,8,0:0:0:0:
256,192,61444,1,0,0:0:0:0:
256,192,61510,1,0,0:0:0:0:
256,192,61576,1,8,0:0:0:0:
256,192,61707,1,0,0:0:0:0:
256,192,61839,1,8,0:0:0:0:
256,192,61904,1,8,0:0:0:0:
256,192,61970,1,0,0:0:0:0:
256,192,62102,1,12,0:0:0:0:
256,192,62233,1,0,0:0:0:0:
256,192,62299,1,0,0:0:0:0:
256,192,62365,1,0,0:0:0:0:
256,192,62497,1,12,0:0:0:0:
256,192,62628,1,0,0:0:0:0:
256,192,62694,1,0,0:0:0:0:
256,192,62760,1,0,0:0:0:0:
256,192,62892,1,12,0:0:0:0:
256,192,63023,1,0,0:0:0:0:
256,192,63089,1,0,0:0:0:0:
256,192,63155,1,0,0:0:0:0:
256,192,63286,1,8,0:0:0:0:
256,192,63418,1,8,0:0:0:0:
256,192,63549,1,0,0:0:0:0:
256,192,63615,1,0,0:0:0:0:
256,192,63681,1,8,0:0:0:0:
256,192,63813,1,8,0:0:0:0:
256,192,63944,1,8,0:0:0:0:
256,192,64076,1,8,0:0:0:0:
256,192,64207,1,4,0:0:0:0:
256,192,71971,5,0,0:0:0:0:
256,192,72036,1,0,0:0:0:0:
256,192,72102,1,8,0:0:0:0:
256,192,72234,1,0,0:0:0:0:
256,192,72365,1,8,0:0:0:0:
256,192,72497,1,8,0:0:0:0:
256,192,72628,1,4,0:0:0:0:
256,192,72892,1,8,0:0:0:0:
256,192,73286,1,0,0:0:0:0:
256,192,73418,1,8,0:0:0:0:
256,192,73681,1,0,0:0:0:0:
256,192,73944,1,8,0:0:0:0:
256,192,74339,1,0,0:0:0:0:
256,192,74471,1,8,0:0:0:0:
256,192,74602,1,0,0:0:0:0:
256,192,74734,1,0,0:0:0:0:
256,192,74997,1,8,0:0:0:0:
256,192,75392,1,0,0:0:0:0:
256,192,75523,1,8,0:0:0:0:
256,192,75786,1,0,0:0:0:0:
256,192,76049,1,8,0:0:0:0:
256,192,76444,1,0,0:0:0:0:
256,192,76576,1,8,0:0:0:0:
256,192,76839,1,0,0:0:0:0:
256,192,76971,1,0,0:0:0:0:
256,192,77102,1,8,0:0:0:0:
256,192,77497,1,0,0:0:0:0:
256,192,77628,1,8,0:0:0:0:
256,192,77892,1,0,0:0:0:0:
256,192,78155,1,8,0:0:0:0:
256,192,78549,1,0,0:0:0:0:
256,192,78681,1,8,0:0:0:0:
256,192,78813,1,0,0:0:0:0:
256,192,78944,1,0,0:0:0:0:
256,192,79207,1,8,0:0:0:0:
256,192,79602,1,0,0:0:0:0:
256,192,79734,1,8,0:0:0:0:
256,192,79997,1,0,0:0:0:0:
256,192,80128,1,0,0:0:0:0:
256,192,80260,1,8,0:0:0:0:
256,192,80392,1,0,0:0:0:0:
256,192,80523,1,0,0:0:0:0:
256,192,80655,1,0,0:0:0:0:
256,192,80786,1,8,0:0:0:0:
256,192,80918,1,0,0:0:0:0:
256,192,81049,1,4,0:0:0:0:
256,192,81444,1,4,0:0:0:0:
256,192,81839,1,4,0:0:0:0:
256,192,81971,1,12,0:0:0:0:
256,192,83155,5,4,0:0:0:0:
256,192,83549,1,4,0:0:0:0:
256,192,83944,1,4,0:0:0:0:
256,192,84076,1,12,0:0:0:0:
256,192,85260,5,4,0:0:0:0:
256,192,85655,1,4,0:0:0:0:
256,192,86049,1,4,0:0:0:0:
256,192,86181,1,12,0:0:0:0:
256,192,87365,5,0,0:0:0:0:
256,192,87431,1,0,0:0:0:0:
256,192,87497,1,0,0:0:0:0:
256,192,87563,1,0,0:0:0:0:
256,192,87628,1,8,0:0:0:0:
256,192,87760,1,0,0:0:0:0:
256,192,87826,1,0,0:0:0:0:
256,192,87892,1,0,0:0:0:0:
256,192,87957,1,0,0:0:0:0:
256,192,88023,1,8,0:0:0:0:
256,192,88155,1,4,0:0:0:0:
256,192,88286,1,12,0:0:0:0:
256,192,89076,1,0,0:0:0:0:
256,192,89142,1,0,0:0:0:0:
256,192,89207,1,8,0:0:0:0:
256,192,89339,1,8,0:0:0:0:
256,192,89471,1,0,0:0:0:0:
256,192,89536,1,0,0:0:0:0:
256,192,89602,1,0,0:0:0:0:
256,192,89734,1,8,0:0:0:0:
256,192,89865,1,0,0:0:0:0:
256,192,89931,1,0,0:0:0:0:
256,192,89997,1,0,0:0:0:0:
256,192,90128,1,8,0:0:0:0:
256,192,90260,1,0,0:0:0:0:
256,192,90326,1,0,0:0:0:0:
256,192,90392,1,0,0:0:0:0:
256,192,90523,1,8,0:0:0:0:
256,192,90589,1,8,0:0:0:0:
256,192,90655,1,0,0:0:0:0:
256,192,90786,1,8,0:0:0:0:
256,192,90918,1,0,0:0:0:0:
256,192,90984,1,0,0:0:0:0:
256,192,91050,1,8,0:0:0:0:
256,192,91181,1,0,0:0:0:0:
256,192,91313,1,8,0:0:0:0:
256,192,91378,1,8,0:0:0:0:
256,192,91444,1,0,0:0:0:0:
256,192,91576,1,0,0:0:0:0:
256,192,91641,1,0,0:0:0:0:
256,192,91707,1,0,0:0:0:0:
256,192,91839,1,8,0:0:0:0:
256,192,91970,1,0,0:0:0:0:
256,192,92036,1,0,0:0:0:0:
256,192,92102,1,0,0:0:0:0:
256,192,92233,1,8,0:0:0:0:
256,192,92365,1,0,0:0:0:0:
256,192,92431,1,0,0:0:0:0:
256,192,92497,1,0,0:0:0:0:
256,192,92628,1,8,0:0:0:0:
256,192,92694,1,8,0:0:0:0:
256,192,92760,1,0,0:0:0:0:
256,192,92891,1,8,0:0:0:0:
256,192,93023,1,0,0:0:0:0:
256,192,93089,1,0,0:0:0:0:
256,192,93155,1,8,0:0:0:0:
256,192,93286,1,0,0:0:0:0:
256,192,93418,1,8,0:0:0:0:
256,192,93483,1,8,0:0:0:0:
256,192,93549,1,0,0:0:0:0:
256,192,93681,1,8,0:0:0:0:
256,192,93747,1,8,0:0:0:0:
256,192,93813,1,0,0:0:0:0:
256,192,93878,1,0,0:0:0:0:
256,192,93944,1,8,0:0:0:0:
256,192,94010,1,8,0:0:0:0:
256,192,94076,1,0,0:0:0:0:
256,192,94142,1,0,0:0:0:0:
256,192,94207,1,8,0:0:0:0:
256,192,94273,1,8,0:0:0:0:
256,192,94339,1,0,0:0:0:0:
256,192,94405,1,0,0:0:0:0:
256,192,94471,1,8,0:0:0:0:
256,192,94536,1,8,0:0:0:0:
256,192,94602,1,0,0:0:0:0:
256,192,94668,1,0,0:0:0:0:
256,192,94734,1,8,0:0:0:0:
256,192,94778,1,8,0:0:0:0:
256,192,94821,1,8,0:0:0:0:
256,192,94865,1,0,0:0:0:0:
256,192,94931,1,0,0:0:0:0:
256,192,94997,1,8,0:0:0:0:
256,192,95041,1,0,0:0:0:0:
256,192,95085,1,0,0:0:0:0:
256,192,95128,1,8,0:0:0:0:
256,192,95194,1,0,0:0:0:0:
256,192,95260,1,8,0:0:0:0:
256,192,95304,1,8,0:0:0:0:
256,192,95348,1,8,0:0:0:0:
256,192,95392,1,0,0:0:0:0:
256,192,95457,1,0,0:0:0:0:
256,192,95523,1,8,0:0:0:0:
256,192,95567,1,0,0:0:0:0:
256,192,95611,1,0,0:0:0:0:
256,192,95655,1,8,0:0:0:0:
256,192,95721,1,8,0:0:0:0:
256,192,95786,1,0,0:0:0:0:
256,192,96707,1,0,0:0:0:0:
256,192,96773,1,0,0:0:0:0:
256,192,96839,1,8,0:0:0:0:
256,192,96905,1,8,0:0:0:0:
256,192,96971,1,0,0:0:0:0:
256,192,97036,1,0,0:0:0:0:
256,192,97102,1,8,0:0:0:0:
256,192,97168,1,0,0:0:0:0:
256,192,97234,1,0,0:0:0:0:
256,192,97299,1,0,0:0:0:0:
256,192,97365,1,8,0:0:0:0:
256,192,97431,1,8,0:0:0:0:
256,192,97497,1,0,0:0:0:0:
256,192,97563,1,0,0:0:0:0:
256,192,97628,1,8,0:0:0:0:
256,192,97892,1,4,0:0:0:0:
256,192,98023,1,0,0:0:0:0:
256,192,98155,1,12,0:0:0:0:
256,192,98418,1,0,0:0:0:0:
256,192,98484,1,0,0:0:0:0:
256,192,98549,1,8,0:0:0:0:
256,192,98615,1,0,0:0:0:0:
256,192,98681,1,8,0:0:0:0:
256,192,98747,1,0,0:0:0:0:
256,192,98813,1,8,0:0:0:0:
256,192,98878,1,8,0:0:0:0:
256,192,98944,1,0,0:0:0:0:
256,192,99010,1,0,0:0:0:0:
256,192,99075,1,8,0:0:0:0:
256,192,99141,1,0,0:0:0:0:
256,192,99207,1,8,0:0:0:0:
256,192,99273,1,0,0:0:0:0:
256,192,99339,1,8,0:0:0:0:
256,192,99404,1,8,0:0:0:0:
256,192,99471,1,0,0:0:0:0:
256,192,99537,1,0,0:0:0:0:
256,192,99602,1,8,0:0:0:0:
256,192,99668,1,0,0:0:0:0:
256,192,99734,1,8,0:0:0:0:
256,192,99800,1,0,0:0:0:0:
256,192,99866,1,8,0:0:0:0:
256,192,99931,1,8,0:0:0:0:
256,192,99997,1,4,0:0:0:0:
256,192,100260,1,0,0:0:0:0:
256,192,100293,1,0,0:0:0:0:
256,192,100392,1,8,0:0:0:0:
256,192,100424,1,8,0:0:0:0:
256,192,100523,1,0,0:0:0:0:
256,192,100589,1,0,0:0:0:0:
256,192,100654,1,8,0:0:0:0:
256,192,100720,1,0,0:0:0:0:
256,192,100786,1,8,0:0:0:0:
256,192,100852,1,0,0:0:0:0:
256,192,100918,1,8,0:0:0:0:
256,192,100983,1,8,0:0:0:0:
256,192,101049,1,0,0:0:0:0:
256,192,101115,1,0,0:0:0:0:
256,192,101180,1,8,0:0:0:0:
256,192,101246,1,0,0:0:0:0:
256,192,101312,1,8,0:0:0:0:
256,192,101378,1,0,0:0:0:0:
256,192,101444,1,8,0:0:0:0:
256,192,101509,1,8,0:0:0:0:
256,192,101576,1,0,0:0:0:0:
256,192,101620,1,0,0:0:0:0:
256,192,101664,1,8,0:0:0:0:
256,192,101707,1,8,0:0:0:0:
256,192,101773,1,0,0:0:0:0:
256,192,101839,1,8,0:0:0:0:
256,192,101971,1,8,0:0:0:0:
256,192,102102,1,4,0:0:0:0:
256,192,102365,1,12,0:0:0:0:
256,192,102628,1,0,0:0:0:0:
256,192,102694,1,0,0:0:0:0:
256,192,102759,1,8,0:0:0:0:
256,192,102825,1,0,0:0:0:0:
256,192,102891,1,8,0:0:0:0:
256,192,102957,1,0,0:0:0:0:
256,192,103023,1,8,0:0:0:0:
256,192,103088,1,8,0:0:0:0:
256,192,103154,1,0,0:0:0:0:
256,192,103220,1,0,0:0:0:0:
256,192,103285,1,8,0:0:0:0:
256,192,103351,1,0,0:0:0:0:
256,192,103417,1,8,0:0:0:0:
256,192,103483,1,0,0:0:0:0:
256,192,103549,1,8,0:0:0:0:
256,192,103614,1,8,0:0:0:0:
256,192,103681,1,0,0:0:0:0:
256,192,103769,1,8,0:0:0:0:
256,192,103857,1,8,0:0:0:0:
256,192,103944,1,0,0:0:0:0:
256,192,104032,1,0,0:0:0:0:
256,192,104120,1,8,0:0:0:0:
256,192,104207,1,0,0:0:0:0:
256,192,104240,1,0,0:0:0:0:
256,192,104339,1,0,0:0:0:0:
256,192,104372,1,0,0:0:0:0:
256,192,104471,1,8,0:0:0:0:
256,192,104503,1,8,0:0:0:0:
256,192,104734,1,0,0:0:0:0:
256,192,104767,1,0,0:0:0:0:
256,192,104997,1,8,0:0:0:0:
256,192,105030,1,8,0:0:0:0:
256,192,105260,1,0,0:0:0:0:
256,192,105392,1,0,0:0:0:0:
256,192,105457,1,0,0:0:0:0:
256,192,105523,1,8,0:0:0:0:
256,192,105655,1,0,0:0:0:0:
256,192,105786,1,8,0:0:0:0:
256,192,105852,1,8,0:0:0:0:
256,192,105918,1,0,0:0:0:0:
256,192,105984,1,0,0:0:0:0:
256,192,106050,1,8,0:0:0:0:
256,192,106181,1,8,0:0:0:0:
256,192,106313,1,4,0:0:0:0:
256,192,106444,1,0,0:0:0:0:
256,192,106576,1,12,0:0:0:0:
256,192,106839,1,0,0:0:0:0:
256,192,106905,1,0,0:0:0:0:
256,192,106970,1,8,0:0:0:0:
256,192,107036,1,0,0:0:0:0:
256,192,107102,1,8,0:0:0:0:
256,192,107168,1,0,0:0:0:0:
256,192,107234,1,8,0:0:0:0:
256,192,107299,1,8,0:0:0:0:
256,192,107365,1,0,0:0:0:0:
256,192,107431,1,0,0:0:0:0:
256,192,107496,1,8,0:0:0:0:
256,192,107562,1,0,0:0:0:0:
256,192,107628,1,8,0:0:0:0:
256,192,107694,1,0,0:0:0:0:
256,192,107760,1,8,0:0:0:0:
256,192,107825,1,8,0:0:0:0:
256,192,107892,1,0,0:0:0:0:
256,192,107958,1,0,0:0:0:0:
256,192,108023,1,8,0:0:0:0:
256,192,108089,1,0,0:0:0:0:
256,192,108155,1,8,0:0:0:0:
256,192,108221,1,0,0:0:0:0:
256,192,108287,1,8,0:0:0:0:
256,192,108352,1,8,0:0:0:0:
256,192,108418,1,0,0:0:0:0:
256,192,108484,1,8,0:0:0:0:
256,192,108549,1,0,0:0:0:0:
256,192,108681,1,8,0:0:0:0:
256,192,108714,1,8,0:0:0:0:
256,192,108813,1,8,0:0:0:0:
256,192,108846,1,8,0:0:0:0:
256,192,108944,1,0,0:0:0:0:
256,192,109010,1,0,0:0:0:0:
256,192,109075,1,8,0:0:0:0:
256,192,109141,1,0,0:0:0:0:
256,192,109207,1,8,0:0:0:0:
256,192,109339,1,0,0:0:0:0:
256,192,109470,1,0,0:0:0:0:
256,192,109536,1,0,0:0:0:0:
256,192,109601,1,8,0:0:0:0:
256,192,109667,1,0,0:0:0:0:
256,192,109733,1,8,0:0:0:0:
256,192,109865,1,8,0:0:0:0:
256,192,109931,1,0,0:0:0:0:
256,192,109997,1,8,0:0:0:0:
256,192,110063,1,0,0:0:0:0:
256,192,110128,1,8,0:0:0:0:
256,192,110194,1,8,0:0:0:0:
256,192,110260,1,0,0:0:0:0:
256,192,110392,1,8,0:0:0:0:
256,192,110523,1,0,0:0:0:0:
256,192,110721,1,0,0:0:0:0:
256,192,110852,1,0,0:0:0:0:
256,192,110918,1,0,0:0:0:0:
256,192,111049,1,12,0:0:0:0:
256,192,111313,1,8,0:0:0:0:
256,192,111378,1,8,0:0:0:0:
256,192,111444,1,8,0:0:0:0:
256,192,111510,1,8,0:0:0:0:
256,192,111576,1,0,0:0:0:0:
256,192,111773,1,0,0:0:0:0:
256,192,111905,1,0,0:0:0:0:
256,192,111971,1,0,0:0:0:0:
256,192,112102,1,12,0:0:0:0:
256,192,112365,1,0,0:0:0:0:
256,192,112431,1,0,0:0:0:0:
256,192,112497,1,0,0:0:0:0:
256,192,112563,1,0,0:0:0:0:
256,192,112628,1,8,0:0:0:0:
256,192,112760,1,0,0:0:0:0:
256,192,113023,1,0,0:0:0:0:
256,192,113155,1,8,0:0:0:0:
256,192,113286,1,0,0:0:0:0:
256,192,113550,1,0,0:0:0:0:
256,192,113681,12,0,114471,0:0:0:0:
256,192,114734,5,0,0:0:0:0:
256,192,114799,1,0,0:0:0:0:
256,192,114865,1,8,0:0:0:0:
256,192,114931,1,0,0:0:0:0:
256,192,114997,1,0,0:0:0:0:
256,192,115063,1,0,0:0:0:0:
256,192,115128,1,8,0:0:0:0:
256,192,115194,1,8,0:0:0:0:
256,192,115260,1,0,0:0:0:0:
256,192,115326,1,0,0:0:0:0:
256,192,115392,1,8,0:0:0:0:
256,192,115457,1,0,0:0:0:0:
256,192,115523,1,0,0:0:0:0:
256,192,115589,1,0,0:0:0:0:
256,192,115655,1,8,0:0:0:0:
256,192,115721,1,8,0:0:0:0:
256,192,115786,1,0,0:0:0:0:
256,192,115852,1,0,0:0:0:0:
256,192,115918,1,8,0:0:0:0:
256,192,115984,1,0,0:0:0:0:
256,192,116049,1,0,0:0:0:0:
256,192,116115,1,0,0:0:0:0:
256,192,116181,1,8,0:0:0:0:
256,192,116247,1,8,0:0:0:0:
256,192,116313,1,0,0:0:0:0:
256,192,116378,1,0,0:0:0:0:
256,192,116444,1,8,0:0:0:0:
256,192,116510,1,0,0:0:0:0:
256,192,116576,1,8,0:0:0:0:
256,192,116642,1,0,0:0:0:0:
256,192,116707,1,8,0:0:0:0:
256,192,116773,1,8,0:0:0:0:
256,192,116839,1,0,0:0:0:0:
256,192,116904,1,0,0:0:0:0:
256,192,116970,1,8,0:0:0:0:
256,192,117036,1,0,0:0:0:0:
256,192,117102,1,0,0:0:0:0:
256,192,117168,1,0,0:0:0:0:
256,192,117233,1,8,0:0:0:0:
256,192,117299,1,8,0:0:0:0:
256,192,117365,1,0,0:0:0:0:
256,192,117431,1,0,0:0:0:0:
256,192,117497,1,8,0:0:0:0:
256,192,117562,1,0,0:0:0:0:
256,192,117628,1,0,0:0:0:0:
256,192,117694,1,0,0:0:0:0:
256,192,117760,1,8,0:0:0:0:
256,192,117826,1,8,0:0:0:0:
256,192,117892,1,0,0:0:0:0:
256,192,118023,1,8,0:0:0:0:
256,192,118155,1,0,0:0:0:0:
256,192,118286,1,8,0:0:0:0:
256,192,118352,1,8,0:0:0:0:
256,192,118418,1,0,0:0:0:0:
256,192,118549,1,8,0:0:0:0:
256,192,118681,1,0,0:0:0:0:
256,192,118813,1,8,0:0:0:0:
256,192,118944,1,0,0:0:0:0:
256,192,119009,1,0,0:0:0:0:
256,192,119075,1,8,0:0:0:0:
256,192,119141,1,0,0:0:0:0:
256,192,119207,1,0,0:0:0:0:
256,192,119273,1,0,0:0:0:0:
256,192,119338,1,8,0:0:0:0:
256,192,119405,1,8,0:0:0:0:
256,192,119471,1,0,0:0:0:0:
256,192,119536,1,0,0:0:0:0:
256,192,119602,1,8,0:0:0:0:
256,192,119667,1,0,0:0:0:0:
256,192,119733,1,0,0:0:0:0:
256,192,119799,1,0,0:0:0:0:
256,192,119865,1,8,0:0:0:0:
256,192,119931,1,8,0:0:0:0:
256,192,119996,1,0,0:0:0:0:
256,192,120062,1,0,0:0:0:0:
256,192,120128,1,8,0:0:0:0:
256,192,120194,1,0,0:0:0:0:
256,192,120259,1,0,0:0:0:0:
256,192,120325,1,0,0:0:0:0:
256,192,120391,1,8,0:0:0:0:
256,192,120457,1,8,0:0:0:0:
256,192,120523,1,0,0:0:0:0:
256,192,120588,1,0,0:0:0:0:
256,192,120654,1,8,0:0:0:0:
256,192,120720,1,0,0:0:0:0:
256,192,120786,1,8,0:0:0:0:
256,192,120852,1,8,0:0:0:0:
256,192,120918,1,0,0:0:0:0:
256,192,121049,1,4,0:0:0:0:
256,192,121181,1,4,0:0:0:0:
256,192,121444,1,4,0:0:0:0:
256,192,121707,1,12,0:0:0:0:
256,192,121839,1,4,0:0:0:0:
256,192,121971,1,12,0:0:0:0:
