osu file format v14

[General]
AudioFilename: audio.mp3
AudioLeadIn: 0
PreviewTime: -1
Countdown: 1
SampleSet: Normal
StackLeniency: 0.7
Mode: 0
LetterboxInBreaks: 0
WidescreenStoryboard: 0

[Editor]
DistanceSpacing: 0.2
BeatDivisor: 4
GridSize: 8
TimelineZoom: 2.2

[Metadata]
Title:Diastrophism
TitleUnicode:Diastrophism
Artist:Camellia
ArtistUnicode:かめりあ
Creator:kirbob
Version:stubbed toes
Source:jubeat clan
Tags:
BeatmapID:1581278
BeatmapSetID:751019

[Difficulty]
HPDrainRate:1.5
CircleSize:3.8
OverallDifficulty:9.4
ApproachRate:9.9
SliderMultiplier:2.22
SliderTickRate:1

[Events]
//Background and Video events
0,0,"genosbg.jpg",0,0
//Break Periods
2,44635,47266
2,65624,71261
//Storyboard Layer 0 (Background)
//Storyboard Layer 1 (Fail)
//Storyboard Layer 2 (Pass)
//Storyboard Layer 3 (Foreground)
//Storyboard Sound Samples

[TimingPoints]
2266.90566037736,263.157894736842,4,1,0,100,1,0
10687,-133.333333333333,4,1,0,100,0,0
16740,-100,4,1,0,100,0,0
27530,-66.6666666666667,4,1,0,100,0,0
28845,-133.333333333333,4,1,0,100,0,0
29109,-66.6666666666667,4,1,0,100,0,0
29898,-55.5555555555556,4,1,0,100,0,0
30161,-66.6666666666667,4,1,0,100,0,0
30951,-133.333333333333,4,1,0,100,0,0
31214,-52.6315789473684,4,1,0,100,0,0
32266,-66.6666666666667,4,1,0,100,0,0
33845,-62.5,4,1,0,100,0,0
35951,-200,4,1,0,100,0,0
36214,-100,4,1,0,100,0,0
36740,-66.6666666666667,4,1,0,100,0,0
38056,-62.5,4,1,0,100,0,0
38582,-133.333333333333,4,1,0,100,0,0
38845,-66.6666666666667,4,1,0,100,0,0
39635,-55.5555555555556,4,1,0,100,0,0
40161,-66.6666666666667,4,1,0,100,0,0
47924,-58.8235294117647,4,1,0,100,0,0
48582,-83.3333333333333,4,1,0,100,0,0
56477,-71.4285714285714,4,1,0,100,0,0
73845,-142.857142857143,4,1,0,100,0,0
82266,-76.9230769230769,4,1,0,100,0,0
86477,-62.5,4,1,0,100,0,0
88582,-50,4,1,0,100,0,0
89503,-1000,4,1,0,100,0,0
90161,-83.3333333333333,4,1,0,100,0,0
97003,-200,4,1,0,100,0,0
97266,-133.333333333333,4,1,0,100,0,0
97530,-100,4,1,0,100,0,0
97793,-80,4,1,0,100,0,0
98056,-50,4,1,0,100,0,0
99109,-55.5555555555556,4,1,0,100,0,0

[Colours]
Combo1 : 91,123,172
Combo2 : 159,205,213

[HitObjects]
336,88,2266,6,0,P|394:70|447:73,2,111
291,190,2661,2,0,L|309:305,1,111
417,322,2924,1,0,0:0:0:0:
447,157,3056,6,0,P|396:118|342:104,2,111
472,265,3451,2,0,L|410:262,1,55.5
207,269,3582,2,0,B|252:233|252:233|309:236,1,111
430,345,3845,6,0,L|386:239,1,111
358,76,4109,2,0,L|335:202,1,111
236,317,4372,6,0,P|174:336|126:331,2,111
288,207,4766,2,0,L|307:97,1,111
203,31,5030,1,0,0:0:0:0:
164,169,5161,6,0,L|174:231,1,55.5
234,318,5293,2,0,B|260:267|260:267|249:203,1,111
95,57,5556,6,0,L|78:118,1,55.5
132,208,5687,2,0,B|173:160|173:160|236:144,1,111
383,171,5951,5,0,0:0:0:0:
383,171,6082,1,0,0:0:0:0:
471,312,6214,5,0,0:0:0:0:
471,312,6345,1,0,0:0:0:0:
311,362,6477,6,0,P|254:366|195:348,2,111
396,259,6872,2,0,L|386:142,1,111
260,193,7135,1,0,0:0:0:0:
371,330,7266,6,0,L|421:293,1,55.5
492,214,7398,2,0,B|443:186|443:186|382:183,1,111
243,283,7661,6,0,L|193:246,1,55.5
122,167,7793,2,0,B|170:137|170:137|232:136,1,111
366,242,8056,6,0,L|338:357,1,111
139,356,8319,2,0,L|167:241,1,111
227,117,8582,6,0,P|291:89|334:95,2,111
188,256,8977,2,0,L|205:371,1,111
336,305,9240,1,0,0:0:0:0:
250,188,9372,6,0,L|219:135,1,55.5
108,93,9503,2,0,B|155:49|155:49|215:43,1,111
337,93,9766,6,0,L|368:146,1,55.5
479,188,9897,2,0,B|431:232|431:232|372:238,1,111
110,179,10161,5,0,0:0:0:0:
386,150,10293,1,0,0:0:0:0:
71,87,10424,2,0,P|131:83|184:111,1,111
204,268,10687,6,0,L|190:363,1,83.2500031757356
300,222,10951,2,0,L|314:127,1,83.2500031757356
229,45,11214,1,0,0:0:0:0:
229,45,11345,1,0,0:0:0:0:
81,124,11609,6,0,P|115:197|196:204,1,166.500006351471
310,87,12003,2,0,L|399:79,1,83.2500031757356
184,66,12266,5,0,0:0:0:0:
184,66,12398,1,0,0:0:0:0:
184,66,12530,2,0,L|189:154,1,83.2500031757356
309,264,12793,5,0,0:0:0:0:
309,264,12924,1,0,0:0:0:0:
309,264,13056,2,0,P|342:215|340:183,1,83.2500031757356
231,67,13319,2,0,L|312:102,1,83.2500031757356
474,90,13582,1,0,0:0:0:0:
474,90,13714,1,0,0:0:0:0:
396,302,13977,5,0,0:0:0:0:
426,300,14043,1,0,0:0:0:0:
396,302,14109,2,0,B|346:304|346:304|308:284,1,83.2500031757356
248,91,14372,2,0,L|237:188,1,83.2500031757356
152,345,14635,2,0,L|163:248,1,83.2500031757356
155,86,14898,6,0,L|71:64,1,83.2500031757356
271,156,15161,2,0,L|355:178,1,83.2500031757356
134,175,15424,1,0,0:0:0:0:
134,175,15556,1,0,0:0:0:0:
213,320,15819,6,0,P|245:237|217:160,1,166.500006351471
55,150,16214,2,0,P|75:206|99:231,1,83.2500031757356
165,74,16477,1,0,0:0:0:0:
165,74,16609,1,0,0:0:0:0:
165,74,16740,2,0,B|161:119|154:132|154:132|169:133|169:133|158:153|156:185,1,111
135,333,17003,5,0,0:0:0:0:
466,288,17135,2,0,L|343:304,1,111
83,244,17398,1,0,0:0:0:0:
414,200,17530,2,0,L|290:215,1,111
29,163,17793,2,0,P|86:137|139:135,1,111
274,224,18056,5,0,0:0:0:0:
287,272,18122,1,0,0:0:0:0:
263,304,18187,1,0,0:3:0:0:
231,305,18253,1,0,0:3:0:0:
213,285,18319,1,0,0:3:0:0:
215,263,18385,1,0,0:3:0:0:
240,201,18451,5,0,0:0:0:0:
268,160,18517,1,0,0:0:0:0:
308,158,18582,1,0,0:3:0:0:
329,181,18648,1,0,0:3:0:0:
325,208,18714,1,0,0:3:0:0:
307,221,18780,1,0,0:3:0:0:
242,209,18845,5,0,0:0:0:0:
176,197,18911,1,0,0:0:0:0:
110,186,18977,1,0,0:0:0:0:
44,175,19043,1,0,0:0:0:0:
44,141,19109,5,0,0:0:0:0:
44,108,19174,1,0,0:0:0:0:
44,74,19240,1,0,0:0:0:0:
155,266,19372,1,0,0:0:0:0:
324,123,19503,1,0,0:0:0:0:
349,101,19568,1,0,0:0:0:0:
375,79,19634,1,0,0:0:0:0:
170,167,19766,1,0,0:0:0:0:
353,293,19898,2,0,L|370:349,2,55.5
276,85,20161,5,0,0:0:0:0:
288,116,20226,1,0,0:0:0:0:
299,147,20292,1,0,0:0:0:0:
157,319,20424,1,0,0:0:0:0:
335,252,20556,1,0,0:0:0:0:
366,241,20622,1,0,0:0:0:0:
397,229,20687,1,0,0:0:0:0:
115,214,20819,1,0,0:0:0:0:
274,58,20951,2,0,L|332:38,2,55.5
176,272,21215,5,0,0:0:0:0:
164,303,21280,1,0,0:0:0:0:
153,335,21346,1,0,0:0:0:0:
119,71,21477,1,0,0:0:0:0:
251,263,21609,1,0,0:0:0:0:
272,289,21674,1,0,0:0:0:0:
294,315,21740,1,0,0:0:0:0:
476,169,21872,1,0,0:0:0:0:
252,107,22003,2,0,L|194:91,2,55.5
446,273,22266,5,0,0:0:0:0:
451,306,22331,1,0,0:0:0:0:
457,340,22397,1,0,0:0:0:0:
181,243,22530,1,0,0:0:0:0:
385,92,22661,1,0,0:0:0:0:
411,71,22726,1,0,0:0:0:0:
438,49,22792,1,0,0:0:0:0:
156,155,22924,1,0,0:0:0:0:
414,221,23056,2,0,L|468:235,2,55.5
109,83,23319,5,0,0:0:0:0:
102,110,23385,1,0,0:0:0:0:
113,135,23451,1,0,0:0:0:0:
138,146,23516,1,0,0:0:0:0:
164,140,23582,1,0,0:0:0:0:
180,118,23648,1,0,0:0:0:0:
206,111,23714,1,0,0:0:0:0:
230,122,23780,1,0,0:0:0:0:
241,145,23845,5,0,0:0:0:0:
230,181,23911,1,0,0:0:0:0:
198,201,23977,1,0,0:0:0:0:
160,196,24043,1,0,0:0:0:0:
135,168,24109,1,0,0:0:0:0:
133,129,24174,1,0,0:0:0:0:
156,100,24240,1,0,0:0:0:0:
154,63,24306,1,0,0:0:0:0:
128,35,24372,5,0,0:0:0:0:
71,27,24437,1,0,0:0:0:0:
22,57,24503,1,0,0:0:0:0:
4,111,24569,1,0,0:0:0:0:
25,165,24635,1,0,0:0:0:0:
75,192,24701,1,0,0:0:0:0:
131,180,24767,1,0,0:0:0:0:
181,206,24832,1,0,0:0:0:0:
202,258,24898,5,0,0:0:0:0:
157,315,24964,1,0,0:0:0:0:
85,304,25030,1,0,0:0:0:0:
58,236,25095,1,0,0:0:0:0:
92,171,25161,1,0,0:0:0:0:
159,143,25227,1,0,0:0:0:0:
231,152,25293,1,0,0:0:0:0:
295,185,25359,1,0,0:0:0:0:
352,228,25424,5,0,0:0:0:0:
259,64,27003,6,0,L|250:131,1,55.5
207,269,27135,2,0,B|248:220|308:227|308:227|310:220|310:220|308:227|308:227|370:246|409:220,1,222
445,145,27530,6,0,B|365:128|335:79|335:79|302:127|238:144,1,249.750009527207
95,289,27793,2,0,B|140:231|208:220|208:220|147:179|164:118,1,249.750009527207
237,41,28056,1,0,0:0:0:0:
241,65,28122,1,0,0:0:0:0:
250,113,28187,1,0,0:0:0:0:
254,137,28253,1,0,0:0:0:0:
293,161,28319,5,0,0:0:0:0:
286,193,28385,1,0,0:0:0:0:
244,246,28451,1,0,0:0:0:0:
214,262,28517,1,0,0:0:0:0:
149,272,28582,1,0,0:0:0:0:
116,262,28648,1,0,0:0:0:0:
62,223,28714,1,0,0:0:0:0:
46,192,28780,1,0,0:0:0:0:
57,132,28845,6,0,L|77:87,3,41.6250015878678
95,128,29109,5,0,0:0:0:0:
143,137,29174,1,0,0:0:0:0:
170,177,29240,1,0,0:0:0:0:
210,150,29306,1,0,0:0:0:0:
258,159,29371,1,0,0:0:0:0:
285,199,29437,1,0,0:0:0:0:
325,172,29503,1,0,0:0:0:0:
373,181,29568,1,0,0:0:0:0:
395,228,29635,6,0,B|366:312|277:335|277:335|208:287,1,249.750009527207
61,220,29898,2,0,P|111:207|167:218,1,99.8999969512941
310,137,30030,2,0,P|260:150|204:139,1,99.8999969512941
124,40,30161,5,0,0:0:0:0:
128,64,30227,1,0,0:0:0:0:
137,113,30293,1,0,0:0:0:0:
141,137,30359,1,0,0:0:0:0:
86,202,30424,5,0,0:0:0:0:
118,194,30490,1,0,0:0:0:0:
184,201,30556,1,0,0:0:0:0:
210,219,30622,1,0,0:0:0:0:
247,274,30688,1,0,0:0:0:0:
273,292,30753,1,0,0:0:0:0:
339,299,30819,1,0,0:0:0:0:
371,291,30885,1,0,0:0:0:0:
416,236,30951,6,0,L|431:197,3,41.6250015878678
397,209,31214,2,0,B|292:172|209:193|209:193|191:184|191:184|208:193|208:193|150:277|34:260|34:260|36:280|36:280|20:166|92:104|92:104|81:95|81:95|125:128|168:117,1,738.149980289269
254,102,31740,2,0,B|295:90|312:57|312:57|388:83|359:160|359:160|384:161|384:161|286:166,1,316.349991552544
195,167,32003,2,0,B|70:169|70:169|86:169|86:169|126:212|125:253|125:253|111:257|111:257|155:244|192:257,1,316.349991552544
261,301,32266,5,0,0:0:0:0:
265,284,32332,1,0,0:0:0:0:
269,267,32398,1,0,0:0:0:0:
273,250,32464,1,0,0:0:0:0:
242,210,32530,5,0,0:0:0:0:
271,223,32595,1,0,0:0:0:0:
304,213,32661,1,0,0:0:0:0:
323,181,32727,1,0,0:0:0:0:
316,140,32793,1,0,0:0:0:0:
280,109,32859,1,0,0:0:0:0:
227,108,32924,1,0,0:0:0:0:
181,144,32990,1,0,0:0:0:0:
112,169,33056,5,0,0:0:0:0:
178,172,33122,1,0,0:0:0:0:
243,175,33187,1,0,0:0:0:0:
309,178,33253,1,0,0:0:0:0:
389,162,33319,5,0,0:0:0:0:
446,229,33407,1,0,0:0:0:0:
359,244,33494,1,0,0:0:0:0:
409,147,33582,1,0,0:0:0:0:
448,254,33670,1,0,0:0:0:0:
336,233,33757,1,0,0:0:0:0:
450,147,33845,6,0,B|398:247|305:237|305:237|295:258|295:258|323:202|330:124|217:88|121:131|152:245|152:245|210:240|230:213,1,621.6
357,171,34372,2,0,B|399:191|448:184|448:184|259:212,1,266.4
160,200,34635,2,0,B|116:184|86:144|86:144|200:298,1,266.4
407,327,34898,6,0,L|309:318,1,88.8
238,207,35030,2,0,L|336:216,1,88.8
228,314,35161,2,0,B|99:305|99:305|47:272|67:187|120:171,1,266.4
484,84,35424,6,0,B|418:197|418:197|423:188|423:188|294:188|294:188|304:194|304:194|181:115|181:115|175:89|175:89|202:196|146:248,1,621.6
81,163,35951,6,0,L|92:131,3,27.75
29,222,36214,2,0,P|93:309|158:313,1,166.5
217,269,36477,2,0,L|206:214,3,55.5
192,346,36740,5,0,0:0:0:0:
233,340,36806,1,0,0:0:0:0:
289,303,36872,1,0,0:0:0:0:
310,267,36937,1,0,0:0:0:0:
318,201,37003,1,0,0:0:0:0:
303,161,37069,1,0,0:0:0:0:
258,113,37135,1,0,0:0:0:0:
217,98,37201,1,0,0:0:0:0:
146,77,37266,5,0,0:0:0:0:
160,107,37332,1,0,0:0:0:0:
174,137,37398,1,0,0:0:0:0:
188,166,37464,1,0,0:0:0:0:
206,183,37530,5,0,0:0:0:0:
223,200,37595,1,0,0:0:0:0:
295,217,37661,1,0,0:0:0:0:
318,210,37727,1,0,0:0:0:0:
368,156,37793,1,0,0:0:0:0:
373,132,37859,1,0,0:0:0:0:
351,62,37925,1,0,0:0:0:0:
332,45,37990,1,0,0:0:0:0:
254,68,38056,6,0,B|279:155|367:189|367:189|471:151,1,266.4
347,22,38319,2,0,L|342:121,1,88.8
451,245,38451,2,0,L|456:146,1,88.8
172,89,38582,6,0,L|183:135,3,41.6250015878678
128,76,38845,5,0,0:0:0:0:
128,101,38911,1,0,0:0:0:0:
153,143,38977,1,0,0:0:0:0:
174,155,39043,1,0,0:0:0:0:
223,154,39109,1,0,0:0:0:0:
243,141,39174,1,0,0:0:0:0:
292,140,39240,1,0,0:0:0:0:
313,150,39306,1,0,0:0:0:0:
366,184,39372,5,0,0:0:0:0:
310,198,39437,1,0,0:0:0:0:
253,212,39503,1,0,0:0:0:0:
196,227,39569,1,0,0:0:0:0:
110,241,39635,6,0,B|139:152|125:70|125:70|127:82|127:82|232:100|276:24|276:24|268:38|268:38|387:69|397:175|397:175|397:191|397:191|397:175|397:175|442:137|487:157,1,699.299978659058
440,284,40161,6,0,L|233:273,1,166.500006351471
124,182,40358,2,0,L|296:191,1,166.500006351471
421,113,40556,2,0,L|326:108,1,83.2500031757356
91,73,40687,6,0,B|51:93|51:93|32:133,7,83.2500031757356
130,326,41214,6,0,L|176:124,1,166.500006351471
285,33,41411,2,0,L|246:201,1,166.500006351471
301,337,41609,2,0,L|322:245,1,83.2500031757356
375,75,41740,6,0,B|406:53|406:53|451:53,6,83.2500031757356
441,153,42266,5,0,0:0:0:0:
132,213,42398,1,0,0:0:0:0:
132,213,42661,1,0,0:0:0:0:
343,106,42793,5,0,0:0:0:0:
105,312,42925,1,0,0:0:0:0:
105,312,43188,1,0,0:0:0:0:
215,35,43319,5,0,0:0:0:0:
256,192,43352,12,0,44372,0:0:0:0:
204,261,47924,6,0,P|196:217|211:164,1,94.3500017995835
428,57,48056,2,0,B|368:137|268:104|268:104|251:108|251:108|269:104|269:104|162:15|46:77|46:77|33:85|33:85|46:77|46:77|78:123|125:129,1,566.100010797501
349,213,48582,5,0,0:0:0:0:
386,200,48648,1,0,0:0:0:0:
424,187,48714,1,0,0:0:0:0:
221,88,48845,1,0,0:0:0:0:
146,229,48977,1,0,0:0:0:0:
350,291,49109,6,0,P|421:318|474:350,1,133.199995935059
311,203,49372,2,0,P|240:176|187:144,1,133.199995935059
362,65,49635,5,0,0:0:0:0:
450,265,49766,2,0,P|383:300|324:319,1,133.199995935059
130,235,50030,1,0,0:0:0:0:
331,169,50161,1,0,0:0:0:0:
247,365,50293,1,0,0:0:0:0:
206,156,50424,1,0,0:0:0:0:
208,115,50490,1,0,0:0:0:0:
230,80,50556,1,0,0:0:0:0:
266,60,50622,1,0,0:0:0:0:
305,64,50687,6,0,P|375:92|427:125,1,133.199995935059
278,262,50951,1,0,0:0:0:0:
164,98,51082,1,0,0:0:0:0:
347,178,51214,1,0,0:0:0:0:
148,179,51345,1,0,0:0:0:0:
272,22,51477,2,0,P|295:94|304:155,1,133.199995935059
213,329,51740,5,0,0:0:0:0:
79,179,51872,1,0,0:0:0:0:
306,108,52003,1,0,0:0:0:0:
135,278,52135,1,0,0:0:0:0:
170,42,52266,1,0,0:0:0:0:
222,34,52332,1,0,0:0:0:0:
274,26,52398,1,0,0:0:0:0:
473,135,52530,2,0,P|440:193|371:205,1,133.199995935059
163,134,52793,5,0,0:0:0:0:
126,121,52859,1,0,0:0:0:0:
88,108,52925,1,0,0:0:0:0:
253,261,53056,1,0,0:0:0:0:
403,92,53187,1,0,0:0:0:0:
177,62,53319,2,0,P|152:133|142:194,1,133.199995935059
312,341,53582,2,0,P|324:266|322:204,1,133.199995935059
122,103,53845,5,0,0:0:0:0:
89,327,53977,2,0,P|159:300|212:268,1,133.199995935059
224,44,54240,1,0,0:0:0:0:
22,149,54372,1,0,0:0:0:0:
242,194,54503,1,0,0:0:0:0:
84,30,54635,1,0,0:0:0:0:
89,76,54701,1,0,0:0:0:0:
94,121,54766,1,0,0:0:0:0:
99,167,54832,1,0,0:0:0:0:
106,213,54898,6,0,P|133:283|165:336,1,133.199995935059
361,198,55161,1,0,0:0:0:0:
174,46,55293,1,0,0:0:0:0:
240,275,55424,1,0,0:0:0:0:
342,57,55556,1,0,0:0:0:0:
55,162,55687,2,0,P|129:174|191:172,1,133.199995935059
424,122,55951,5,0,0:0:0:0:
195,53,56082,1,0,0:0:0:0:
259,284,56214,1,0,0:0:0:0:
342,57,56345,1,0,0:0:0:0:
65,163,56477,6,0,B|154:202|168:300|168:300|164:318|164:318|168:300|168:300|190:200|237:170|297:173|326:200|326:200|340:217|340:217|326:200|326:200|365:211|405:202,1,543.89998340149
434,102,57003,5,0,0:0:0:0:
154,73,57135,1,0,0:0:0:0:
453,183,57266,5,0,0:0:0:0:
143,178,57398,1,0,0:0:0:0:
465,269,57530,5,0,0:0:0:0:
136,292,57662,1,0,0:0:0:0:
337,99,57793,5,0,0:0:0:0:
337,99,57859,1,0,0:0:0:0:
337,99,57924,1,0,0:0:0:0:
386,338,58056,5,0,0:0:0:0:
228,104,58188,1,0,0:0:0:0:
285,338,58319,5,0,0:0:0:0:
161,61,58451,1,0,0:0:0:0:
144,295,58582,5,0,0:0:0:0:
298,33,58714,1,0,0:0:0:0:
75,202,58845,5,0,0:0:0:0:
378,204,58977,1,0,0:0:0:0:
89,81,59109,5,0,0:0:0:0:
238,344,59241,1,0,0:0:0:0:
197,58,59372,5,0,0:0:0:0:
322,332,59504,1,0,0:0:0:0:
306,51,59635,5,0,0:0:0:0:
406,334,59767,1,0,0:0:0:0:
445,88,59898,5,0,0:0:0:0:
445,88,59964,1,0,0:0:0:0:
445,88,60030,1,0,0:0:0:0:
216,328,60161,5,0,0:0:0:0:
368,69,60293,1,0,0:0:0:0:
130,281,60424,5,0,0:0:0:0:
412,180,60556,1,0,0:0:0:0:
82,140,60687,5,0,0:0:0:0:
310,333,60819,1,0,0:0:0:0:
195,67,60951,5,0,0:0:0:0:
91,347,61083,1,0,0:0:0:0:
329,176,61214,5,0,0:0:0:0:
47,275,61346,1,0,0:0:0:0:
420,115,61477,5,0,0:0:0:0:
121,111,61609,1,0,0:0:0:0:
439,237,61740,5,0,0:0:0:0:
212,41,61872,1,0,0:0:0:0:
281,319,62003,5,0,0:0:0:0:
281,319,62069,1,0,0:0:0:0:
281,319,62135,1,0,0:0:0:0:
351,46,62266,5,0,0:0:0:0:
399,343,62398,1,0,0:0:0:0:
195,22,62530,5,0,0:0:0:0:
385,255,62662,1,0,0:0:0:0:
94,157,62793,5,0,0:0:0:0:
394,161,62925,1,0,0:0:0:0:
212,341,63056,5,0,0:0:0:0:
268,46,63188,1,0,0:0:0:0:
328,275,63319,5,0,0:0:0:0:
338,320,63385,1,0,0:0:0:0:
348,365,63451,1,0,0:0:0:0:
159,139,63582,1,0,0:0:0:0:
344,111,63714,1,0,0:0:0:0:
390,109,63780,1,0,0:0:0:0:
436,107,63846,1,0,0:0:0:0:
213,273,63977,1,0,0:0:0:0:
122,57,64109,1,0,0:0:0:0:
175,54,64174,1,0,0:0:0:0:
220,81,64240,1,0,0:0:0:0:
241,128,64306,1,0,0:0:0:0:
94,329,64503,5,0,0:0:0:0:
53,67,64635,1,0,0:0:0:0:
321,309,64898,5,0,0:0:0:0:
349,45,65030,1,0,0:0:0:0:
185,264,65161,5,0,0:0:0:0:
427,156,65293,1,0,0:0:0:0:
64,80,65424,1,0,0:0:0:0:
256,192,71740,12,0,73714,0:0:0:0:
332,307,73845,5,0,0:0:0:0:
359,106,74109,1,0,0:0:0:0:
131,235,74503,5,0,0:0:0:0:
442,232,74635,1,0,0:0:0:0:
251,237,74898,5,0,0:0:0:0:
224,36,75162,1,0,0:0:0:0:
111,134,75556,5,0,0:0:0:0:
421,158,75688,1,0,0:0:0:0:
341,292,75951,5,0,0:0:0:0:
296,94,76215,1,0,0:0:0:0:
108,204,76608,5,0,0:0:0:0:
414,254,76740,1,0,0:0:0:0:
222,240,77003,5,0,0:0:0:0:
159,46,77267,1,0,0:0:0:0:
67,90,77661,5,0,0:0:0:0:
367,166,77793,1,0,0:0:0:0:
365,320,78056,5,0,0:0:0:0:
285,132,78320,1,0,0:0:0:0:
137,153,78714,5,0,0:0:0:0:
429,254,78846,1,0,0:0:0:0:
484,200,79109,5,0,0:0:0:0:
387,19,79373,1,0,0:0:0:0:
74,172,79766,5,0,0:0:0:0:
356,298,79898,1,0,0:0:0:0:
263,329,80161,5,0,0:0:0:0:
172,243,80425,1,0,0:0:0:0:
184,105,80687,5,0,0:0:0:0:
274,80,80819,1,0,0:0:0:0:
250,170,80951,1,0,0:0:0:0:
377,265,81214,5,0,0:0:0:0:
405,143,81478,1,0,0:0:0:0:
268,199,81740,5,0,0:0:0:0:
203,265,81872,1,0,0:0:0:0:
179,175,82004,1,0,0:0:0:0:
358,175,82135,1,0,0:0:0:0:
114,241,82266,6,0,B|63:169|130:85|130:85|113:81|113:81|130:85|130:85|215:101|289:80,1,360.749983486176
371,60,82661,2,0,B|402:46|419:17|419:17|402:46|406:136|427:189|427:189|434:201|434:201|427:189|427:189|376:161|321:195,1,360.749983486176
188,291,83056,1,0,0:0:0:0:
241,82,83187,1,0,0:0:0:0:
407,282,84372,6,0,B|382:294|308:310|308:310|304:321|304:321|308:309|308:309|248:211|285:131|285:131|337:148,1,360.749983486176
432,159,84766,2,0,B|465:164|490:199|490:199|465:164|478:75|478:75|443:73|443:73|417:58|417:58|383:58,1,288.599986788941
81,103,85161,1,0,0:0:0:0:
292,52,85293,1,0,0:0:0:0:
83,280,86477,6,0,B|124:313|168:312|168:312|168:328|168:328|168:312|168:312|177:247|219:224|219:224|245:310|337:335|337:335|341:281,1,444
463,62,86872,2,0,B|413:78|389:133|389:133|414:233|414:233|408:210|408:210|335:170|290:214,1,355.2
53,133,87266,1,0,0:0:0:0:
316,90,87398,1,0,0:0:0:0:
170,98,88582,6,0,P|170:61|172:97,5,111
252,148,88977,2,0,P|284:166|251:150,5,111
158,186,89372,1,0,0:0:0:0:
414,50,89503,2,0,B|423:50|423:50|414:50|414:50|422:50|422:50|414:50|414:50,1,33.3
256,321,90293,5,0,0:0:0:0:
256,187,90359,1,0,0:0:0:0:
256,54,90424,1,0,0:0:0:0:
395,284,90687,5,0,0:0:0:0:
447,313,90753,1,0,0:0:0:0:
499,341,90819,1,0,0:0:0:0:
173,266,90951,1,0,0:0:0:0:
373,163,91082,1,0,0:0:0:0:
424,132,91148,1,0,0:0:0:0:
474,101,91214,1,0,0:0:0:0:
170,74,91345,1,0,0:0:0:0:
249,243,91477,1,0,0:0:0:0:
280,294,91543,1,0,0:0:0:0:
311,344,91609,1,0,0:0:0:0:
304,158,91740,5,0,0:0:0:0:
273,107,91806,1,0,0:0:0:0:
242,57,91872,1,0,0:0:0:0:
499,265,92003,1,0,0:0:0:0:
274,233,92135,1,0,0:0:0:0:
215,224,92201,1,0,0:0:0:0:
157,216,92267,1,0,0:0:0:0:
429,79,92398,1,0,0:0:0:0:
405,237,92530,1,0,0:0:0:0:
396,296,92596,1,0,0:0:0:0:
388,354,92661,1,0,0:0:0:0:
263,61,92793,5,0,0:0:0:0:
322,52,92859,1,0,0:0:0:0:
380,44,92924,1,0,0:0:0:0:
197,307,93056,1,0,0:0:0:0:
57,147,93187,1,0,0:0:0:0:
68,88,93253,1,0,0:0:0:0:
81,31,93318,1,0,0:0:0:0:
370,173,93451,1,0,0:0:0:0:
154,240,93582,1,0,0:0:0:0:
97,259,93648,1,0,0:0:0:0:
41,277,93713,1,0,0:0:0:0:
195,110,93845,5,0,0:0:0:0:
252,91,93911,1,0,0:0:0:0:
308,73,93976,1,0,0:0:0:0:
156,342,94109,1,0,0:0:0:0:
381,136,94240,1,0,0:0:0:0:
410,188,94306,1,0,0:0:0:0:
437,240,94371,1,0,0:0:0:0:
119,135,94503,1,0,0:0:0:0:
397,319,94635,1,0,0:0:0:0:
345,348,94701,1,0,0:0:0:0:
293,375,94766,1,0,0:0:0:0:
165,44,94898,5,0,0:0:0:0:
177,40,94964,1,0,0:0:0:0:
190,42,95030,1,0,0:0:0:0:
201,50,95095,1,0,0:0:0:0:
206,63,95161,5,0,0:0:0:0:
202,77,95227,1,0,0:0:0:0:
189,88,95293,1,0,0:0:0:0:
170,91,95359,1,0,0:0:0:0:
153,104,95424,5,0,0:0:0:0:
143,124,95490,1,0,0:0:0:0:
144,148,95556,1,0,0:0:0:0:
157,170,95622,1,0,0:0:0:0:
181,183,95687,5,0,0:0:0:0:
210,181,95753,1,0,0:0:0:0:
236,162,95819,1,0,0:0:0:0:
250,129,95885,1,0,0:0:0:0:
279,104,95951,5,0,0:0:0:0:
321,96,96016,1,0,0:0:0:0:
363,110,96082,1,0,0:0:0:0:
394,146,96148,1,0,0:0:0:0:
402,196,96214,5,0,0:0:0:0:
381,247,96280,1,0,0:0:0:0:
332,283,96345,1,0,0:0:0:0:
264,289,96411,1,0,0:0:0:0:
195,257,96477,5,0,0:0:0:0:
158,181,96543,1,0,0:0:0:0:
180,89,96609,1,0,0:0:0:0:
262,26,96674,1,0,0:0:0:0:
375,30,96740,5,0,0:0:0:0:
466,112,96806,1,0,0:0:0:0:
484,245,96872,1,0,0:0:0:0:
405,369,96937,1,0,0:0:0:0:
220,329,97003,6,0,L|185:319,3,27.75
219,240,97266,2,0,L|199:199,3,41.6250015878678
285,179,97530,2,0,L|300:122,3,55.5
384,172,97793,2,0,L|458:119,3,69.375
410,281,98056,6,0,P|365:325|330:297,1,111
344,142,98187,2,0,P|404:158|397:203,1,111
261,272,98319,2,0,P|245:211|287:194,1,111
433,293,98451,6,0,P|377:346|334:312,1,111
352,122,98582,2,0,P|426:142|418:197,1,111
250,281,98714,2,0,P|230:206|282:186,1,111
448,302,98846,6,0,P|385:363|336:324,1,111
355,107,98977,2,0,P|439:130|430:192,1,111
87,281,99109,6,0,L|194:271,1,99.8999969512941
409,205,99240,2,0,L|302:215,1,99.8999969512941
75,171,99372,2,0,B|120:130|185:117|185:117|180:104|180:104|215:195|315:189,1,299.699990853882
455,24,99635,5,0,0:0:0:0:
446,73,99701,1,0,0:0:0:0:
395,132,99766,1,0,0:0:0:0:
348,148,99832,1,0,0:0:0:0:
278,179,99898,5,0,0:0:0:0:
269,129,99964,1,0,0:0:0:0:
309,61,100029,1,0,0:0:0:0:
356,43,100095,1,0,0:0:0:0:
430,71,100160,5,0,0:0:0:0:
455,114,100227,1,0,0:0:0:0:
441,191,100292,1,0,0:0:0:0:
402,223,100359,1,0,0:0:0:0:
324,222,100424,5,0,0:0:0:0:
285,189,100490,1,0,0:0:0:0:
207,188,100556,1,0,0:0:0:0:
167,220,100622,1,0,0:0:0:0:
153,297,100687,5,0,0:0:0:0:
177,341,100753,1,0,0:0:0:0:
250,369,100818,1,0,0:0:0:0:
297,353,100885,1,0,0:0:0:0:
337,285,100951,5,0,0:0:0:0:
329,235,101018,1,0,0:0:0:0:
369,167,101082,1,0,0:0:0:0:
416,150,101148,1,0,0:0:0:0:
481,191,101214,6,0,B|518:219|491:275|491:275|497:281|497:281|492:274|492:274|445:319|394:288|394:288|387:295|387:295|394:288|394:288|357:250|372:216,1,299.699990853882
348,36,101477,2,0,L|340:137,1,99.8999969512941
237,268,101609,2,0,L|245:167,1,99.8999969512941
159,38,101740,5,0,0:0:0:0:
136,93,101806,1,0,0:0:0:0:
161,168,101872,1,0,0:0:0:0:
211,200,101937,1,0,0:0:0:0:
289,188,102003,5,0,0:0:0:0:
329,144,102069,1,0,0:0:0:0:
407,132,102135,1,0,0:0:0:0:
457,163,102201,1,0,0:0:0:0:
482,238,102266,5,0,0:0:0:0:
460,292,102332,1,0,0:0:0:0:
390,330,102398,1,0,0:0:0:0:
333,317,102464,1,0,0:0:0:0:
283,255,102530,5,0,0:0:0:0:
225,242,102595,1,0,0:0:0:0:
156,280,102661,1,0,0:0:0:0:
134,334,102727,1,0,0:0:0:0:
219,338,102793,6,0,B|203:250|143:187|143:187|123:190|123:190|195:179|203:115,1,299.699990853882
81,85,103056,2,0,B|150:40|218:45|218:45|204:32|204:32|218:45|218:45|266:86|331:77,1,299.699990853882
444,108,103319,2,0,L|468:206|393:275|393:275|296:245,1,299.699990853882
253,85,103582,2,0,B|234:133|286:160|286:160|299:162|299:162|286:160|286:160|185:178|196:288|247:306,1,299.699990853882
351,321,103845,5,0,0:0:0:0:
365,252,103911,1,0,0:0:0:0:
314,176,103977,1,0,0:0:0:0:
245,162,104043,1,0,0:0:0:0:
169,213,104109,5,0,0:0:0:0:
100,199,104174,1,0,0:0:0:0:
49,123,104240,1,0,0:0:0:0:
63,54,104305,1,0,0:0:0:0:
139,3,104372,5,0,0:0:0:0:
208,17,104437,1,0,0:0:0:0:
259,93,104503,1,0,0:0:0:0:
245,162,104568,1,0,0:0:0:0:
296,238,104635,5,0,0:0:0:0:
365,252,104701,1,0,0:0:0:0:
441,201,104768,1,0,0:0:0:0:
455,132,104832,1,0,0:0:0:0:
399,75,104898,6,0,P|348:52|268:64,2,133.199995935059
329,141,105161,2,0,P|334:196|384:259,2,133.199995935059
485,40,105424,6,0,L|381:48,1,99.8999969512941
143,102,105556,2,0,L|247:94,1,99.8999969512941
475,144,105687,2,0,B|465:212|400:226|341:173|341:173|356:168|356:168|304:190|304:190|271:175|234:200,1,299.699990853882
18,205,105951,2,0,B|78:249|81:306|81:306|79:249|151:212|151:212|183:253,1,299.699990853882
347,325,106214,2,0,B|301:273|288:204|288:204|277:219|277:219|323:159|259:84,1,299.699990853882
45,76,106477,6,0,L|155:68,1,99.8999969512941
402,106,106609,2,0,L|292:114,1,99.8999969512941
135,152,106740,2,0,B|104:202|160:260|160:260|152:271|152:271|217:177|301:193,1,299.699990853882
474,293,107003,2,0,B|403:307|364:289|364:289|354:297|354:297|412:246|414:173|414:173|374:66|279:66|279:66|299:45|299:45|212:132|160:48|160:48|210:22,1,699.299978659058
321,180,107530,6,0,L|211:191,1,99.8999969512941
26,155,107661,2,0,L|136:144,1,99.8999969512941
381,38,107793,2,0,P|276:97|193:78,1,199.799993902588
52,38,108056,5,0,0:0:0:0:
51,98,108122,1,0,0:0:0:0:
100,158,108187,1,0,0:0:0:0:
158,169,108253,1,0,0:0:0:0:
226,131,108319,5,0,0:0:0:0:
284,142,108385,1,0,0:0:0:0:
333,202,108451,1,0,0:0:0:0:
332,261,108516,1,0,0:0:0:0:
281,319,108582,5,0,0:0:0:0:
223,328,108648,1,0,0:0:0:0:
157,287,108714,1,0,0:0:0:0:
138,232,108780,1,0,0:0:0:0:
166,159,108845,5,0,0:0:0:0:
217,131,108911,1,0,0:0:0:0:
293,145,108977,1,0,0:0:0:0:
330,191,109043,1,0,0:0:0:0:
406,205,109109,5,0,0:0:0:0:
457,176,109174,1,0,0:0:0:0:
484,104,109240,1,0,0:0:0:0:
464,48,109306,1,0,0:0:0:0:
398,9,109372,5,0,0:0:0:0:
339,18,109437,1,0,0:0:0:0:
289,77,109503,1,0,0:0:0:0:
287,136,109569,1,0,0:0:0:0:
346,229,109635,6,0,L|402:313,2,99.8999969512941
90,143,109898,2,0,P|134:125|201:134,1,99.8999969512941
428,129,110030,2,0,P|384:147|317:138,1,99.8999969512941
163,38,110161,5,0,0:0:0:0:
163,38,110227,1,0,0:0:0:0:
163,38,110293,1,0,0:0:0:0:
212,316,110424,6,0,L|221:213,1,99.8999969512941
295,36,110556,2,0,L|286:139,1,99.8999969512941
361,333,110687,5,0,0:0:0:0:
363,282,110753,1,0,0:0:0:0:
331,241,110819,1,0,0:0:0:0:
281,230,110885,1,0,0:0:0:0:
235,254,110951,5,0,0:0:0:0:
184,242,111016,1,0,0:0:0:0:
152,200,111082,1,0,0:0:0:0:
155,148,111147,1,0,0:0:0:0:
259,128,111214,6,0,B|176:193|67:121|67:121|144:117|174:44|174:44|176:193|176:193|170:286|85:280|85:280|83:217,1,699.299978659058
78,38,111740,6,0,L|290:42,1,199.799993902588
447,124,111937,2,0,L|235:120,1,199.799993902588
37,169,112135,2,0,P|90:189|143:180,1,99.8999969512941
352,39,112266,6,0,B|401:20|401:20|454:40,7,99.8999969512941
75,336,112793,6,0,L|79:123,1,199.799993902588
175,37,112990,2,0,L|171:249,1,199.799993902588
327,338,113188,2,0,P|347:285|338:232,1,99.8999969512941
290,123,113319,6,0,B|271:73|271:73|291:21,7,99.8999969512941
465,69,113845,5,0,0:0:0:0:
81,166,113977,1,0,0:0:0:0:
81,166,114240,5,0,0:0:0:0:
445,319,114372,1,0,0:0:0:0:
157,59,114503,1,0,0:0:0:0:
157,59,114766,5,0,0:0:0:0:
260,340,114898,1,0,0:0:0:0:
256,192,114931,12,0,115819,0:0:0:0:
52,265,115951,5,0,0:0:0:0:
70,258,116016,1,0,0:0:0:0:
82,243,116082,1,0,0:0:0:0:
85,224,116148,1,0,0:0:0:0:
77,206,116214,1,0,0:0:0:0:
79,186,116280,1,0,0:0:0:0:
90,170,116345,1,0,0:0:0:0:
108,162,116411,1,0,0:0:0:0:
127,166,116477,5,0,0:0:0:0:
141,180,116543,1,0,0:0:0:0:
146,201,116609,1,0,0:0:0:0:
160,218,116674,1,0,0:0:0:0:
180,227,116740,1,0,0:0:0:0:
202,225,116806,1,0,0:0:0:0:
220,212,116872,1,0,0:0:0:0:
229,192,116937,1,0,0:0:0:0:
225,170,117003,5,0,0:0:0:0:
209,153,117069,1,0,0:0:0:0:
184,147,117135,1,0,0:0:0:0:
158,155,117201,1,0,0:0:0:0:
129,149,117266,1,0,0:0:0:0:
104,130,117332,1,0,0:0:0:0:
90,101,117398,1,0,0:0:0:0:
92,68,117464,1,0,0:0:0:0:
110,40,117530,5,0,0:0:0:0:
140,25,117595,1,0,0:0:0:0:
174,29,117661,1,0,0:0:0:0:
203,51,117727,1,0,0:0:0:0:
217,87,117793,1,0,0:0:0:0:
210,128,117859,1,0,0:0:0:0:
182,162,117924,1,0,0:0:0:0:
173,209,117990,1,0,0:0:0:0:
189,257,118056,5,0,0:0:0:0:
234,286,118122,1,0,0:0:0:0:
289,290,118187,1,0,0:0:0:0:
340,265,118253,1,0,0:0:0:0:
372,216,118319,1,0,0:0:0:0:
375,156,118385,1,0,0:0:0:0:
345,101,118451,1,0,0:0:0:0:
288,68,118516,1,0,0:0:0:0:
218,68,118582,5,0,0:0:0:0:
154,105,118648,1,0,0:0:0:0:
115,173,118714,1,0,0:0:0:0:
115,256,118780,1,0,0:0:0:0:
158,330,118845,1,0,0:0:0:0:
235,374,118911,1,0,0:0:0:0:
327,372,118977,1,0,0:0:0:0:
408,321,119043,1,0,0:0:0:0:
454,232,119109,5,0,0:0:0:0:
240,51,119240,1,0,0:0:0:0:
362,253,119372,5,0,0:0:0:0:
134,91,119503,1,0,0:0:0:0:
134,91,119569,1,0,0:0:0:0:
134,91,119635,1,0,0:0:0:0:
136,368,119766,5,0,0:0:0:0:
239,116,119898,1,0,0:0:0:0:
270,358,120030,5,0,0:0:0:0:
103,142,120162,1,0,0:0:0:0:
99,161,120227,1,0,0:0:0:0:
107,180,120293,1,0,0:0:0:0:
125,191,120359,1,0,0:0:0:0:
148,188,120424,5,0,0:0:0:0:
166,170,120490,1,0,0:0:0:0:
170,141,120556,1,0,0:0:0:0:
190,116,120622,1,0,0:0:0:0:
223,105,120687,5,0,0:0:0:0:
259,114,120753,1,0,0:0:0:0:
285,144,120819,1,0,0:0:0:0:
289,186,120885,1,0,0:0:0:0:
265,225,120951,5,0,0:0:0:0:
218,244,121016,1,0,0:0:0:0:
163,231,121082,1,0,0:0:0:0:
121,183,121148,1,0,0:0:0:0:
113,112,121214,5,0,0:0:0:0:
150,42,121280,1,0,0:0:0:0:
226,1,121345,1,0,0:0:0:0:
311,11,121411,1,0,0:0:0:0:
374,67,121477,5,0,0:0:0:0:
393,149,121543,1,0,0:0:0:0:
361,227,121609,1,0,0:0:0:0:
290,272,121674,1,0,0:0:0:0:
206,260,121740,5,0,0:0:0:0:
149,196,121806,1,0,0:0:0:0:
153,110,121872,1,0,0:0:0:0:
216,52,121937,1,0,0:0:0:0:
300,62,122003,5,0,0:0:0:0:
346,132,122069,1,0,0:0:0:0:
308,206,122135,1,0,0:0:0:0:
224,210,122201,1,0,0:0:0:0:
178,139,122266,5,0,0:0:0:0:
454,57,122398,1,0,0:0:0:0:
454,57,122661,1,0,0:0:0:0:
454,57,122924,5,0,0:0:0:0:
59,260,123056,1,0,0:0:0:0:
486,147,123187,1,0,0:0:0:0:
