osu file format v14

[General]
AudioFilename: audio.mp3
AudioLeadIn: 0
PreviewTime: 273527
Countdown: 0
SampleSet: Soft
StackLeniency: 0.3
Mode: 0
LetterboxInBreaks: 1
EpilepsyWarning: 1
WidescreenStoryboard: 1

[Editor]
Bookmarks: 7470,18441,29413,40384,62327,73298,84270,89755,95241,100727,106213,117184,128155,130898,133641,136384,139127,141870,144613,147355,150098,161070,163813,166555,169298,172041,174784,177527,178898,180270,183013,185755,188498,191241,193984,196727,199470,202213,204955,226898,232384,237870,243355,251584,262555,265298,268041,273527,284498,295470,306441,317413,320155,322898,325641,328384,331127,333870,336613,339355
DistanceSpacing: 0.1
BeatDivisor: 4
GridSize: 32
TimelineZoom: 2.699999

[Metadata]
Title:Dans la mer de son
TitleUnicode:Dans la mer de son
Artist:Camellia
ArtistUnicode:かめりあ
Creator:PoNo
Version:Maelstrom
Source:
Tags:Cyphisonia E.P. Ponoyoshi kamelcamellia Collab Sharu [ Sharuresu ] [_Sharuresu_] Drum n Bass dnb Cametek
BeatmapID:1399834
BeatmapSetID:654313

[Difficulty]
HPDrainRate:5
CircleSize:4.2
OverallDifficulty:8.6
ApproachRate:9.4
SliderMultiplier:1.92
SliderTickRate:1

[Events]
//Background and Video events
0,0,"bg.jpg",0,0
//Break Periods
2,8184,9673
2,10927,12415
2,13669,15158
2,16412,17901
2,150298,153673
2,205155,225673
//Storyboard Layer 0 (Background)
//Storyboard Layer 1 (Fail)
//Storyboard Layer 2 (Pass)
//Storyboard Layer 3 (Foreground)
//Storyboard Sound Samples

[TimingPoints]
613,342.857142857143,4,2,1,50,1,0
7470,-200,4,2,1,50,0,0
18441,-200,4,2,1,60,0,0
29413,-166.666666666667,4,2,1,60,0,0
40384,-125,4,2,1,70,0,0
41070,-200,4,2,1,50,0,0
41413,-166.666666666667,4,2,1,70,0,0
43813,-200,4,2,1,50,0,0
44155,-166.666666666667,4,2,1,70,0,0
46555,-200,4,2,1,50,0,0
46898,-166.666666666667,4,2,1,70,0,0
49298,-200,4,2,1,50,0,0
49641,-166.666666666667,4,2,1,70,0,0
52041,-200,4,2,1,50,0,0
52384,-166.666666666667,4,2,1,70,0,0
54784,-200,4,2,1,50,0,0
55127,-166.666666666667,4,2,1,70,0,0
57527,-200,4,2,1,50,0,0
57870,-166.666666666667,4,2,1,70,0,0
60270,-200,4,2,1,50,0,0
60613,-100,4,2,1,70,0,0
62327,-125,4,2,1,50,0,0
73298,-100,4,2,1,70,0,0
74670,-90.9090909090909,4,2,1,70,0,0
76041,-83.3333333333333,4,2,1,70,0,0
77413,-76.9230769230769,4,2,1,70,0,0
78784,-71.4285714285714,4,2,1,80,0,0
81870,-71.4285714285714,4,2,1,60,0,0
82213,-71.4285714285714,4,2,1,50,0,0
82555,-71.4285714285714,4,2,1,40,0,0
82898,-71.4285714285714,4,2,1,80,0,0
83927,-200,4,2,1,40,0,0
84270,-100,4,2,1,80,0,0
93870,-83.3333333333333,4,2,1,90,0,0
95241,-100,4,2,1,80,0,0
106213,-200,4,2,1,50,0,0
106555,-100,4,2,1,80,0,0
122670,-83.3333333333333,4,2,1,80,0,0
124041,-76.9230769230769,4,2,1,80,0,0
125413,-71.4285714285714,4,2,1,80,0,0
127470,-200,4,2,1,50,0,0
128155,-50,4,2,1,90,0,0
128670,-58.8235294117647,4,2,1,90,0,0
129184,-50,4,2,1,90,0,0
129955,-58.8235294117647,4,2,1,90,0,0
130127,-50,4,2,1,90,0,0
130555,-58.8235294117647,4,2,1,90,0,0
130898,-50,4,2,1,90,0,0
131413,-200,4,2,1,90,0,0
131927,-50,4,2,1,90,0,0
132613,-58.8235294117647,4,2,1,90,0,0
133641,-50,4,2,1,90,0,0
134155,-58.8235294117647,4,2,1,90,0,0
134670,-50,4,2,1,90,0,0
135441,-58.8235294117647,4,2,1,90,0,0
135613,-50,4,2,1,90,0,0
136041,-58.8235294117647,4,2,1,90,0,0
136384,-58.8235294117647,4,2,1,90,0,0
136898,-200,4,2,1,90,0,0
137413,-58.8235294117647,4,2,1,90,0,0
138098,-200,4,2,1,90,0,0
138355,-62.5,4,2,1,90,0,0
139127,-50,4,2,1,90,0,0
139641,-58.8235294117647,4,2,1,90,0,0
140155,-50,4,2,1,90,0,0
140927,-58.8235294117647,4,2,1,90,0,0
141098,-50,4,2,1,90,0,0
141527,-58.8235294117647,4,2,1,90,0,0
142384,-200,4,2,1,90,0,0
142898,-58.8235294117647,4,2,1,90,0,0
144613,-50,4,2,1,90,0,0
145127,-58.8235294117647,4,2,1,90,0,0
145641,-50,4,2,1,90,0,0
146413,-58.8235294117647,4,2,1,90,0,0
146584,-50,4,2,1,90,0,0
147013,-58.8235294117647,4,2,1,90,0,0
147355,-50,4,2,1,100,0,0
150098,-100,4,2,1,40,0,0
155070,-83.3333333333333,4,2,1,70,0,0
158327,-83.3333333333333,4,2,1,80,0,0
159698,-100,4,2,1,70,0,0
160727,-200,4,2,1,90,0,0
161070,-50,4,2,1,100,0,1
161755,-200,4,2,1,100,0,1
162098,-50,4,2,1,100,0,1
163127,-200,4,2,1,100,0,1
163470,-1000,4,2,1,100,0,1
163813,-50,4,2,1,100,0,1
164155,-55.5555555555556,4,2,1,100,0,1
164498,-50,4,2,1,100,0,1
164841,-55.5555555555556,4,2,1,100,0,1
165184,-50,4,2,1,100,0,1
165870,-66.6666666666667,4,2,1,100,0,1
166555,-50,4,2,1,100,0,1
167240,-200,4,2,1,100,0,1
167583,-50,4,2,1,100,0,1
168612,-200,4,2,1,100,0,1
168955,-50,4,2,1,100,0,1
169298,-55.5555555555556,4,2,1,80,0,0
169641,-66.6666666666667,4,2,1,80,0,0
170670,-55.5555555555556,4,2,1,80,0,0
171013,-66.6666666666667,4,2,1,80,0,0
172041,-50,4,2,1,100,0,1
172727,-200,4,2,1,100,0,1
173070,-50,4,2,1,100,0,1
174098,-200,4,2,1,100,0,1
174441,-1000,4,2,1,100,0,1
174784,-50,4,2,1,100,0,1
175127,-55.5555555555556,4,2,1,100,0,1
175470,-50,4,2,1,100,0,1
175813,-55.5555555555556,4,2,1,100,0,1
176155,-50,4,2,1,100,0,1
176498,-55.5555555555556,4,2,1,100,0,1
176841,-66.6666666666667,4,2,1,100,0,1
177184,-76.9230769230769,4,2,1,100,0,1
177527,-50,4,2,1,100,0,1
177870,-125,4,2,1,100,0,1
178041,-100,4,2,1,100,0,1
178213,-83.3333333333333,4,2,1,100,0,1
178384,-71.4285714285714,4,2,1,100,0,1
178555,-62.5,4,2,1,100,0,1
178727,-55.5555555555556,4,2,1,100,0,1
178898,-50,4,2,1,100,0,1
179241,-100,4,2,1,100,0,1
179413,-83.3333333333333,4,2,1,100,0,1
179584,-71.4285714285714,4,2,1,100,0,1
179755,-62.5,4,2,1,100,0,1
179927,-55.5555555555556,4,2,1,100,0,1
180270,-1000,4,2,1,50,0,0
180955,-100,4,2,1,70,0,0
182670,-50,4,2,1,50,0,0
183013,-50,4,2,1,100,0,1
183355,-62.5,4,2,1,100,0,1
184384,-55.5555555555556,4,2,1,100,0,1
184727,-62.5,4,2,1,100,0,1
186184,-50,4,2,1,100,0,1
186613,-62.5,4,2,1,100,0,1
186870,-50,4,2,1,100,0,1
187298,-62.5,4,2,1,100,0,1
187555,-50,4,2,1,100,0,1
188498,-50,4,2,1,100,0,1
188841,-62.5,4,2,1,100,0,1
189870,-55.5555555555556,4,2,1,100,0,1
190213,-62.5,4,2,1,100,0,1
191241,-55.5555555555556,4,2,1,80,0,0
192270,-200,4,2,1,80,0,0
192441,-50,4,2,1,80,0,0
192613,-55.5555555555556,4,2,1,80,0,0
193984,-50,4,2,1,100,0,1
194327,-62.5,4,2,1,100,0,1
195355,-55.5555555555556,4,2,1,100,0,1
195698,-62.5,4,2,1,100,0,1
197155,-50,4,2,1,100,0,1
197584,-62.5,4,2,1,100,0,1
197841,-50,4,2,1,100,0,1
198784,-200,4,2,1,100,0,1
198955,-50,4,2,1,80,0,0
199813,-50,4,2,1,80,0,0
200155,-50,4,2,1,100,0,1
200498,-62.5,4,2,1,100,0,1
200841,-55.5555555555556,4,2,1,100,0,1
201184,-62.5,4,2,1,100,0,1
201527,-55.5555555555556,4,2,1,100,0,1
202213,-50,4,2,1,85,0,0
203584,-41.6666666666667,4,2,1,90,0,0
203841,-45.4545454545455,4,2,1,90,0,0
204098,-33.3333333333333,4,2,1,90,0,0
204270,-100,4,2,1,100,0,0
204441,-50,4,2,1,80,0,0
204955,-100,4,2,1,70,0,0
226213,-133.333333333333,4,2,1,50,0,0
227584,-200,4,2,1,50,0,0
228955,-133.333333333333,4,2,1,50,0,0
230327,-200,4,2,1,50,0,0
231698,-133.333333333333,4,2,1,50,0,0
232384,-200,4,2,1,50,0,0
234441,-133.333333333333,4,2,1,50,0,0
234670,-133.333333333333,4,2,1,5,0,0
234784,-133.333333333333,4,2,1,50,0,0
235013,-133.333333333333,4,2,1,5,0,0
235127,-200,4,2,1,50,0,0
237355,-133.333333333333,4,2,1,50,0,0
237870,-200,4,2,1,50,0,0
243355,-133.333333333333,4,2,1,50,0,0
251584,-100,4,2,1,70,0,0
262555,-66.6666666666667,4,2,1,80,0,0
262813,-100,4,2,1,80,0,0
263070,-50,4,2,1,80,0,0
263241,-66.6666666666667,4,2,1,80,0,0
263498,-100,4,2,1,80,0,0
263755,-50,4,2,1,80,0,0
263927,-66.6666666666667,4,2,1,80,0,0
264184,-100,4,2,1,80,0,0
264441,-50,4,2,1,80,0,0
264613,-66.6666666666667,4,2,1,80,0,0
264955,-50,4,2,1,80,0,0
265298,-66.6666666666667,4,2,1,80,0,0
265555,-100,4,2,1,80,0,0
265813,-50,4,2,1,80,0,0
265984,-66.6666666666667,4,2,1,80,0,0
266241,-100,4,2,1,80,0,0
266498,-50,4,2,1,80,0,0
266670,-66.6666666666667,4,2,1,80,0,0
266927,-100,4,2,1,80,0,0
267184,-50,4,2,1,80,0,0
267355,-66.6666666666667,4,2,1,80,0,0
267698,-50,4,2,1,80,0,0
269070,-66.6666666666667,4,2,1,80,0,0
270784,-200,4,2,1,60,0,0
271127,-200,4,2,1,40,0,0
271470,-200,4,2,1,20,0,0
272155,-200,4,2,1,40,0,0
272670,-100,4,2,1,40,0,0
273013,-133.333333333333,4,2,1,40,0,0
273270,-133.333333333333,4,2,1,80,0,0
273527,-45.4545454545455,4,2,1,100,0,1
273870,-55.5555555555556,4,2,1,100,0,1
274213,-62.5,4,2,1,100,0,1
275413,-50,4,2,1,100,0,1
275927,-62.5,4,2,1,100,0,1
276270,-45.4545454545455,4,2,1,100,0,1
276613,-55.5555555555556,4,2,1,100,0,1
276784,-50,4,2,1,100,0,1
277127,-55.5555555555556,4,2,1,100,0,1
277298,-62.5,4,2,1,100,0,1
278155,-50,4,2,1,100,0,1
278670,-62.5,4,2,1,100,0,1
279013,-45.4545454545455,4,2,1,100,0,1
279355,-55.5555555555556,4,2,1,100,0,1
279527,-50,4,2,1,100,0,1
279870,-55.5555555555556,4,2,1,100,0,1
280041,-62.5,4,2,1,100,0,1
280898,-50,4,2,1,100,0,1
281241,-55.5555555555556,4,2,1,100,0,1
281413,-62.5,4,2,1,100,0,1
281755,-45.4545454545455,4,2,1,100,0,1
282098,-55.5555555555556,4,2,1,100,0,1
282270,-50,4,2,1,100,0,1
282613,-55.5555555555556,4,2,1,100,0,1
282784,-50,4,2,1,90,0,0
282955,-45.4545454545455,4,2,1,100,0,1
283298,-45.4545454545455,4,2,1,90,0,0
283555,-40,4,2,1,100,0,1
283813,-40,4,2,1,90,0,0
284070,-40,4,2,1,100,0,1
284327,-100,4,2,1,90,0,0
284498,-45.4545454545455,4,2,1,100,0,1
285355,-55.5555555555556,4,2,1,100,0,1
285527,-62.5,4,2,1,100,0,1
285870,-50,4,2,1,100,0,1
286555,-62.5,4,2,1,100,0,1
287241,-50,4,2,1,100,0,1
288098,-55.5555555555556,4,2,1,100,0,1
289384,-50,4,2,1,100,0,1
289984,-66.6666666666667,4,2,1,100,0,1
294098,-100,4,2,1,40,0,0
294441,-83.3333333333333,4,2,1,60,0,0
294784,-71.4285714285714,4,2,1,80,0,0
295127,-200,4,2,1,60,0,0
295813,-50,4,2,1,100,0,1
295984,-50,4,2,1,100,0,1
296327,-55.5555555555556,4,2,1,100,0,1
296498,-62.5,4,2,1,100,0,1
297355,-50,4,2,1,100,0,1
297698,-55.5555555555556,4,2,1,100,0,1
298213,-45.4545454545455,4,2,1,100,0,1
298555,-55.5555555555556,4,2,1,100,0,1
298727,-50,4,2,1,100,0,1
299070,-55.5555555555556,4,2,1,100,0,1
299241,-62.5,4,2,1,100,0,1
300098,-50,4,2,1,100,0,1
300441,-55.5555555555556,4,2,1,100,0,1
300613,-62.5,4,2,1,100,0,1
300955,-100,4,2,1,100,0,1
301127,-83.3333333333333,4,2,1,100,0,1
301298,-45.4545454545455,4,2,1,100,0,1
301641,-55.5555555555556,4,2,1,100,0,1
302327,-50,4,2,1,100,0,1
302670,-55.5555555555556,4,2,1,100,0,1
302841,-50,4,2,1,100,0,1
303184,-55.5555555555556,4,2,1,100,0,1
303355,-62.5,4,2,1,100,0,1
303698,-50,4,2,1,100,0,1
304041,-133.333333333333,4,2,1,60,0,0
304384,-50,4,2,1,100,0,1
304641,-66.6666666666667,4,2,1,100,0,1
304813,-133.333333333333,4,2,1,60,0,0
305241,-66.6666666666667,4,2,1,60,0,0
305498,-58.8235294117647,4,2,1,70,0,0
305755,-52.6315789473684,4,2,1,80,0,0
306013,-200,4,2,1,40,0,0
306441,-45.4545454545455,4,2,1,100,0,1
307298,-55.5555555555556,4,2,1,100,0,1
307813,-50,4,2,1,100,0,1
308841,-100,4,2,1,80,0,0
309184,-50,4,2,1,100,0,1
310384,-55.5555555555556,4,2,1,100,0,1
310555,-50,4,2,1,100,0,1
311670,-66.6666666666667,4,2,1,80,0,0
311927,-50,4,2,1,100,0,1
312955,-100,4,2,1,80,0,0
313298,-45.4545454545455,4,2,1,100,0,1
314327,-45.4545454545455,4,2,1,80,0,0
314670,-41.6666666666667,4,2,1,100,0,1
315355,-40,4,2,1,100,0,1
316041,-200,4,2,1,60,0,0
316727,-100,4,2,1,70,0,0
317413,-55.5555555555556,4,2,1,90,0,0
325641,-62.5,4,2,1,90,0,0
328041,-50,4,2,1,90,0,0
328384,-55.5555555555556,4,2,1,90,0,0
337298,-50,4,2,1,90,0,0
337555,-55.5555555555556,4,2,1,90,0,0
337984,-55.5555555555556,4,2,1,100,0,0

[Colours]
Combo1 : 85,85,85
Combo2 : 28,188,210
Combo3 : 255,204,0
Combo4 : 45,105,187
Combo5 : 223,153,49
Combo6 : 248,31,36
Combo7 : 255,128,0
Combo8 : 201,201,201
SliderBorder : 70,150,190
SliderTrackOverride : 70,70,70

[HitObjects]
149,247,7470,117,0,0:0:0:0:
146,266,7641,1,0,0:0:0:0:
143,285,7812,1,0,0:0:0:0:
96,181,7984,1,2,0:0:0:0:
363,137,10213,101,0,0:0:0:0:
366,118,10384,1,0,0:0:0:0:
369,99,10555,1,0,0:0:0:0:
416,203,10727,1,2,0:0:0:0:
149,247,12955,5,0,0:0:0:0:
146,266,13126,1,0,0:0:0:0:
143,285,13297,1,0,0:0:0:0:
96,181,13469,1,2,0:0:0:0:
363,137,15698,101,0,0:0:0:0:
366,118,15869,1,0,0:0:0:0:
369,99,16040,1,0,0:0:0:0:
416,203,16212,1,2,0:0:0:0:
149,247,18441,5,2,0:0:0:0:
146,266,18612,1,2,0:0:0:0:
143,285,18783,1,2,0:0:0:0:
96,181,18955,2,0,B|178:212|165:151|251:184,1,144,2|2,0:0|0:0,0:0:0:0:
235,178,19641,2,0,L|232:241,1,48,2|0,0:0|0:0,0:0:0:0:
137,117,19984,2,0,L|134:69,1,48,2|0,0:0|0:0,0:0:0:0:
59,99,20327,1,2,0:0:0:0:
59,99,20498,1,2,0:0:0:0:
210,73,20670,102,0,L|270:63,1,48,2|0,0:0|0:0,0:0:0:0:
333,54,21013,1,2,0:0:0:0:
359,198,21355,6,0,L|299:188,1,48,2|0,0:0|0:0,0:0:0:0:
235,178,21698,1,2,0:0:0:0:
454,273,22384,102,0,L|461:232,2,24,2|2|2,0:0|0:0|0:0,0:0:0:0:
437,348,22727,1,2,0:0:0:0:
381,296,23070,1,2,0:0:0:0:
310,325,23413,2,0,P|287:325|263:323,1,48,2|2,0:0|0:0,0:0:0:0:
97,347,23927,6,0,B|120:314|118:269|92:245|92:245|70:274,1,144,2|0,0:0|0:0,0:0:0:0:
72,271,24784,2,0,P|98:271|130:268,1,48,2|0,0:0|0:0,0:0:0:0:
182,224,25127,1,2,0:0:0:0:
76,95,25813,101,2,0:0:0:0:
76,95,26156,2,0,P|102:95|134:92,1,48,2|2,0:0|0:0,0:0:0:0:
326,75,26670,6,0,B|373:92|421:90|421:90|398:100|374:131,1,144,2|2,0:0|0:0,0:0:0:0:
385,119,27527,2,0,P|385:145|388:177,1,48,2|0,0:0|0:0,0:0:0:0:
416,238,27870,1,2,0:0:0:0:
416,238,28555,102,0,P|362:242|306:236,1,96,2|2,0:0|0:0,0:0:0:0:
320,238,29070,2,0,L|325:302,1,48,2|2,0:0|0:0,0:0:0:0:
149,247,29413,5,2,0:0:0:0:
146,266,29584,1,2,0:0:0:0:
143,285,29755,1,2,0:0:0:0:
90,204,29927,2,0,B|73:162|73:162|114:144|161:155|200:195,1,172.799994726563,2|2,0:0|0:0,0:0:0:0:
320,238,30613,2,0,P|354:238|392:230,1,57.5999982421876,2|0,0:0|0:0,0:0:0:0:
200,281,30955,2,0,P|166:281|128:289,1,57.5999982421876,2|0,0:0|0:0,0:0:0:0:
310,335,31299,1,2,0:0:0:0:
310,335,31470,1,2,0:0:0:0:
190,186,31642,102,0,L|201:126,1,57.5999982421876,2|0,0:0|0:0,0:0:0:0:
214,55,31985,1,2,0:0:0:0:
387,290,32327,6,0,L|376:230,1,57.5999982421876,2|0,0:0|0:0,0:0:0:0:
363,159,32670,1,2,0:0:0:0:
163,192,33355,102,0,L|122:185,2,28.7999991210938,2|2|2,0:0|0:0|0:0,0:0:0:0:
239,205,33699,1,2,0:0:0:0:
190,264,34042,1,2,0:0:0:0:
264,279,34385,2,0,P|292:279|321:275,1,57.5999982421876,2|2,0:0|0:0,0:0:0:0:
97,111,34898,6,0,P|30:139|40:229,1,172.799994726563,2|2,0:0|0:0,0:0:0:0:
38,227,35755,2,0,P|67:228|105:222,1,57.5999982421876,2|0,0:0|0:0,0:0:0:0:
164,192,36099,1,2,0:0:0:0:
418,117,36785,101,2,0:0:0:0:
418,117,37127,2,0,P|389:118|351:112,1,57.5999982421876,2|2,0:0|0:0,0:0:0:0:
224,40,37642,6,0,P|235:96|234:153,1,115.199996484375,2|0,0:0|0:0,0:0:0:0:
196,236,38155,2,0,B|191:215|168:193|168:193|231:172|281:224,1,172.799994726563,2|0,0:0|0:0,0:0:0:0:
289,234,38841,1,0,0:0:0:0:
256,192,39013,12,0,39870,0:0:0:0:
135,330,40041,102,0,L|132:265,1,57.5999982421876,2|2,0:0|0:0,0:0:0:0:
122,50,40384,101,4,3:1:0:0:
122,50,41070,2,0,L|125:115,1,48,2|0,0:0|0:0,0:0:0:0:
135,330,41413,102,2,B|90:271|141:212|141:212|46:201|45:118|45:118|115:157|169:121|169:121|115:94,1,460.7999859375,2|0,0:0|0:0,0:0:0:0:
473,318,43127,5,0,3:0:0:0:
473,318,43813,2,2,L|410:348,1,48,2|0,0:0|0:0,0:0:0:0:
349,335,44155,102,2,B|349:295|380:261|422:255|422:255|374:247|354:211|354:211|384:210|433:178|444:107|386:41|313:66|289:100,1,460.8,2|0,0:0|0:0,0:0:0:0:
194,275,45870,5,0,3:0:0:0:
194,275,46555,2,2,L|124:270,1,48,2|0,0:0|0:0,0:0:0:0:
43,188,46898,102,2,B|34:157|8:137|8:137|65:107|109:143|109:143|141:206|207:174|207:174|143:130|197:59|251:99|251:99|239:120,1,460.7999859375,2|0,0:0|0:0,0:0:0:0:
356,71,48613,5,0,3:0:0:0:
356,71,49298,2,2,L|362:129,1,48,2|0,0:0|0:0,0:0:0:0:
422,181,49641,102,2,B|415:238|472:298|472:298|415:238|370:240|308:262|295:332|295:332|345:370|395:343,1,460.7999859375,2|0,0:0|0:0,0:0:0:0:
124,348,51355,5,0,3:0:0:0:
124,348,52041,2,2,L|122:285,1,48,2|0,0:0|0:0,0:0:0:0:
127,114,52384,102,2,B|112:79|112:79|165:47|165:47|229:113|188:181|126:189|126:189|93:177|93:177|61:258|135:310,1,460.7999859375,2|0,0:0|0:0,0:0:0:0:
299,118,54098,5,0,3:0:0:0:
299,118,54784,2,2,L|364:100,1,48,2|0,0:0|0:0,0:0:0:0:
383,27,55127,102,2,B|429:50|450:110|416:155|416:155|446:146|484:155|484:155|436:190|452:263|452:263|407:203|323:224,1,460.7999859375,2|0,0:0|0:0,0:0:0:0:
107,318,56841,5,0,3:0:0:0:
107,318,57013,1,0,0:0:0:0:
164,259,57184,2,0,L|243:248,1,57.5999982421876
64,206,57527,2,2,L|-4:196,1,48,2|0,0:0|0:0,0:0:0:0:
94,110,57870,102,2,B|108:69|95:27|95:27|187:42|200:145|132:182|132:182|73:214|62:280|113:323,1,460.7999859375,2|0,0:0|0:0,0:0:0:0:
323,117,59584,5,0,3:0:0:0:
324,227,59755,1,0,0:0:0:0:
323,117,59927,2,0,B|320:113|330:46,1,57.5999982421876,0|0,3:0|0:0,0:0:0:0:
323,117,60270,2,2,P|368:117|408:146,1,96,2|0,3:0|0:0,0:0:0:0:
436,250,60870,2,0,L|433:281,1,24,0|0,1:0|1:0,0:0:0:0:
420,237,60955,102,0,L|320:227,1,96,8|0,0:0|1:0,0:0:0:0:
324,227,61213,1,0,1:0:0:0:
324,227,61298,1,8,0:0:0:0:
153,290,61470,2,0,L|253:280,1,96,8|0,0:0|1:0,0:0:0:0:
248,280,61727,1,0,1:0:0:0:
248,280,61813,1,8,0:0:0:0:
389,334,61984,5,0,3:0:0:0:
381,335,62069,1,0,3:0:0:0:
373,336,62155,1,0,3:0:0:0:
365,337,62241,1,0,3:0:0:0:
357,338,62327,70,0,P|312:356|263:368,1,76.8,4|0,0:1|0:0,0:0:0:0:
420,237,62670,2,0,P|464:256|507:282,1,76.8,0|0,3:0|0:0,0:0:0:0:
248,280,63013,2,0,P|203:299|160:325,1,76.8,0|0,3:0|0:0,0:0:0:0:
326,225,63355,2,0,P|344:191|358:155,1,76.8,0|0,3:0|0:0,0:0:0:0:
183,96,63698,54,0,P|197:131|215:165,1,76.8,0|0,3:0|0:0,0:0:0:0:
431,96,64041,2,0,P|397:77|361:63,1,76.8,0|0,3:0|0:0,0:0:0:0:
143,190,64384,2,0,P|179:179|215:164,1,76.8,0|0,3:0|0:0,0:0:0:0:
326,225,64727,2,0,L|336:281,2,38.4,0|0|0,3:0|0:0|0:0,0:0:0:0:
257,54,65070,54,0,L|263:16,2,38.4,0|0|0,3:0|0:0|0:0,0:0:0:0:
183,96,65413,1,0,3:0:0:0:
171,98,65498,1,0,0:0:0:0:
159,100,65584,1,0,0:0:0:0:
215,164,65755,1,0,3:0:0:0:
241,169,65840,1,0,0:0:0:0:
267,173,65926,1,0,0:0:0:0:
163,265,66098,1,0,3:0:0:0:
137,270,66183,1,0,0:0:0:0:
106,275,66270,2,0,L|111:344,1,38.4
19,227,66441,54,0,L|21:188,1,38.4,0|0,3:0|0:0,0:0:0:0:
27,114,66613,1,0,0:0:0:0:
109,193,66784,1,0,3:0:0:0:
121,195,66869,1,0,0:0:0:0:
133,197,66955,1,0,0:0:0:0:
183,96,67127,1,0,3:0:0:0:
157,101,67212,1,0,0:0:0:0:
130,107,67298,2,0,L|127:68,1,38.4
241,169,67470,1,0,3:0:0:0:
267,174,67555,1,0,0:0:0:0:
294,180,67641,2,0,L|296:141,1,38.4
298,63,67813,53,0,3:0:0:0:
298,63,67898,1,0,0:0:0:0:
298,63,67984,1,0,0:0:0:0:
376,156,68155,1,0,3:0:0:0:
374,168,68241,1,0,0:0:0:0:
372,180,68326,1,0,0:0:0:0:
239,259,68498,1,0,3:0:0:0:
265,264,68583,1,0,0:0:0:0:
291,268,68669,1,0,0:0:0:0:
454,307,68841,1,0,3:0:0:0:
429,312,68926,1,0,0:0:0:0:
402,318,69012,2,0,L|399:279,1,38.4
313,347,69184,54,0,L|274:350,1,38.4,0|0,3:0|0:0,0:0:0:0:
198,358,69355,1,0,0:0:0:0:
106,275,69527,1,0,3:0:0:0:
118,277,69612,1,0,0:0:0:0:
130,279,69698,1,0,0:0:0:0:
241,169,69870,1,0,3:0:0:0:
215,174,69955,1,0,0:0:0:0:
188,180,70041,2,0,L|185:141,1,38.4
65,83,70213,1,0,3:0:0:0:
91,88,70298,1,0,0:0:0:0:
118,94,70384,2,0,L|121:55,1,38.4
188,18,70555,53,2,3:2:0:0:
218,47,70641,1,2,0:0:0:0:
257,61,70727,1,2,0:0:0:0:
299,65,70813,1,2,0:0:0:0:
340,57,70898,2,0,L|343:96,1,38.4,0|0,3:0|0:0,0:0:0:0:
348,172,71070,1,0,0:0:0:0:
442,53,71241,1,0,0:0:0:0:
430,55,71326,1,0,0:0:0:0:
418,57,71412,1,0,0:0:0:0:
189,160,71584,1,2,3:2:0:0:
215,165,71669,1,2,0:0:0:0:
241,169,71755,1,2,0:0:0:0:
439,145,71927,54,0,L|436:184,1,38.4,0|0,3:0|0:0,0:0:0:0:
427,259,72098,2,0,L|424:298,1,38.4,0|0,1:0|0:0,0:0:0:0:
267,174,72270,54,0,L|270:213,1,38.4,2|2,1:2|0:0,0:0:0:0:
279,288,72441,2,0,L|282:327,1,38.4,2|2,1:2|0:0,0:0:0:0:
184,262,72613,53,0,1:0:0:0:
184,262,72698,1,0,3:0:0:0:
184,262,72784,2,0,L|145:265,1,38.4,2|0,1:2|0:0,0:0:0:0:
49,158,72955,53,0,1:0:0:0:
49,158,73040,1,0,0:0:0:0:
49,158,73127,2,0,L|88:161,1,38.4,0|0,1:0|0:0,0:0:0:0:
182,88,73298,86,0,L|230:92,1,48,4|0,1:0|1:0,0:0:0:0:
396,77,73470,1,0,3:0:0:0:
396,77,73555,1,0,1:0:0:0:
396,77,73641,2,0,L|347:82,1,48,0|0,3:0|0:0,0:0:0:0:
298,177,73813,2,0,L|306:242,2,48,0|0|0,1:0|1:0|3:0,0:0:0:0:
189,214,74070,2,0,L|181:279,2,48,0|0|0,1:0|3:0|0:0,0:0:0:0:
261,303,74327,2,0,L|312:307,1,48,0|0,1:0|0:0,0:0:0:0:
100,245,74498,2,0,L|49:249,1,48,0|0,1:0|0:0,0:0:0:0:
195,161,74670,86,0,L|186:230,1,52.8000016113282,0|0,1:0|1:0,0:0:0:0:
174,332,74841,1,0,3:0:0:0:
174,332,74926,1,0,1:0:0:0:
174,332,75013,2,0,L|165:401,1,52.8000016113282,0|0,3:0|0:0,0:0:0:0:
333,283,75184,2,0,L|341:345,2,52.8000016113282,0|0|0,1:0|1:0|3:0,0:0:0:0:
247,166,75441,2,0,L|177:158,2,52.8000016113282,0|0|0,1:0|3:0|0:0,0:0:0:0:
392,188,75698,2,0,L|462:180,1,52.8000016113282,0|0,1:0|0:0,0:0:0:0:
287,85,75870,2,0,L|217:77,1,52.8000016113282,0|0,1:0|0:0,0:0:0:0:
371,43,76041,22,0,L|376:101,1,57.5999982421876,0|0,1:0|1:0,0:0:0:0:
247,166,76213,1,0,3:0:0:0:
248,169,76298,1,0,1:0:0:0:
249,172,76384,2,0,L|244:230,1,57.5999982421876,0|0,3:0|0:0,0:0:0:0:
165,309,76555,2,0,L|97:300,2,57.5999982421876,0|0|0,1:0|1:0|3:0,0:0:0:0:
312,294,76813,2,0,L|380:285,2,57.5999982421876,0|0|0,1:0|3:0|0:0,0:0:0:0:
149,228,77070,2,0,L|157:150,1,57.5999982421876,0|0,1:0|0:0,0:0:0:0:
252,108,77241,2,0,L|246:165,1,57.5999982421876,0|0,1:0|0:0,0:0:0:0:
106,94,77413,86,0,L|177:82,1,62.3999971435548,0|0,1:0|1:0,0:0:0:0:
339,115,77584,1,0,3:0:0:0:
339,115,77670,1,0,1:0:0:0:
339,115,77755,2,0,L|410:103,1,62.3999971435548,0|0,3:0|0:0,0:0:0:0:
299,191,77927,2,0,L|228:179,2,62.3999971435548,0|0|0,1:0|1:0|3:0,0:0:0:0:
450,218,78184,2,0,L|521:206,2,62.3999971435548,0|0|0,1:0|3:0|0:0,0:0:0:0:
271,330,78441,2,0,L|266:268,1,62.3999971435548,0|0,1:0|0:0,0:0:0:0:
447,359,78613,2,0,L|454:298,1,62.3999971435548,0|0,1:0|0:0,0:0:0:0:
443,151,78784,21,4,1:1:0:0:
443,151,78870,1,0,1:0:0:0:
443,151,78955,2,0,L|450:220,1,67.1999979492188,0|0,1:0|1:0,0:0:0:0:
359,328,79127,21,0,1:0:0:0:
359,328,79213,1,0,1:0:0:0:
359,328,79298,2,0,L|365:261,1,67.1999979492188,0|0,1:0|1:0,0:0:0:0:
296,87,79470,85,0,1:0:0:0:
296,87,79556,1,0,1:0:0:0:
296,87,79641,2,0,L|303:156,1,67.1999979492188,0|0,1:0|1:0,0:0:0:0:
227,302,79813,21,0,1:0:0:0:
227,302,79899,1,0,1:0:0:0:
227,302,79984,2,0,L|233:235,1,67.1999979492188,0|0,1:0|1:0,0:0:0:0:
88,158,80155,85,0,1:0:0:0:
88,158,80241,1,0,1:0:0:0:
88,158,80327,2,0,P|129:156|171:165,1,67.1999979492188,0|0,1:0|1:0,0:0:0:0:
300,237,80499,21,0,1:0:0:0:
300,237,80584,1,0,1:0:0:0:
300,237,80670,2,0,P|259:239|217:230,1,67.1999979492188,0|0,1:0|1:0,0:0:0:0:
163,44,80841,85,0,1:0:0:0:
163,44,80927,1,0,1:0:0:0:
163,44,81013,2,0,P|204:42|246:51,1,67.1999979492188,0|0,1:0|1:0,0:0:0:0:
377,127,81184,21,0,1:0:0:0:
377,127,81270,1,0,1:0:0:0:
377,127,81355,2,0,P|336:129|294:120,1,67.1999979492188,0|0,1:0|1:0,0:0:0:0:
447,38,81527,86,0,L|443:75,6,33.5999989746094,0|0|0|0|0|0|0,1:0|1:0|1:0|1:0|1:0|1:0|1:0,0:0:0:0:
377,127,81870,2,0,L|381:164,6,33.5999989746094,0|0|0|0|0|0|0,1:0|1:0|1:0|1:0|1:0|1:0|1:0,0:0:0:0:
469,194,82213,2,0,L|465:231,6,33.5999989746094,0|0|0|0|0|0|0,1:0|1:0|1:0|1:0|1:0|1:0|1:0,0:0:0:0:
398,283,82555,2,0,L|402:320,6,33.5999989746094,0|0|0|0|0|0|0,1:0|1:0|1:0|1:0|1:0|1:0|1:0,0:0:0:0:
463,375,82898,101,0,3:0:0:0:
256,192,82984,12,0,83841,0:0:0:0:
241,245,83927,102,0,P|210:236|166:237,1,72
149,244,84270,54,0,B|119:165|174:169|138:81,1,144,4|0,3:1|0:0,0:0:0:0:
145,102,84613,1,0,3:0:0:0:
69,303,84784,2,0,P|52:258|71:193,1,96,0|0,0:0|3:0,0:0:0:0:
252,198,85127,2,0,P|248:222|241:245,1,48
229,37,85298,2,0,P|278:58|293:164,1,144,0|0,3:0|0:0,0:0:0:0:
303,139,85641,5,0,3:0:0:0:
392,38,85813,1,0,0:0:0:0:
392,38,85898,1,0,0:0:0:0:
392,38,85984,1,0,3:0:0:0:
394,198,86155,101,2,0:0:0:0:
227,119,86327,1,2,3:2:0:0:
231,245,86498,5,2,0:0:0:0:
233,264,86584,1,2,0:0:0:0:
230,283,86670,1,2,3:0:0:0:
131,259,86841,1,2,0:0:0:0:
331,235,87013,102,0,P|413:234|496:240,1,144,0|0,3:0|0:0,0:0:0:0:
475,238,87355,1,0,3:0:0:0:
341,145,87527,2,0,P|273:147|218:160,1,96,0|0,0:0|3:0,0:0:0:0:
405,265,87870,2,0,P|402:289|398:313,1,48
429,144,88041,2,0,P|424:65|413:-3,1,144,0|0,3:0|0:0,0:0:0:0:
413,1,88384,5,0,3:0:0:0:
348,152,88555,1,0,0:0:0:0:
348,152,88641,1,0,0:0:0:0:
348,152,88727,1,0,3:0:0:0:
509,81,88898,101,2,0:0:0:0:
297,74,89070,2,0,L|364:65,1,48,2|2,3:2|0:0,0:0:0:0:
510,163,89241,6,0,L|443:154,1,48,2|2,0:0|0:0,0:0:0:0:
271,83,89413,1,2,3:2:0:0:
249,107,89498,1,2,0:0:0:0:
236,143,89584,1,2,0:0:0:0:
240,186,89670,1,2,0:0:0:0:
271,220,89755,102,0,B|379:214|379:214|335:267,1,144,0|0,3:0|0:0,0:0:0:0:
356,241,90098,1,0,3:0:0:0:
237,298,90270,2,0,B|188:300|188:300|126:284,1,96,0|0,0:0|3:0,0:0:0:0:
200,181,90612,2,0,L|195:228,1,48
143,125,90784,2,0,P|213:102|275:151,1,144,0|0,3:0|0:0,0:0:0:0:
268,138,91127,5,0,3:0:0:0:
351,32,91298,1,0,0:0:0:0:
351,32,91383,1,0,0:0:0:0:
351,32,91469,1,0,3:0:0:0:
143,125,91640,101,2,0:0:0:0:
349,196,91813,1,2,3:2:0:0:
192,30,91984,5,2,0:0:0:0:
267,226,92155,1,2,3:2:0:0:
192,30,92326,1,2,0:0:0:0:
267,226,92498,102,0,B|268:173|268:173|284:142|284:142|282:66,1,144,0|0,3:0|0:0,0:0:0:0:
282,85,92841,1,0,3:0:0:0:
48,133,93013,2,0,P|95:125|143:125,1,96,0|0,0:0|3:0,0:0:0:0:
267,226,93355,2,0,P|264:250|260:274,1,48
134,210,93527,2,0,B|198:217|198:217|225:210|225:210|309:218,1,144,0|0,3:0|0:0,0:0:0:0:
474,220,93870,38,2,P|396:202|360:154,1,115.199996484375,2|0,3:2|0:0,0:0:0:0:
383,69,94127,2,2,P|362:146|387:200,1,115.199996484375,2|0,3:2|0:0,0:0:0:0:
476,129,94384,101,2,3:0:0:0:
476,129,94470,1,2,0:0:0:0:
476,129,94555,2,2,L|344:190,1,115.199996484375,2|0,3:2|0:0,0:0:0:0:
267,226,94813,2,2,L|371:177,1,115.199996484375,2|0,3:2|0:0,0:0:0:0:
190,184,95070,2,0,P|178:209|179:238,1,57.5999982421876,0|0,1:0|0:0,0:0:0:0:
278,318,95241,86,0,B|199:292|220:353|122:308,1,144,4|0,3:1|0:0,0:0:0:0:
138,314,95584,1,0,3:0:0:0:
363,362,95755,2,0,P|377:315|355:266,1,96,0|0,0:0|3:0,0:0:0:0:
188,136,96098,2,0,P|187:161|190:185,1,48
294,191,96270,2,0,B|364:165|364:165|450:203,1,144,0|0,3:0|0:0,0:0:0:0:
427,193,96613,5,0,3:0:0:0:
285,81,96784,1,0,0:0:0:0:
285,81,96870,1,0,0:0:0:0:
285,81,96955,1,0,3:0:0:0:
360,272,97127,101,2,0:0:0:0:
388,66,97298,1,2,3:2:0:0:
191,183,97470,5,2,0:0:0:0:
172,185,97556,1,2,0:0:0:0:
153,182,97641,1,2,3:2:0:0:
177,83,97813,1,2,0:0:0:0:
275,233,97984,102,0,P|275:304|271:376,1,144,0|0,3:0|0:0,0:0:0:0:
271,376,98327,1,0,3:0:0:0:
192,242,98498,2,0,P|142:235|68:237,1,96,0|0,0:0|3:0,0:0:0:0:
192,326,98841,2,0,P|187:349|180:372,1,48
228,166,99013,2,0,P|293:155|358:216,1,144,0|0,3:0|0:0,0:0:0:0:
357,211,99355,5,0,3:0:0:0:
363,221,99441,2,0,L|360:273,1,48,0|0,3:0|0:0,0:0:0:0:
450,115,99613,1,0,0:0:0:0:
453,96,99698,2,0,L|450:44,1,48,0|0,3:0|0:0,0:0:0:0:
451,237,99870,2,0,L|448:289,1,48,0|0,0:0|3:0,0:0:0:0:
347,332,100041,101,0,0:0:0:0:
347,332,100127,1,0,0:0:0:0:
347,332,100213,2,0,L|299:329,1,48,0|0,3:0|0:0,0:0:0:0:
276,218,100384,5,2,0:0:0:0:
271,265,100470,1,2,3:2:0:0:
238,300,100555,1,2,0:0:0:0:
191,312,100641,1,2,0:0:0:0:
146,293,100727,102,0,L|134:231,3,48,4|0|0|0,1:1|1:0|1:0|1:0,0:0:0:0:
35,214,101070,2,0,L|45:167,3,48,0|0|0|0,1:0|1:0|1:0|1:0,0:0:0:0:
148,142,101413,5,0,1:0:0:0:
147,137,101498,1,0,1:0:0:0:
146,132,101584,1,0,1:0:0:0:
145,127,101670,1,0,1:0:0:0:
144,123,101755,1,0,1:0:0:0:
143,118,101841,1,0,1:0:0:0:
142,113,101927,1,0,1:0:0:0:
141,109,102013,1,0,1:0:0:0:
140,104,102098,102,0,L|187:114,3,48,0|0|0|0,1:0|1:0|1:0|1:0,0:0:0:0:
270,70,102441,2,0,L|317:60,3,48,0|0|0|0,1:0|1:0|1:0|1:0,0:0:0:0:
395,112,102784,5,0,1:0:0:0:
434,137,102869,1,0,1:0:0:0:
455,180,102955,1,0,1:0:0:0:
451,227,103041,1,0,1:0:0:0:
424,266,103126,1,0,1:0:0:0:
380,284,103212,1,0,1:0:0:0:
333,278,103298,1,0,1:0:0:0:
296,249,103384,1,0,1:0:0:0:
279,204,103470,102,0,L|283:175,6,24,0|0|0|0|0|0|0,1:0|1:0|1:0|1:0|1:0|1:0|1:0,1:0:0:0:
208,262,103813,2,0,L|205:285,6,24,0|0|0|0|0|0|0,1:0|1:0|1:0|1:0|1:0|1:0|1:0,1:0:0:0:
157,186,104155,2,0,L|160:156,6,24,0|0|0|0|0|0|0,1:0|1:0|1:0|1:0|1:0|1:0|1:0,1:0:0:0:
64,255,104498,2,0,L|61:299,1,24,2|0,1:2|1:2,1:2:0:0:
71,252,104584,2,0,L|68:296,1,24,2|0,1:2|1:2,1:2:0:0:
78,249,104670,2,0,L|75:293,1,24,2|0,1:2|1:2,1:2:0:0:
85,246,104755,2,0,L|82:290,1,24,2|0,1:2|1:2,1:2:0:0:
91,243,104841,5,2,3:2:0:0:
52,215,104926,1,2,0:0:0:0:
48,166,105012,1,2,0:0:0:0:
81,131,105098,1,2,0:0:0:0:
127,163,105184,101,2,0:0:0:0:
142,164,105269,1,2,0:0:0:0:
156,165,105355,1,2,0:0:0:0:
171,166,105441,1,2,0:0:0:0:
200,136,105527,5,2,0:0:0:0:
209,135,105612,1,2,0:0:0:0:
219,134,105698,1,2,0:0:0:0:
228,133,105784,1,2,0:0:0:0:
254,160,105870,101,2,0:0:0:0:
259,160,105955,1,2,0:0:0:0:
264,160,106041,1,2,0:0:0:0:
269,161,106127,1,2,0:0:0:0:
318,130,106213,54,0,L|325:214,1,72,0|0,3:0|0:0,0:0:0:0:
404,354,106555,22,0,L|411:230,1,96,4|0,1:0|0:0,0:0:0:0:
399,241,106813,1,0,0:0:0:0:
388,225,106898,2,0,P|436:225|508:211,1,96,0|0,3:0|0:0,0:0:0:0:
406,129,107155,1,0,0:0:0:0:
406,129,107241,2,0,P|436:122|467:110,1,48,0|0,1:0|0:0,0:0:0:0:
281,221,107413,37,2,0:0:0:0:
280,193,107498,1,2,0:0:0:0:
281,163,107584,1,2,3:2:0:0:
248,132,107670,1,2,0:0:0:0:
205,127,107755,1,2,0:0:0:0:
166,147,107841,1,2,0:0:0:0:
149,187,107927,1,2,1:2:0:0:
119,218,108013,1,2,0:0:0:0:
77,228,108098,1,2,0:0:0:0:
38,208,108184,1,2,0:0:0:0:
19,169,108270,70,0,L|11:103,3,48,2|2|2|2,3:2|0:0|0:0|0:0,0:0:0:0:
164,283,108613,38,0,P|162:309|158:330,1,48,2|2,1:2|0:0,0:0:0:0:
102,103,108784,2,0,P|97:79|96:55,1,48,2|2,0:0|0:0,0:0:0:0:
281,221,108955,70,0,P|274:276|258:341,1,96,0|0,3:0|0:0,0:0:0:0:
364,278,109213,1,0,0:0:0:0:
364,278,109298,2,0,L|437:274,1,48,0|0,1:0|0:0,0:0:0:0:
149,187,109470,37,2,0:0:0:0:
217,82,109641,70,0,L|336:85,1,96,0|0,3:0|0:0,0:0:0:0:
271,173,109899,1,0,0:0:0:0:
271,173,109984,2,0,L|284:238,1,48,0|0,1:0|0:0,0:0:0:0:
407,83,110155,37,2,0:0:0:0:
421,63,110241,1,2,0:0:0:0:
431,41,110327,1,2,3:2:0:0:
473,63,110413,1,2,0:0:0:0:
479,108,110498,1,2,0:0:0:0:
460,145,110584,1,2,0:0:0:0:
422,165,110670,1,2,1:2:0:0:
390,194,110755,1,2,0:0:0:0:
388,238,110841,1,2,0:0:0:0:
411,275,110927,1,2,0:0:0:0:
455,283,111013,70,0,L|513:276,3,48,2|2|2|2,3:2|0:0|0:0|0:0,0:0:0:0:
301,354,111355,37,2,1:2:0:0:
265,315,111441,1,2,0:0:0:0:
212,307,111527,1,2,0:0:0:0:
163,328,111613,1,2,0:0:0:0:
135,372,111698,70,0,P|132:320|134:252,1,96,0|0,3:0|0:0,0:0:0:0:
150,199,111955,1,0,0:0:0:0:
150,199,112041,2,0,L|79:195,1,48,0|0,1:0|0:0,0:0:0:0:
280,220,112213,37,2,0:0:0:0:
150,118,112384,70,0,P|100:115|33:101,1,96,0|0,3:0|0:0,0:0:0:0:
169,36,112641,1,0,0:0:0:0:
169,36,112727,2,0,L|98:40,1,48,0|0,1:0|0:0,0:0:0:0:
308,140,112898,37,2,0:0:0:0:
336,145,112984,1,2,0:0:0:0:
364,144,113070,1,2,3:2:0:0:
367,101,113155,1,2,0:0:0:0:
340,68,113241,1,2,0:0:0:0:
297,62,113327,1,2,0:0:0:0:
257,78,113413,1,2,1:2:0:0:
233,114,113498,1,2,0:0:0:0:
230,157,113584,1,2,0:0:0:0:
246,196,113670,1,2,0:0:0:0:
280,220,113755,70,0,L|271:279,3,48,2|2|2|2,3:2|0:0|0:0|0:0,0:0:0:0:
166,203,114098,38,0,P|138:207|99:218,1,48,2|2,1:2|0:0,0:0:0:0:
403,253,114270,2,0,P|431:249|470:238,1,48,2|2,0:0|0:0,0:0:0:0:
292,206,114441,70,0,L|273:323,1,96,0|0,3:0|0:0,0:0:0:0:
194,356,114698,1,0,0:0:0:0:
194,356,114784,2,0,P|193:332|189:308,1,48,0|0,1:0|0:0,0:0:0:0:
367,346,114955,37,2,0:0:0:0:
183,220,115127,70,0,P|136:212|88:211,1,96,0|0,3:0|0:0,0:0:0:0:
26,304,115384,1,0,0:0:0:0:
25,304,115470,2,0,P|49:302|73:298,1,48,0|0,1:0|0:0,0:0:0:0:
239,137,115641,37,2,0:0:0:0:
219,122,115727,1,2,0:0:0:0:
208,100,115813,1,2,3:2:0:0:
168,124,115898,1,2,0:0:0:0:
162,171,115984,1,2,0:0:0:0:
189,210,116070,1,2,3:2:0:0:
229,235,116155,1,2,0:0:0:0:
244,280,116241,1,2,0:0:0:0:
231,326,116327,1,2,3:2:0:0:
194,356,116413,1,2,0:0:0:0:
147,347,116498,69,2,3:2:0:0:
187,313,116584,1,2,0:0:0:0:
235,310,116670,1,2,0:0:0:0:
279,326,116755,1,2,3:2:0:0:
314,358,116841,38,0,P|315:333|310:305,1,48,2|2,0:0|0:0,0:0:0:0:
463,185,117013,2,0,P|459:208|460:232,1,48,2|2,2:2|0:0,0:0:0:0:
391,333,117184,70,0,P|382:285|388:220,1,96,4|0,3:1|0:0,0:0:0:0:
383,68,117442,1,0,0:0:0:0:
383,68,117527,2,0,P|392:116|386:181,1,96,0|0,1:0|0:0,0:0:0:0:
464,280,117784,1,0,0:0:0:0:
464,280,117870,2,0,P|460:240|460:199,1,48,0|0,3:0|0:0,0:0:0:0:
470,107,118041,1,0,0:0:0:0:
470,107,118127,1,0,0:0:0:0:
470,107,118213,2,0,P|470:147|466:188,1,48,0|0,1:0|0:0,0:0:0:0:
464,280,118384,37,2,0:0:0:0:
424,306,118469,1,2,0:0:0:0:
376,310,118555,1,2,3:2:0:0:
335,284,118641,1,2,0:0:0:0:
293,260,118727,1,2,0:0:0:0:
244,263,118813,1,2,0:0:0:0:
204,290,118898,70,0,L|218:369,3,48,2|2|2|2,1:2|0:0|0:0|0:0,0:0:0:0:
74,265,119241,2,0,L|66:312,3,48,2|2|2|2,3:2|0:0|0:0|0:0,0:0:0:0:
154,208,119584,37,2,1:2:0:0:
155,174,119669,1,2,0:0:0:0:
156,140,119755,1,2,0:0:0:0:
158,107,119841,1,2,0:0:0:0:
159,73,119927,70,0,P|226:74|268:68,1,96,0|0,3:0|0:0,0:0:0:0:
364,48,120184,1,0,0:0:0:0:
364,48,120270,2,0,P|359:82|361:128,1,48,0|0,1:0|0:0,0:0:0:0:
409,204,120441,37,2,0:0:0:0:
313,209,120613,70,0,P|384:201|420:205,1,96,0|0,3:0|0:0,0:0:0:0:
380,317,120870,1,0,0:0:0:0:
380,317,120956,2,0,L|309:313,1,48,0|0,1:0|0:0,0:0:0:0:
187,304,121127,37,2,0:0:0:0:
187,304,121213,1,2,0:0:0:0:
187,304,121298,1,2,3:2:0:0:
204,260,121384,1,2,0:0:0:0:
213,212,121470,1,2,0:0:0:0:
208,164,121555,1,2,0:0:0:0:
191,118,121641,70,0,L|156:60,3,48,2|2|2|2,1:2|0:0|0:0|0:0,0:0:0:0:
102,183,121984,2,0,L|44:148,3,48,2|2|2|2,3:2|0:0|0:0|0:0,0:0:0:0:
70,291,122327,37,2,1:2:0:0:
123,312,122413,1,2,0:0:0:0:
184,304,122498,1,2,0:0:0:0:
234,259,122584,1,2,0:0:0:0:
261,192,122670,70,0,L|250:336,1,115.199996484375,4|0,3:1|0:0,0:0:0:0:
336,258,122927,2,0,B|367:240|367:240|483:254,1,115.199996484375,4|0,3:1|0:0,0:0:0:0:
425,362,123184,2,0,B|432:307|432:307|437:299|437:299|451:212,1,115.199996484375,4|0,3:1|0:0,0:0:0:0:
478,70,123441,2,0,B|511:94|500:141|500:141|431:141,1,115.199996484375,4|0,3:1|0:0,0:0:0:0:
344,148,123698,37,2,0:0:0:0:
343,145,123784,1,2,0:0:0:0:
342,142,123869,1,2,0:0:0:0:
341,139,123955,1,2,0:0:0:0:
340,136,124041,70,0,L|481:142,1,124.79999428711,4|0,3:1|0:0,0:0:0:0:
275,85,124298,2,0,P|259:152|332:219,1,124.79999428711,4|0,3:1|0:0,0:0:0:0:
393,265,124555,2,0,B|473:257|473:257|411:251,1,124.79999428711,4|0,3:1|0:0,0:0:0:0:
244,299,124813,2,0,B|164:291|164:291|226:285,1,124.79999428711,4|0,3:1|0:0,0:0:0:0:
357,361,125070,37,2,0:0:0:0:
360,362,125155,1,2,0:0:0:0:
363,363,125241,1,2,0:0:0:0:
366,364,125327,1,2,0:0:0:0:
369,365,125413,70,0,L|227:376,1,134.399995898438,4|0,3:1|0:0,0:0:0:0:
81,340,125670,2,0,P|151:341|194:262,1,134.399995898438,4|0,3:1|0:0,0:0:0:0:
127,206,125927,2,0,P|117:238|117:271,1,67.1999979492188,0|0,3:1|0:0,0:0:0:0:
183,156,126098,2,0,P|107:132|56:188,1,134.399995898438,4|0,3:1|0:0,0:0:0:0:
190,295,126355,2,0,B|256:288|256:288|274:290|274:290|323:285,1,134.399995898438,4|0,3:1|0:0,0:0:0:0:
435,227,126613,2,0,L|367:222,1,67.1999979492188,4|0,3:1|0:0,0:0:0:0:
271,131,126784,37,0,3:0:0:0:
271,131,126870,2,0,P|340:122|349:124,1,67.1999979492188,0|0,1:0|3:0,0:0:0:0:
396,52,127041,2,0,P|327:43|318:45,1,67.1999979492188,0|0,1:0|3:0,0:0:0:0:
197,76,127213,1,0,3:0:0:0:
158,86,127298,1,0,0:0:0:0:
120,74,127384,1,0,0:0:0:0:
50,37,127470,38,0,P|44:91|53:114,1,72,4|0,3:1|1:0,0:0:0:0:
92,189,127813,1,0,1:0:0:0:
93,205,127898,1,0,3:0:0:0:
94,222,127984,1,0,3:0:0:0:
95,239,128070,1,0,3:0:0:0:
97,255,128155,102,0,B|169:256|228:232|228:232|199:253|189:289,1,192,4|0,3:1|0:0,0:0:0:0:
405,181,128413,2,0,B|333:182|274:158|274:158|303:179|313:215,1,192,4|0,3:1|0:0,0:0:0:0:
275,305,128670,2,0,B|275:338|275:338|271:341|271:341|275:345|275:345|275:383,2,81.6000015563965,0|0|0,3:0|0:0|0:0,0:0:0:0:
81,124,128927,101,2,0:0:0:0:
79,140,129013,1,2,0:0:0:0:
135,142,129098,1,2,0:0:0:0:
178,109,129184,6,0,B|235:77|235:77|209:222,1,192,4|0,3:1|0:0,0:0:0:0:
97,255,129441,2,0,B|40:223|40:223|66:368,1,192,4|0,3:1|0:0,0:0:0:0:
275,305,129698,2,0,B|321:318|354:294|354:294|385:310|385:310|471:308,1,192,4|0,3:1|0:0,0:0:0:0:
323,149,129955,2,0,P|303:183|305:224,1,81.6000015563965,0|0,3:0|0:0,0:0:0:0:
432,207,130127,102,0,B|397:168|414:126|414:126|458:88|438:32,1,192,4|0,3:1|0:0,0:0:0:0:
366,62,130384,1,2,3:2:0:0:
308,55,130470,1,2,0:0:0:0:
259,48,130555,2,0,L|207:52,6,40.8000007781983,8|0|0|0|0|0|0,3:0|0:0|0:0|0:0|0:0|0:0|0:0,0:0:0:0:
274,39,130898,6,0,B|252:86|252:86|429:94,1,192,4|0,3:1|0:0,0:0:0:0:
432,207,131155,2,0,B|295:200|295:200|354:249,1,192,4|0,3:1|0:0,0:0:0:0:
481,340,131413,102,0,P|448:327|413:328,1,72,4|0,3:1|0:0,0:0:0:0:
323,374,131755,1,2,0:0:0:0:
323,374,131841,1,2,0:0:0:0:
323,374,131927,6,0,B|338:235|338:235|268:266,1,192,4|0,3:1|0:0,0:0:0:0:
82,291,132184,2,0,B|130:279|130:279|204:307,1,96,4|0,3:1|0:0,0:0:0:0:
241,334,132355,2,0,P|200:253|248:175,1,192,4|0,3:1|0:0,0:0:0:0:
402,87,132613,102,0,B|324:113|324:113|253:73,1,163.200003112793,4|0,3:1|0:0,0:0:0:0:
157,16,132870,2,0,B|161:55|161:55|157:62|157:62|160:109,1,81.6000015563965,4|0,3:1|0:0,0:0:0:0:
33,228,133041,1,0,3:0:0:0:
33,228,133127,2,0,L|132:217,1,81.6000015563965,0|0,3:0|0:0,0:0:0:0:
288,205,133298,2,0,L|334:199,6,40.8000007781983,8|0|0|0|0|0|0,3:0|0:0|0:0|0:0|0:0|0:0|0:0,0:0:0:0:
188,227,133641,6,0,B|194:195|171:167|171:167|251:161|208:207|290:204,1,192,4|0,3:1|0:0,0:0:0:0:
414,109,133898,2,0,B|334:51|334:51|281:138,1,192,4|0,3:1|0:0,0:0:0:0:
374,240,134155,2,0,L|353:145,2,81.6000015563965,0|0|0,3:0|0:0|0:0,0:0:0:0:
399,353,134413,101,2,0:0:0:0:
407,369,134498,1,2,0:0:0:0:
446,327,134584,1,2,0:0:0:0:
448,269,134670,6,0,B|330:242|367:307|260:289,1,192,4|0,3:1|0:0,0:0:0:0:
130,258,134927,2,0,B|187:227|187:227|160:383,1,192,4|0,3:1|0:0,0:0:0:0:
322,102,135184,2,0,B|265:71|265:71|292:227,1,192,4|0,3:1|0:0,0:0:0:0:
374,240,135441,2,0,P|386:198|378:162,1,81.6000015563965,0|0,3:0|0:0,0:0:0:0:
169,115,135613,102,0,B|36:102|36:102|68:116|83:157,1,192,4|0,3:1|0:0,0:0:0:0:
66,312,135870,2,0,B|43:269|43:269|54:223,1,96,0|0,3:0|0:0,0:0:0:0:
130,258,136041,2,0,L|171:254,6,40.8000007781983,8|0|0|0|0|0|0,3:0|0:0|0:0|0:0|0:0|0:0|0:0,0:0:0:0:
216,322,136384,6,0,P|247:227|179:172,1,163.200003112793,4|0,3:1|0:0,0:0:0:0:
11,125,136641,2,0,B|77:142|77:142|182:110,1,163.200003112793,4|0,3:1|0:0,0:0:0:0:
299,9,136898,102,0,P|264:-1|230:7,1,72,4|0,3:1|0:0,0:0:0:0:
269,89,137241,1,2,0:0:0:0:
269,89,137327,1,2,0:0:0:0:
269,89,137413,6,0,B|291:123|291:123|128:110,1,163.200003112793,4|0,3:1|0:0,0:0:0:0:
44,46,137670,2,0,P|96:35|131:56,1,81.6000015563965,0|0,3:1|0:0,0:0:0:0:
111,220,137841,102,0,B|59:238|59:238|179:254,1,163.200003112793,4|0,3:1|0:0,0:0:0:0:
377,218,138098,6,0,B|351:211|351:211|319:215,1,48,4|0,3:1|0:0,0:0:0:0:
266,299,138355,101,0,3:0:0:0:
266,302,138441,1,0,3:0:0:0:
266,305,138527,1,0,3:0:0:0:
266,308,138613,2,0,P|265:337|266:368,2,38.4,8|0|0,3:0|3:0|0:0,0:0:0:0:
378,321,138784,2,0,L|445:312,6,38.4,8|0|0|0|0|0|0,3:0|0:0|0:0|0:0|0:0|0:0|0:0,0:0:0:0:
398,343,139127,6,0,B|358:246|445:274|389:137,1,192,4|0,3:1|0:0,0:0:0:0:
229,189,139384,2,0,B|204:246|204:246|350:208,1,192,4|0,3:1|0:0,0:0:0:0:
457,101,139641,2,0,B|385:60|385:60|318:123,1,163.200003112793,4|0,3:1|0:0,0:0:0:0:
152,163,139898,101,2,0:0:0:0:
135,168,139984,1,2,0:0:0:0:
123,113,140070,1,2,0:0:0:0:
155,64,140155,6,0,B|225:21|225:21|273:79|223:116,1,192,4|0,3:1|0:0,0:0:0:0:
58,279,140413,2,0,P|118:211|203:242,1,192,4|0,3:1|0:0,0:0:0:0:
287,367,140670,2,0,L|286:159,1,192,4|0,3:1|0:0,0:0:0:0:
137,288,140927,2,0,B|164:320|164:320|203:324,1,81.6000015563965,0|0,3:0|0:0,0:0:0:0:
447,225,141098,102,0,B|453:187|495:183|495:183|528:205|524:271|466:296,1,192,4|0,3:1|0:0,0:0:0:0:
373,267,141355,1,2,3:2:0:0:
361,210,141441,1,2,0:0:0:0:
382,157,141527,2,0,L|356:118,6,40.8000007781983,8|0|0|0|0|0|0,3:0|0:0|0:0|0:0|0:0|0:0|0:0,0:0:0:0:
347,125,141870,6,0,B|517:120,1,163.200003112793,4|0,3:1|0:0,0:0:0:0:
224,56,142127,2,0,B|165:81|167:140|167:140|184:111|232:98,1,163.200003112793,4|0,3:1|0:0,0:0:0:0:
301,194,142385,102,0,P|268:181|233:182,1,72,4|0,3:1|0:0,0:0:0:0:
257,262,142727,1,2,0:0:0:0:
257,262,142813,1,2,0:0:0:0:
257,262,142898,6,0,B|290:282|290:282|160:236|114:327,1,163.200003112793,4|0,3:1|0:0,0:0:0:0:
20,310,143156,2,0,P|58:325|98:319,1,81.6000015563965,0|0,3:0|0:0,0:0:0:0:
70,124,143327,2,0,B|12:187|12:187|67:242,1,163.200003112793,4|0,3:1|0:0,0:0:0:0:
213,179,143585,102,0,B|167:163|127:185|127:185|169:199|212:181,1,163.200003112793,4|0,3:1|0:0,0:0:0:0:
321,172,143841,2,0,L|403:166,1,81.6000015563965,4|0,3:1|0:0,0:0:0:0:
261,95,144013,1,0,3:0:0:0:
250,82,144099,2,0,P|214:63|156:62,1,81.6000015563965,0|0,3:0|0:0,0:0:0:0:
343,78,144270,2,0,L|389:72,6,40.8000007781983,8|0|0|0|0|0|0,3:0|0:0|0:0|0:0|0:0|0:0|0:0,0:0:0:0:
348,99,144613,6,0,B|391:57|391:57|462:101|399:171,1,192,4|0,3:1|0:0,0:0:0:0:
507,263,144870,2,0,B|397:225|422:318|310:278,1,192,4|0,3:1|0:0,0:0:0:0:
180,221,145127,2,0,L|85:232,2,81.6000015563965,0|0|0,3:0|0:0|0:0,0:0:0:0:
275,168,145384,101,2,0:0:0:0:
254,172,145470,1,2,0:0:0:0:
266,227,145555,1,2,0:0:0:0:
250,280,145641,6,0,B|199:310|132:306|132:306|165:314|202:343,1,192,4|0,3:1|0:0,0:0:0:0:
360,211,145898,2,0,B|411:241|478:237|478:237|445:245|408:274,1,192,4|0,3:1|0:0,0:0:0:0:
305,334,146155,2,0,B|291:269|291:269|319:220|319:220|300:139,1,192,4|0,3:1|0:0,0:0:0:0:
204,101,146413,2,0,P|189:137|196:184,1,81.6000015563965,0|0,3:0|0:0,0:0:0:0:
464,62,146584,102,0,B|495:21|495:21|334:53,1,192,4|0,3:1|0:0,0:0:0:0:
109,99,146841,2,0,L|212:79,1,96,0|0,3:0|0:0,0:0:0:0:
282,75,147013,2,0,L|270:17,6,40.8000007781983,8|0|0|0|0|0|0,3:0|0:0|0:0|0:0|0:0|0:0|0:0,0:0:0:0:
280,18,147355,6,0,L|279:211,1,192,4|0,3:1|0:0,0:0:0:0:
171,289,147613,2,0,B|202:276|202:276|263:287,1,96,4|0,3:1|0:0,0:0:0:0:
384,345,147784,1,0,3:0:0:0:
376,362,147870,2,0,B|345:375|345:375|284:364,1,96,0|0,3:0|0:0,0:0:0:0:
67,285,148041,102,0,B|109:215|184:252|184:252|140:379,1,192,4|0,3:1|0:0,0:0:0:0:
370,203,148298,2,0,P|246:182|233:157,1,96,4|0,3:1|0:0,0:0:0:0:
170,47,148470,1,0,3:0:0:0:
186,56,148555,2,0,P|165:180|140:193,1,96,0|0,3:0|0:0,0:0:0:0:
67,285,148727,5,0,3:0:0:0:
70,179,148841,1,0,3:0:0:0:
161,234,148955,1,0,3:0:0:0:
50,289,149070,101,0,3:0:0:0:
75,162,149184,1,0,3:0:0:0:
172,247,149298,1,0,3:0:0:0:
0,183,149413,6,0,P|8:119|69:85,1,128,8|0,3:0|0:0,0:0:0:0:
300,188,149641,101,0,3:0:0:0:
309,109,149755,2,0,B|231:98|260:164|158:143,1,128,12|0,0:0|3:0,0:0:0:0:
161,36,149984,38,0,P|193:68|158:52,1,128,0|4,3:0|3:1,0:0:0:0:
132,164,154213,101,0,1:0:0:0:
132,164,154298,2,0,P|123:138|126:101,1,48,0|0,1:0|3:0,0:0:0:0:
209,148,154470,1,0,1:0:0:0:
209,148,154555,2,0,P|214:120|235:90,1,48,0|0,3:0|0:0,0:0:0:0:
71,207,154727,5,0,1:0:0:0:
71,207,154813,1,0,1:0:0:0:
71,207,154898,1,0,3:0:0:0:
71,207,154984,1,0,1:0:0:0:
71,207,155070,2,0,B|144:191|120:234|191:223,1,115.199996484375,0|0,3:0|3:0,0:0:0:0:
188,233,155327,1,0,3:0:0:0:
194,242,155413,2,0,L|191:287,2,28.7999991210938,0|0|0,3:0|3:0|3:0,3:0:0:0:
346,324,155584,5,4,1:1:0:0:
317,295,155670,1,0,1:0:0:0:
318,255,155755,1,0,1:0:0:0:
341,221,155841,1,0,1:0:0:0:
374,197,155927,1,0,1:0:0:0:
392,160,156013,1,0,1:0:0:0:
385,120,156098,1,0,1:0:0:0:
354,93,156184,1,0,1:0:0:0:
313,90,156270,38,0,L|304:156,1,57.5999982421876,0|0,1:0|1:0,1:0:0:0:
448,34,156441,2,0,L|455:91,1,57.5999982421876,0|0,1:0|1:0,1:0:0:0:
223,102,156613,69,0,1:0:0:0:
185,128,156698,1,0,1:0:0:0:
138,124,156784,1,0,1:0:0:0:
99,98,156870,1,0,1:0:0:0:
94,52,156955,37,0,1:0:0:0:
145,61,157041,1,0,1:0:0:0:
172,105,157127,1,0,1:0:0:0:
165,156,157213,1,0,1:0:0:0:
128,192,157298,69,0,1:0:0:0:
83,229,157384,1,0,1:0:0:0:
73,285,157470,1,0,1:0:0:0:
100,334,157555,1,0,1:0:0:0:
154,352,157641,1,0,1:0:0:0:
209,334,157727,1,0,1:0:0:0:
242,286,157813,1,0,1:0:0:0:
293,260,157898,1,0,1:0:0:0:
349,269,157984,38,0,L|358:355,1,57.5999982421876,0|0,1:0|1:0,1:0:0:0:
494,208,158155,2,0,L|485:294,1,57.5999982421876,0|0,1:0|1:0,1:0:0:0:
291,163,158327,22,0,L|245:149,6,28.7999991210938,0|0|0|0|0|0|0,1:0|1:0|1:0|1:0|1:0|1:0|1:0,1:0:0:0:
313,90,158670,2,0,L|274:62,6,28.7999991210938,0|0|0|0|0|0|0,1:0|1:0|1:0|1:0|1:0|1:0|1:0,1:0:0:0:
480,110,159013,102,0,L|525:96,6,28.7999991210938,0|0|0|0|0|0|0,1:0|1:0|1:0|1:0|1:0|1:0|1:0,1:0:0:0:
457,37,159356,2,0,L|495:9,6,28.7999991210938,0|0|0|0|0|0|0,1:0|1:0|1:0|1:0|1:0|1:0|1:0,1:0:0:0:
390,121,159698,21,2,3:0:0:0:
478,238,159870,101,2,0:0:0:0:
462,219,159955,1,2,0:0:0:0:
437,203,160041,1,2,0:0:0:0:
403,197,160127,1,2,0:0:0:0:
365,206,160213,1,2,0:0:0:0:
336,238,160298,1,2,0:0:0:0:
323,284,160384,1,2,0:0:0:0:
287,323,160470,1,2,0:0:0:0:
231,336,160555,1,2,0:0:0:0:
174,308,160641,1,2,0:0:0:0:
157,321,160727,102,2,L|162:231,1,72,2|0,0:0|0:0,0:0:0:0:
160,249,161070,54,0,B|104:273|104:273|91:206|125:128,1,192,4|0,3:1|0:0,0:0:0:0:
14,23,161327,1,0,0:0:0:0:
5,43,161413,2,0,B|33:62|47:89|47:89|94:39|179:64|179:64|141:92|140:143,1,288,8|0,3:0|0:0,0:0:0:0:
314,151,161755,22,0,L|242:139,1,72,0|0,3:0|0:0,0:0:0:0:
294,242,162098,86,0,P|315:182|309:130,1,96,8|0,3:0|0:0,0:0:0:0:
333,59,162270,2,0,P|312:119|318:171,1,96
416,258,162441,22,0,B|459:188|413:129|413:129|420:163|404:197,1,192,0|0,3:0|0:0,0:0:0:0:
357,358,162698,1,0,0:0:0:0:
357,358,162784,2,0,B|391:339|391:339|286:315|177:349|177:349|221:363,1,288,8|0,3:0|0:0,0:0:0:0:
216,254,163127,86,0,P|218:219|204:186,1,72,0|0,3:0|0:0,0:0:0:0:
121,238,163470,22,0,L|136:236,1,14.4,8|0,3:0|0:0,0:0:0:0:
178,117,163813,38,0,B|200:110|225:116|225:116|137:83|166:148|79:131,1,192,2|2,3:2|0:0,0:0:0:0:
62,2,164070,1,2,0:0:0:0:
76,0,164155,2,0,P|106:12|105:60,1,86.3999973632813,8|0,3:0|0:0,0:0:0:0:
23,245,164327,2,0,L|20:135,1,86.3999973632813,0|2,0:0|0:0,0:0:0:0:
296,252,164498,102,0,B|222:192|222:192|125:242,1,192,2|2,3:2|0:0,0:0:0:0:
200,384,164755,1,2,0:0:0:0:
205,365,164841,2,0,L|214:273,1,86.3999973632813,8|0,3:0|0:0,0:0:0:0:
366,218,165013,2,0,P|375:261|358:300,1,86.3999973632813,0|2,0:0|0:0,0:0:0:0:
322,150,165184,6,0,B|438:111|393:206|501:177,1,192,2|2,3:2|0:0,0:0:0:0:
390,60,165441,1,2,0:0:0:0:
371,55,165527,2,0,B|321:49|321:49|256:98,1,96,8|0,3:0|0:0,0:0:0:0:
469,107,165698,2,0,L|478:3,1,96,0|2,0:0|0:0,0:0:0:0:
196,47,165870,6,2,B|266:68|266:68|241:216,1,216.000008239746,0|0,3:0|0:0,0:0:0:0:
336,239,166213,2,2,B|265:254|265:254|215:217|215:217|135:235,1,216.000008239746,8|0,3:0|0:0,0:0:0:0:
54,310,166555,22,0,B|15:316|5:280|33:248|101:254|50:326|159:309,1,192,0|0,3:0|0:0,0:0:0:0:
336,239,166812,1,0,0:0:0:0:
353,234,166898,2,0,B|402:226|455:277|455:277|402:192|277:217,1,288,8|0,3:0|0:0,0:0:0:0:
135,234,167240,22,0,P|146:193|133:149,1,72,0|0,3:0|0:0,0:0:0:0:
33,140,167584,86,0,B|11:156|11:156|87:207,1,96,8|0,3:0|0:0,0:0:0:0:
211,46,167755,2,0,B|184:43|184:43|196:110,1,96
305,212,167927,22,0,B|261:160|261:160|196:209|255:288,1,192,0|0,3:0|0:0,0:0:0:0:
391,343,168183,1,0,0:0:0:0:
391,343,168269,2,0,B|428:311|428:311|435:214|435:214|326:303,1,288,8|0,3:0|0:0,0:0:0:0:
242,269,168612,86,0,L|245:360,1,72,0|0,3:0|0:0,0:0:0:0:
26,242,168955,22,0,B|122:240|203:189|203:189|154:228|145:297,1,288,8|0,3:0|0:0,0:0:0:0:
358,148,169298,6,0,B|299:146|249:115|249:115|275:137|281:162,1,172.799994726563,0|2,3:0|0:0,0:0:0:0:
321,317,169555,1,2,0:0:0:0:
325,303,169641,2,0,L|319:225,1,72.0000027465821,8|0,3:0|0:0,0:0:0:0:
452,120,169813,2,0,L|445:264,1,144.000005493164,2|0,0:0|3:0,0:0:0:0:
377,63,170070,101,0,0:0:0:0:
377,63,170155,2,0,P|339:59|296:82,1,72.0000027465821,2|0,0:0|0:0,0:0:0:0:
265,0,170327,2,0,P|235:24|221:70,1,72.0000027465821,8|0,3:0|0:0,0:0:0:0:
140,29,170498,2,0,P|136:64|149:97,1,72.0000027465821,2|0,0:0|0:0,0:0:0:0:
358,148,170670,6,0,B|273:200|279:117|186:174,1,172.799994726563,0|2,3:0|0:0,0:0:0:0:
232,308,170927,1,2,0:0:0:0:
245,303,171013,2,0,P|261:269|239:234,1,72.0000027465821,8|0,3:0|0:0,0:0:0:0:
149,97,171184,2,0,B|110:123|110:123|86:173|113:217,1,144.000005493164,2|0,0:0|3:0,0:0:0:0:
327,348,171441,101,0,0:0:0:0:
327,348,171527,2,0,L|397:389,1,72.0000027465821,2|0,0:0|0:0,0:0:0:0:
362,267,171698,2,0,L|412:257,7,36.0000013732911,8|0|0|0|0|0|0|0,3:0|0:0|0:0|0:0|0:0|0:0|0:0|0:0,0:0:0:0:
342,267,172041,86,0,B|212:236|212:236|247:310,1,192,4|0,3:1|0:0,0:0:0:0:
53,270,172298,1,0,0:0:0:0:
44,257,172384,2,0,B|35:221|76:189|76:189|163:224|135:326|57:369,1,288,8|0,3:0|0:0,0:0:0:0:
192,344,172727,22,0,P|211:313|237:288,1,72,0|0,3:0|0:0,0:0:0:0:
342,267,173070,86,0,P|391:261|467:286,1,96,8|0,3:0|0:0,0:0:0:0:
199,369,173241,2,0,P|225:329|263:300,1,96
335,172,173413,22,0,B|356:124|356:124|222:164,1,192,0|0,3:0|0:0,0:0:0:0:
84,206,173670,1,0,0:0:0:0:
84,206,173756,2,0,B|132:235|132:235|114:67|114:67|48:126,1,288,8|0,3:0|0:0,0:0:0:0:
25,267,174098,86,0,L|30:347,1,72,0|0,3:0|0:0,0:0:0:0:
112,318,174441,22,0,L|130:316,1,14.4,8|0,3:0|0:0,0:0:0:0:
268,203,174784,38,0,B|324:158|324:158|382:214|332:281,1,192,2|2,3:2|0:0,0:0:0:0:
264,371,175041,1,2,0:0:0:0:
248,365,175127,2,0,P|237:331|259:289,1,86.3999973632813,8|0,3:0|0:0,0:0:0:0:
439,218,175298,2,0,B|453:271|453:271|441:300,1,86.3999973632813,0|2,0:0|0:0,0:0:0:0:
429,118,175470,102,0,B|382:130|382:130|292:107|292:107|226:127,1,192,2|2,3:2|0:0,0:0:0:0:
86,72,175727,1,2,0:0:0:0:
99,82,175813,2,0,L|109:186,1,86.3999973632813,8|0,3:0|0:0,0:0:0:0:
268,203,175984,2,0,L|258:307,1,86.3999973632813,0|2,0:0|0:0,0:0:0:0:
72,348,176155,6,0,B|54:335|30:329|30:329|117:302|84:361|170:349,1,192,2|2,3:2|0:0,0:0:0:0:
194,210,176413,1,2,0:0:0:0:
177,207,176499,2,0,P|150:230|148:278,1,86.3999973632813,8|0,3:0|0:0,0:0:0:0:
349,352,176670,2,0,L|339:248,1,86.3999973632813,0|2,0:0|0:0,0:0:0:0:
364,101,176841,6,2,P|447:121|362:164,1,216.000008239746,0|0,3:0|0:0,0:0:0:0:
133,122,177184,2,2,B|242:90|212:173|314:152,1,187.199991430664,8|0,3:0|0:0,0:0:0:0:
471,27,177527,102,2,B|455:91|455:91|477:168|477:168|469:166|469:166|480:228|480:228|458:308,1,288,4|0,3:1|3:0,0:0:0:0:
310,357,177870,38,0,L|373:348,1,38.4,0|0,3:0|0:0,0:0:0:0:
295,271,178041,2,0,L|346:278,1,48,0|0,3:0|0:0,0:0:0:0:
172,372,178213,22,0,L|229:363,1,57.5999982421876,0|0,0:0|3:0,0:0:0:0:
156,252,178384,2,0,L|223:261,1,67.1999979492188,0|0,3:0|0:0,0:0:0:0:
19,384,178555,86,0,L|95:373,1,76.8,0|0,3:0|0:0,0:0:0:0:
0,227,178727,2,0,L|114:243,1,86.3999973632813,0|0,0:0|3:0,0:0:0:0:
342,277,178898,54,2,B|405:290|472:235|451:163|451:163|389:136|346:176,1,288,4|0,3:1|3:0,0:0:0:0:
73,148,179241,54,0,L|21:140,1,48,0|0,3:0|0:0,0:0:0:0:
195,46,179413,2,0,L|137:54,1,57.5999982421876,0|0,3:0|0:0,0:0:0:0:
210,167,179584,22,0,L|142:157,1,67.1999979492188,0|0,0:0|3:0,0:0:0:0:
348,34,179755,2,0,L|271:44,1,76.8,0|0,3:0|0:0,0:0:0:0:
367,191,179927,86,0,L|252:174,1,86.3999973632813,0|0,3:0|0:0,0:0:0:0:
473,58,180098,21,0,3:0:0:0:
473,58,180184,1,0,3:0:0:0:
473,58,180270,54,0,L|468:93,1,33.6,2|0,3:0|0:0,0:0:0:0:
365,31,180955,2,0,L|318:18,3,48,0|0|0|0,0:0|0:0|1:0|0:0,0:0:0:0:
345,116,181298,21,2,0:2:0:0:
346,130,181384,1,2,0:2:0:0:
348,144,181470,1,2,0:2:0:0:
350,158,181555,1,2,0:2:0:0:
351,172,181641,37,2,1:2:0:0:
308,152,181726,1,2,0:2:0:0:
261,158,181812,1,2,0:2:0:0:
224,187,181898,1,2,0:2:0:0:
208,231,181984,1,2,1:2:0:0:
192,275,182070,1,2,0:2:0:0:
155,305,182155,1,2,0:2:0:0:
108,310,182242,1,2,0:2:0:0:
65,291,182327,69,2,1:2:0:0:
136,298,182413,1,6,3:0:0:0:
207,305,182498,1,6,3:0:0:0:
278,312,182584,1,6,3:0:0:0:
294,322,182670,86,0,L|418:330,1,96
488,233,182841,2,0,L|364:241,1,96
206,112,183013,22,0,B|264:83|264:83|321:138|255:204,1,192,4|2,3:1|0:0,0:0:0:0:
39,201,183270,1,2,0:0:0:0:
54,214,183355,21,2,0:0:0:0:
121,197,183441,1,2,0:0:0:0:
185,223,183527,1,2,0:0:0:0:
210,287,183613,1,2,0:0:0:0:
195,354,183698,86,0,B|120:368|120:368|122:287,1,153.6,8|2,0:0|0:0,0:0:0:0:
113,28,183955,1,2,0:0:0:0:
124,40,184041,2,0,L|124:150,1,76.8,2|0,0:0|0:0,0:0:0:0:
340,194,184213,2,0,L|263:194,1,76.8,2|0,0:0|0:0,0:0:0:0:
10,184,184384,22,0,B|108:154|82:238|179:207,1,172.799994726563,0|2,3:0|0:0,0:0:0:0:
331,108,184641,1,2,0:0:0:0:
312,99,184726,85,2,0:0:0:0:
256,141,184812,1,2,0:0:0:0:
249,210,184898,1,2,0:0:0:0:
284,269,184984,1,2,0:0:0:0:
348,295,185070,22,0,B|397:271|397:271|373:374,1,153.6,8|2,0:0|0:0,0:0:0:0:
242,358,185327,1,2,0:0:0:0:
231,349,185413,2,0,B|198:332|198:332|127:351,1,76.8,2|0,0:0|0:0,0:0:0:0:
340,194,185584,2,0,B|373:177|373:177|444:196,1,76.8,2|0,0:0|0:0,0:0:0:0:
187,84,185755,37,0,3:0:0:0:
96,34,185927,2,2,L|111:221,1,153.6,2|0,0:0|0:0,0:0:0:0:
268,122,186184,2,0,L|260:238,1,96,2|0,0:0|0:0,0:0:0:0:
110,280,186355,1,2,0:0:0:0:
110,280,186442,2,0,P|153:259|199:272,1,96,8|0,0:0|0:0,0:0:0:0:
79,28,186613,102,2,L|93:189,1,153.6,2|0,0:0|0:0,0:0:0:0:
287,115,186870,2,0,L|279:231,1,96,2|0,0:0|0:0,0:0:0:0:
194,180,187041,1,2,0:0:0:0:
194,180,187127,2,0,L|187:84,1,96,0|0,3:0|0:0,0:0:0:0:
65,23,187298,6,2,L|80:233,1,153.6,2|0,0:0|0:0,0:0:0:0:
304,107,187555,2,0,L|296:223,1,96,2|0,0:0|0:0,0:0:0:0:
111,280,187726,1,2,0:0:0:0:
111,280,187813,2,0,P|156:291|199:272,1,96,8|0,0:0|0:0,0:0:0:0:
321,100,187984,6,2,B|255:103|223:33|223:33|107:173|288:147|199:271|199:271|252:268|287:323,1,480,0|0,0:0|0:0,0:0:0:0:
388,208,188498,22,0,B|360:192|360:192|288:204,1,96,0|0,3:0|0:0,0:0:0:0:
39,210,188670,2,0,B|67:226|67:226|139:214,1,96,2|2,0:0|0:0,0:0:0:0:
209,346,188841,21,2,0:0:0:0:
210,307,188926,1,2,0:0:0:0:
212,230,189012,1,2,0:0:0:0:
213,192,189097,1,2,0:0:0:0:
147,123,189184,86,0,B|216:87|216:87|296:136,1,153.6,8|2,0:0|0:0,0:0:0:0:
401,226,189441,1,2,0:0:0:0:
388,208,189527,2,0,L|398:119,1,76.8,2|0,0:0|0:0,0:0:0:0:
287,316,189698,2,0,L|210:307,1,76.8,2|0,0:0|0:0,0:0:0:0:
464,281,189870,22,0,B|408:277|408:277|365:238|365:238|291:234,1,172.799994726563,0|2,3:0|0:0,0:0:0:0:
42,210,190127,1,2,0:0:0:0:
60,203,190213,85,2,0:0:0:0:
98,200,190298,1,2,0:0:0:0:
175,195,190384,1,2,0:0:0:0:
213,193,190469,1,2,0:0:0:0:
280,126,190555,22,0,B|251:125|230:104|230:104|190:138|215:199,1,153.6,8|2,0:0|0:0,0:0:0:0:
133,79,190813,1,2,0:0:0:0:
120,70,190898,2,0,P|75:65|54:106,1,76.8,2|0,0:0|0:0,0:0:0:0:
349,71,191070,2,0,P|394:76|414:33,1,76.8,2|0,0:0|0:0,0:0:0:0:
234,29,191241,5,0,3:0:0:0:
124,220,191413,1,0,0:0:0:0:
130,204,191498,2,0,P|222:196|266:228,1,86.3999973632813,8|0,3:0|0:0,0:0:0:0:
347,347,191670,1,0,0:0:0:0:
329,345,191755,2,0,P|321:253|353:209,1,86.3999973632813,8|0,3:0|0:0,0:0:0:0:
424,134,191927,1,0,0:0:0:0:
406,133,192012,2,0,P|398:225|430:269,1,86.3999973632813,8|0,3:0|3:0,0:0:0:0:
488,290,192184,101,0,0:0:0:0:
473,289,192270,2,0,L|432:286,1,24,8|0,3:0|0:0,0:0:0:0:
329,345,192441,2,0,L|187:334,1,96,2|0,0:0|0:0,0:0:0:0:
53,258,192613,5,0,3:0:0:0:
187,99,192784,1,0,0:0:0:0:
200,110,192870,2,0,P|212:195|199:223,1,86.3999973632813,8|0,3:0|0:0,0:0:0:0:
0,375,193041,1,0,0:0:0:0:
3,358,193127,2,0,P|88:346|116:359,1,86.3999973632813,8|0,3:0|0:0,0:0:0:0:
328,290,193298,1,0,0:0:0:0:
326,272,193384,2,0,P|241:260|213:273,1,86.3999973632813,8|0,3:0|3:0,0:0:0:0:
128,187,193555,1,0,0:0:0:0:
130,204,193641,2,0,L|139:311,1,86.3999973632813,8|0,3:0|0:0,0:0:0:0:
292,175,193813,101,0,3:0:0:0:
323,114,193898,1,0,3:0:0:0:
296,49,193984,86,0,B|194:17|228:120|99:79,1,192,4|2,3:1|0:0,0:0:0:0:
53,258,194241,1,2,0:0:0:0:
44,239,194326,21,2,0:0:0:0:
86,183,194412,1,2,0:0:0:0:
155,176,194498,1,2,0:0:0:0:
214,211,194584,1,2,0:0:0:0:
230,278,194670,86,0,B|184:296|137:290|137:290|170:308|186:338,1,153.6,8|2,0:0|0:0,0:0:0:0:
326,341,194927,1,2,0:0:0:0:
332,327,195013,2,0,L|325:245,1,76.8,2|0,0:0|0:0,0:0:0:0:
481,186,195184,2,0,L|399:193,1,76.8,2|0,0:0|0:0,0:0:0:0:
184,90,195355,22,0,P|258:140|225:209,1,172.799994726563,0|2,3:0|0:0,0:0:0:0:
412,270,195613,1,2,0:0:0:0:
393,279,195698,85,2,0:0:0:0:
337,237,195784,1,2,0:0:0:0:
330,168,195870,1,2,0:0:0:0:
365,109,195955,1,2,0:0:0:0:
432,96,196041,22,0,B|439:58|439:58|306:50,1,153.6,8|2,0:0|0:0,0:0:0:0:
102,32,196298,1,2,0:0:0:0:
113,42,196384,2,0,B|97:80|97:80|103:124,1,76.8,2|0,0:0|0:0,0:0:0:0:
231,204,196555,2,0,B|247:166|247:166|241:122,1,76.8,2|0,0:0|0:0,0:0:0:0:
212,37,196727,37,0,3:0:0:0:
81,213,196899,2,2,B|125:195|125:195|270:206,1,153.6,2|0,0:0|0:0,0:0:0:0:
325,141,197155,2,0,P|305:183|317:229,1,96,2|0,0:0|0:0,0:0:0:0:
231,370,197327,1,2,0:0:0:0:
231,370,197413,2,0,P|251:327|239:282,1,96,8|0,0:0|0:0,0:0:0:0:
70,199,197584,102,2,B|114:181|114:181|259:192,1,153.6,2|0,0:0|0:0,0:0:0:0:
412,236,197841,2,0,L|293:227,1,96,2|0,0:0|0:0,0:0:0:0:
144,275,198013,1,2,0:0:0:0:
144,275,198098,2,0,L|240:283,1,96,0|0,3:0|0:0,0:0:0:0:
428,226,198270,6,2,P|480:281|392:307,1,192,2|0,0:0|0:0,0:0:0:0:
325,141,198527,2,0,P|337:186|317:229,1,96,2|0,0:0|0:0,0:0:0:0:
232,372,198698,1,2,0:0:0:0:
223,359,198784,2,0,L|268:356,1,24,8|0,0:0|0:0,0:0:0:0:
144,275,198955,101,2,3:0:0:0:
113,270,199041,1,2,3:0:0:0:
82,265,199127,2,0,P|120:250|186:266,1,96,0|0,3:0|3:0,0:0:0:0:
399,314,199298,1,2,3:0:0:0:
430,319,199384,1,2,3:0:0:0:
461,324,199470,2,0,P|423:339|357:323,1,96,0|0,3:0|0:0,0:0:0:0:
248,74,199813,6,0,B|249:53|237:29|237:29|301:42|309:122|250:155,1,192,0|0,3:0|0:0,0:0:0:0:
75,188,200070,1,0,0:0:0:0:
88,175,200155,38,0,B|121:194|121:194|190:168,1,96,12|0,0:1|0:0,0:0:0:0:
188,302,200327,2,0,B|224:292|224:292|255:224,1,96,2|2,0:0|0:0,0:0:0:0:
366,60,200498,21,2,0:0:0:0:
368,98,200583,1,2,0:0:0:0:
373,175,200669,1,2,0:0:0:0:
375,213,200754,1,2,0:0:0:0:
427,292,200841,86,0,B|444:283|471:280|471:280|406:260|421:309|345:288,1,172.799994726563,0|2,3:0|0:0,0:0:0:0:
233,371,201098,1,2,0:0:0:0:
241,353,201184,21,2,0:0:0:0:
243,315,201269,1,2,0:0:0:0:
248,238,201355,1,2,0:0:0:0:
250,200,201440,1,2,0:0:0:0:
259,122,201527,86,0,B|250:186|250:186|270:225|270:225|255:294,1,172.799994726563,8|2,0:0|0:0,0:0:0:0:
90,76,201784,1,2,0:0:0:0:
98,95,201870,21,2,0:0:0:0:
102,163,201955,1,2,0:0:0:0:
106,232,202041,1,2,0:0:0:0:
110,302,202127,1,2,0:0:0:0:
71,240,202213,6,0,B|50:208|50:208|76:197|101:175|101:175|126:194|154:206|154:206|138:238,1,192,0|0,3:0|0:0,0:0:0:0:
104,384,202470,1,8,3:0:0:0:
87,374,202555,2,0,B|54:339|54:339|97:306,1,96,0|0,3:0|0:0,0:0:0:0:
341,362,202727,1,8,3:0:0:0:
341,362,202813,1,0,0:0:0:0:
341,362,202898,2,0,B|275:371|275:371|309:351,1,96,0|0,3:0|0:0,0:0:0:0:
430,300,203070,1,0,0:0:0:0:
430,300,203155,2,0,P|382:274|303:314,1,96,8|0,3:0|3:0,0:0:0:0:
324,189,203327,1,0,0:0:0:0:
324,189,203412,2,0,P|276:215|268:304,1,96,8|0,3:0|0:0,0:0:0:0:
174,279,203584,6,0,B|169:212|209:172|209:172|169:212|94:196,1,230.39999296875,0|0,3:0|0:0,0:0:0:0:
91,27,203841,2,0,P|129:61|143:112,1,105.600003222656,8|0,3:0|3:0,0:0:0:0:
83,312,204013,1,0,0:0:0:0:
75,297,204098,2,0,B|62:268|62:268|218:283,1,144.000005493164,8|0,3:0|0:0,0:0:0:0:
430,300,204270,6,0,L|494:304,1,48,0|0,3:0|0:0,0:0:0:0:
324,189,204441,6,0,L|333:251,10,48
293,348,204955,5,4,0:1:0:0:
203,151,226213,101,0,0:0:0:0:
201,165,226555,1,0,0:0:0:0:
200,179,226898,2,0,B|214:211|198:247|198:247|271:270|240:205|328:240,1,198.000007553101,4|2,0:1|0:0,0:0:0:0:
356,335,227584,6,0,B|304:276|362:214|362:214|409:249|409:249|448:228|457:164|415:120,1,336
436,29,228955,2,0,P|400:80|316:84,1,144.000005493164,2|2,0:0|0:0,0:0:0:0:
145,60,229641,102,0,B|97:174|202:143|150:260,1,192.000007324219,2|2,0:0|0:0,0:0:0:0:
130,326,230327,6,0,B|36:352|10:234|112:206|183:240|111:350|265:314,1,336
354,247,231698,2,0,B|291:216|291:216|213:248,1,144.000005493164,2|2,0:0|0:0,0:0:0:0:
454,69,232384,102,0,P|480:129|451:199,1,128,2|2,0:0|0:0,0:0:0:0:
386,133,233070,6,0,B|348:116|325:67|325:67|268:226|371:191|347:302,1,336
341,329,234441,2,0,P|286:297|270:253,1,96.0000036621095,2|0,0:0|0:0,0:0:0:0:
198,307,234784,2,0,P|190:244|215:203,1,96.0000036621095,2|0,0:0|0:0,0:0:0:0:
69,209,235127,102,0,L|75:352,1,128,2|2,0:0|0:0,0:0:0:0:
68,91,235813,6,0,B|31:110|7:83|26:46|107:25|133:120|238:87|238:87|165:115|194:159|114:159,1,400
71,227,237413,102,0,P|115:245|151:291,1,96.0000036621095,2|2,0:0|0:0,0:0:0:0:
341,329,237870,6,0,L|353:56,1,256,2|0,0:0|0:0,0:0:0:0:
462,220,239241,102,0,B|322:267|370:150|211:201,1,256,0|2,0:0|0:0,0:0:0:0:
94,356,240613,6,0,P|114:270|33:203,2,192,2|0|0,0:0|0:0|0:0,0:0:0:0:
227,210,242898,101,2,0:0:0:0:
231,192,243127,1,2,0:0:0:0:
235,174,243355,2,0,L|355:164,1,96.0000036621095,2|2,0:0|0:0,0:0:0:0:
172,83,243813,6,0,B|148:55|145:13|145:13|81:125|200:109|142:227,1,288.000010986329,2|2,0:0|0:0,0:0:0:0:
112,279,244613,1,2,0:0:0:0:
128,293,244727,2,0,L|8:283,1,96.0000036621095,2|2,0:0|0:0,0:0:0:0:
242,377,245184,102,0,B|228:336|253:296|253:296|247:288|247:288|277:233|225:191|225:191|236:238|198:276,1,288.000010986329,2|2,0:0|0:0,0:0:0:0:
148,212,245984,1,2,0:0:0:0:
144,130,246098,69,2,0:0:0:0:
256,192,246184,12,0,251498,0:0:0:0:
153,61,251584,102,0,P|172:98|185:172,1,96,0|0,3:0|0:0,0:0:0:0:
185,160,251841,1,0,0:0:0:0:
185,169,251927,2,0,L|115:181,1,48,0|0,3:0|0:0,0:0:0:0:
48,254,252098,2,0,L|153:256,1,96,0|0,0:0|3:0,0:0:0:0:
143,255,252355,1,0,0:0:0:0:
143,255,252441,1,0,0:0:0:0:
260,339,252613,53,0,3:0:0:0:
262,310,252698,1,0,0:0:0:0:
264,281,252784,1,0,0:0:0:0:
265,252,252870,1,0,0:0:0:0:
266,223,252955,54,0,B|314:214|341:238|341:238|330:268,1,96,0|0,3:0|0:0,0:0:0:0:
334,262,253213,1,0,0:0:0:0:
332,271,253298,2,0,L|340:327,1,48,0|0,3:0|0:0,0:0:0:0:
421,365,253470,2,0,B|405:313|441:325|422:261,1,96,0|0,0:0|3:0,0:0:0:0:
481,188,253727,1,0,0:0:0:0:
481,188,253813,2,0,L|422:195,1,48
312,123,253984,53,0,3:0:0:0:
341,121,254069,1,0,0:0:0:0:
370,119,254155,1,0,0:0:0:0:
399,118,254241,1,0,0:0:0:0:
427,116,254327,54,0,L|321:104,1,96,0|0,3:0|0:0,0:0:0:0:
321,105,254584,1,0,0:0:0:0:
311,103,254670,2,0,L|306:55,1,48,0|0,3:0|0:0,0:0:0:0:
223,28,254841,2,0,P|227:81|229:155,1,96,0|0,0:0|3:0,0:0:0:0:
228,123,255098,1,0,0:0:0:0:
228,123,255184,1,0,0:0:0:0:
38,123,255355,53,0,3:0:0:0:
56,100,255441,1,0,0:0:0:0:
83,92,255527,1,0,0:0:0:0:
111,96,255613,1,0,0:0:0:0:
135,110,255698,54,0,L|133:175,2,48,0|0|0,3:0|0:0|0:0,0:0:0:0:
73,246,255955,1,0,0:0:0:0:
64,246,256041,2,0,L|55:198,1,48,0|0,3:0|0:0,0:0:0:0:
181,331,256213,2,0,L|201:213,1,96,0|0,0:0|3:0,0:0:0:0:
71,337,256470,1,0,0:0:0:0:
71,337,256556,2,0,L|64:396,1,48
270,304,256727,53,0,3:0:0:0:
299,302,256812,1,0,0:0:0:0:
328,300,256898,1,0,0:0:0:0:
357,299,256984,1,0,0:0:0:0:
385,298,257070,54,0,L|391:244,2,48,0|0|0,3:0|0:0|0:0,0:0:0:0:
328,193,257327,1,0,0:0:0:0:
328,202,257413,2,0,L|258:214,1,48,0|0,3:0|0:0,0:0:0:0:
401,173,257584,2,0,L|411:77,1,96,0|0,0:0|3:0,0:0:0:0:
411,77,257841,1,0,0:0:0:0:
411,77,257927,1,0,0:0:0:0:
311,103,258098,53,0,3:0:0:0:
293,80,258184,1,0,0:0:0:0:
266,72,258270,1,0,0:0:0:0:
238,76,258356,1,0,0:0:0:0:
214,90,258441,54,0,L|216:155,2,48,0|0|0,3:0|0:0|0:0,0:0:0:0:
135,110,258698,1,0,0:0:0:0:
135,101,258784,2,0,L|65:89,1,48,0|0,3:0|0:0,0:0:0:0:
103,194,258955,2,0,B|153:189|153:189|199:231,1,96,0|0,0:0|3:0,0:0:0:0:
114,316,259213,1,0,0:0:0:0:
114,316,259299,2,0,L|130:258,1,48
274,202,259470,53,0,3:0:0:0:
276,231,259555,1,0,0:0:0:0:
278,260,259641,1,0,0:0:0:0:
279,289,259727,1,0,0:0:0:0:
281,317,259813,54,0,L|349:328,1,48,2|0,3:2|0:0,0:0:0:0:
512,274,259984,2,0,L|444:285,1,48,2|0,0:0|0:0,0:0:0:0:
399,336,260155,2,0,L|392:224,1,96,0|0,3:0|0:0,0:0:0:0:
393,240,260413,1,0,0:0:0:0:
393,240,260498,1,0,3:0:0:0:
483,354,260670,1,0,0:0:0:0:
485,135,260841,53,2,3:2:0:0:
467,112,260927,1,2,0:0:0:0:
440,104,261013,1,2,0:0:0:0:
412,108,261099,1,2,0:0:0:0:
388,122,261184,54,0,L|390:187,2,48,0|0|0,3:0|0:0|1:0,0:0:0:0:
261,83,261441,1,0,3:0:0:0:
261,83,261527,2,0,L|197:92,1,48,0|0,1:0|0:0,0:0:0:0:
273,159,261698,2,0,L|209:168,1,48,0|0,1:0|0:0,0:0:0:0:
22,119,261870,54,0,L|86:128,1,48,0|0,1:0|3:0,0:0:0:0:
10,195,262041,2,0,L|74:204,1,48,0|0,1:0|0:0,0:0:0:0:
141,63,262213,53,2,1:2:0:0:
144,112,262299,1,2,0:2:0:0:
147,161,262384,1,2,1:2:0:0:
150,209,262470,1,2,0:2:0:0:
154,256,262555,37,0,1:0:0:0:
162,241,262641,2,0,L|63:250,1,72.0000027465821,2|0,0:0|0:0,0:0:0:0:
244,269,262813,2,0,L|359:279,1,96,0|0,1:0|0:0,0:0:0:0:
435,269,263070,102,0,L|333:278,1,96,0|0,1:0|0:0,0:0:0:0:
162,241,263241,5,0,1:0:0:0:
170,226,263327,2,0,L|71:235,1,72.0000027465821,2|0,0:0|0:0,0:0:0:0:
252,254,263498,2,0,L|367:264,1,96,0|0,1:0|0:0,0:0:0:0:
443,254,263755,102,0,L|341:263,1,96,0|0,1:0|0:0,0:0:0:0:
170,226,263927,5,0,1:0:0:0:
178,211,264013,2,0,L|79:220,1,72.0000027465821,2|0,0:0|0:0,0:0:0:0:
260,239,264184,2,0,L|375:249,1,96,0|0,1:0|0:0,0:0:0:0:
451,239,264442,102,0,L|349:248,1,96,0|0,1:0|0:0,0:0:0:0:
241,75,264613,5,0,1:0:0:0:
250,70,264698,2,0,P|250:134|229:165,1,72.0000027465821,2|0,1:2|0:0,0:0:0:0:
106,217,264870,101,0,1:0:0:0:
115,206,264955,2,2,B|146:176|187:185|187:185|114:165|90:120|114:79|114:79|144:102|141:146,1,288,2|0,0:1|0:0,0:1:0:0:
27,123,265298,5,0,1:0:0:0:
18,118,265384,2,0,P|18:182|39:213,1,72.0000027465821,2|0,0:0|0:0,0:0:0:0:
184,350,265555,2,0,P|184:286|163:255,1,96,0|0,1:0|0:0,0:0:0:0:
19,331,265813,102,0,L|126:316,1,96,0|0,1:0|0:0,0:0:0:0:
254,191,265984,5,0,1:0:0:0:
257,180,266069,2,0,P|193:182|162:204,1,72.0000027465821,2|0,0:0|0:0,0:0:0:0:
326,321,266241,2,0,P|389:318|420:296,1,96,0|0,1:0|0:0,0:0:0:0:
358,151,266498,102,0,L|354:261,1,96,0|0,1:0|0:0,0:0:0:0:
449,171,266670,5,0,1:0:0:0:
460,173,266755,2,0,P|464:137|454:103,1,72.0000027465821,2|0,0:0|0:0,0:0:0:0:
268,86,266927,2,0,P|252:138|260:192,1,96,0|0,1:0|0:0,0:0:0:0:
361,55,267184,102,0,L|357:150,1,96,0|0,1:0|0:0,0:0:0:0:
349,339,267355,5,0,1:0:0:0:
351,318,267441,2,0,L|354:247,1,72.0000027465821,2|0,1:2|0:0,0:0:0:0:
209,272,267613,101,0,1:0:0:0:
209,272,267698,2,2,B|221:236|259:215|259:215|138:189|187:309|47:265,1,288,2|0,0:1|0:0,0:1:0:0:
98,191,268041,53,0,1:0:0:0:
132,157,268126,1,0,1:0:0:0:
145,112,268212,1,0,1:0:0:0:
134,66,268298,1,0,1:0:0:0:
102,31,268384,37,0,1:0:0:0:
122,73,268469,1,0,1:0:0:0:
162,99,268555,1,0,1:0:0:0:
209,106,268641,1,0,1:0:0:0:
253,89,268726,1,0,1:0:0:0:
289,57,268813,1,0,1:0:0:0:
336,48,268899,1,0,1:0:0:0:
381,63,268985,1,0,1:0:0:0:
401,92,269070,70,0,P|399:142|384:201,1,72.0000027465821,0|0,1:0|1:0,1:0:0:0:
214,344,269241,2,0,P|216:294|231:235,1,72.0000027465821,0|0,1:0|1:0,1:0:0:0:
480,222,269413,37,0,1:0:0:0:
443,256,269498,1,0,1:0:0:0:
393,268,269584,1,0,1:0:0:0:
344,254,269670,1,0,1:0:0:0:
308,219,269755,1,0,1:0:0:0:
272,183,269841,1,0,1:0:0:0:
224,167,269927,1,0,1:0:0:0:
174,181,270013,1,0,1:0:0:0:
135,213,270098,69,0,1:0:0:0:
188,191,270184,1,0,1:0:0:0:
216,141,270270,1,0,1:0:0:0:
205,84,270355,1,0,1:0:0:0:
161,48,270441,1,0,1:0:0:0:
102,49,270527,1,0,1:0:0:0:
59,87,270613,1,0,1:0:0:0:
49,144,270698,1,0,1:0:0:0:
132,130,270784,38,0,L|150:125,6,12,0|0|0|0|0|0|0,1:0|1:0|1:0|1:0|1:0|1:0|1:0,1:0:0:0:
135,213,271127,2,0,L|153:208,6,12,0|0|0|0|0|0|0,1:0|1:0|1:0|1:0|1:0|1:0|1:0,1:0:0:0:
130,46,271470,2,0,L|148:41,14,12,0|0|0|0|0|0|0|0|0|0|0|0|0|0|0,1:0|1:0|1:0|1:0|1:0|1:0|1:0|1:0|1:0|1:0|1:0|1:0|1:0|1:0|1:0,1:0:0:0:
19,19,272155,38,0,L|21:79,1,48
144,125,272413,1,0,0:0:0:0:
144,125,272498,2,0,L|142:165,1,24
29,244,272670,2,0,L|28:197,1,48
181,291,272841,2,0,L|180:338,1,48
81,331,273013,2,0,P|60:336|43:354,2,36.0000013732911
81,309,273270,101,2,0:0:0:0:
110,243,273355,53,2,0:0:0:0:
176,215,273441,21,2,0:0:0:0:
249,223,273527,22,0,B|303:245|343:205|343:205|400:185|442:231,1,211.200006445313,6|0,3:2|0:0,0:0:0:0:
377,352,273784,1,2,0:0:0:0:
377,352,273870,2,0,P|361:297|380:276,1,86.3999973632813,8|2,0:0|0:0,0:0:0:0:
273,66,274041,2,0,L|285:168,1,86.3999973632813,2|0,0:0|0:0,0:0:0:0:
81,331,274213,54,0,B|67:295|67:295|74:258,1,76.8,2|0,3:2|0:0,0:0:0:0:
249,223,274384,2,0,B|263:259|263:259|256:296,1,76.8,2|0,0:0|0:0,0:0:0:0:
171,365,274555,53,10,0:0:0:0:
165,295,274641,1,2,0:0:0:0:
160,225,274727,1,2,0:0:0:0:
154,155,274813,1,2,0:0:0:0:
148,86,274898,54,0,L|142:1,2,76.8,2|0|0,3:2|0:0|0:0,0:0:0:0:
282,151,275155,1,2,0:0:0:0:
282,151,275242,2,0,B|292:112|292:112|276:78,1,76.8,8|2,0:0|0:0,0:0:0:0:
62,104,275413,54,0,B|-4:72|-4:72|18:199,1,192,2|0,0:0|3:0,0:0:0:0:
0,308,275670,1,2,0:0:0:0:
5,289,275755,2,0,P|35:264|101:268,1,96,2|2,0:0|0:0,0:0:0:0:
307,345,275927,53,10,0:0:0:0:
377,352,276013,1,2,0:0:0:0:
433,306,276098,1,2,0:0:0:0:
441,233,276184,1,2,0:0:0:0:
395,178,276270,54,0,B|318:184|318:184|297:197|297:197|275:188|275:188|166:198,1,211.200006445313,2|0,3:2|0:0,0:0:0:0:
273,26,276527,1,2,0:0:0:0:
273,26,276613,2,0,B|299:60|299:60|282:111,1,86.3999973632813,8|2,0:0|0:0,0:0:0:0:
61,68,276784,54,0,B|100:18|100:18|175:54|136:122,1,192,2|0,0:0|3:0,0:0:0:0:
43,278,277041,1,2,0:0:0:0:
30,265,277127,2,0,B|4:231|4:231|17:189,1,86.3999973632813,2|2,0:0|0:0,0:0:0:0:
207,203,277298,53,10,0:0:0:0:
243,262,277384,1,2,0:0:0:0:
224,328,277470,1,2,0:0:0:0:
162,360,277556,1,2,0:0:0:0:
94,343,277641,54,0,P|56:348|11:383,2,76.8,2|0|0,3:2|0:0|0:0,0:0:0:0:
286,107,277898,1,2,0:0:0:0:
286,107,277985,2,0,B|302:143|302:143|293:179,1,76.8,8|2,0:0|0:0,0:0:0:0:
144,271,278155,54,0,B|192:271|192:271|216:260|216:260|252:280|252:280|272:271|272:271|328:271,1,192,2|0,0:0|3:0,0:0:0:0:
415,346,278413,1,2,0:0:0:0:
417,328,278498,2,0,L|429:214,1,96,2|2,0:0|0:0,0:0:0:0:
496,90,278670,53,10,0:0:0:0:
426,96,278756,1,2,0:0:0:0:
356,101,278842,1,2,0:0:0:0:
286,107,278928,1,2,0:0:0:0:
213,114,279013,54,0,B|202:82|202:82|284:93|284:93|295:157|236:186,1,211.200006445313,2|0,3:2|0:0,0:0:0:0:
85,195,279270,1,2,0:0:0:0:
85,195,279355,2,0,P|113:174|170:187,1,86.3999973632813,8|2,0:0|0:0,0:0:0:0:
330,282,279527,54,0,B|227:326|245:235|136:284,1,192,2|0,0:0|3:0,0:0:0:0:
405,329,279784,1,2,0:0:0:0:
422,323,279870,2,0,P|437:281|419:232,1,86.3999973632813,2|2,0:0|0:0,0:0:0:0:
225,113,280041,53,10,0:0:0:0:
253,177,280127,1,2,0:0:0:0:
317,199,280213,1,2,0:0:0:0:
379,166,280299,1,2,0:0:0:0:
404,102,280384,54,0,L|483:85,2,76.8,2|0|0,3:2|0:0|0:0,0:0:0:0:
152,155,280641,1,2,0:0:0:0:
152,155,280727,2,0,P|137:117|161:61,1,76.8,8|2,0:0|0:0,0:0:0:0:
350,28,280898,54,0,B|294:-9|294:-9|309:129,1,192,2|0,0:0|3:0,0:0:0:0:
328,302,281155,1,2,0:0:0:0:
326,284,281241,2,0,L|314:178,1,86.3999973632813,2|2,0:0|0:0,0:0:0:0:
152,155,281413,53,10,0:0:0:0:
101,202,281499,1,2,0:0:0:0:
101,271,281585,1,2,0:0:0:0:
146,323,281671,1,2,0:0:0:0:
217,331,281755,54,0,B|293:323|293:323|345:346|345:346|425:337,1,211.200006445313,2|0,3:2|0:0,0:0:0:0:
489,228,282013,1,2,0:0:0:0:
492,232,282098,2,0,B|453:209|453:209|391:216,1,86.3999973632813,8|2,0:0|0:0,0:0:0:0:
270,126,282270,54,0,B|296:110|310:79|310:79|361:138|307:210,1,192,2|0,0:0|3:0,0:0:0:0:
309,204,282527,1,2,0:0:0:0:
303,210,282613,2,0,L|183:205,1,86.3999973632813,2|0,0:0|0:0,0:0:0:0:
5,198,282784,54,0,L|139:203,1,96,10|0,0:0|0:0,0:0:0:0:
396,304,282955,102,0,B|423:366|423:366|337:372|312:300|312:300|250:277|207:344,1,316.800009667969,4|2,1:0|0:0,0:0:0:0:
19,360,283298,2,0,P|21:305|77:271,1,105.600003222656,4|0,1:0|0:0,0:0:0:0:
270,126,283470,5,0,0:0:0:0:
203,83,283555,2,0,B|159:52|159:52|111:80|136:132|136:132|186:162|176:218,1,240,4|0,1:0|0:0,0:0:0:0:
412,216,283813,2,0,B|376:190|376:190|271:218,1,120,4|0,1:0|0:0,0:0:0:0:
58,275,283984,101,0,0:0:0:0:
103,348,284070,2,0,L|413:334,1,300,4|0,1:0|0:0,0:0:0:0:
479,303,284327,22,0,L|475:336,1,24,8|0,0:0|0:0,0:0:0:0:
496,198,284498,101,6,3:2:0:0:
496,198,284584,2,0,L|510:73,1,105.600003222656,2|0,0:0|0:0,0:0:0:0:
369,26,284755,2,0,L|380:130,1,105.600003222656,2|8,0:0|0:0,0:0:0:0:
398,231,284927,1,2,0:0:0:0:
412,216,285013,2,0,B|364:193|310:211|310:211|308:226|308:226|263:245|203:230,1,211.200006445313,2|0,0:0|3:0,0:0:0:0:
177,44,285270,53,2,0:0:0:0:
192,42,285355,2,0,P|268:96|228:178,1,172.799994726563,2|10,0:0|0:0,0:0:0:0:
35,310,285613,53,2,0:0:0:0:
3,249,285698,1,2,0:0:0:0:
37,189,285784,1,2,0:0:0:0:
108,177,285870,54,0,L|101:273,1,96,2|2,3:2|0:0,0:0:0:0:
71,108,286041,1,0,0:0:0:0:
71,108,286127,2,0,P|118:100|166:123,1,96,2|8,0:0|0:0,0:0:0:0:
315,231,286298,2,0,L|218:233,1,96,2|2,0:0|0:0,0:0:0:0:
480,166,286470,53,0,0:0:0:0:
490,177,286555,2,0,B|500:216|500:216|483:273,1,76.8,0|2,3:0|0:0,0:0:0:0:
404,369,286727,1,2,0:0:0:0:
389,363,286813,1,2,0:0:0:0:
374,357,286899,2,0,B|366:315|366:315|378:274,1,76.8,8|2,0:0|0:0,0:0:0:0:
454,92,287069,53,2,0:0:0:0:
384,87,287155,1,2,0:0:0:0:
313,83,287241,1,2,3:2:0:0:
296,74,287327,54,0,L|404:79,1,96,2|0,0:0|0:0,0:0:0:0:
164,19,287498,2,0,L|169:127,1,96,2|8,0:0|0:0,0:0:0:0:
256,217,287670,53,2,0:0:0:0:
256,217,287755,2,0,B|320:222|297:154|219:119|254:221|153:203,1,192,2|0,0:0|3:0,0:0:0:0:
96,357,288013,1,2,0:0:0:0:
105,342,288098,2,0,L|95:256,1,86.3999973632813,2|2,0:0|0:0,0:0:0:0:
288,304,288270,53,10,0:0:0:0:
354,286,288355,1,2,0:0:0:0:
419,309,288441,1,2,0:0:0:0:
486,292,288527,54,0,P|461:333|463:399,1,86.3999973632813,2|0,0:0|3:0,0:0:0:0:
356,182,288698,2,0,L|356:278,1,86.3999973632813,2|0,0:0|0:0,0:0:0:0:
249,363,288870,2,0,P|242:320|219:284,1,86.3999973632813,2|8,0:0|0:0,0:0:0:0:
77,118,289041,53,2,0:0:0:0:
107,180,289127,1,2,0:0:0:0:
173,199,289213,1,0,0:0:0:0:
234,166,289299,1,0,3:0:0:0:
248,97,289384,54,0,P|294:77|349:79,1,96,2|2,0:0|0:0,0:0:0:0:
155,25,289556,2,0,L|161:136,1,96,2|8,0:0|0:0,0:0:0:0:
336,384,289727,1,2,0:0:0:0:
347,307,289813,1,2,0:0:0:0:
356,231,289898,1,2,0:0:0:0:
368,159,289984,54,0,L|465:144,1,72.0000027465821,4|2,1:0|0:0,0:0:0:0:
160,120,290155,54,0,L|63:135,1,72.0000027465821,0|2,0:0|0:0,0:0:0:0:
354,147,290327,54,0,L|451:132,1,72.0000027465821,0|2,0:0|0:0,0:0:0:0:
174,132,290498,54,0,L|77:147,1,72.0000027465821,2|2,0:0|0:0,0:0:0:0:
342,137,290670,54,0,L|439:122,1,72.0000027465821
188,144,290841,54,0,L|91:159,1,72.0000027465821,2|2,0:0|0:0,0:0:0:0:
331,125,291013,54,0,L|428:110,1,72.0000027465821
200,155,291184,54,0,L|103:170,1,72.0000027465821,2|2,0:0|0:0,0:0:0:0:
389,269,291355,53,0,0:0:0:0:
356,231,291440,1,2,0:0:0:0:
306,220,291526,1,0,0:0:0:0:
259,240,291612,1,2,0:0:0:0:
216,310,291698,53,0,0:0:0:0:
189,334,291783,1,2,0:0:0:0:
153,341,291869,1,2,0:0:0:0:
117,331,291955,1,2,0:0:0:0:
91,305,292041,54,0,L|176:284,1,72.0000027465821,0|2,0:0|0:0,0:0:0:0:
64,232,292213,2,0,L|149:211,1,72.0000027465821,2|2,0:0|0:0,0:0:0:0:
42,158,292384,2,0,L|127:137,1,72.0000027465821,0|2,0:0|0:0,0:0:0:0:
354,46,292555,53,2,0:0:0:0:
346,117,292640,1,2,0:0:0:0:
338,189,292727,38,0,L|381:185,4,36.0000013732911,4|0|0|0|0,3:1|0:0|0:0|0:0|0:0,0:0:0:0:
259,240,292984,2,0,L|216:236,4,36.0000013732911,4|0|0|0|0,3:1|0:0|0:0|0:0|0:0,0:0:0:0:
353,271,293241,6,0,L|388:267,2,36.0000013732911,4|0|0,3:1|0:0|0:0,0:0:0:0:
246,324,293413,102,0,L|203:320,4,36.0000013732911,4|0|0|0|0,3:1|0:0|0:0|0:0|0:0,0:0:0:0:
366,353,293670,2,0,L|401:349,4,36.0000013732911,4|0|0|0|0,3:1|0:0|0:0|0:0|0:0,0:0:0:0:
197,367,293927,5,2,3:2:0:0:
197,367,294013,1,2,0:0:0:0:
197,366,294098,102,0,L|192:304,1,48,0|0,3:0|3:0,0:0:0:0:
315,366,294270,2,0,L|320:304,1,48,0|0,3:0|3:0,0:0:0:0:
159,242,294441,6,0,L|153:166,1,57.5999982421876,0|0,3:0|3:0,0:0:0:0:
353,242,294613,2,0,L|359:166,1,57.5999982421876,0|0,3:0|3:0,0:0:0:0:
125,102,294784,102,0,L|119:26,1,67.1999979492188,0|0,3:0|3:0,0:0:0:0:
387,102,294955,2,0,L|393:26,1,67.1999979492188,0|0,3:0|3:0,0:0:0:0:
245,221,295127,38,0,P|263:225|244:206,1,72,6|0,3:0|0:0,0:0:0:0:
256,213,295470,102,0,L|256:152,1,48,2|0,0:0|0:0,0:0:0:0:
232,44,295727,102,0,P|244:45|256:48,1,24,2|8,0:0|0:0,0:0:0:0:
315,103,295898,53,2,0:0:0:0:
315,103,295984,2,0,B|216:49|220:134|130:102,1,192,2|0,0:0|3:0,0:0:0:0:
24,3,296241,1,2,0:0:0:0:
34,17,296327,2,0,L|43:108,1,86.3999973632813,2|0,0:0|0:0,0:0:0:0:
43,348,296498,53,10,0:0:0:0:
111,357,296584,1,2,0:0:0:0:
164,315,296669,1,2,0:0:0:0:
173,246,296755,1,2,0:0:0:0:
134,188,296841,54,0,P|89:182|41:201,2,76.8,2|0|0,3:2|0:0|0:0,0:0:0:0:
252,149,297098,1,2,0:0:0:0:
252,149,297184,2,0,L|245:245,1,76.8,8|2,0:0|0:0,0:0:0:0:
91,274,297355,54,0,B|232:265|232:265|282:304,1,192,2|0,0:0|3:0,0:0:0:0:
449,192,297613,1,2,0:0:0:0:
464,198,297698,2,0,B|484:237|484:237|470:284,1,86.3999973632813,2|2,0:0|0:0,0:0:0:0:
379,368,297870,53,10,0:0:0:0:
373,298,297956,1,2,0:0:0:0:
368,228,298042,1,2,0:0:0:0:
362,158,298128,1,2,0:0:0:0:
355,85,298213,54,0,B|296:108|257:59|257:59|204:35|143:88,1,211.200006445313,2|0,3:2|0:0,0:0:0:0:
230,200,298470,1,2,0:0:0:0:
230,200,298555,2,0,P|246:164|201:126,1,86.3999973632813,8|2,0:0|0:0,0:0:0:0:
80,28,298727,54,0,B|84:99|84:99|77:117|77:117|87:134|87:134|94:241,1,192,2|0,0:0|3:0,0:0:0:0:
34,380,298984,1,2,0:0:0:0:
17,374,299070,2,0,P|-2:330|20:277,1,86.3999973632813,2|2,0:0|0:0,0:0:0:0:
179,140,299241,53,10,0:0:0:0:
242,168,299327,1,2,0:0:0:0:
264,232,299412,1,2,0:0:0:0:
230,292,299498,1,2,0:0:0:0:
166,319,299584,54,0,L|61:329,2,76.8,2|0|0,3:2|0:0|0:0,0:0:0:0:
319,308,299841,1,2,0:0:0:0:
319,308,299927,2,0,L|308:426,1,76.8,8|2,0:0|0:0,0:0:0:0:
175,229,300098,54,0,P|269:229|383:224,1,192,2|0,0:0|3:0,0:0:0:0:
500,310,300355,1,2,0:0:0:0:
487,316,300441,2,0,L|391:312,1,86.3999973632813,2|2,0:0|0:0,0:0:0:0:
332,138,300613,53,10,0:0:0:0:
352,71,300699,1,2,0:0:0:0:
417,50,300784,1,2,0:0:0:0:
481,74,300870,1,2,0:0:0:0:
475,92,300955,86,0,L|468:155,1,48,0|2,3:0|0:0,0:0:0:0:
274,28,301127,102,0,L|281:91,1,57.5999982421876,0|2,3:0|0:0,0:0:0:0:
460,236,301298,102,0,B|484:232|503:236|503:236|412:175|443:277|342:242,1,211.200006445313,14|0,0:0|0:0,0:0:0:0:
263,212,301555,1,2,0:0:0:0:
263,212,301641,2,0,L|275:312,1,86.3999973632813,0|2,3:0|0:0,0:0:0:0:
374,170,301813,2,0,P|388:144|353:88,1,86.3999973632813,2|0,0:0|0:0,0:0:0:0:
125,24,301984,54,0,L|75:39,2,43.1999986816407,10|0|2,0:0|0:0|0:0,0:0:0:0:
256,111,302155,2,0,L|301:125,2,43.1999986816407,2|0|2,0:0|0:0|0:0,0:0:0:0:
110,109,302327,54,0,B|174:91|174:91|206:45|206:45|278:26,1,192,2|0,3:2|0:0,0:0:0:0:
51,166,302584,1,2,0:0:0:0:
51,166,302670,2,0,P|26:126|37:77,1,86.3999973632813,8|2,0:0|0:0,0:0:0:0:
168,177,302841,54,0,L|159:375,1,192,2|0,0:0|3:0,0:0:0:0:
42,354,303098,1,2,0:0:0:0:
42,336,303184,2,0,L|37:224,1,86.3999973632813,2|2,0:0|0:0,0:0:0:0:
256,112,303355,53,10,0:0:0:0:
320,136,303441,1,2,0:0:0:0:
344,200,303526,1,2,0:0:0:0:
314,262,303612,1,2,0:0:0:0:
247,282,303698,54,0,B|236:240|236:240|412:251,1,192,6|0,3:2|0:0,0:0:0:0:
512,173,303955,37,0,1:0:0:0:
459,220,304041,2,2,L|471:112,1,108.000004119873,2|0,0:0|0:0,0:0:0:0:
221,132,304384,6,0,B|289:98|289:98|291:141|332:165|332:165|322:150|317:124,1,192,6|2,3:2|0:0,0:0:0:0:
408,36,304641,2,0,L|400:108,1,72.0000027465821,0|0,1:0|0:0,0:0:0:0:
372,356,304813,102,0,L|375:320,1,36.0000013732911,2|0,0:0|0:0,0:0:0:0:
384,249,304984,2,0,L|380:284,1,36.0000013732911,2|0,0:0|0:0,0:0:0:0:
279,278,305155,5,0,0:0:0:0:
279,278,305241,2,0,B|231:257|231:257|194:273|194:273|142:255,1,144.000005493164,4|0,1:0|0:0,0:0:0:0:
328,188,305498,102,0,B|389:161|389:161|434:182|434:182|502:158,1,163.200003112793,4|0,1:0|0:0,0:0:0:0:
222,130,305755,6,0,B|156:101|156:101|108:123|108:123|35:98,1,182.399995129395,4|0,1:0|0:0,0:0:0:0:
408,36,306013,5,4,1:0:0:0:
408,36,306098,2,0,L|399:115,1,72
237,122,306441,101,6,3:2:0:0:
222,130,306527,2,0,L|237:4,1,105.600003222656,2|0,0:0|0:0,0:0:0:0:
53,104,306698,2,0,P|110:84|183:123,1,105.600003222656,2|8,0:0|0:0,0:0:0:0:
269,198,306870,1,2,0:0:0:0:
269,198,306955,2,0,B|219:211|219:211|173:197|173:197|165:208|165:208|124:198|124:198|60:212,1,211.200006445313,2|0,0:0|3:0,0:0:0:0:
141,344,307213,53,2,0:0:0:0:
157,346,307298,2,0,B|202:322|202:322|349:339,1,172.799994726563,2|8,0:0|0:0,0:0:0:0:
477,310,307556,53,2,0:0:0:0:
508,249,307641,1,2,0:0:0:0:
475,189,307727,1,2,0:0:0:0:
404,177,307813,54,0,L|411:273,1,96,2|2,3:2|0:0,0:0:0:0:
440,100,307984,1,0,0:0:0:0:
440,100,308070,2,0,P|393:92|345:115,1,96,2|8,0:0|0:0,0:0:0:0:
265,203,308241,2,0,P|273:156|250:108,1,96,2|2,0:0|0:0,0:0:0:0:
89,87,308413,1,0,0:0:0:0:
89,87,308498,2,0,P|58:123|54:176,1,96,2|2,3:2|0:0,0:0:0:0:
194,304,308670,53,2,0:0:0:0:
176,301,308756,1,2,0:0:0:0:
158,298,308841,6,0,L|156:349,1,48,2|0,0:0|0:0,0:0:0:0:
161,217,309013,2,0,L|162:169,1,48,2|0,0:0|0:0,0:0:0:0:
17,260,309184,101,6,3:2:0:0:
0,251,309270,2,0,L|100:256,1,96,2|0,0:0|0:0,0:0:0:0:
267,137,309441,2,0,L|272:234,1,96,2|8,0:0|0:0,0:0:0:0:
374,327,309613,53,2,0:0:0:0:
374,327,309698,2,0,B|381:296|400:271|400:271|316:333|255:301,1,192,2|0,0:0|3:0,0:0:0:0:
161,217,309956,1,2,0:0:0:0:
170,202,310041,2,0,L|162:94,1,96,2|2,0:0|0:0,0:0:0:0:
300,19,310213,53,10,0:0:0:0:
368,5,310298,1,2,0:0:0:0:
428,39,310384,1,2,0:0:0:0:
440,110,310470,54,0,L|344:103,1,86.3999973632813,2|0,0:0|3:0,0:0:0:0:
413,202,310641,2,0,L|509:195,1,96,2|0,0:0|0:0,0:0:0:0:
357,326,310813,2,0,P|354:279|305:235,1,96,2|8,0:0|0:0,0:0:0:0:
77,118,310984,53,2,0:0:0:0:
107,180,311070,1,2,0:0:0:0:
173,199,311156,1,0,0:0:0:0:
234,166,311242,1,0,3:0:0:0:
248,97,311327,54,0,L|237:246,1,96,2|2,0:0|0:0,0:0:0:0:
64,102,311499,2,0,L|70:213,1,96,2|2,0:0|1:2,0:0:0:0:
154,352,311670,37,2,0:0:0:0:
118,338,311755,1,2,0:0:0:0:
132,302,311841,1,2,0:0:0:0:
167,315,311927,6,0,P|74:324|31:307,1,96,2|2,1:2|1:2,0:0:0:0:
344,316,312098,2,0,P|437:325|480:308,1,96,0|2,1:0|1:2,0:0:0:0:
114,216,312270,2,0,P|207:207|250:224,1,96,0|2,1:0|1:2,0:0:0:0:
398,215,312441,2,0,P|305:206|262:223,1,96,2|2,1:2|1:2,0:0:0:0:
196,112,312613,2,0,L|212:241,1,96,0|0,1:0|1:0,0:0:0:0:
316,112,312784,2,0,L|300:241,1,96,2|2,1:2|1:2,0:0:0:0:
256,336,312955,53,2,0:0:0:0:
256,352,313041,1,2,0:0:0:0:
184,343,313127,1,2,0:0:0:0:
112,332,313213,1,2,0:0:0:0:
68,272,313298,38,0,P|117:257|171:289,1,105.600003222656,0|0,1:0|1:0,0:0:0:0:
444,272,313470,2,0,P|395:257|340:288,1,105.600003222656,0|0,1:0|1:0,0:0:0:0:
82,172,313641,2,0,B|147:162|147:162|232:179,1,105.600003222656,0|0,1:0|1:0,0:0:0:0:
432,172,313813,2,0,B|367:162|367:162|282:179,1,105.600003222656,0|0,1:0|1:0,0:0:0:0:
182,66,313984,2,0,P|206:209|235:240,1,105.600003222656,0|0,1:0|1:0,0:0:0:0:
332,66,314155,2,0,P|308:209|279:240,1,105.600003222656,0|0,1:0|1:0,0:0:0:0:
256,352,314327,69,2,0:0:0:0:
277,349,314413,1,2,0:0:0:0:
297,345,314498,1,2,0:0:0:0:
317,340,314584,1,2,0:0:0:0:
386,349,314670,54,0,L|403:212,1,115.199996484375,0|0,1:0|1:0,0:0:0:0:
126,349,314841,2,0,L|111:234,1,115.199996484375,0|0,1:0|1:0,0:0:0:0:
426,275,315013,2,0,L|403:126,1,115.199996484375,0|0,1:0|1:0,0:0:0:0:
86,275,315184,2,0,L|103:161,1,115.199996484375,0|0,1:0|1:0,0:0:0:0:
256,96,315355,102,0,P|268:67|268:37,1,60,0|0,1:0|1:0,1:0:0:0:
256,96,315441,2,0,P|243:67|243:37,1,60,0|0,1:0|1:0,1:0:0:0:
256,96,315527,6,0,P|293:43|299:21,1,60,0|0,1:0|1:0,1:0:0:0:
256,96,315613,2,0,P|218:43|212:21,1,60,0|0,1:0|1:0,1:0:0:0:
255,96,315698,54,0,P|284:86|305:65,1,60,0|0,1:0|1:0,1:0:0:0:
256,96,315784,2,0,P|227:86|205:66,1,60,0|0,1:0|1:0,1:0:0:0:
255,96,315870,2,0,P|285:94|315:98,1,60,0|0,1:0|1:0,1:0:0:0:
256,96,315955,2,0,P|226:94|196:98,1,60,0|0,1:0|1:0,1:0:0:0:
256,96,316041,70,0,B|217:186|283:178|251:259,1,168,2|0,3:0|0:0,0:0:0:0:
72,278,316727,101,2,0:0:0:0:
99,269,316812,1,2,0:0:0:0:
127,266,316898,1,2,0:0:0:0:
156,269,316984,1,2,0:0:0:0:
183,279,317070,101,2,0:0:0:0:
137,223,317155,1,2,0:0:0:0:
135,150,317241,1,2,0:0:0:0:
185,96,317327,1,2,0:0:0:0:
256,96,317413,6,0,P|302:105|337:135,2,86.3999973632813,4|2|2,3:1|0:0|0:0,0:0:0:0:
96,32,317670,2,0,P|50:41|15:71,2,86.3999973632813,4|2|2,3:1|0:0|0:0,0:0:0:0:
269,173,317927,102,0,L|252:258,1,86.3999973632813,4|2,3:1|0:0,0:0:0:0:
9,326,318098,1,2,0:0:0:0:
33,280,318184,1,2,0:0:0:0:
83,268,318270,1,2,0:0:0:0:
129,289,318355,1,2,0:0:0:0:
150,336,318441,6,0,P|186:332|236:333,1,86.3999973632813,4|2,3:1|0:0,0:0:0:0:
373,329,318613,1,2,0:0:0:0:
359,343,318698,102,0,L|342:258,1,86.3999973632813,4|2,3:1|0:0,0:0:0:0:
462,216,318870,1,2,0:0:0:0:
476,230,318955,6,0,L|493:145,1,86.3999973632813,4|2,3:1|0:0,0:0:0:0:
338,162,319127,1,2,0:0:0:0:
324,176,319212,102,0,L|307:91,1,86.3999973632813,4|2,3:1|0:0,0:0:0:0:
507,63,319384,6,0,P|456:67|429:90,1,86.3999973632813,0|2,3:0|0:0,0:0:0:0:
261,20,319555,1,2,0:0:0:0:
261,20,319641,102,0,P|227:58|224:94,1,86.3999973632813,0|0,3:0|0:0,0:0:0:0:
342,258,319813,5,8,3:0:0:0:
316,194,319898,1,2,0:0:0:0:
249,174,319984,1,2,0:0:0:0:
184,200,320070,1,2,0:0:0:0:
146,258,320155,102,0,L|49:272,2,86.3999973632813,4|2|2,3:1|0:0|0:0,0:0:0:0:
138,79,320413,2,0,L|235:93,2,86.3999973632813,4|2|2,3:1|0:0|0:0,0:0:0:0:
31,83,320670,6,0,L|43:168,1,86.3999973632813,4|2,3:1|0:0,0:0:0:0:
190,339,320841,1,2,0:0:0:0:
214,293,320927,1,2,0:0:0:0:
264,281,321013,1,2,0:0:0:0:
310,303,321098,1,2,0:0:0:0:
332,342,321184,102,0,P|344:289|338:242,1,86.3999973632813,4|2,3:1|0:0,0:0:0:0:
287,114,321356,1,2,0:0:0:0:
271,104,321441,6,0,P|259:51|272:-19,1,86.3999973632813,4|0,3:1|0:0,0:0:0:0:
430,71,321613,102,0,L|345:52,2,86.3999973632813,4|2|2,3:1|0:0|0:0,0:0:0:0:
227,200,321870,6,0,L|311:181,2,86.3999973632813,4|2|2,3:1|0:0|0:0,0:0:0:0:
69,283,322127,102,0,P|103:258|146:258,1,86.3999973632813,0|2,3:0|0:0,0:0:0:0:
219,384,322298,1,2,3:2:0:0:
204,375,322384,6,0,P|211:333|241:303,1,86.3999973632813,0|2,3:0|0:0,0:0:0:0:
472,336,322555,101,8,3:0:0:0:
405,352,322640,1,2,0:0:0:0:
344,318,322726,1,2,0:0:0:0:
336,249,322812,1,2,0:0:0:0:
382,197,322898,6,0,L|486:207,2,86.3999973632813,4|2|2,3:1|0:0|0:0,0:0:0:0:
271,104,323155,2,0,L|167:114,2,86.3999973632813,4|2|2,3:1|0:0|0:0,0:0:0:0:
417,33,323413,102,0,B|432:75|432:75|416:123,1,86.3999973632813,4|2,3:1|0:0,0:0:0:0:
257,250,323584,1,2,0:0:0:0:
233,204,323670,1,2,0:0:0:0:
183,192,323756,1,2,0:0:0:0:
136,213,323841,1,2,0:0:0:0:
112,259,323927,6,0,P|76:255|25:255,1,86.3999973632813,4|2,3:1|0:0,0:0:0:0:
50,78,324098,1,2,0:0:0:0:
64,64,324184,102,0,L|72:159,1,86.3999973632813,4|2,3:1|0:0,0:0:0:0:
203,280,324355,1,2,0:0:0:0:
189,266,324441,6,0,L|180:354,1,86.3999973632813,4|2,3:1|0:0,0:0:0:0:
288,88,324613,1,2,0:0:0:0:
302,74,324698,102,0,L|310:160,1,86.3999973632813,4|2,3:1|0:0,0:0:0:0:
153,190,324870,6,0,P|200:180|239:199,1,86.3999973632813,0|2,3:0|0:0,0:0:0:0:
264,346,325041,1,2,0:0:0:0:
264,346,325127,102,0,P|310:357|349:338,1,86.3999973632813,0|2,3:0|0:0,0:0:0:0:
435,95,325298,5,8,3:0:0:0:
377,132,325383,1,2,0:0:0:0:
369,200,325469,1,2,0:0:0:0:
412,253,325555,1,2,0:0:0:0:
480,264,325641,102,0,P|497:229|492:182,2,76.8,4|2|2,3:1|0:0|0:0,0:0:0:0:
307,252,325898,2,0,P|289:217|294:170,2,76.8,4|2|2,3:1|0:0|0:0,0:0:0:0:
419,340,326156,6,0,B|381:332|381:332|330:345,1,76.8,4|2,3:1|0:0,0:0:0:0:
180,351,326327,101,2,0:0:0:0:
179,288,326412,1,2,0:0:0:0:
179,227,326498,1,2,0:0:0:0:
178,165,326584,1,2,0:0:0:0:
178,88,326670,6,0,L|178:180,1,76.8,4|2,3:1|0:0,0:0:0:0:
75,296,326842,1,2,0:0:0:0:
59,286,326927,102,0,P|40:248|54:204,1,76.8,4|2,3:1|0:0,0:0:0:0:
307,252,327098,6,0,P|312:289|294:322,2,76.8,4|2|2,3:1|0:0|0:0,0:0:0:0:
84,125,327355,102,0,L|8:133,2,76.8,4|2|2,3:1|0:0|0:0,0:0:0:0:
173,27,327613,1,0,3:0:0:0:
173,34,327698,1,0,3:0:0:0:
173,42,327784,1,0,3:0:0:0:
174,49,327870,2,0,L|176:87,2,38.4,0|0|0,3:0|3:0|3:0,3:0:0:0:
288,129,328041,6,0,B|224:149|179:105|179:105|135:97|84:125|84:125|132:127|158:162,1,288,8|2,3:0|0:0,0:0:0:0:
248,50,328384,102,0,L|346:39,2,86.3999973632813,4|2|2,3:1|0:0|0:0,0:0:0:0:
87,212,328641,2,0,L|1:202,2,86.3999973632813,4|2|2,3:1|0:0|0:0,0:0:0:0:
270,209,328898,6,0,B|287:248|287:248|269:297,1,86.3999973632813,4|2,3:1|0:0,0:0:0:0:
23,360,329070,1,2,0:0:0:0:
47,314,329156,1,2,0:0:0:0:
97,302,329242,1,2,0:0:0:0:
143,323,329327,1,2,0:0:0:0:
166,369,329413,102,0,P|202:365|260:366,1,86.3999973632813,4|2,3:1|0:0,0:0:0:0:
435,319,329584,1,2,0:0:0:0:
449,305,329669,6,0,L|364:297,1,86.3999973632813,4|2,3:1|0:0,0:0:0:0:
197,231,329841,1,2,0:0:0:0:
183,217,329927,102,0,L|269:208,1,86.3999973632813,4|2,3:1|0:0,0:0:0:0:
436,143,330098,1,2,0:0:0:0:
450,129,330184,6,0,L|365:121,1,86.3999973632813,4|2,3:1|0:0,0:0:0:0:
174,49,330355,102,0,P|149:82|161:139,1,86.3999973632813,0|2,3:0|0:0,0:0:0:0:
50,165,330527,1,2,0:0:0:0:
50,165,330613,6,0,P|55:206|104:237,1,86.3999973632813,0|2,3:0|0:0,0:0:0:0:
341,275,330784,101,8,3:0:0:0:
315,211,330869,1,2,0:0:0:0:
248,191,330955,1,2,0:0:0:0:
183,217,331041,1,2,0:0:0:0:
155,281,331127,6,0,L|174:376,2,86.3999973632813,4|2|2,3:1|0:0|0:0,0:0:0:0:
341,275,331384,2,0,L|322:370,2,86.3999973632813,4|2|2,3:1|0:0|0:0,0:0:0:0:
248,107,331642,102,0,B|252:143|252:143|244:157|244:157|248:193,1,86.3999973632813,4|2,3:1|0:0,0:0:0:0:
223,368,331813,5,2,0:0:0:0:
171,365,331898,1,2,0:0:0:0:
118,364,331984,1,2,0:0:0:0:
66,361,332070,1,2,0:0:0:0:
14,359,332156,102,0,P|-3:312|17:266,1,86.3999973632813,4|2,3:1|0:0,0:0:0:0:
0,135,332328,1,2,0:0:0:0:
9,149,332413,6,0,B|52:161|52:161|107:153,1,86.3999973632813,4|2,3:1|0:0,0:0:0:0:
296,46,332584,102,0,P|259:29|209:40,2,86.3999973632813,4|2|2,3:1|0:0|0:0,0:0:0:0:
341,185,332841,2,0,P|382:203|428:191,2,86.3999973632813,4|2|2,3:1|0:0|0:0,0:0:0:0:
399,21,333098,6,0,L|387:139,1,86.3999973632813,0|2,3:0|0:0,0:0:0:0:
367,303,333270,1,0,3:0:0:0:
364,320,333356,102,0,P|322:313|292:283,1,86.3999973632813,0|2,3:0|0:0,0:0:0:0:
248,107,333527,5,8,3:0:0:0:
255,175,333612,1,2,0:0:0:0:
213,230,333698,1,2,0:0:0:0:
144,240,333784,1,2,0:0:0:0:
85,202,333870,102,0,L|91:293,2,86.3999973632813,4|2|2,3:1|0:0|0:0,0:0:0:0:
267,109,334127,2,0,L|353:114,2,86.3999973632813,4|2|2,3:1|0:0|0:0,0:0:0:0:
152,23,334384,6,0,B|137:63|137:63|150:105,1,86.3999973632813,4|2,3:1|0:0,0:0:0:0:
378,248,334555,1,2,0:0:0:0:
354,202,334641,1,2,0:0:0:0:
304,190,334727,1,2,0:0:0:0:
256,210,334812,1,2,0:0:0:0:
231,256,334898,102,0,P|195:252|142:253,1,86.3999973632813,4|2,3:1|0:0,0:0:0:0:
278,336,335070,1,2,0:0:0:0:
292,350,335155,6,0,L|309:265,1,86.3999973632813,4|2,3:1|0:0,0:0:0:0:
99,188,335327,1,2,0:0:0:0:
85,202,335412,102,0,L|68:117,1,86.3999973632813,4|2,3:1|0:0,0:0:0:0:
339,100,335584,1,2,0:0:0:0:
353,114,335669,6,0,L|370:29,1,86.3999973632813,4|2,3:1|0:0,0:0:0:0:
71,33,335841,102,0,P|115:43|144:87,1,86.3999973632813,0|2,3:0|0:0,0:0:0:0:
306,182,336013,1,2,0:0:0:0:
306,182,336098,6,0,P|262:192|233:236,1,86.3999973632813,0|2,3:0|0:0,0:0:0:0:
6,230,336270,101,8,3:0:0:0:
72,214,336355,1,2,0:0:0:0:
134,243,336441,1,2,0:0:0:0:
166,308,336527,1,2,0:0:0:0:
145,378,336613,6,0,B|118:338|118:338|139:194,1,172.799994726563,4|2,3:1|0:0,0:0:0:0:
309,334,336870,102,0,P|265:324|236:280,1,86.3999973632813,0|2,3:0|0:0,0:0:0:0:
140,73,337041,1,0,3:0:0:0:
143,50,337127,2,0,B|164:78|164:78|149:138,1,86.3999973632813,0|2,3:0|0:0,0:0:0:0:
6,230,337298,6,0,B|-10:189|-10:189|146:216,1,192,4|2,3:1|0:0,0:0:0:0:
370,264,337555,102,0,B|413:264|413:264|361:241,1,86.3999973632813,0|0,3:0|0:0,0:0:0:0:
166,308,337727,1,0,3:0:0:0:
150,308,337813,2,0,B|107:299|107:299|149:290,1,86.3999973632813,0|0,3:0|0:0,0:0:0:0:
333,171,337984,5,0,3:0:0:0:
252,263,338098,1,0,3:0:0:0:
208,150,338213,1,0,3:0:0:0:
335,187,338327,101,0,3:0:0:0:
235,260,338441,1,0,3:0:0:0:
221,139,338556,1,0,3:0:0:0:
348,59,338670,6,0,B|393:29|456:55|468:102|468:102|431:138|392:119,1,230.39999296875,4|2,3:1|3:2,0:0:0:0:
37,34,339013,101,8,3:0:0:0:
112,110,339127,2,0,L|120:231,1,115.199996484375,0|2,3:0|0:0,0:0:0:0:
126,338,339355,5,4,0:0:0:0:
