osu file format v14

[General]
AudioFilename: audio.mp3
AudioLeadIn: 0
PreviewTime: 159699
Countdown: 0
SampleSet: Soft
StackLeniency: 0.7
Mode: 3
LetterboxInBreaks: 0
SpecialStyle: 0
WidescreenStoryboard: 0

[Editor]
DistanceSpacing: 0.8
BeatDivisor: 4
GridSize: 4
TimelineZoom: 1.8

[Metadata]
Title:Dans la mer de son
TitleUnicode:Dans la mer de son
Artist:Camellia
ArtistUnicode:かめりあ
Creator:Jinjin
Version:Calm Before the Storm
Source:
Tags:TheToaphster
BeatmapID:1178316
BeatmapSetID:556824

[Difficulty]
HPDrainRate:8.5
CircleSize:7
OverallDifficulty:7.5
ApproachRate:5
SliderMultiplier:1.4
SliderTickRate:1

[Events]
//Background and Video events
0,0,"merbg.jpg",0,0
//Break Periods
//Storyboard Layer 0 (Background)
//Storyboard Layer 1 (Fail)
//Storyboard Layer 2 (Pass)
//Storyboard Layer 3 (Foreground)
//Storyboard Sound Samples

[TimingPoints]
7471,342.857142857143,4,2,0,0,1,0
7471,-200,4,2,0,0,0,0
18442,-142.857142857143,4,2,0,0,0,0
28556,-140.845070422535,4,2,0,0,0,0
28642,-138.888888888889,4,2,0,0,0,0
28728,-136.986301369863,4,2,0,0,0,0
28813,-135.135135135135,4,2,0,0,0,0
28899,-133.333333333333,4,2,0,0,0,0
28985,-131.578947368421,4,2,0,0,0,0
29071,-129.87012987013,4,2,0,0,0,0
29156,-128.205128205128,4,2,0,0,0,0
29242,-126.582278481013,4,2,0,0,0,0
29328,-125,4,2,0,0,0,0
29413,-117.647058823529,4,2,0,0,0,0
31985,-113.636363636364,4,2,0,0,0,0
34899,-108.695652173913,4,2,0,0,0,0
36099,-105.263157894737,4,2,0,0,0,0
37642,-102.040816326531,4,2,0,0,0,0
39528,-100,4,2,0,0,0,0
39613,-98.0392156862745,4,2,0,0,0,0
39699,-96.1538461538461,4,2,0,0,0,0
39785,-94.3396226415094,4,2,0,0,0,0
39871,-92.5925925925926,4,2,0,0,0,0
39956,-90.9090909090909,4,2,0,0,0,0
40042,-89.2857142857143,4,2,0,0,0,0
40128,-87.719298245614,4,2,0,0,0,0
40213,-86.2068965517241,4,2,0,0,0,0
40299,-84.7457627118644,4,2,0,0,0,0
40385,-50,4,2,0,0,0,0
40428,-100,4,2,0,0,0,0
41328,-66.6666666666667,4,2,0,0,0,0
41456,-133.333333333333,4,2,0,0,0,0
41542,-66.6666666666667,4,2,0,0,0,0
41628,-100,4,2,0,0,0,0
42013,-66.6666666666667,4,2,0,0,0,0
42142,-133.333333333333,4,2,0,0,0,0
42228,-66.6666666666667,4,2,0,0,0,0
42313,-100,4,2,0,0,0,0
42528,-66.6666666666667,4,2,0,0,0,0
42656,-100,4,2,0,0,0,0
43042,-66.6666666666667,4,2,0,0,0,0
43171,-133.333333333333,4,2,0,0,0,0
43256,-66.6666666666667,4,2,0,0,0,0
43342,-100,4,2,0,0,0,0
44071,-66.6666666666667,4,2,0,0,0,0
44199,-133.333333333333,4,2,0,0,0,0
44285,-66.6666666666667,4,2,0,0,0,0
44371,-100,4,2,0,0,0,0
44756,-66.6666666666667,4,2,0,0,0,0
44885,-133.333333333333,4,2,0,0,0,0
44971,-66.6666666666667,4,2,0,0,0,0
45056,-100,4,2,0,0,0,0
45271,-66.6666666666667,4,2,0,0,0,0
45399,-100,4,2,0,0,0,0
45871,-66.6666666666667,4,2,0,0,0,0
45913,-133.333333333333,4,2,0,0,0,0
45999,-66.6666666666667,4,2,0,0,0,0
46085,-100,4,2,0,0,0,0
46813,-66.6666666666667,4,2,0,0,0,0
46942,-133.333333333333,4,2,0,0,0,0
47028,-66.6666666666667,4,2,0,0,0,0
47113,-100,4,2,0,0,0,0
47499,-66.6666666666667,4,2,0,0,0,0
47628,-133.333333333333,4,2,0,0,0,0
47713,-66.6666666666667,4,2,0,0,0,0
47799,-100,4,2,0,0,0,0
48013,-66.6666666666667,4,2,0,0,0,0
48142,-100,4,2,0,0,0,0
48528,-66.6666666666667,4,2,0,0,0,0
48656,-133.333333333333,4,2,0,0,0,0
48742,-66.6666666666667,4,2,0,0,0,0
48828,-100,4,2,0,0,0,0
49556,-66.6666666666667,4,2,0,0,0,0
49685,-133.333333333333,4,2,0,0,0,0
49771,-66.6666666666667,4,2,0,0,0,0
49856,-100,4,2,0,0,0,0
50242,-66.6666666666667,4,2,0,0,0,0
50371,-133.333333333333,4,2,0,0,0,0
50456,-66.6666666666667,4,2,0,0,0,0
50542,-100,4,2,0,0,0,0
50756,-66.6666666666667,4,2,0,0,0,0
50885,-100,4,2,0,0,0,0
51271,-66.6666666666667,4,2,0,0,0,0
51399,-133.333333333333,4,2,0,0,0,0
51485,-66.6666666666667,4,2,0,0,0,0
51571,-100,4,2,0,0,0,0
52299,-66.6666666666667,4,2,0,0,0,0
52428,-133.333333333333,4,2,0,0,0,0
52513,-66.6666666666667,4,2,0,0,0,0
52599,-100,4,2,0,0,0,0
52985,-66.6666666666667,4,2,0,0,0,0
53113,-133.333333333333,4,2,0,0,0,0
53199,-66.6666666666667,4,2,0,0,0,0
53285,-100,4,2,0,0,0,0
53499,-66.6666666666667,4,2,0,0,0,0
53628,-100,4,2,0,0,0,0
54013,-71.4285714285714,4,2,0,0,0,0
54142,-133.333333333333,4,2,0,0,0,0
54228,-71.4285714285714,4,2,0,0,0,0
54313,-100,4,2,0,0,0,0
55042,-71.4285714285714,4,2,0,0,0,0
55171,-133.333333333333,4,2,0,0,0,0
55256,-71.4285714285714,4,2,0,0,0,0
55342,-100,4,2,0,0,0,0
55728,-71.4285714285714,4,2,0,0,0,0
55856,-133.333333333333,4,2,0,0,0,0
55942,-71.4285714285714,4,2,0,0,0,0
56028,-100,4,2,0,0,0,0
56242,-71.4285714285714,4,2,0,0,0,0
56371,-100,4,2,0,0,0,0
56756,-76.9230769230769,4,2,0,0,0,0
56885,-133.333333333333,4,2,0,0,0,0
56971,-76.9230769230769,4,2,0,0,0,0
57056,-100,4,2,0,0,0,0
57785,-76.9230769230769,4,2,0,0,0,0
57913,-133.333333333333,4,2,0,0,0,0
57999,-76.9230769230769,4,2,0,0,0,0
58085,-100,4,2,0,0,0,0
58471,-80,4,2,0,0,0,0
58599,-133.333333333333,4,2,0,0,0,0
58685,-80,4,2,0,0,0,0
58771,-100,4,2,0,0,0,0
58985,-83.3333333333333,4,2,0,0,0,0
59113,-100,4,2,0,0,0,0
59585,-83.3333333333333,4,2,0,0,0,0
59628,-100,4,2,0,0,0,0
59928,-83.3333333333333,4,2,0,0,0,0
59971,-100,4,2,0,0,0,0
60271,-83.3333333333333,4,2,0,0,0,0
60313,-100,4,2,0,0,0,0
60613,-95.2380952380952,4,2,0,0,0,0
60785,-90.9090909090909,4,2,0,0,0,0
60956,-33.3333333333333,4,2,0,0,0,0
60978,-100,4,2,0,0,0,0
61299,-55.5555555555556,4,2,0,0,0,0
61342,-133.333333333333,4,2,0,0,0,0
61428,-55.5555555555556,4,2,0,0,0,0
61471,-33.3333333333333,4,2,0,0,0,0
61492,-100,4,2,0,0,0,0
61813,-33.3333333333333,4,2,0,0,0,0
61835,-100,4,2,0,0,0,0
61985,-10000,4,2,0,0,0,0
62028,-50,4,2,0,0,0,0
62071,-10000,4,2,0,0,0,0
62113,-50,4,2,0,0,0,0
62156,-10000,4,2,0,0,0,0
62199,-50,4,2,0,0,0,0
62242,-10000,4,2,0,0,0,0
62285,-50,4,2,0,0,0,0
62328,-133.333333333333,4,2,0,0,0,0
62671,-131.578947368421,4,2,0,0,0,0
63013,-129.87012987013,4,2,0,0,0,0
63356,-128.205128205128,4,2,0,0,0,0
63699,-126.582278481013,4,2,0,0,0,0
64042,-125,4,2,0,0,0,0
64385,-123.456790123457,4,2,0,0,0,0
64728,-121.951219512195,4,2,0,0,0,0
65071,-120.481927710843,4,2,0,0,0,0
65413,-119.047619047619,4,2,0,0,0,0
65756,-117.647058823529,4,2,0,0,0,0
66099,-116.279069767442,4,2,0,0,0,0
66442,-114.942528735632,4,2,0,0,0,0
66785,-113.636363636364,4,2,0,0,0,0
67128,-112.359550561798,4,2,0,0,0,0
67471,-111.111111111111,4,2,0,0,0,0
67813,-109.89010989011,4,2,0,0,0,0
68156,-108.695652173913,4,2,0,0,0,0
68499,-107.52688172043,4,2,0,0,0,0
68842,-106.382978723404,4,2,0,0,0,0
69185,-105.263157894737,4,2,0,0,0,0
69528,-104.166666666667,4,2,0,0,0,0
69871,-103.092783505155,4,2,0,0,0,0
70213,-102.040816326531,4,2,0,0,0,0
70556,-101.010101010101,4,2,0,0,0,0
70899,-100,4,2,0,0,0,0
71242,-99.009900990099,4,2,0,0,0,0
71585,-98.0392156862745,4,2,0,0,0,0
71928,-97.0873786407767,4,2,0,0,0,0
72271,-95.2380952380952,4,2,0,0,0,0
72613,-93.4579439252336,4,2,0,0,0,0
72956,-91.743119266055,4,2,0,0,0,0
73299,-100,4,2,0,0,0,0
73385,-66.6666666666667,4,2,0,0,0,0
73428,-133.333333333333,4,2,0,0,0,0
73556,-66.6666666666667,4,2,0,0,0,0
73642,-133.333333333333,4,2,0,0,0,0
73813,-100,4,2,0,0,0,0
73899,-66.6666666666667,4,2,0,0,0,0
73942,-133.333333333333,4,2,0,0,0,0
74071,-66.6666666666667,4,2,0,0,0,0
74156,-133.333333333333,4,2,0,0,0,0
74328,-66.6666666666667,4,2,0,0,0,0
74413,-133.333333333333,4,2,0,0,0,0
74499,-66.6666666666667,4,2,0,0,0,0
74585,-133.333333333333,4,2,0,0,0,0
74671,-100,4,2,0,0,0,0
74756,-57.1428571428571,4,2,0,0,0,0
74799,-133.333333333333,4,2,0,0,0,0
74928,-57.1428571428571,4,2,0,0,0,0
75013,-133.333333333333,4,2,0,0,0,0
75185,-100,4,2,0,0,0,0
75271,-57.1428571428571,4,2,0,0,0,0
75313,-133.333333333333,4,2,0,0,0,0
75442,-57.1428571428571,4,2,0,0,0,0
75528,-133.333333333333,4,2,0,0,0,0
75699,-66.6666666666667,4,2,0,0,0,0
75785,-133.333333333333,4,2,0,0,0,0
75871,-66.6666666666667,4,2,0,0,0,0
75956,-133.333333333333,4,2,0,0,0,0
76042,-100,4,2,0,0,0,0
76128,-50,4,2,0,0,0,0
76171,-133.333333333333,4,2,0,0,0,0
76299,-50,4,2,0,0,0,0
76385,-133.333333333333,4,2,0,0,0,0
76556,-100,4,2,0,0,0,0
76642,-50,4,2,0,0,0,0
76685,-133.333333333333,4,2,0,0,0,0
76813,-50,4,2,0,0,0,0
76899,-133.333333333333,4,2,0,0,0,0
77071,-66.6666666666667,4,2,0,0,0,0
77156,-133.333333333333,4,2,0,0,0,0
77242,-66.6666666666667,4,2,0,0,0,0
77328,-133.333333333333,4,2,0,0,0,0
77413,-100,4,2,0,0,0,0
77499,-43.4782608695652,4,2,0,0,0,0
77542,-133.333333333333,4,2,0,0,0,0
77671,-43.4782608695652,4,2,0,0,0,0
77756,-133.333333333333,4,2,0,0,0,0
77928,-100,4,2,0,0,0,0
78013,-43.4782608695652,4,2,0,0,0,0
78056,-133.333333333333,4,2,0,0,0,0
78185,-43.4782608695652,4,2,0,0,0,0
78271,-133.333333333333,4,2,0,0,0,0
78442,-66.6666666666667,4,2,0,0,0,0
78528,-133.333333333333,4,2,0,0,0,0
78613,-66.6666666666667,4,2,0,0,0,0
78699,-133.333333333333,4,2,0,0,0,0
78785,-55.5555555555556,4,2,0,0,0,0
78828,-10000,4,2,0,0,0,0
78871,-55.2486187845304,4,2,0,0,0,0
78913,-10000,4,2,0,0,0,0
78956,-54.9450549450549,4,2,0,0,0,0
78999,-10000,4,2,0,0,0,0
79042,-54.6448087431694,4,2,0,0,0,0
79085,-10000,4,2,0,0,0,0
79128,-54.3478260869565,4,2,0,0,0,0
79171,-10000,4,2,0,0,0,0
79213,-54.054054054054,4,2,0,0,0,0
79256,-10000,4,2,0,0,0,0
79299,-53.763440860215,4,2,0,0,0,0
79342,-10000,4,2,0,0,0,0
79385,-53.475935828877,4,2,0,0,0,0
79428,-10000,4,2,0,0,0,0
79471,-53.1914893617021,4,2,0,0,0,0
79513,-10000,4,2,0,0,0,0
79556,-52.9100529100529,4,2,0,0,0,0
79599,-10000,4,2,0,0,0,0
79642,-52.6315789473684,4,2,0,0,0,0
79685,-10000,4,2,0,0,0,0
79728,-52.3560209424084,4,2,0,0,0,0
79771,-10000,4,2,0,0,0,0
79813,-52.0833333333333,4,2,0,0,0,0
79856,-10000,4,2,0,0,0,0
79899,-51.8134715025907,4,2,0,0,0,0
79942,-10000,4,2,0,0,0,0
79985,-51.5463917525773,4,2,0,0,0,0
80028,-10000,4,2,0,0,0,0
80071,-51.2820512820513,4,2,0,0,0,0
80113,-10000,4,2,0,0,0,0
80156,-51.0204081632653,4,2,0,0,0,0
80199,-10000,4,2,0,0,0,0
80242,-50.761421319797,4,2,0,0,0,0
80285,-10000,4,2,0,0,0,0
80328,-50.5050505050505,4,2,0,0,0,0
80371,-10000,4,2,0,0,0,0
80413,-50.251256281407,4,2,0,0,0,0
80456,-10000,4,2,0,0,0,0
80499,-50,4,2,0,0,0,0
80542,-10000,4,2,0,0,0,0
80585,-49.7512437810945,4,2,0,0,0,0
80628,-10000,4,2,0,0,0,0
80671,-49.5049504950495,4,2,0,0,0,0
80713,-10000,4,2,0,0,0,0
80756,-49.2610837438424,4,2,0,0,0,0
80799,-10000,4,2,0,0,0,0
80842,-49.0196078431373,4,2,0,0,0,0
80885,-10000,4,2,0,0,0,0
80928,-48.780487804878,4,2,0,0,0,0
80971,-10000,4,2,0,0,0,0
81013,-48.5436893203883,4,2,0,0,0,0
81056,-10000,4,2,0,0,0,0
81099,-48.3091787439614,4,2,0,0,0,0
81142,-10000,4,2,0,0,0,0
81185,-48.0769230769231,4,2,0,0,0,0
81228,-10000,4,2,0,0,0,0
81271,-47.8468899521531,4,2,0,0,0,0
81313,-10000,4,2,0,0,0,0
81356,-47.6190476190476,4,2,0,0,0,0
81399,-10000,4,2,0,0,0,0
81442,-47.39336492891,4,2,0,0,0,0
81485,-10000,4,2,0,0,0,0
81528,-100,4,2,0,0,0,0
81613,-99.009900990099,4,2,0,0,0,0
81699,-98.0392156862745,4,2,0,0,0,0
81785,-97.0873786407767,4,2,0,0,0,0
81871,-96.1538461538461,4,2,0,0,0,0
81956,-95.2380952380952,4,2,0,0,0,0
82042,-94.3396226415094,4,2,0,0,0,0
82128,-93.4579439252336,4,2,0,0,0,0
82213,-92.5925925925926,4,2,0,0,0,0
82299,-91.743119266055,4,2,0,0,0,0
82385,-90.9090909090909,4,2,0,0,0,0
82471,-90.0900900900901,4,2,0,0,0,0
82556,-89.2857142857143,4,2,0,0,0,0
82642,-88.4955752212389,4,2,0,0,0,0
82728,-87.719298245614,4,2,0,0,0,0
82813,-86.9565217391304,4,2,0,0,0,0
82899,-120.481927710843,4,2,0,0,0,0
83928,-33.3333333333333,4,2,0,0,0,0
83971,-10000,4,2,0,0,0,0
84185,-50,4,2,0,0,0,0
84271,-100,4,2,0,0,0,0
94899,-50,4,2,0,0,0,0
94942,-10000,4,2,0,0,0,0
94985,-50,4,2,0,0,0,0
95028,-10000,4,2,0,0,0,0
95071,-50,4,2,0,0,0,0
95113,-10000,4,2,0,0,0,0
95156,-50,4,2,0,0,0,0
95199,-10000,4,2,0,0,0,0
95242,-100,4,2,0,0,0,0
100385,-95.2380952380952,4,2,0,0,0,0
100471,-90.9090909090909,4,2,0,0,0,0
100556,-86.9565217391304,4,2,0,0,0,0
100642,-83.3333333333333,4,2,0,0,0,0
100728,-50,4,1,0,15,0,0
100749,-10000,4,1,0,15,0,0
100770.859375,-50,4,1,0,15,0,0
100791.859375,-10000,4,1,0,15,0,0
100813.71875,-50,4,1,0,15,0,0
100834.71875,-10000,4,1,0,15,0,0
100856.578125,-50,4,1,0,15,0,0
100877.578125,-10000,4,1,0,15,0,0
100899.4375,-50,4,1,0,15,0,0
100920.4375,-10000,4,1,0,15,0,0
100942.296875,-50,4,1,0,15,0,0
100963.296875,-10000,4,1,0,15,0,0
100985.15625,-50,4,1,0,15,0,0
101006.15625,-10000,4,1,0,15,0,0
101028.015625,-50,4,1,0,15,0,0
101049.015625,-10000,4,1,0,15,0,0
101070.875,-50,4,1,0,15,0,0
101091.875,-10000,4,1,0,15,0,0
101113.734375,-50,4,1,0,15,0,0
101134.734375,-10000,4,1,0,15,0,0
101156.59375,-50,4,1,0,15,0,0
101177.59375,-10000,4,1,0,15,0,0
101199.453125,-50,4,1,0,15,0,0
101220.453125,-10000,4,1,0,15,0,0
101242.3125,-50,4,1,0,15,0,0
101263.3125,-10000,4,1,0,15,0,0
101285.171875,-50,4,1,0,15,0,0
101306.171875,-10000,4,1,0,15,0,0
101328.03125,-50,4,1,0,15,0,0
101349.03125,-10000,4,1,0,15,0,0
101370.890625,-50,4,1,0,15,0,0
101391.890625,-10000,4,1,0,15,0,0
101413.75,-50,4,1,0,15,0,0
101434.75,-10000,4,1,0,15,0,0
101456.609375,-50,4,1,0,15,0,0
101477.609375,-10000,4,1,0,15,0,0
101499.46875,-50,4,1,0,15,0,0
101520.46875,-10000,4,1,0,15,0,0
101542.328125,-50,4,1,0,15,0,0
101563.328125,-10000,4,1,0,15,0,0
101585.1875,-50,4,1,0,15,0,0
101606.1875,-10000,4,1,0,15,0,0
101628.046875,-50,4,1,0,15,0,0
101649.046875,-10000,4,1,0,15,0,0
101670.90625,-50,4,1,0,15,0,0
101691.90625,-10000,4,1,0,15,0,0
101713.765625,-50,4,1,0,15,0,0
101734.765625,-10000,4,1,0,15,0,0
101756.625,-50,4,1,0,15,0,0
101777.625,-10000,4,1,0,15,0,0
101799.484375,-50,4,1,0,15,0,0
101820.484375,-10000,4,1,0,15,0,0
101842.34375,-50,4,1,0,15,0,0
101863.34375,-10000,4,1,0,15,0,0
101885.203125,-50,4,1,0,15,0,0
101906.203125,-10000,4,1,0,15,0,0
101928.0625,-50,4,1,0,15,0,0
101949.0625,-10000,4,1,0,15,0,0
101970.921875,-50,4,1,0,15,0,0
101991.921875,-10000,4,1,0,15,0,0
102013.78125,-50,4,1,0,15,0,0
102034.78125,-10000,4,1,0,15,0,0
102056.640625,-50,4,1,0,15,0,0
102077.640625,-10000,4,1,0,15,0,0
102099.5,-50,4,1,0,15,0,0
102120.5,-10000,4,1,0,15,0,0
102142.359375,-50,4,1,0,15,0,0
102163.359375,-10000,4,1,0,15,0,0
102185.21875,-50,4,1,0,15,0,0
102206.21875,-10000,4,1,0,15,0,0
102228.078125,-50,4,1,0,15,0,0
102249.078125,-10000,4,1,0,15,0,0
102270.9375,-50,4,1,0,15,0,0
102291.9375,-10000,4,1,0,15,0,0
102313.796875,-50,4,1,0,15,0,0
102334.796875,-10000,4,1,0,15,0,0
102356.65625,-50,4,1,0,15,0,0
102377.65625,-10000,4,1,0,15,0,0
102399.515625,-50,4,1,0,15,0,0
102420.515625,-10000,4,1,0,15,0,0
102442.375,-50,4,1,0,15,0,0
102463.375,-10000,4,1,0,15,0,0
102485.234375,-50,4,1,0,15,0,0
102506.234375,-10000,4,1,0,15,0,0
102528.09375,-50,4,1,0,15,0,0
102549.09375,-10000,4,1,0,15,0,0
102570.953125,-50,4,1,0,15,0,0
102591.953125,-10000,4,1,0,15,0,0
102613.8125,-50,4,1,0,15,0,0
102634.8125,-10000,4,1,0,15,0,0
102656.671875,-50,4,1,0,15,0,0
102677.671875,-10000,4,1,0,15,0,0
102699.53125,-50,4,1,0,15,0,0
102720.53125,-10000,4,1,0,15,0,0
102742.390625,-50,4,1,0,15,0,0
102763.390625,-10000,4,1,0,15,0,0
102785.25,-50,4,1,0,15,0,0
102806.25,-10000,4,1,0,15,0,0
102828.109375,-50,4,1,0,15,0,0
102849.109375,-10000,4,1,0,15,0,0
102870.96875,-50,4,1,0,15,0,0
102891.96875,-10000,4,1,0,15,0,0
102913.828125,-50,4,1,0,15,0,0
102934.828125,-10000,4,1,0,15,0,0
102956.6875,-50,4,1,0,15,0,0
102977.6875,-10000,4,1,0,15,0,0
102999.546875,-50,4,1,0,15,0,0
103020.546875,-10000,4,1,0,15,0,0
103042.40625,-50,4,1,0,15,0,0
103063.40625,-10000,4,1,0,15,0,0
103085.265625,-50,4,1,0,15,0,0
103106.265625,-10000,4,1,0,15,0,0
103128.125,-50,4,1,0,15,0,0
103149.125,-10000,4,1,0,15,0,0
103170.984375,-50,4,1,0,15,0,0
103191.984375,-10000,4,1,0,15,0,0
103213.84375,-50,4,1,0,15,0,0
103234.84375,-10000,4,1,0,15,0,0
103256.703125,-50,4,1,0,15,0,0
103277.703125,-10000,4,1,0,15,0,0
103299.5625,-50,4,1,0,15,0,0
103320.5625,-10000,4,1,0,15,0,0
103342.421875,-50,4,1,0,15,0,0
103363.421875,-10000,4,1,0,15,0,0
103385.28125,-50,4,1,0,15,0,0
103406.28125,-10000,4,1,0,15,0,0
103428.140625,-50,4,1,0,15,0,0
103449.140625,-10000,4,1,0,15,0,0
103471,-50,4,1,0,15,0,0
103492,-10000,4,1,0,15,0,0
103513.84375,-49.8442367601246,4,1,0,15,0,0
103534.870967742,-10000,4,1,0,15,0,0
103556.6875,-49.6894409937888,4,1,0,15,0,0
103577.741935484,-10000,4,1,0,15,0,0
103599.53125,-49.5356037151703,4,1,0,15,0,0
103620.612903226,-10000,4,1,0,15,0,0
103642.375,-49.3827160493827,4,1,0,15,0,0
103663.483870968,-10000,4,1,0,15,0,0
103685.21875,-49.2307692307692,4,1,0,15,0,0
103706.35483871,-10000,4,1,0,15,0,0
103728.0625,-49.079754601227,4,1,0,15,0,0
103749.225806452,-10000,4,1,0,15,0,0
103770.90625,-48.9296636085627,4,1,0,15,0,0
103792.096774194,-10000,4,1,0,15,0,0
103813.75,-48.780487804878,4,1,0,15,0,0
103834.967741935,-10000,4,1,0,15,0,0
103856.59375,-48.6322188449848,4,1,0,15,0,0
103877.838709677,-10000,4,1,0,15,0,0
103899.4375,-48.4848484848485,4,1,0,15,0,0
103920.709677419,-10000,4,1,0,15,0,0
103942.28125,-48.3383685800604,4,1,0,15,0,0
103963.580645161,-10000,4,1,0,15,0,0
103985.125,-48.1927710843373,4,1,0,15,0,0
104006.451612903,-10000,4,1,0,15,0,0
104027.96875,-48.048048048048,4,1,0,15,0,0
104049.322580645,-10000,4,1,0,15,0,0
104070.8125,-47.9041916167665,4,1,0,15,0,0
104092.193548387,-10000,4,1,0,15,0,0
104113.65625,-47.7611940298507,4,1,0,15,0,0
104135.064516129,-10000,4,1,0,15,0,0
104156.5,-47.6190476190476,4,1,0,15,0,0
104177.935483871,-10000,4,1,0,15,0,0
104199.34375,-47.4777448071217,4,1,0,15,0,0
104220.806451613,-10000,4,1,0,15,0,0
104242.1875,-47.3372781065089,4,1,0,15,0,0
104263.677419355,-10000,4,1,0,15,0,0
104285.03125,-47.1976401179941,4,1,0,15,0,0
104306.548387097,-10000,4,1,0,15,0,0
104327.875,-47.0588235294118,4,1,0,15,0,0
104349.419354839,-10000,4,1,0,15,0,0
104370.71875,-46.9208211143695,4,1,0,15,0,0
104392.290322581,-10000,4,1,0,15,0,0
104413.5625,-46.7836257309941,4,1,0,15,0,0
104435.161290323,-10000,4,1,0,15,0,0
104456.40625,-46.6472303206997,4,1,0,15,0,0
104478.032258065,-10000,4,1,0,15,0,0
104499.25,-46.5116279069767,4,1,0,15,0,0
104520.903225806,-10000,4,1,0,15,0,0
104542.09375,-46.3768115942029,4,1,0,15,0,0
104563.774193548,-10000,4,1,0,15,0,0
104584.9375,-46.242774566474,4,1,0,15,0,0
104606.64516129,-10000,4,1,0,15,0,0
104627.78125,-46.1095100864553,4,1,0,15,0,0
104649.516129032,-10000,4,1,0,15,0,0
104670.625,-45.9770114942529,4,1,0,15,0,0
104692.387096774,-10000,4,1,0,15,0,0
104713.46875,-45.8452722063037,4,1,0,15,0,0
104735.258064516,-10000,4,1,0,15,0,0
104756.3125,-45.7142857142857,4,1,0,15,0,0
104778.129032258,-10000,4,1,0,15,0,0
104799.15625,-45.5840455840456,4,1,0,15,0,0
104821,-10000,4,1,0,15,0,0
104842,-90.9090909090909,4,2,0,15,0,0
105013,-92.5925925925926,4,2,0,15,0,0
105185,-94.3396226415094,4,2,0,15,0,0
105356,-96.1538461538461,4,2,0,15,0,0
105528,-98.0392156862745,4,2,0,15,0,0
105699,-100,4,2,0,15,0,0
105871,-102.040816326531,4,2,0,15,0,0
106042,-104.166666666667,4,2,0,5,0,0
106213,-106.382978723404,4,2,0,5,0,0
106385,-1000,4,2,0,5,0,0
106471,-50,4,2,0,5,0,0
106556,-100,4,2,0,5,0,0
122671,-76.9230769230769,4,2,0,5,0,0
122756,-111.111111111111,4,2,0,5,0,0
122928,-76.9230769230769,4,2,0,5,0,0
123013,-111.111111111111,4,2,0,5,0,0
123185,-76.9230769230769,4,2,0,5,0,0
123271,-111.111111111111,4,2,0,5,0,0
123442,-76.9230769230769,4,2,0,5,0,0
123528,-100,4,2,0,5,0,0
124042,-76.9230769230769,4,2,0,5,0,0
124128,-111.111111111111,4,2,0,5,0,0
124299,-76.9230769230769,4,2,0,5,0,0
124385,-111.111111111111,4,2,0,5,0,0
124556,-76.9230769230769,4,2,0,5,0,0
124642,-111.111111111111,4,2,0,5,0,0
124813,-76.9230769230769,4,2,0,5,0,0
124899,-100,4,2,0,5,0,0
125413,-83.3333333333333,4,2,0,5,0,0
125499,-105.263157894737,4,2,0,5,0,0
125671,-83.3333333333333,4,2,0,5,0,0
125756,-105.263157894737,4,2,0,5,0,0
125928,-83.3333333333333,4,2,0,5,0,0
126013,-100,4,2,0,5,0,0
126099,-83.3333333333333,4,2,0,5,0,0
126185,-105.263157894737,4,2,0,5,0,0
126356,-83.3333333333333,4,2,0,5,0,0
126442,-105.263157894737,4,2,0,5,0,0
126613,-83.3333333333333,4,2,0,5,0,0
126699,-105.263157894737,4,2,0,5,0,0
126785,-100,4,2,0,5,0,0
128156,-40,4,2,0,5,0,0
128242,-10000,4,2,0,5,0,0
128413,-40,4,2,0,5,0,0
128499,-10000,4,2,0,5,0,0
128671,-40,4,2,0,5,0,0
129013,-10000,4,2,0,5,0,0
129185,-40,4,2,0,5,0,0
129271,-10000,4,2,0,5,0,0
129442,-40,4,2,0,5,0,0
129528,-10000,4,2,0,5,0,0
129699,-40,4,2,0,5,0,0
129785,-10000,4,2,0,5,0,0
129956,-55.5555555555556,4,2,0,5,0,0
130042,-10000,4,2,0,5,0,0
130128,-40,4,2,0,5,0,0
130213,-10000,4,2,0,5,0,0
130385,-55.5555555555556,4,2,0,5,0,0
130471,-10000,4,2,0,5,0,0
130556,-10,4,2,0,5,0,0
130599,-10000,4,2,0,5,0,0
130813,-125,4,2,0,5,0,0
130899,-40,4,2,0,5,0,0
130985,-10000,4,2,0,5,0,0
131156,-40,4,2,0,5,0,0
131242,-10000,4,2,0,5,0,0
131413,-40,4,2,0,5,0,0
131756,-10000,4,2,0,5,0,0
131928,-40,4,2,0,5,0,0
132013,-10000,4,2,0,5,0,0
132185,-55.5555555555556,4,2,0,5,0,0
132271,-10000,4,2,0,5,0,0
132356,-40,4,2,0,5,0,0
132442,-10000,4,2,0,5,0,0
132613,-40,4,2,0,5,0,0
132699,-10000,4,2,0,5,0,0
132871,-55.5555555555556,4,2,0,5,0,0
132956,-10000,4,2,0,5,0,0
133042,-100,4,2,0,5,0,0
133128,-55.5555555555556,4,2,0,5,0,0
133213,-10000,4,2,0,5,0,0
133299,-10,4,2,0,5,0,0
133342,-10000,4,2,0,5,0,0
133556,-125,4,2,0,5,0,0
133642,-40,4,2,0,5,0,0
133728,-10000,4,2,0,5,0,0
133899,-40,4,2,0,5,0,0
133985,-10000,4,2,0,5,0,0
134156,-40,4,2,0,5,0,0
134499,-10000,4,2,0,5,0,0
134671,-40,4,2,0,5,0,0
134756,-10000,4,2,0,5,0,0
134928,-40,4,2,0,5,0,0
135013,-10000,4,2,0,5,0,0
135185,-40,4,2,0,5,0,0
135271,-10000,4,2,0,5,0,0
135442,-55.5555555555556,4,2,0,5,0,0
135528,-10000,4,2,0,5,0,0
135613,-40,4,2,0,5,0,0
135699,-10000,4,2,0,5,0,0
135871,-55.5555555555556,4,2,0,5,0,0
135956,-10000,4,2,0,5,0,0
136042,-10,4,2,0,5,0,0
136085,-10000,4,2,0,5,0,0
136299,-125,4,2,0,5,0,0
136385,-40,4,2,0,5,0,0
136471,-10000,4,2,0,5,0,0
136642,-40,4,2,0,5,0,0
136728,-10000,4,2,0,5,0,0
136899,-40,4,2,0,5,0,0
137242,-10000,4,2,0,5,0,0
137413,-40,4,2,0,5,0,0
137499,-10000,4,2,0,5,0,0
137671,-55.5555555555556,4,2,0,5,0,0
137756,-10000,4,2,0,5,0,0
137842,-40,4,2,0,5,0,0
137928,-10000,4,2,0,5,0,0
138099,-76.9230769230769,4,2,0,5,0,0
138185,-100,4,2,0,5,0,0
141528,-10,4,2,0,5,0,0
141571,-10000,4,2,0,5,0,0
141785,-125,4,2,0,5,0,0
141871,-100,4,2,0,5,0,0
144271,-10,4,2,0,5,0,0
144313,-10000,4,2,0,5,0,0
144528,-125,4,2,0,5,0,0
144613,-100,4,2,0,5,0,0
147013,-10,4,2,0,5,0,0
147056,-10000,4,2,0,5,0,0
147271,-125,4,2,0,5,0,0
147356,-100,4,2,0,5,0,0
149071,-95.2380952380952,4,2,0,5,0,0
149413,-90.9090909090909,4,2,0,5,0,0
149756,-86.9565217391304,4,2,0,5,0,0
150099,-10,4,2,0,5,0,0
150142,-10000,4,2,0,5,0,0
150699,-200,4,2,0,5,0,0
153528,-100,4,2,0,5,0,0
155585,-55.5555555555556,4,1,0,15,0,0
155628,-10000,4,1,0,15,0,0
155670.71875,-55.1724137931034,4,1,0,15,0,0
155713.709677419,-10000,4,1,0,15,0,0
155756.4375,-54.7945205479452,4,1,0,15,0,0
155799.419354839,-10000,4,1,0,15,0,0
155842.15625,-54.421768707483,4,1,0,15,0,0
155885.129032258,-10000,4,1,0,15,0,0
155927.875,-54.054054054054,4,1,0,15,0,0
155970.838709677,-10000,4,1,0,15,0,0
156013.59375,-53.6912751677852,4,1,0,15,0,0
156056.548387097,-10000,4,1,0,15,0,0
156099.3125,-53.3333333333333,4,1,0,15,0,0
156142.258064516,-10000,4,1,0,15,0,0
156185.03125,-52.9801324503311,4,1,0,15,0,0
156227.967741935,-10000,4,1,0,15,0,0
156270.75,-52.6315789473684,4,1,0,15,0,0
156313.677419355,-10000,4,1,0,15,0,0
156356.46875,-52.2875816993464,4,1,0,15,0,0
156399.387096774,-10000,4,1,0,15,0,0
156442.1875,-51.9480519480519,4,1,0,15,0,0
156485.096774194,-10000,4,1,0,15,0,0
156527.90625,-51.6129032258064,4,1,0,15,0,0
156570.806451613,-10000,4,1,0,15,0,0
156613.625,-51.2820512820513,4,1,0,15,0,0
156656.516129032,-10000,4,1,0,15,0,0
156699.34375,-50.9554140127388,4,1,0,15,0,0
156742.225806452,-10000,4,1,0,15,0,0
156785.0625,-50.6329113924051,4,1,0,15,0,0
156827.935483871,-10000,4,1,0,15,0,0
156870.78125,-50.314465408805,4,1,0,15,0,0
156913.64516129,-10000,4,1,0,15,0,0
156956.5,-50,4,1,0,15,0,0
156999.35483871,-10000,4,1,0,15,0,0
157042.21875,-49.6894409937888,4,1,0,15,0,0
157085.064516129,-10000,4,1,0,15,0,0
157127.9375,-49.3827160493827,4,1,0,15,0,0
157170.774193548,-10000,4,1,0,15,0,0
157213.65625,-49.079754601227,4,1,0,15,0,0
157256.483870968,-10000,4,1,0,15,0,0
157299.375,-48.780487804878,4,1,0,15,0,0
157342.193548387,-10000,4,1,0,15,0,0
157385.09375,-48.4848484848485,4,1,0,15,0,0
157427.903225806,-10000,4,1,0,15,0,0
157470.8125,-48.1927710843373,4,1,0,15,0,0
157513.612903226,-10000,4,1,0,15,0,0
157556.53125,-47.9041916167665,4,1,0,15,0,0
157599.322580645,-10000,4,1,0,15,0,0
157642.25,-47.6190476190476,4,1,0,15,0,0
157685.032258065,-10000,4,1,0,15,0,0
157727.96875,-47.3372781065089,4,1,0,15,0,0
157770.741935484,-10000,4,1,0,15,0,0
157813.6875,-47.0588235294118,4,1,0,15,0,0
157856.451612903,-10000,4,1,0,15,0,0
157899.40625,-46.7836257309941,4,1,0,15,0,0
157942.161290323,-10000,4,1,0,15,0,0
157985.125,-46.5116279069767,4,1,0,15,0,0
158027.870967742,-10000,4,1,0,15,0,0
158070.84375,-46.242774566474,4,1,0,15,0,0
158113.580645161,-10000,4,1,0,15,0,0
158156.5625,-45.9770114942529,4,1,0,15,0,0
158199.290322581,-10000,4,1,0,15,0,0
158242.28125,-45.7142857142857,4,1,0,15,0,0
158285,-10000,4,1,0,15,0,0
158328,-90.9090909090909,4,1,0,15,0,0
158585.0625,-90.0900900900901,4,1,0,15,0,0
158756.4375,-89.2857142857143,4,1,0,15,0,0
158842.125,-88.4955752212389,4,1,0,15,0,0
158927.8125,-87.719298245614,4,1,0,15,0,0
159013.5,-86.9565217391304,4,1,0,15,0,0
159099.1875,-86.2068965517241,4,1,0,15,0,0
159184.875,-85.4700854700855,4,1,0,15,0,0
159270.5625,-84.7457627118644,4,1,0,15,0,0
159356.25,-84.0336134453781,4,1,0,15,0,0
159441.9375,-83.3333333333333,4,1,0,15,0,0
159527.625,-82.6446280991736,4,1,0,15,0,0
159613.3125,-81.9672131147541,4,1,0,15,0,0
159699,-50,4,2,0,5,0,0
159785,-200,4,2,0,5,0,0
159871,-20,4,2,0,5,0,0
159892,-10000,4,2,0,5,0,0
159956,-20,4,2,0,5,0,0
159978,-10000,4,2,0,5,0,0
160042,-20,4,2,0,5,0,0
160063,-10000,4,2,0,5,0,0
160128,-20,4,2,0,5,0,0
160149,-10000,4,2,0,5,0,0
160213,-20,4,2,0,5,0,0
160235,-10000,4,2,0,5,0,0
160299,-20,4,2,0,5,0,0
160321,-10000,4,2,0,5,0,0
160385,-20,4,2,0,5,0,0
160406,-10000,4,2,0,5,0,0
160471,-20,4,2,0,5,0,0
160492,-10000,4,2,0,5,0,0
160556,-20,4,2,0,5,0,0
160578,-10000,4,2,0,5,0,0
160642,-20,4,2,0,5,0,0
160663,-10000,4,2,0,5,0,0
160728,-33.3333333333333,4,2,0,5,0,0
160771,-10000,4,2,0,5,0,0
160985,-50,4,2,0,5,0,0
161071,-76.9230769230769,4,2,0,5,0,0
161156,-100,4,2,0,5,0,0
163642,-33.3333333333333,4,2,0,5,0,0
163663,-10000,4,2,0,5,0,0
163728,-33.3333333333333,4,2,0,5,0,0
163749,-10000,4,2,0,5,0,0
163813,-76.9230769230769,4,2,0,5,0,0
163899,-100,4,2,0,5,0,0
166042,-83.3333333333333,4,2,0,5,0,0
166213,-76.9230769230769,4,2,0,5,0,0
166385,-83.3333333333333,4,2,0,5,0,0
166471,-142.857142857143,4,2,0,5,0,0
166556,-76.9230769230769,4,2,0,5,0,0
166642,-100,4,2,0,5,0,0
172042,-76.9230769230769,4,2,0,5,0,0
172128,-100,4,2,0,5,0,0
174613,-33.3333333333333,4,2,0,5,0,0
174635,-10000,4,2,0,5,0,0
174699,-33.3333333333333,4,2,0,5,0,0
174721,-10000,4,2,0,5,0,0
174785,-76.9230769230769,4,2,0,5,0,0
174871,-100,4,2,0,5,0,0
177528,-50,4,2,0,5,0,0
177613,-125,4,2,0,5,0,0
177699,-100,4,2,0,5,0,0
178899,-50,4,2,0,5,0,0
178985,-125,4,2,0,5,0,0
179071,-100,4,2,0,5,0,0
180271,-166.666666666667,4,2,0,5,0,0
180785,-33.3333333333333,4,2,0,5,0,0
180806,-166.666666666667,4,2,0,5,0,0
180956,-33.3333333333333,4,2,0,5,0,0
180978,-166.666666666667,4,2,0,5,0,0
181042,-33.3333333333333,4,2,0,5,0,0
181063,-166.666666666667,4,2,0,5,0,0
181128,-33.3333333333333,4,2,0,5,0,0
181149,-166.666666666667,4,2,0,5,0,0
181213,-33.3333333333333,4,2,0,5,0,0
181235,-166.666666666667,4,2,0,5,0,0
181299,-133.333333333333,4,2,0,5,0,0
181471,-50,4,2,0,5,0,0
181571,-10000,4,2,0,5,0,0
181621,-50,4,2,0,5,0,0
181663,-10000,4,2,0,5,0,0
181685,-50,4,2,0,5,0,0
181706,-10000,4,2,0,5,0,0
181728,-50,4,2,0,5,0,0
181749,-10000,4,2,0,5,0,0
181771,-50,4,2,0,5,0,0
181792,-10000,4,2,0,5,0,0
181813,-111.111111111111,4,2,0,5,0,0
181985,-50,4,2,0,5,0,0
182028,-200,4,2,0,5,0,0
182156,-50,4,2,0,5,0,0
182199,-200,4,2,0,5,0,0
182328,-55.5555555555556,4,2,0,5,0,0
182371,-10000,4,2,0,5,0,0
182413,-55.5555555555556,4,2,0,5,0,0
182456,-10000,4,2,0,5,0,0
182499,-55.5555555555556,4,2,0,5,0,0
182542,-10000,4,2,0,5,0,0
182585,-55.5555555555556,4,2,0,5,0,0
182628,-10000,4,2,0,5,0,0
182671,-40,4,2,0,5,0,0
182842,-125,4,2,0,5,0,0
183013,-66.6666666666667,4,2,0,5,0,0
183099,-125,4,2,0,5,0,0
183185,-100,4,2,0,5,0,0
183356,-25,4,2,0,5,0,0
183378,-10000,4,2,0,5,0,0
183442,-25,4,2,0,5,0,0
183463,-10000,4,2,0,5,0,0
183528,-25,4,2,0,5,0,0
183549,-10000,4,2,0,5,0,0
183613,-25,4,2,0,5,0,0
183635,-10000,4,2,0,5,0,0
183699,-66.6666666666667,4,2,0,5,0,0
183785,-125,4,2,0,5,0,0
183871,-25,4,2,0,5,0,0
183892,-10000,4,2,0,5,0,0
183956,-25,4,2,0,5,0,0
183978,-10000,4,2,0,5,0,0
184042,-66.6666666666667,4,2,0,5,0,0
184128,-125,4,2,0,5,0,0
184213,-66.6666666666667,4,2,0,5,0,0
184299,-125,4,2,0,5,0,0
184385,-66.6666666666667,4,2,0,5,0,0
184471,-125,4,2,0,5,0,0
184556,-100,4,2,0,5,0,0
184728,-25,4,2,0,5,0,0
184749,-10000,4,2,0,5,0,0
184813,-25,4,2,0,5,0,0
184835,-10000,4,2,0,5,0,0
184899,-25,4,2,0,5,0,0
184921,-10000,4,2,0,5,0,0
184985,-25,4,2,0,5,0,0
185006,-10000,4,2,0,5,0,0
185071,-66.6666666666667,4,2,0,5,0,0
185156,-125,4,2,0,5,0,0
185242,-25,4,2,0,5,0,0
185263,-10000,4,2,0,5,0,0
185328,-25,4,2,0,5,0,0
185349,-10000,4,2,0,5,0,0
185413,-66.6666666666667,4,2,0,5,0,0
185499,-125,4,2,0,5,0,0
185585,-66.6666666666667,4,2,0,5,0,0
185671,-125,4,2,0,5,0,0
185756,-66.6666666666667,4,2,0,5,0,0
185842,-125,4,2,0,5,0,0
185928,-100,4,2,0,5,0,0
186442,-66.6666666666667,4,2,0,5,0,0
186528,-125,4,2,0,5,0,0
186613,-100,4,2,0,5,0,0
187128,-66.6666666666667,4,2,0,5,0,0
187213,-125,4,2,0,5,0,0
187299,-100,4,2,0,5,0,0
187813,-66.6666666666667,4,2,0,5,0,0
187899,-125,4,2,0,5,0,0
187985,-100,4,2,0,5,0,0
188499,-66.6666666666667,4,2,0,5,0,0
188585,-125,4,2,0,5,0,0
188671,-100,4,2,0,5,0,0
188842,-25,4,2,0,5,0,0
188863,-10000,4,2,0,5,0,0
188928,-25,4,2,0,5,0,0
188949,-10000,4,2,0,5,0,0
189013,-25,4,2,0,5,0,0
189035,-10000,4,2,0,5,0,0
189099,-25,4,2,0,5,0,0
189121,-10000,4,2,0,5,0,0
189185,-66.6666666666667,4,2,0,5,0,0
189271,-125,4,2,0,5,0,0
189356,-25,4,2,0,5,0,0
189378,-10000,4,2,0,5,0,0
189442,-25,4,2,0,5,0,0
189463,-10000,4,2,0,5,0,0
189528,-66.6666666666667,4,2,0,5,0,0
189613,-125,4,2,0,5,0,0
189699,-66.6666666666667,4,2,0,5,0,0
189785,-125,4,2,0,5,0,0
189871,-66.6666666666667,4,2,0,5,0,0
189956,-125,4,2,0,5,0,0
190042,-100,4,2,0,5,0,0
190213,-25,4,2,0,5,0,0
190235,-10000,4,2,0,5,0,0
190299,-25,4,2,0,5,0,0
190321,-10000,4,2,0,5,0,0
190385,-25,4,2,0,5,0,0
190406,-10000,4,2,0,5,0,0
190471,-25,4,2,0,5,0,0
190492,-10000,4,2,0,5,0,0
190556,-66.6666666666667,4,2,0,5,0,0
190642,-125,4,2,0,5,0,0
190728,-25,4,2,0,5,0,0
190749,-10000,4,2,0,5,0,0
190813,-25,4,2,0,5,0,0
190835,-10000,4,2,0,5,0,0
190899,-66.6666666666667,4,2,0,5,0,0
190985,-125,4,2,0,5,0,0
191071,-66.6666666666667,4,2,0,5,0,0
191156,-125,4,2,0,5,0,0
191242,-66.6666666666667,4,2,0,5,0,0
191328,-125,4,2,0,5,0,0
191413,-100,4,2,0,5,0,0
191499,-76.9230769230769,4,2,0,5,0,0
191585,-100,4,2,0,5,0,0
191756,-76.9230769230769,4,2,0,5,0,0
191842,-100,4,2,0,5,0,0
192013,-76.9230769230769,4,2,0,5,0,0
192099,-100,4,2,0,5,0,0
192271,-76.9230769230769,4,2,0,5,0,0
192356,-100,4,2,0,5,0,0
192613,-66.6666666666667,4,2,0,5,0,0
192699,-125,4,2,0,5,0,0
192871,-76.9230769230769,4,2,0,5,0,0
192956,-100,4,2,0,5,0,0
193128,-76.9230769230769,4,2,0,5,0,0
193213,-100,4,2,0,5,0,0
193385,-76.9230769230769,4,2,0,5,0,0
193471,-100,4,2,0,5,0,0
193642,-76.9230769230769,4,2,0,5,0,0
193728,-100,4,2,0,5,0,0
193985,-66.6666666666667,4,2,0,5,0,0
194071,-125,4,2,0,5,0,0
194156,-100,4,2,0,5,0,0
194328,-25,4,2,0,5,0,0
194349,-10000,4,2,0,5,0,0
194413,-25,4,2,0,5,0,0
194435,-10000,4,2,0,5,0,0
194499,-25,4,2,0,5,0,0
194521,-10000,4,2,0,5,0,0
194585,-25,4,2,0,5,0,0
194606,-10000,4,2,0,5,0,0
194671,-66.6666666666667,4,2,0,5,0,0
194756,-125,4,2,0,5,0,0
194842,-25,4,2,0,5,0,0
194863,-10000,4,2,0,5,0,0
194928,-25,4,2,0,5,0,0
194949,-10000,4,2,0,5,0,0
195013,-66.6666666666667,4,2,0,5,0,0
195099,-125,4,2,0,5,0,0
195185,-66.6666666666667,4,2,0,5,0,0
195271,-125,4,2,0,5,0,0
195356,-66.6666666666667,4,2,0,5,0,0
195442,-125,4,2,0,5,0,0
195528,-100,4,2,0,5,0,0
195699,-25,4,2,0,5,0,0
195721,-10000,4,2,0,5,0,0
195785,-25,4,2,0,5,0,0
195806,-10000,4,2,0,5,0,0
195871,-25,4,2,0,5,0,0
195892,-10000,4,2,0,5,0,0
195956,-25,4,2,0,5,0,0
195978,-10000,4,2,0,5,0,0
196042,-66.6666666666667,4,2,0,5,0,0
196128,-125,4,2,0,5,0,0
196213,-25,4,2,0,5,0,0
196235,-10000,4,2,0,5,0,0
196299,-25,4,2,0,5,0,0
196321,-10000,4,2,0,5,0,0
196385,-66.6666666666667,4,2,0,5,0,0
196471,-125,4,2,0,5,0,0
196556,-66.6666666666667,4,2,0,5,0,0
196642,-125,4,2,0,5,0,0
196728,-66.6666666666667,4,2,0,5,0,0
196813,-125,4,2,0,5,0,0
196899,-100,4,2,0,5,0,0
197413,-66.6666666666667,4,2,0,5,0,0
197499,-125,4,2,0,5,0,0
197585,-100,4,2,0,5,0,0
198099,-66.6666666666667,4,2,0,5,0,0
198185,-125,4,2,0,5,0,0
198271,-100,4,2,0,5,0,0
198785,-66.6666666666667,4,2,0,5,0,0
198871,-125,4,2,0,5,0,0
198956,-100,4,2,0,5,0,0
199471,-33.3333333333333,4,2,0,5,0,0
199556,-200,4,2,0,5,0,0
199813,-33.3333333333333,4,2,0,5,0,0
199899,-200,4,2,0,5,0,0
200156,-66.6666666666667,4,2,0,5,0,0
200242,-125,4,2,0,5,0,0
200328,-25,4,2,0,5,0,0
200349,-10000,4,2,0,5,0,0
200413,-25,4,2,0,5,0,0
200435,-10000,4,2,0,5,0,0
200499,-25,4,2,0,5,0,0
200521,-10000,4,2,0,5,0,0
200585,-25,4,2,0,5,0,0
200606,-10000,4,2,0,5,0,0
200671,-25,4,2,0,5,0,0
200692,-10000,4,2,0,5,0,0
200756,-25,4,2,0,5,0,0
200778,-10000,4,2,0,5,0,0
200842,-66.6666666666667,4,2,0,5,0,0
200928,-125,4,2,0,5,0,0
201013,-25,4,2,0,5,0,0
201035,-10000,4,2,0,5,0,0
201099,-25,4,2,0,5,0,0
201121,-10000,4,2,0,5,0,0
201185,-25,4,2,0,5,0,0
201206,-10000,4,2,0,5,0,0
201271,-25,4,2,0,5,0,0
201292,-10000,4,2,0,5,0,0
201356,-25,4,2,0,5,0,0
201378,-10000,4,2,0,5,0,0
201442,-25,4,2,0,5,0,0
201463,-10000,4,2,0,5,0,0
201528,-66.6666666666667,4,2,0,5,0,0
201613,-125,4,2,0,5,0,0
201699,-100,4,2,0,5,0,0
202213,-66.6666666666667,4,2,0,5,0,0
202299,-133.333333333333,4,2,0,5,0,0
202385,-100,4,2,0,5,0,0
202556,-66.6666666666667,4,2,0,5,0,0
202642,-133.333333333333,4,2,0,5,0,0
202728,-100,4,2,0,5,0,0
202899,-66.6666666666667,4,2,0,5,0,0
202985,-133.333333333333,4,2,0,5,0,0
203071,-100,4,2,0,5,0,0
203242,-66.6666666666667,4,2,0,5,0,0
203328,-133.333333333333,4,2,0,5,0,0
203413,-100,4,2,0,5,0,0
203585,-66.6666666666667,4,2,0,5,0,0
203671,-133.333333333333,4,2,0,5,0,0
203756,-100,4,2,0,5,0,0
203928,-66.6666666666667,4,2,0,5,0,0
204013,-133.333333333333,4,2,0,5,0,0
204099,-100,4,2,0,5,0,0
204271,-76.9230769230769,4,2,0,5,0,0
204613,-166.666666666667,4,2,0,5,0,0
204956,-100,4,1,0,15,0,0
205641.714285714,-101.449275362319,4,1,0,15,0,0
206327.428571429,-102.941176470588,4,1,0,15,0,0
207013.142857143,-104.477611940299,4,1,0,15,0,0
207698.857142857,-106.060606060606,4,1,0,15,0,0
208384.571428571,-107.692307692308,4,1,0,15,0,0
209070.285714286,-109.375,4,1,0,15,0,0
209756,-111.111111111111,4,1,0,15,0,0
210441.714285714,-112.903225806452,4,1,0,15,0,0
211127.428571429,-114.754098360656,4,1,0,15,0,0
211813.142857143,-116.666666666667,4,1,0,15,0,0
212498.857142857,-118.64406779661,4,1,0,15,0,0
213184.571428571,-120.689655172414,4,1,0,15,0,0
213870.285714286,-122.80701754386,4,1,0,15,0,0
214556,-125,4,1,0,15,0,0
215241.714285714,-127.272727272727,4,1,0,15,0,0
215927.428571429,-129.62962962963,4,1,0,15,0,0
216613.142857143,-132.075471698113,4,1,0,15,0,0
217298.857142857,-134.615384615385,4,1,0,15,0,0
217984.571428571,-137.254901960784,4,1,0,15,0,0
218670.285714286,-140,4,1,0,15,0,0
219356,-142.857142857143,4,1,0,15,0,0
220041.714285714,-145.833333333333,4,1,0,15,0,0
220727.428571429,-148.936170212766,4,1,0,15,0,0
221413.142857143,-152.173913043478,4,1,0,15,0,0
222098.857142857,-155.555555555556,4,1,0,15,0,0
222784.571428571,-159.090909090909,4,1,0,15,0,0
223470.285714286,-162.790697674419,4,1,0,15,0,0
224156,-166.666666666667,4,2,0,5,0,0
226899,-125,4,2,0,5,0,0
227071,-166.666666666667,4,2,0,5,0,0
237913,-142.857142857143,4,2,0,5,0,0
243378,-133.333333333333,4,2,0,5,0,0
244771,-125,4,2,0,5,0,0
246142,-117.647058823529,4,2,0,5,0,0
248156,-100,4,2,0,5,0,0
251328,-66.6666666666667,4,2,0,5,0,0
251413,-100,4,2,0,5,0,0
261185,-95.2380952380952,4,2,0,5,0,0
261871,-90.9090909090909,4,2,0,5,0,0
262556,-83.3333333333333,4,2,0,5,0,0
262642,-100,4,2,0,5,0,0
262813,-83.3333333333333,4,2,0,5,0,0
262899,-100,4,2,0,5,0,0
263071,-83.3333333333333,4,2,0,5,0,0
263156,-100,4,2,0,5,0,0
263242,-83.3333333333333,4,2,0,5,0,0
263328,-100,4,2,0,5,0,0
263499,-83.3333333333333,4,2,0,5,0,0
263585,-100,4,2,0,5,0,0
263756,-83.3333333333333,4,2,0,5,0,0
263842,-100,4,2,0,5,0,0
263928,-83.3333333333333,4,2,0,5,0,0
264013,-100,4,2,0,5,0,0
264185,-83.3333333333333,4,2,0,5,0,0
264271,-100,4,2,0,5,0,0
264442,-83.3333333333333,4,2,0,5,0,0
264528,-100,4,2,0,5,0,0
264613,-25,4,2,0,5,0,0
264635,-10000,4,2,0,5,0,0
264699,-25,4,2,0,5,0,0
264742,-10000,4,2,0,5,0,0
264871,-10,4,2,0,5,0,0
264956,-10000,4,2,0,5,0,0
265128,-62.5,4,2,0,5,0,0
265299,-80,4,2,0,5,0,0
265385,-100,4,2,0,5,0,0
265556,-80,4,2,0,5,0,0
265642,-100,4,2,0,5,0,0
265813,-80,4,2,0,5,0,0
265899,-100,4,2,0,5,0,0
265985,-80,4,2,0,5,0,0
266071,-100,4,2,0,5,0,0
266242,-80,4,2,0,5,0,0
266328,-100,4,2,0,5,0,0
266499,-80,4,2,0,5,0,0
266585,-100,4,2,0,5,0,0
266671,-80,4,2,0,5,0,0
266756,-100,4,2,0,5,0,0
266928,-80,4,2,0,5,0,0
267013,-100,4,2,0,5,0,0
267185,-80,4,2,0,5,0,0
267271,-100,4,2,0,5,0,0
267356,-25,4,2,0,5,0,0
267378,-10000,4,2,0,5,0,0
267442,-25,4,2,0,5,0,0
267485,-10000,4,2,0,5,0,0
267613,-100,4,2,0,5,0,0
267699,-66.6666666666667,4,2,0,5,0,0
267785,-133.333333333333,4,2,0,5,0,0
267871,-66.6666666666667,4,2,0,5,0,0
267956,-133.333333333333,4,2,0,5,0,0
268042,-55.5555555555556,4,1,0,15,0,0
268085,-10000,4,1,0,15,0,0
268127.71875,-55.1724137931034,4,1,0,15,0,0
268170.709677419,-10000,4,1,0,15,0,0
268213.4375,-54.7945205479452,4,1,0,15,0,0
268256.419354839,-10000,4,1,0,15,0,0
268299.15625,-54.421768707483,4,1,0,15,0,0
268342.129032258,-10000,4,1,0,15,0,0
268384.875,-54.054054054054,4,1,0,15,0,0
268427.838709677,-10000,4,1,0,15,0,0
268470.59375,-53.6912751677852,4,1,0,15,0,0
268513.548387097,-10000,4,1,0,15,0,0
268556.3125,-53.3333333333333,4,1,0,15,0,0
268599.258064516,-10000,4,1,0,15,0,0
268642.03125,-52.9801324503311,4,1,0,15,0,0
268684.967741935,-10000,4,1,0,15,0,0
268727.75,-52.6315789473684,4,1,0,15,0,0
268770.677419355,-10000,4,1,0,15,0,0
268813.46875,-52.2875816993464,4,1,0,15,0,0
268856.387096774,-10000,4,1,0,15,0,0
268899.1875,-51.9480519480519,4,1,0,15,0,0
268942.096774194,-10000,4,1,0,15,0,0
268984.90625,-51.6129032258064,4,1,0,15,0,0
269027.806451613,-10000,4,1,0,15,0,0
269070.625,-51.2820512820513,4,1,0,15,0,0
269113.516129032,-10000,4,1,0,15,0,0
269156.34375,-50.9554140127388,4,1,0,15,0,0
269199.225806452,-10000,4,1,0,15,0,0
269242.0625,-50.6329113924051,4,1,0,15,0,0
269284.935483871,-10000,4,1,0,15,0,0
269327.78125,-50.314465408805,4,1,0,15,0,0
269370.64516129,-10000,4,1,0,15,0,0
269413.5,-50,4,1,0,15,0,0
269456.35483871,-10000,4,1,0,15,0,0
269499.21875,-49.6894409937888,4,1,0,15,0,0
269542.064516129,-10000,4,1,0,15,0,0
269584.9375,-49.3827160493827,4,1,0,15,0,0
269627.774193548,-10000,4,1,0,15,0,0
269670.65625,-49.079754601227,4,1,0,15,0,0
269713.483870968,-10000,4,1,0,15,0,0
269756.375,-48.780487804878,4,1,0,15,0,0
269799.193548387,-10000,4,1,0,15,0,0
269842.09375,-48.4848484848485,4,1,0,15,0,0
269884.903225806,-10000,4,1,0,15,0,0
269927.8125,-48.1927710843373,4,1,0,15,0,0
269970.612903226,-10000,4,1,0,15,0,0
270013.53125,-47.9041916167665,4,1,0,15,0,0
270056.322580645,-10000,4,1,0,15,0,0
270099.25,-47.6190476190476,4,1,0,15,0,0
270142.032258065,-10000,4,1,0,15,0,0
270184.96875,-47.3372781065089,4,1,0,15,0,0
270227.741935484,-10000,4,1,0,15,0,0
270270.6875,-47.0588235294118,4,1,0,15,0,0
270313.451612903,-10000,4,1,0,15,0,0
270356.40625,-46.7836257309941,4,1,0,15,0,0
270399.161290323,-10000,4,1,0,15,0,0
270442.125,-46.5116279069767,4,1,0,15,0,0
270484.870967742,-10000,4,1,0,15,0,0
270527.84375,-46.242774566474,4,1,0,15,0,0
270570.580645161,-10000,4,1,0,15,0,0
270613.5625,-45.9770114942529,4,1,0,15,0,0
270656.290322581,-10000,4,1,0,15,0,0
270699.28125,-45.7142857142857,4,1,0,15,0,0
270742,-10000,4,1,0,15,0,0
270785,-90.9090909090909,4,2,0,5,0,0
271128,-88.4955752212389,4,2,0,5,0,0
271471,-86.9565217391304,4,2,0,5,0,0
271813,-84.7457627118644,4,2,0,5,0,0
272156,-111.111111111111,4,2,0,5,0,0
272499,-105.263157894737,4,2,0,5,0,0
272671,-100,4,2,0,5,0,0
272842,-95.2380952380952,4,2,0,5,0,0
273013,-90.9090909090909,4,2,0,5,0,0
273185,-83.3333333333333,4,2,0,5,0,0
273528,-66.6666666666667,4,2,0,5,0,0
273613,-100,4,2,0,5,0,0
282956,-10,4,2,0,5,0,0
282978,-10000,4,2,0,5,0,0
283278,-10,4,2,0,5,0,0
283299,-10000,4,2,0,5,0,0
283535,-10,4,2,0,5,0,0
283556,-10000,4,2,0,5,0,0
283792,-10,4,2,0,5,0,0
283813,-10000,4,2,0,5,0,0
284049,-10,4,2,0,5,0,0
284071,-10000,4,2,0,5,0,0
284306,-10,4,2,0,5,0,0
284328,-76.9230769230769,4,2,0,5,0,0
284413,-125,4,2,0,5,0,0
284499,-66.6666666666667,4,2,0,5,0,0
284585,-100,4,2,0,5,0,0
294099,-52.6315789473684,4,1,0,15,0,0
294121,-10000,4,1,0,15,0,0
294141.875,-52.2875816993464,4,1,0,15,0,0
294163.826086957,-10000,4,1,0,15,0,0
294184.75,-51.948051948052,4,1,0,15,0,0
294206.652173913,-10000,4,1,0,15,0,0
294227.625,-51.6129032258064,4,1,0,15,0,0
294249.47826087,-10000,4,1,0,15,0,0
294270.5,-51.2820512820513,4,1,0,15,0,0
294292.304347826,-10000,4,1,0,15,0,0
294313.375,-50.9554140127389,4,1,0,15,0,0
294335.130434783,-10000,4,1,0,15,0,0
294356.25,-50.6329113924051,4,1,0,15,0,0
294377.956521739,-10000,4,1,0,15,0,0
294399.125,-50.314465408805,4,1,0,15,0,0
294420.782608696,-10000,4,1,0,15,0,0
294442,-50,4,1,0,15,0,0
294463.608695652,-10000,4,1,0,15,0,0
294484.875,-49.6894409937888,4,1,0,15,0,0
294506.434782609,-10000,4,1,0,15,0,0
294527.75,-49.3827160493827,4,1,0,15,0,0
294549.260869565,-10000,4,1,0,15,0,0
294570.625,-49.079754601227,4,1,0,15,0,0
294592.086956522,-10000,4,1,0,15,0,0
294613.5,-48.780487804878,4,1,0,15,0,0
294634.913043478,-10000,4,1,0,15,0,0
294656.375,-48.4848484848485,4,1,0,15,0,0
294677.739130435,-10000,4,1,0,15,0,0
294699.25,-48.1927710843373,4,1,0,15,0,0
294720.565217391,-10000,4,1,0,15,0,0
294742.125,-47.9041916167665,4,1,0,15,0,0
294763.391304348,-10000,4,1,0,15,0,0
294785,-47.6190476190476,4,1,0,15,0,0
294806.217391304,-10000,4,1,0,15,0,0
294827.875,-47.3372781065089,4,1,0,15,0,0
294849.043478261,-10000,4,1,0,15,0,0
294870.75,-47.0588235294118,4,1,0,15,0,0
294891.869565217,-10000,4,1,0,15,0,0
294913.625,-46.7836257309941,4,1,0,15,0,0
294934.695652174,-10000,4,1,0,15,0,0
294956.5,-46.5116279069767,4,1,0,15,0,0
294977.52173913,-10000,4,1,0,15,0,0
294999.375,-46.242774566474,4,1,0,15,0,0
295020.347826087,-10000,4,1,0,15,0,0
295042.25,-45.9770114942529,4,1,0,15,0,0
295063.173913043,-10000,4,1,0,15,0,0
295085.125,-45.7142857142857,4,1,0,15,0,0
295106,-10000,4,1,0,15,0,0
295128,-45.4545454545455,4,1,0,15,0,0
295213,-50,4,2,0,5,0,0
295299,-166.666666666667,4,2,0,5,0,0
295471,-40,4,2,0,5,0,0
295513,-10000,4,2,0,5,0,0
295728,-55.5555555555556,4,2,0,5,0,0
295813,-66.6666666666667,4,2,0,5,0,0
295899,-100,4,2,0,5,0,0
300956,-50,4,2,0,5,0,0
300999,-125,4,2,0,5,0,0
301128,-50,4,2,0,5,0,0
301171,-125,4,2,0,5,0,0
301299,-100,4,2,0,5,0,0
303699,-10000,4,2,0,5,0,0
303935,-10,4,2,0,5,0,0
304042,-10000,4,2,0,5,0,0
304363,-10,4,2,0,5,0,0
304385,-10000,4,2,0,5,0,0
304621,-10,4,2,0,5,0,0
304642,-10000,4,2,0,5,0,0
304813,-20,4,2,0,5,0,0
304835,-10000,4,2,0,5,0,0
304985,-20,4,2,0,5,0,0
305006,-10000,4,2,0,5,0,0
305071,-166.666666666667,4,2,0,5,0,0
305242,-10000,4,2,0,5,0,0
305478,-10,4,2,0,5,0,0
305499,-10000,4,2,0,5,0,0
305735,-10,4,2,0,5,0,0
305756,-10000,4,2,0,5,0,0
305992,-10,4,2,0,5,0,0
306013,-100,4,2,0,5,0,0
306099,-66.6666666666667,4,2,0,5,0,0
306271,-166.666666666667,4,2,0,5,0,0
306442,-100,4,2,0,5,0,0
308842,-142.857142857143,4,2,0,5,0,0
309185,-100,4,2,0,5,0,0
311585,-50,4,2,0,5,0,0
311628,-10000,4,2,0,5,0,0
311671,-50,4,2,0,5,0,0
311713,-10000,4,2,0,5,0,0
311756,-50,4,2,0,5,0,0
311799,-10000,4,2,0,5,0,0
311842,-50,4,2,0,5,0,0
311885,-10000,4,2,0,5,0,0
311928,-100,4,2,0,5,0,0
312956,-50,4,2,0,5,0,0
312999,-10000,4,2,0,5,0,0
313042,-50,4,2,0,5,0,0
313085,-10000,4,2,0,5,0,0
313128,-50,4,2,0,5,0,0
313171,-10000,4,2,0,5,0,0
313213,-50,4,2,0,5,0,0
313256,-10000,4,2,0,5,0,0
313299,-100,4,2,0,5,0,0
314328,-125,4,2,0,5,0,0
314671,-100,4,2,0,5,0,0
315013,-95.2380952380952,4,2,0,5,0,0
315356,-90.9090909090909,4,2,0,5,0,0
315699,-86.9565217391304,4,2,0,5,0,0
316042,-111.111111111111,4,2,0,5,0,0
316385,-105.263157894737,4,2,0,5,0,0
316728,-100,4,2,0,5,0,0
316899,-95.2380952380952,4,2,0,5,0,0
317071,-90.9090909090909,4,2,0,5,0,0
317242,-86.9565217391304,4,2,0,5,0,0
317413,-76.9230769230769,4,2,0,5,0,0
317499,-100,4,2,0,5,0,0
317671,-76.9230769230769,4,2,0,5,0,0
317756,-100,4,2,0,5,0,0
317928,-76.9230769230769,4,2,0,5,0,0
318013,-100,4,2,0,5,0,0
318442,-76.9230769230769,4,2,0,5,0,0
318528,-100,4,2,0,5,0,0
318699,-76.9230769230769,4,2,0,5,0,0
318785,-100,4,2,0,5,0,0
318956,-76.9230769230769,4,2,0,5,0,0
319042,-100,4,2,0,5,0,0
319213,-76.9230769230769,4,2,0,5,0,0
319299,-100,4,2,0,5,0,0
319385,-76.9230769230769,4,2,0,5,0,0
319471,-100,4,2,0,5,0,0
319642,-76.9230769230769,4,2,0,5,0,0
319728,-100,4,2,0,5,0,0
319813,-25,4,2,0,5,0,0
319835,-10000,4,2,0,5,0,0
319899,-25,4,2,0,5,0,0
319921,-10000,4,2,0,5,0,0
319985,-25,4,2,0,5,0,0
320006,-10000,4,2,0,5,0,0
320071,-25,4,2,0,5,0,0
320092,-10000,4,2,0,5,0,0
320156,-76.9230769230769,4,2,0,5,0,0
320242,-100,4,2,0,5,0,0
320413,-76.9230769230769,4,2,0,5,0,0
320499,-100,4,2,0,5,0,0
320671,-76.9230769230769,4,2,0,5,0,0
320756,-100,4,2,0,5,0,0
321185,-76.9230769230769,4,2,0,5,0,0
321271,-100,4,2,0,5,0,0
321442,-76.9230769230769,4,2,0,5,0,0
321528,-100,4,2,0,5,0,0
321613,-76.9230769230769,4,2,0,5,0,0
321699,-100,4,2,0,5,0,0
321871,-76.9230769230769,4,2,0,5,0,0
321956,-100,4,2,0,5,0,0
322128,-76.9230769230769,4,2,0,5,0,0
322213,-100,4,2,0,5,0,0
322385,-76.9230769230769,4,2,0,5,0,0
322471,-100,4,2,0,5,0,0
322556,-25,4,2,0,5,0,0
322578,-10000,4,2,0,5,0,0
322642,-25,4,2,0,5,0,0
322663,-10000,4,2,0,5,0,0
322728,-25,4,2,0,5,0,0
322749,-10000,4,2,0,5,0,0
322813,-25,4,2,0,5,0,0
322835,-10000,4,2,0,5,0,0
322899,-76.9230769230769,4,2,0,5,0,0
322985,-100,4,2,0,5,0,0
323156,-76.9230769230769,4,2,0,5,0,0
323242,-100,4,2,0,5,0,0
323413,-76.9230769230769,4,2,0,5,0,0
323499,-100,4,2,0,5,0,0
323928,-76.9230769230769,4,2,0,5,0,0
324013,-100,4,2,0,5,0,0
324185,-76.9230769230769,4,2,0,5,0,0
324271,-100,4,2,0,5,0,0
324442,-76.9230769230769,4,2,0,5,0,0
324528,-100,4,2,0,5,0,0
324699,-76.9230769230769,4,2,0,5,0,0
324785,-100,4,2,0,5,0,0
324871,-76.9230769230769,4,2,0,5,0,0
324956,-100,4,2,0,5,0,0
325128,-76.9230769230769,4,2,0,5,0,0
325213,-100,4,2,0,5,0,0
325299,-25,4,2,0,5,0,0
325321,-10000,4,2,0,5,0,0
325385,-25,4,2,0,5,0,0
325406,-10000,4,2,0,5,0,0
325471,-25,4,2,0,5,0,0
325492,-10000,4,2,0,5,0,0
325556,-25,4,2,0,5,0,0
325578,-10000,4,2,0,5,0,0
325642,-76.9230769230769,4,2,0,5,0,0
325728,-100,4,2,0,5,0,0
325899,-76.9230769230769,4,2,0,5,0,0
325985,-100,4,2,0,5,0,0
326156,-76.9230769230769,4,2,0,5,0,0
326242,-100,4,2,0,5,0,0
326671,-76.9230769230769,4,2,0,5,0,0
326756,-100,4,2,0,5,0,0
326928,-76.9230769230769,4,2,0,5,0,0
327013,-100,4,2,0,5,0,0
327099,-76.9230769230769,4,2,0,5,0,0
327185,-100,4,2,0,5,0,0
327356,-76.9230769230769,4,2,0,5,0,0
327442,-100,4,2,0,5,0,0
328042,-76.9230769230769,4,2,0,5,0,0
328128,-100,4,2,0,5,0,0
337985,-95.2380952380952,4,2,0,5,0,0
338071,-94.3396226415094,4,2,0,5,0,0
338156,-93.4579439252336,4,2,0,5,0,0
338242,-92.5925925925926,4,2,0,5,0,0
338328,-91.743119266055,4,2,0,5,0,0
338413,-90.9090909090909,4,2,0,5,0,0
338499,-90.0900900900901,4,2,0,5,0,0
338585,-89.2857142857143,4,2,0,5,0,0
338671,-88.4955752212389,4,2,0,5,0,0
338756,-87.719298245614,4,2,0,5,0,0
338842,-86.9565217391304,4,2,0,5,0,0
338928,-86.2068965517241,4,2,0,5,0,0
339013,-85.4700854700855,4,2,0,5,0,0
339099,-84.7457627118644,4,2,0,5,0,0
339185,-84.0336134453781,4,2,0,5,0,0
339271,-83.3333333333333,4,2,0,5,0,0
339356,-100,4,2,0,5,0,0

[HitObjects]
36,192,7470,5,0,0:0:0:0:
182,192,7642,1,0,0:0:0:0:
256,192,7813,1,0,0:0:0:0:
475,192,7985,1,0,0:0:0:0:
36,192,10213,1,0,0:0:0:0:
182,192,10385,1,0,0:0:0:0:
329,192,10556,1,0,0:0:0:0:
402,192,10728,1,0,0:0:0:0:
36,192,12956,1,0,0:0:0:0:
182,192,13128,1,0,0:0:0:0:
256,192,13299,1,0,0:0:0:0:
475,192,13471,1,0,0:0:0:0:
36,192,15699,1,0,0:0:0:0:
182,192,15871,1,0,0:0:0:0:
329,192,16042,1,0,0:0:0:0:
402,192,16213,1,0,0:0:0:0:
36,192,18442,1,0,0:0:0:0:
329,192,18442,1,0,0:0:0:0:
475,192,18442,1,0,0:0:0:0:
182,192,18613,1,0,0:0:0:0:
256,192,18785,1,0,0:0:0:0:
402,192,18956,1,0,0:0:0:0:
182,192,19471,1,0,0:0:0:0:
475,192,19642,1,0,0:0:0:0:
329,192,19985,1,0,0:0:0:0:
182,192,20328,1,0,0:0:0:0:
402,192,20499,1,0,0:0:0:0:
36,192,20671,1,0,0:0:0:0:
182,192,20842,1,0,0:0:0:0:
402,192,21013,1,0,0:0:0:0:
109,192,21013,1,0,0:0:0:0:
329,192,21356,1,0,0:0:0:0:
402,192,21528,1,0,0:0:0:0:
475,192,21699,1,0,0:0:0:0:
182,192,22385,1,0,0:0:0:0:
256,192,22471,1,0,0:0:0:0:
329,192,22556,1,0,0:0:0:0:
256,192,22728,1,0,0:0:0:0:
182,192,23071,1,0,0:0:0:0:
256,192,23413,1,0,0:0:0:0:
329,192,23585,1,0,0:0:0:0:
475,192,23928,1,0,0:0:0:0:
182,192,23928,1,0,0:0:0:0:
36,192,23928,1,0,0:0:0:0:
329,192,24442,1,0,0:0:0:0:
182,192,24785,1,0,0:0:0:0:
36,192,24956,1,0,0:0:0:0:
329,192,25128,1,0,0:0:0:0:
475,192,25128,1,0,0:0:0:0:
182,192,25128,1,0,0:0:0:0:
256,192,25813,1,0,0:0:0:0:
329,192,26156,1,0,0:0:0:0:
402,192,26328,1,0,0:0:0:0:
36,192,26671,1,0,0:0:0:0:
109,192,26671,1,0,0:0:0:0:
256,192,26671,1,0,0:0:0:0:
475,192,26671,1,0,0:0:0:0:
329,192,27185,1,0,0:0:0:0:
182,192,27528,1,0,0:0:0:0:
109,192,27699,1,0,0:0:0:0:
256,192,27871,1,0,0:0:0:0:
402,192,27871,1,0,0:0:0:0:
475,192,27871,1,0,0:0:0:0:
329,192,28556,1,0,0:0:0:0:
402,192,28899,1,0,0:0:0:0:
36,192,28899,1,0,0:0:0:0:
329,192,29071,1,0,0:0:0:0:
182,192,29071,1,0,0:0:0:0:
109,192,29242,1,0,0:0:0:0:
36,192,29413,1,0,0:0:0:0:
256,192,29413,1,0,0:0:0:0:
475,192,29413,1,0,0:0:0:0:
329,192,29585,1,0,0:0:0:0:
402,192,29756,1,0,0:0:0:0:
475,192,29928,1,0,0:0:0:0:
182,192,30442,1,0,0:0:0:0:
402,192,30613,1,0,0:0:0:0:
329,192,30956,1,0,0:0:0:0:
182,192,31299,1,0,0:0:0:0:
402,192,31471,1,0,0:0:0:0:
36,192,31642,1,0,0:0:0:0:
182,192,31813,1,0,0:0:0:0:
109,192,31985,1,0,0:0:0:0:
402,192,31985,1,0,0:0:0:0:
256,192,32328,1,0,0:0:0:0:
402,192,32499,1,0,0:0:0:0:
475,192,32671,1,0,0:0:0:0:
182,192,33356,1,0,0:0:0:0:
256,192,33442,1,0,0:0:0:0:
329,192,33528,1,0,0:0:0:0:
256,192,33699,1,0,0:0:0:0:
182,192,34042,1,0,0:0:0:0:
256,192,34385,1,0,0:0:0:0:
329,192,34556,1,0,0:0:0:0:
402,192,34899,1,0,0:0:0:0:
256,192,34899,1,0,0:0:0:0:
36,192,34899,1,0,0:0:0:0:
475,192,35413,1,0,0:0:0:0:
329,192,35756,1,0,0:0:0:0:
109,192,35928,1,0,0:0:0:0:
36,192,36099,1,0,0:0:0:0:
256,192,36099,1,0,0:0:0:0:
402,192,36099,1,0,0:0:0:0:
182,192,36785,1,0,0:0:0:0:
256,192,37128,1,0,0:0:0:0:
329,192,37299,1,0,0:0:0:0:
182,192,37471,1,0,0:0:0:0:
475,192,37642,1,0,0:0:0:0:
36,192,37642,1,0,0:0:0:0:
329,192,37728,1,0,0:0:0:0:
182,192,37813,1,0,0:0:0:0:
402,192,37899,1,0,0:0:0:0:
182,192,37985,1,0,0:0:0:0:
329,192,38071,1,0,0:0:0:0:
402,192,38156,1,0,0:0:0:0:
182,192,38242,1,0,0:0:0:0:
329,192,38328,1,0,0:0:0:0:
256,192,38413,1,0,0:0:0:0:
182,192,38499,1,0,0:0:0:0:
402,192,38585,1,0,0:0:0:0:
329,192,38671,1,0,0:0:0:0:
182,192,38756,1,0,0:0:0:0:
36,192,38842,1,0,0:0:0:0:
475,192,38842,1,0,0:0:0:0:
329,192,38928,1,0,0:0:0:0:
402,192,39013,1,0,0:0:0:0:
182,192,39099,1,0,0:0:0:0:
329,192,39185,1,0,0:0:0:0:
109,192,39271,1,0,0:0:0:0:
182,192,39356,1,0,0:0:0:0:
329,192,39442,1,0,0:0:0:0:
109,192,39528,1,0,0:0:0:0:
182,192,39613,1,0,0:0:0:0:
329,192,39699,1,0,0:0:0:0:
109,192,39785,1,0,0:0:0:0:
182,192,39871,1,0,0:0:0:0:
329,192,39956,1,0,0:0:0:0:
402,192,40042,1,0,0:0:0:0:
256,192,40128,1,0,0:0:0:0:
475,192,40213,1,0,0:0:0:0:
329,192,40299,1,0,0:0:0:0:
36,192,40385,1,0,0:0:0:0:
256,192,40385,1,0,0:0:0:0:
402,192,40385,1,0,0:0:0:0:
182,192,40385,1,0,0:0:0:0:
475,192,40385,1,0,0:0:0:0:
109,192,40556,1,0,0:0:0:0:
182,192,40728,1,0,0:0:0:0:
256,192,40899,1,0,0:0:0:0:
36,192,41071,128,0,41156:0:0:0:0:
109,192,41071,128,0,41156:0:0:0:0:
329,192,41071,128,0,41156:0:0:0:0:
475,192,41071,128,0,41156:0:0:0:0:
182,192,41242,1,0,0:0:0:0:
36,192,41413,1,0,0:0:0:0:
256,192,41413,1,0,0:0:0:0:
402,192,41413,1,0,0:0:0:0:
402,192,41585,1,0,0:0:0:0:
256,192,41585,1,0,0:0:0:0:
36,192,41585,1,0,0:0:0:0:
182,192,41756,1,0,0:0:0:0:
256,192,41928,1,0,0:0:0:0:
109,192,42099,1,0,0:0:0:0:
475,192,42099,1,0,0:0:0:0:
329,192,42099,1,0,0:0:0:0:
109,192,42271,1,0,0:0:0:0:
329,192,42271,1,0,0:0:0:0:
475,192,42271,1,0,0:0:0:0:
256,192,42442,1,0,0:0:0:0:
36,192,42613,1,0,0:0:0:0:
182,192,42613,1,0,0:0:0:0:
402,192,42613,1,0,0:0:0:0:
256,192,42785,1,0,0:0:0:0:
329,192,42956,1,0,0:0:0:0:
402,192,43128,1,0,0:0:0:0:
36,192,43128,1,0,0:0:0:0:
182,192,43128,1,0,0:0:0:0:
36,192,43299,1,0,0:0:0:0:
182,192,43299,1,0,0:0:0:0:
402,192,43299,1,0,0:0:0:0:
256,192,43471,1,0,0:0:0:0:
329,192,43642,1,0,0:0:0:0:
36,192,43813,128,0,43899:0:0:0:0:
182,192,43813,128,0,43899:0:0:0:0:
402,192,43813,128,0,43899:0:0:0:0:
475,192,43813,128,0,43899:0:0:0:0:
256,192,43985,1,0,0:0:0:0:
109,192,44156,1,0,0:0:0:0:
329,192,44156,1,0,0:0:0:0:
475,192,44156,1,0,0:0:0:0:
109,192,44328,1,0,0:0:0:0:
329,192,44328,1,0,0:0:0:0:
475,192,44328,1,0,0:0:0:0:
256,192,44499,1,0,0:0:0:0:
329,192,44671,1,0,0:0:0:0:
36,192,44842,1,0,0:0:0:0:
182,192,44842,1,0,0:0:0:0:
402,192,44842,1,0,0:0:0:0:
182,192,45013,1,0,0:0:0:0:
36,192,45013,1,0,0:0:0:0:
402,192,45013,1,0,0:0:0:0:
256,192,45185,1,0,0:0:0:0:
36,192,45356,1,0,0:0:0:0:
329,192,45356,1,0,0:0:0:0:
475,192,45356,1,0,0:0:0:0:
109,192,45528,1,0,0:0:0:0:
182,192,45699,1,0,0:0:0:0:
475,192,45699,1,0,0:0:0:0:
402,192,45785,1,0,0:0:0:0:
256,192,45871,1,0,0:0:0:0:
329,192,45871,1,0,0:0:0:0:
36,192,45871,1,0,0:0:0:0:
36,192,46042,1,0,0:0:0:0:
256,192,46042,1,0,0:0:0:0:
329,192,46042,1,0,0:0:0:0:
402,192,46213,1,0,0:0:0:0:
475,192,46385,1,0,0:0:0:0:
36,192,46556,128,0,46642:0:0:0:0:
109,192,46556,128,0,46642:0:0:0:0:
256,192,46556,128,0,46642:0:0:0:0:
402,192,46556,128,0,46642:0:0:0:0:
329,192,46728,1,0,0:0:0:0:
109,192,46899,1,0,0:0:0:0:
256,192,46899,1,0,0:0:0:0:
475,192,46899,1,0,0:0:0:0:
109,192,47071,1,0,0:0:0:0:
256,192,47071,1,0,0:0:0:0:
475,192,47071,1,0,0:0:0:0:
329,192,47242,1,0,0:0:0:0:
402,192,47413,1,0,0:0:0:0:
36,192,47585,1,0,0:0:0:0:
182,192,47585,1,0,0:0:0:0:
329,192,47585,1,0,0:0:0:0:
36,192,47756,1,0,0:0:0:0:
182,192,47756,1,0,0:0:0:0:
329,192,47756,1,0,0:0:0:0:
402,192,47928,1,0,0:0:0:0:
109,192,48099,1,0,0:0:0:0:
256,192,48099,1,0,0:0:0:0:
475,192,48099,1,0,0:0:0:0:
329,192,48271,1,0,0:0:0:0:
402,192,48442,1,0,0:0:0:0:
36,192,48613,1,0,0:0:0:0:
182,192,48613,1,0,0:0:0:0:
475,192,48613,1,0,0:0:0:0:
182,192,48785,1,0,0:0:0:0:
475,192,48785,1,0,0:0:0:0:
36,192,48785,1,0,0:0:0:0:
256,192,48956,1,0,0:0:0:0:
329,192,49128,1,0,0:0:0:0:
36,192,49299,128,0,49385:0:0:0:0:
256,192,49299,128,0,49385:0:0:0:0:
402,192,49299,128,0,49385:0:0:0:0:
475,192,49299,128,0,49385:0:0:0:0:
109,192,49471,1,0,0:0:0:0:
182,192,49642,1,0,0:0:0:0:
329,192,49642,1,0,0:0:0:0:
475,192,49642,1,0,0:0:0:0:
182,192,49813,1,0,0:0:0:0:
329,192,49813,1,0,0:0:0:0:
475,192,49813,1,0,0:0:0:0:
36,192,49985,1,0,0:0:0:0:
109,192,50156,1,0,0:0:0:0:
182,192,50328,1,0,0:0:0:0:
329,192,50328,1,0,0:0:0:0:
475,192,50328,1,0,0:0:0:0:
182,192,50499,1,0,0:0:0:0:
329,192,50499,1,0,0:0:0:0:
475,192,50499,1,0,0:0:0:0:
36,192,50671,1,0,0:0:0:0:
109,192,50842,1,0,0:0:0:0:
256,192,50842,1,0,0:0:0:0:
402,192,50842,1,0,0:0:0:0:
475,192,51013,1,0,0:0:0:0:
182,192,51185,1,0,0:0:0:0:
329,192,51185,1,0,0:0:0:0:
36,192,51356,1,0,0:0:0:0:
109,192,51356,1,0,0:0:0:0:
256,192,51356,1,0,0:0:0:0:
36,192,51528,1,0,0:0:0:0:
109,192,51528,1,0,0:0:0:0:
256,192,51528,1,0,0:0:0:0:
329,192,51699,1,0,0:0:0:0:
402,192,51871,1,0,0:0:0:0:
36,192,52042,128,0,52128:0:0:0:0:
109,192,52042,128,0,52128:0:0:0:0:
256,192,52042,128,0,52128:0:0:0:0:
329,192,52042,128,0,52128:0:0:0:0:
402,192,52213,1,0,0:0:0:0:
36,192,52385,1,0,0:0:0:0:
256,192,52385,1,0,0:0:0:0:
475,192,52385,1,0,0:0:0:0:
475,192,52556,1,0,0:0:0:0:
256,192,52556,1,0,0:0:0:0:
36,192,52556,1,0,0:0:0:0:
109,192,52728,1,0,0:0:0:0:
182,192,52899,1,0,0:0:0:0:
256,192,53071,1,0,0:0:0:0:
402,192,53071,1,0,0:0:0:0:
475,192,53071,1,0,0:0:0:0:
256,192,53242,1,0,0:0:0:0:
402,192,53242,1,0,0:0:0:0:
475,192,53242,1,0,0:0:0:0:
109,192,53413,1,0,0:0:0:0:
182,192,53585,1,0,0:0:0:0:
329,192,53585,1,0,0:0:0:0:
475,192,53585,1,0,0:0:0:0:
256,192,53756,1,0,0:0:0:0:
329,192,53928,1,0,0:0:0:0:
36,192,54099,1,0,0:0:0:0:
475,192,54099,1,0,0:0:0:0:
256,192,54099,1,0,0:0:0:0:
475,192,54271,1,0,0:0:0:0:
256,192,54271,1,0,0:0:0:0:
36,192,54271,1,0,0:0:0:0:
329,192,54442,1,0,0:0:0:0:
182,192,54442,1,0,0:0:0:0:
402,192,54613,1,0,0:0:0:0:
36,192,54785,128,0,54871:0:0:0:0:
182,192,54785,128,0,54871:0:0:0:0:
329,192,54785,128,0,54871:0:0:0:0:
475,192,54785,128,0,54871:0:0:0:0:
402,192,54956,1,0,0:0:0:0:
36,192,55128,1,0,0:0:0:0:
256,192,55128,1,0,0:0:0:0:
475,192,55128,1,0,0:0:0:0:
36,192,55299,1,0,0:0:0:0:
256,192,55299,1,0,0:0:0:0:
475,192,55299,1,0,0:0:0:0:
329,192,55471,1,0,0:0:0:0:
109,192,55471,1,0,0:0:0:0:
402,192,55642,1,0,0:0:0:0:
36,192,55813,1,0,0:0:0:0:
182,192,55813,1,0,0:0:0:0:
329,192,55813,1,0,0:0:0:0:
36,192,55985,1,0,0:0:0:0:
182,192,55985,1,0,0:0:0:0:
329,192,55985,1,0,0:0:0:0:
109,192,56156,1,0,0:0:0:0:
256,192,56156,1,0,0:0:0:0:
475,192,56328,1,0,0:0:0:0:
329,192,56328,1,0,0:0:0:0:
182,192,56328,1,0,0:0:0:0:
256,192,56499,1,0,0:0:0:0:
36,192,56499,1,0,0:0:0:0:
109,192,56671,1,0,0:0:0:0:
182,192,56842,1,0,0:0:0:0:
256,192,56842,1,0,0:0:0:0:
402,192,56842,1,0,0:0:0:0:
256,192,57013,1,0,0:0:0:0:
182,192,57013,1,0,0:0:0:0:
402,192,57013,1,0,0:0:0:0:
329,192,57185,1,0,0:0:0:0:
36,192,57185,1,0,0:0:0:0:
475,192,57356,1,0,0:0:0:0:
182,192,57356,1,0,0:0:0:0:
109,192,57528,128,0,57613:0:0:0:0:
256,192,57528,128,0,57613:0:0:0:0:
329,192,57528,128,0,57613:0:0:0:0:
475,192,57528,128,0,57613:0:0:0:0:
182,192,57699,1,0,0:0:0:0:
36,192,57871,1,0,0:0:0:0:
329,192,57871,1,0,0:0:0:0:
475,192,57871,1,0,0:0:0:0:
36,192,58042,1,0,0:0:0:0:
329,192,58042,1,0,0:0:0:0:
475,192,58042,1,0,0:0:0:0:
182,192,58213,1,0,0:0:0:0:
109,192,58213,1,0,0:0:0:0:
402,192,58213,1,0,0:0:0:0:
256,192,58385,1,0,0:0:0:0:
329,192,58556,1,0,0:0:0:0:
475,192,58556,1,0,0:0:0:0:
109,192,58556,1,0,0:0:0:0:
109,192,58728,1,0,0:0:0:0:
329,192,58728,1,0,0:0:0:0:
475,192,58728,1,0,0:0:0:0:
36,192,58899,1,0,0:0:0:0:
182,192,58899,1,0,0:0:0:0:
256,192,59071,1,0,0:0:0:0:
475,192,59071,1,0,0:0:0:0:
402,192,59071,1,0,0:0:0:0:
109,192,59242,1,0,0:0:0:0:
329,192,59242,1,0,0:0:0:0:
36,192,59242,1,0,0:0:0:0:
402,192,59413,1,0,0:0:0:0:
36,192,59585,1,0,0:0:0:0:
182,192,59585,1,0,0:0:0:0:
256,192,59585,1,0,0:0:0:0:
475,192,59585,1,0,0:0:0:0:
329,192,59756,1,0,0:0:0:0:
36,192,59928,1,0,0:0:0:0:
182,192,59928,1,0,0:0:0:0:
402,192,59928,1,0,0:0:0:0:
256,192,60099,1,0,0:0:0:0:
36,192,60271,128,0,60356:0:0:0:0:
109,192,60271,128,0,60356:0:0:0:0:
329,192,60271,128,0,60356:0:0:0:0:
475,192,60271,128,0,60356:0:0:0:0:
182,192,60442,1,0,0:0:0:0:
402,192,60442,1,0,0:0:0:0:
256,192,60613,1,0,0:0:0:0:
475,192,60613,1,0,0:0:0:0:
36,192,60613,1,0,0:0:0:0:
109,192,60785,1,0,0:0:0:0:
329,192,60871,1,0,0:0:0:0:
182,192,60913,1,0,0:0:0:0:
402,192,60956,1,0,0:0:0:0:
475,192,60956,1,0,0:0:0:0:
109,192,60956,1,0,0:0:0:0:
36,192,60956,1,0,0:0:0:0:
256,192,60956,1,0,0:0:0:0:
329,192,61128,1,0,0:0:0:0:
182,192,61213,1,0,0:0:0:0:
36,192,61299,1,0,0:0:0:0:
109,192,61299,1,0,0:0:0:0:
256,192,61299,1,0,0:0:0:0:
402,192,61299,1,0,0:0:0:0:
475,192,61299,1,0,0:0:0:0:
36,192,61471,1,0,0:0:0:0:
109,192,61471,1,0,0:0:0:0:
256,192,61471,1,0,0:0:0:0:
402,192,61471,1,0,0:0:0:0:
475,192,61471,1,0,0:0:0:0:
182,192,61642,1,0,0:0:0:0:
329,192,61728,1,0,0:0:0:0:
256,192,61813,1,0,0:0:0:0:
402,192,61813,1,0,0:0:0:0:
475,192,61813,1,0,0:0:0:0:
109,192,61813,1,0,0:0:0:0:
36,192,61813,1,0,0:0:0:0:
329,192,61985,1,0,0:0:0:0:
329,192,62071,1,0,0:0:0:0:
329,192,62156,1,0,0:0:0:0:
329,192,62242,1,0,0:0:0:0:
36,192,62328,1,0,0:0:0:0:
109,192,62328,1,0,0:0:0:0:
402,192,62328,1,0,0:0:0:0:
475,192,62328,1,0,0:0:0:0:
256,192,62328,1,0,0:0:0:0:
182,192,62413,1,0,0:0:0:0:
329,192,62499,1,0,0:0:0:0:
402,192,62499,1,0,0:0:0:0:
182,192,62585,1,0,0:0:0:0:
256,192,62671,1,0,0:0:0:0:
475,192,62671,1,0,0:0:0:0:
36,192,62671,1,0,0:0:0:0:
109,192,62756,1,0,0:0:0:0:
402,192,62842,1,0,0:0:0:0:
329,192,62842,1,0,0:0:0:0:
182,192,62928,1,0,0:0:0:0:
36,192,63013,1,0,0:0:0:0:
256,192,63013,1,0,0:0:0:0:
475,192,63013,1,0,0:0:0:0:
402,192,63099,1,0,0:0:0:0:
182,192,63185,1,0,0:0:0:0:
109,192,63185,1,0,0:0:0:0:
329,192,63271,1,0,0:0:0:0:
36,192,63356,1,0,0:0:0:0:
182,192,63356,1,0,0:0:0:0:
475,192,63356,1,0,0:0:0:0:
402,192,63442,1,0,0:0:0:0:
109,192,63528,1,0,0:0:0:0:
256,192,63528,1,0,0:0:0:0:
402,192,63613,1,0,0:0:0:0:
36,192,63699,1,0,0:0:0:0:
329,192,63699,1,0,0:0:0:0:
475,192,63699,1,0,0:0:0:0:
182,192,63785,1,0,0:0:0:0:
256,192,63871,1,0,0:0:0:0:
402,192,63871,1,0,0:0:0:0:
36,192,63956,1,0,0:0:0:0:
109,192,64042,1,0,0:0:0:0:
329,192,64042,1,0,0:0:0:0:
182,192,64042,1,0,0:0:0:0:
475,192,64128,1,0,0:0:0:0:
182,192,64213,1,0,0:0:0:0:
36,192,64213,1,0,0:0:0:0:
402,192,64299,1,0,0:0:0:0:
109,192,64385,1,0,0:0:0:0:
256,192,64385,1,0,0:0:0:0:
475,192,64385,1,0,0:0:0:0:
329,192,64471,1,0,0:0:0:0:
402,192,64556,1,0,0:0:0:0:
182,192,64556,1,0,0:0:0:0:
36,192,64642,1,0,0:0:0:0:
256,192,64728,1,0,0:0:0:0:
329,192,64728,1,0,0:0:0:0:
475,192,64728,1,0,0:0:0:0:
109,192,64813,1,0,0:0:0:0:
182,192,64899,1,0,0:0:0:0:
329,192,64899,1,0,0:0:0:0:
36,192,64985,1,0,0:0:0:0:
256,192,65071,1,0,0:0:0:0:
109,192,65071,1,0,0:0:0:0:
475,192,65071,1,0,0:0:0:0:
402,192,65156,1,0,0:0:0:0:
36,192,65242,1,0,0:0:0:0:
182,192,65242,1,0,0:0:0:0:
329,192,65328,1,0,0:0:0:0:
109,192,65413,1,0,0:0:0:0:
475,192,65413,1,0,0:0:0:0:
36,192,65413,1,0,0:0:0:0:
402,192,65499,1,0,0:0:0:0:
109,192,65585,1,0,0:0:0:0:
256,192,65585,1,0,0:0:0:0:
402,192,65671,1,0,0:0:0:0:
182,192,65756,1,0,0:0:0:0:
36,192,65756,1,0,0:0:0:0:
475,192,65756,1,0,0:0:0:0:
329,192,65842,1,0,0:0:0:0:
182,192,65928,1,0,0:0:0:0:
109,192,65928,1,0,0:0:0:0:
402,192,66013,1,0,0:0:0:0:
475,192,66099,1,0,0:0:0:0:
36,192,66099,1,0,0:0:0:0:
256,192,66099,1,0,0:0:0:0:
182,192,66185,1,0,0:0:0:0:
329,192,66271,1,0,0:0:0:0:
402,192,66271,1,0,0:0:0:0:
182,192,66356,1,0,0:0:0:0:
36,192,66442,1,0,0:0:0:0:
256,192,66442,1,0,0:0:0:0:
475,192,66442,1,0,0:0:0:0:
109,192,66528,1,0,0:0:0:0:
402,192,66613,1,0,0:0:0:0:
329,192,66613,1,0,0:0:0:0:
182,192,66699,1,0,0:0:0:0:
36,192,66785,1,0,0:0:0:0:
402,192,66785,1,0,0:0:0:0:
475,192,66785,1,0,0:0:0:0:
109,192,66871,1,0,0:0:0:0:
329,192,66956,1,0,0:0:0:0:
256,192,66956,1,0,0:0:0:0:
36,192,67042,1,0,0:0:0:0:
402,192,67128,1,0,0:0:0:0:
475,192,67128,1,0,0:0:0:0:
182,192,67128,1,0,0:0:0:0:
109,192,67213,1,0,0:0:0:0:
329,192,67299,1,0,0:0:0:0:
475,192,67299,1,0,0:0:0:0:
36,192,67385,1,0,0:0:0:0:
182,192,67471,1,0,0:0:0:0:
402,192,67471,1,0,0:0:0:0:
256,192,67471,1,0,0:0:0:0:
109,192,67556,1,0,0:0:0:0:
475,192,67642,1,0,0:0:0:0:
329,192,67642,1,0,0:0:0:0:
109,192,67728,1,0,0:0:0:0:
256,192,67813,1,0,0:0:0:0:
402,192,67813,1,0,0:0:0:0:
36,192,67813,1,0,0:0:0:0:
182,192,67899,1,0,0:0:0:0:
329,192,67985,1,0,0:0:0:0:
475,192,67985,1,0,0:0:0:0:
36,192,68071,1,0,0:0:0:0:
256,192,68156,1,0,0:0:0:0:
402,192,68156,1,0,0:0:0:0:
109,192,68156,1,0,0:0:0:0:
182,192,68242,1,0,0:0:0:0:
475,192,68328,1,0,0:0:0:0:
329,192,68328,1,0,0:0:0:0:
36,192,68413,1,0,0:0:0:0:
109,192,68499,1,0,0:0:0:0:
402,192,68499,1,0,0:0:0:0:
256,192,68499,1,0,0:0:0:0:
475,192,68585,1,0,0:0:0:0:
36,192,68671,1,0,0:0:0:0:
182,192,68671,1,0,0:0:0:0:
329,192,68756,1,0,0:0:0:0:
109,192,68842,1,0,0:0:0:0:
36,192,68842,1,0,0:0:0:0:
475,192,68842,1,0,0:0:0:0:
256,192,68928,1,0,0:0:0:0:
402,192,69013,1,0,0:0:0:0:
329,192,69013,1,0,0:0:0:0:
109,192,69099,1,0,0:0:0:0:
256,192,69185,1,0,0:0:0:0:
475,192,69185,1,0,0:0:0:0:
402,192,69185,1,0,0:0:0:0:
36,192,69271,1,0,0:0:0:0:
329,192,69356,1,0,0:0:0:0:
182,192,69356,1,0,0:0:0:0:
36,192,69442,1,0,0:0:0:0:
256,192,69528,1,0,0:0:0:0:
402,192,69528,1,0,0:0:0:0:
475,192,69528,1,0,0:0:0:0:
109,192,69613,1,0,0:0:0:0:
329,192,69699,1,0,0:0:0:0:
402,192,69699,1,0,0:0:0:0:
182,192,69785,1,0,0:0:0:0:
36,192,69871,1,0,0:0:0:0:
329,192,69871,1,0,0:0:0:0:
475,192,69871,1,0,0:0:0:0:
109,192,69956,1,0,0:0:0:0:
402,192,70042,1,0,0:0:0:0:
256,192,70042,1,0,0:0:0:0:
36,192,70128,1,0,0:0:0:0:
329,192,70213,1,0,0:0:0:0:
475,192,70213,1,0,0:0:0:0:
182,192,70213,1,0,0:0:0:0:
109,192,70299,1,0,0:0:0:0:
36,192,70385,1,0,0:0:0:0:
402,192,70385,1,0,0:0:0:0:
182,192,70471,1,0,0:0:0:0:
109,192,70556,1,0,0:0:0:0:
475,192,70556,1,0,0:0:0:0:
329,192,70556,1,0,0:0:0:0:
256,192,70642,1,0,0:0:0:0:
402,192,70728,1,0,0:0:0:0:
109,192,70728,1,0,0:0:0:0:
182,192,70813,1,0,0:0:0:0:
329,192,70899,1,0,0:0:0:0:
475,192,70899,1,0,0:0:0:0:
36,192,70899,1,0,0:0:0:0:
256,192,70985,1,0,0:0:0:0:
109,192,71071,1,0,0:0:0:0:
182,192,71071,1,0,0:0:0:0:
402,192,71071,1,0,0:0:0:0:
329,192,71156,1,0,0:0:0:0:
36,192,71242,1,0,0:0:0:0:
182,192,71242,1,0,0:0:0:0:
475,192,71242,1,0,0:0:0:0:
402,192,71328,1,0,0:0:0:0:
109,192,71413,1,0,0:0:0:0:
256,192,71413,1,0,0:0:0:0:
402,192,71499,1,0,0:0:0:0:
36,192,71585,1,0,0:0:0:0:
182,192,71585,1,0,0:0:0:0:
475,192,71585,1,0,0:0:0:0:
329,192,71671,1,0,0:0:0:0:
475,192,71756,1,0,0:0:0:0:
36,192,71756,1,0,0:0:0:0:
182,192,71756,1,0,0:0:0:0:
256,192,71842,1,0,0:0:0:0:
109,192,71928,1,0,0:0:0:0:
329,192,71928,1,0,0:0:0:0:
402,192,71928,1,0,0:0:0:0:
182,192,72013,1,0,0:0:0:0:
256,192,72099,1,0,0:0:0:0:
475,192,72099,1,0,0:0:0:0:
402,192,72099,1,0,0:0:0:0:
36,192,72185,1,0,0:0:0:0:
109,192,72185,1,0,0:0:0:0:
182,192,72271,1,0,0:0:0:0:
329,192,72271,1,0,0:0:0:0:
475,192,72271,1,0,0:0:0:0:
36,192,72356,1,0,0:0:0:0:
182,192,72442,1,0,0:0:0:0:
329,192,72442,1,0,0:0:0:0:
475,192,72442,1,0,0:0:0:0:
256,192,72613,1,0,0:0:0:0:
402,192,72613,1,0,0:0:0:0:
475,192,72613,1,0,0:0:0:0:
109,192,72699,1,0,0:0:0:0:
36,192,72699,1,0,0:0:0:0:
182,192,72785,1,0,0:0:0:0:
329,192,72785,1,0,0:0:0:0:
475,192,72785,1,0,0:0:0:0:
182,192,72956,1,0,0:0:0:0:
329,192,72956,1,0,0:0:0:0:
475,192,72956,1,0,0:0:0:0:
182,192,73128,1,0,0:0:0:0:
329,192,73128,1,0,0:0:0:0:
475,192,73128,1,0,0:0:0:0:
36,192,73299,1,0,0:0:0:0:
182,192,73299,1,0,0:0:0:0:
329,192,73299,1,0,0:0:0:0:
109,192,73299,1,0,0:0:0:0:
402,192,73299,1,0,0:0:0:0:
36,192,73385,1,0,0:0:0:0:
109,192,73385,1,0,0:0:0:0:
182,192,73385,1,0,0:0:0:0:
329,192,73385,1,0,0:0:0:0:
402,192,73385,1,0,0:0:0:0:
36,192,73556,1,0,0:0:0:0:
109,192,73556,1,0,0:0:0:0:
182,192,73556,1,0,0:0:0:0:
329,192,73556,1,0,0:0:0:0:
402,192,73556,1,0,0:0:0:0:
36,192,73813,1,0,0:0:0:0:
109,192,73813,1,0,0:0:0:0:
182,192,73813,1,0,0:0:0:0:
402,192,73813,1,0,0:0:0:0:
329,192,73813,1,0,0:0:0:0:
329,192,73899,1,0,0:0:0:0:
402,192,73899,1,0,0:0:0:0:
182,192,73899,1,0,0:0:0:0:
109,192,73899,1,0,0:0:0:0:
36,192,73899,1,0,0:0:0:0:
36,192,74071,1,0,0:0:0:0:
109,192,74071,1,0,0:0:0:0:
182,192,74071,1,0,0:0:0:0:
329,192,74071,1,0,0:0:0:0:
402,192,74071,1,0,0:0:0:0:
36,192,74328,1,0,0:0:0:0:
182,192,74328,1,0,0:0:0:0:
329,192,74328,1,0,0:0:0:0:
402,192,74328,1,0,0:0:0:0:
109,192,74499,1,0,0:0:0:0:
256,192,74499,1,0,0:0:0:0:
402,192,74499,1,0,0:0:0:0:
36,192,74499,1,0,0:0:0:0:
182,192,74671,1,0,0:0:0:0:
329,192,74671,1,0,0:0:0:0:
402,192,74671,1,0,0:0:0:0:
475,192,74671,1,0,0:0:0:0:
109,192,74671,1,0,0:0:0:0:
109,192,74756,1,0,0:0:0:0:
182,192,74756,1,0,0:0:0:0:
329,192,74756,1,0,0:0:0:0:
402,192,74756,1,0,0:0:0:0:
475,192,74756,1,0,0:0:0:0:
109,192,74928,1,0,0:0:0:0:
182,192,74928,1,0,0:0:0:0:
329,192,74928,1,0,0:0:0:0:
402,192,74928,1,0,0:0:0:0:
475,192,74928,1,0,0:0:0:0:
109,192,75185,1,0,0:0:0:0:
182,192,75185,1,0,0:0:0:0:
329,192,75185,1,0,0:0:0:0:
402,192,75185,1,0,0:0:0:0:
475,192,75185,1,0,0:0:0:0:
109,192,75271,1,0,0:0:0:0:
182,192,75271,1,0,0:0:0:0:
329,192,75271,1,0,0:0:0:0:
475,192,75271,1,0,0:0:0:0:
402,192,75271,1,0,0:0:0:0:
109,192,75442,1,0,0:0:0:0:
182,192,75442,1,0,0:0:0:0:
329,192,75442,1,0,0:0:0:0:
402,192,75442,1,0,0:0:0:0:
475,192,75442,1,0,0:0:0:0:
109,192,75699,1,0,0:0:0:0:
256,192,75699,1,0,0:0:0:0:
402,192,75699,1,0,0:0:0:0:
475,192,75699,1,0,0:0:0:0:
36,192,75871,1,0,0:0:0:0:
109,192,75871,1,0,0:0:0:0:
256,192,75871,1,0,0:0:0:0:
402,192,75871,1,0,0:0:0:0:
36,192,76042,1,0,0:0:0:0:
182,192,76042,1,0,0:0:0:0:
256,192,76042,1,0,0:0:0:0:
329,192,76042,1,0,0:0:0:0:
475,192,76042,1,0,0:0:0:0:
475,192,76128,1,0,0:0:0:0:
329,192,76128,1,0,0:0:0:0:
256,192,76128,1,0,0:0:0:0:
182,192,76128,1,0,0:0:0:0:
36,192,76128,1,0,0:0:0:0:
36,192,76299,1,0,0:0:0:0:
256,192,76299,1,0,0:0:0:0:
182,192,76299,1,0,0:0:0:0:
329,192,76299,1,0,0:0:0:0:
475,192,76299,1,0,0:0:0:0:
36,192,76556,1,0,0:0:0:0:
182,192,76556,1,0,0:0:0:0:
256,192,76556,1,0,0:0:0:0:
329,192,76556,1,0,0:0:0:0:
475,192,76556,1,0,0:0:0:0:
475,192,76642,1,0,0:0:0:0:
329,192,76642,1,0,0:0:0:0:
256,192,76642,1,0,0:0:0:0:
182,192,76642,1,0,0:0:0:0:
36,192,76642,1,0,0:0:0:0:
36,192,76813,1,0,0:0:0:0:
182,192,76813,1,0,0:0:0:0:
256,192,76813,1,0,0:0:0:0:
329,192,76813,1,0,0:0:0:0:
475,192,76813,1,0,0:0:0:0:
109,192,77071,1,0,0:0:0:0:
182,192,77071,1,0,0:0:0:0:
475,192,77071,1,0,0:0:0:0:
329,192,77071,1,0,0:0:0:0:
36,192,77242,1,0,0:0:0:0:
182,192,77242,1,0,0:0:0:0:
402,192,77242,1,0,0:0:0:0:
256,192,77242,1,0,0:0:0:0:
109,192,77413,1,0,0:0:0:0:
256,192,77413,1,0,0:0:0:0:
329,192,77413,1,0,0:0:0:0:
475,192,77413,1,0,0:0:0:0:
36,192,77413,1,0,0:0:0:0:
36,192,77499,1,0,0:0:0:0:
109,192,77499,1,0,0:0:0:0:
256,192,77499,1,0,0:0:0:0:
329,192,77499,1,0,0:0:0:0:
475,192,77499,1,0,0:0:0:0:
36,192,77671,1,0,0:0:0:0:
109,192,77671,1,0,0:0:0:0:
256,192,77671,1,0,0:0:0:0:
329,192,77671,1,0,0:0:0:0:
475,192,77671,1,0,0:0:0:0:
36,192,77928,1,0,0:0:0:0:
109,192,77928,1,0,0:0:0:0:
256,192,77928,1,0,0:0:0:0:
329,192,77928,1,0,0:0:0:0:
475,192,77928,1,0,0:0:0:0:
109,192,78013,1,0,0:0:0:0:
36,192,78013,1,0,0:0:0:0:
329,192,78013,1,0,0:0:0:0:
256,192,78013,1,0,0:0:0:0:
475,192,78013,1,0,0:0:0:0:
36,192,78185,1,0,0:0:0:0:
109,192,78185,1,0,0:0:0:0:
256,192,78185,1,0,0:0:0:0:
329,192,78185,1,0,0:0:0:0:
475,192,78185,1,0,0:0:0:0:
36,192,78442,1,0,0:0:0:0:
109,192,78442,1,0,0:0:0:0:
475,192,78442,1,0,0:0:0:0:
329,192,78442,1,0,0:0:0:0:
182,192,78442,1,0,0:0:0:0:
36,192,78613,1,0,0:0:0:0:
256,192,78613,1,0,0:0:0:0:
402,192,78613,1,0,0:0:0:0:
475,192,78613,1,0,0:0:0:0:
109,192,78613,1,0,0:0:0:0:
36,192,78785,1,0,0:0:0:0:
475,192,78785,1,0,0:0:0:0:
109,192,78785,1,0,0:0:0:0:
329,192,78785,1,0,0:0:0:0:
256,192,78871,1,0,0:0:0:0:
182,192,78871,1,0,0:0:0:0:
402,192,78871,1,0,0:0:0:0:
36,192,78956,1,0,0:0:0:0:
109,192,78956,1,0,0:0:0:0:
329,192,78956,1,0,0:0:0:0:
402,192,79042,1,0,0:0:0:0:
475,192,79042,1,0,0:0:0:0:
182,192,79042,1,0,0:0:0:0:
256,192,79128,1,0,0:0:0:0:
329,192,79128,1,0,0:0:0:0:
109,192,79128,1,0,0:0:0:0:
36,192,79128,1,0,0:0:0:0:
402,192,79213,1,0,0:0:0:0:
475,192,79213,1,0,0:0:0:0:
182,192,79299,1,0,0:0:0:0:
36,192,79299,1,0,0:0:0:0:
256,192,79299,1,0,0:0:0:0:
329,192,79385,1,0,0:0:0:0:
475,192,79385,1,0,0:0:0:0:
109,192,79471,1,0,0:0:0:0:
36,192,79471,1,0,0:0:0:0:
402,192,79471,1,0,0:0:0:0:
182,192,79471,1,0,0:0:0:0:
256,192,79556,1,0,0:0:0:0:
329,192,79556,1,0,0:0:0:0:
109,192,79642,1,0,0:0:0:0:
402,192,79642,1,0,0:0:0:0:
475,192,79642,1,0,0:0:0:0:
182,192,79728,1,0,0:0:0:0:
329,192,79728,1,0,0:0:0:0:
36,192,79813,1,0,0:0:0:0:
256,192,79813,1,0,0:0:0:0:
402,192,79813,1,0,0:0:0:0:
475,192,79813,1,0,0:0:0:0:
109,192,79899,1,0,0:0:0:0:
182,192,79899,1,0,0:0:0:0:
329,192,79985,1,0,0:0:0:0:
475,192,79985,1,0,0:0:0:0:
402,192,79985,1,0,0:0:0:0:
36,192,80071,1,0,0:0:0:0:
182,192,80071,1,0,0:0:0:0:
109,192,80156,1,0,0:0:0:0:
256,192,80156,1,0,0:0:0:0:
402,192,80156,1,0,0:0:0:0:
475,192,80156,1,0,0:0:0:0:
182,192,80242,1,0,0:0:0:0:
329,192,80242,1,0,0:0:0:0:
36,192,80328,1,0,0:0:0:0:
109,192,80328,1,0,0:0:0:0:
256,192,80328,1,0,0:0:0:0:
402,192,80413,1,0,0:0:0:0:
475,192,80413,1,0,0:0:0:0:
36,192,80499,1,0,0:0:0:0:
329,192,80499,1,0,0:0:0:0:
109,192,80499,1,0,0:0:0:0:
182,192,80499,1,0,0:0:0:0:
402,192,80585,1,0,0:0:0:0:
475,192,80585,1,0,0:0:0:0:
256,192,80671,1,0,0:0:0:0:
36,192,80671,1,0,0:0:0:0:
182,192,80671,1,0,0:0:0:0:
329,192,80756,1,0,0:0:0:0:
475,192,80756,1,0,0:0:0:0:
109,192,80842,1,0,0:0:0:0:
402,192,80842,1,0,0:0:0:0:
36,192,80842,1,0,0:0:0:0:
256,192,80842,1,0,0:0:0:0:
329,192,80928,1,0,0:0:0:0:
182,192,80928,1,0,0:0:0:0:
256,192,81013,1,0,0:0:0:0:
109,192,81013,1,0,0:0:0:0:
36,192,81013,1,0,0:0:0:0:
475,192,81099,1,0,0:0:0:0:
402,192,81099,1,0,0:0:0:0:
329,192,81185,1,0,0:0:0:0:
182,192,81185,1,0,0:0:0:0:
109,192,81185,1,0,0:0:0:0:
36,192,81185,1,0,0:0:0:0:
402,192,81271,1,0,0:0:0:0:
475,192,81271,1,0,0:0:0:0:
256,192,81356,1,0,0:0:0:0:
182,192,81356,1,0,0:0:0:0:
36,192,81356,1,0,0:0:0:0:
329,192,81442,1,0,0:0:0:0:
402,192,81442,1,0,0:0:0:0:
109,192,81528,1,0,0:0:0:0:
475,192,81528,1,0,0:0:0:0:
256,192,81528,1,0,0:0:0:0:
36,192,81528,1,0,0:0:0:0:
402,192,81571,1,0,0:0:0:0:
182,192,81613,1,0,0:0:0:0:
329,192,81613,1,0,0:0:0:0:
36,192,81656,1,0,0:0:0:0:
256,192,81699,1,0,0:0:0:0:
475,192,81699,1,0,0:0:0:0:
109,192,81742,1,0,0:0:0:0:
329,192,81785,1,0,0:0:0:0:
402,192,81785,1,0,0:0:0:0:
182,192,81828,1,0,0:0:0:0:
36,192,81871,1,0,0:0:0:0:
256,192,81871,1,0,0:0:0:0:
475,192,81913,1,0,0:0:0:0:
109,192,81956,1,0,0:0:0:0:
402,192,81956,1,0,0:0:0:0:
329,192,81999,1,0,0:0:0:0:
182,192,82042,1,0,0:0:0:0:
36,192,82042,1,0,0:0:0:0:
256,192,82085,1,0,0:0:0:0:
402,192,82128,1,0,0:0:0:0:
475,192,82128,1,0,0:0:0:0:
109,192,82171,1,0,0:0:0:0:
182,192,82213,1,0,0:0:0:0:
329,192,82213,1,0,0:0:0:0:
36,192,82256,1,0,0:0:0:0:
256,192,82299,1,0,0:0:0:0:
475,192,82299,1,0,0:0:0:0:
109,192,82342,1,0,0:0:0:0:
402,192,82385,1,0,0:0:0:0:
329,192,82385,1,0,0:0:0:0:
36,192,82428,1,0,0:0:0:0:
182,192,82471,1,0,0:0:0:0:
475,192,82471,1,0,0:0:0:0:
256,192,82513,1,0,0:0:0:0:
109,192,82556,1,0,0:0:0:0:
402,192,82556,1,0,0:0:0:0:
36,192,82599,1,0,0:0:0:0:
182,192,82642,1,0,0:0:0:0:
329,192,82642,1,0,0:0:0:0:
475,192,82685,1,0,0:0:0:0:
256,192,82728,1,0,0:0:0:0:
109,192,82728,1,0,0:0:0:0:
402,192,82771,1,0,0:0:0:0:
329,192,82813,1,0,0:0:0:0:
36,192,82899,1,0,0:0:0:0:
182,192,82899,1,0,0:0:0:0:
402,192,82985,1,0,0:0:0:0:
329,192,83071,1,0,0:0:0:0:
109,192,83156,1,0,0:0:0:0:
182,192,83156,1,0,0:0:0:0:
402,192,83242,1,0,0:0:0:0:
329,192,83328,1,0,0:0:0:0:
182,192,83413,1,0,0:0:0:0:
109,192,83413,1,0,0:0:0:0:
402,192,83499,1,0,0:0:0:0:
329,192,83585,1,0,0:0:0:0:
402,192,83671,1,0,0:0:0:0:
329,192,83756,1,0,0:0:0:0:
402,192,83842,1,0,0:0:0:0:
475,192,83928,1,0,0:0:0:0:
182,192,83928,1,0,0:0:0:0:
109,192,83928,1,0,0:0:0:0:
36,192,84271,1,0,0:0:0:0:
109,192,84271,1,0,0:0:0:0:
256,192,84271,1,0,0:0:0:0:
402,192,84271,1,0,0:0:0:0:
475,192,84271,1,0,0:0:0:0:
182,192,84442,1,0,0:0:0:0:
329,192,84442,1,0,0:0:0:0:
256,192,84528,1,0,0:0:0:0:
109,192,84528,1,0,0:0:0:0:
36,192,84613,1,0,0:0:0:0:
182,192,84613,1,0,0:0:0:0:
402,192,84613,1,0,0:0:0:0:
475,192,84613,1,0,0:0:0:0:
109,192,84785,128,0,84956:0:0:0:0:
329,192,84785,128,0,84956:0:0:0:0:
36,192,84956,1,0,0:0:0:0:
475,192,84956,1,0,0:0:0:0:
182,192,84956,1,0,0:0:0:0:
402,192,84956,1,0,0:0:0:0:
402,192,85128,1,0,0:0:0:0:
109,192,85128,1,0,0:0:0:0:
182,192,85213,1,0,0:0:0:0:
329,192,85213,1,0,0:0:0:0:
256,192,85299,1,0,0:0:0:0:
475,192,85299,1,0,0:0:0:0:
36,192,85299,1,0,0:0:0:0:
109,192,85299,1,0,0:0:0:0:
182,192,85471,128,0,85642:0:0:0:0:
329,192,85471,128,0,85642:0:0:0:0:
109,192,85642,1,0,0:0:0:0:
256,192,85642,1,0,0:0:0:0:
402,192,85642,1,0,0:0:0:0:
475,192,85642,1,0,0:0:0:0:
329,192,85813,1,0,0:0:0:0:
182,192,85813,1,0,0:0:0:0:
402,192,85899,1,0,0:0:0:0:
256,192,85899,1,0,0:0:0:0:
329,192,85985,1,0,0:0:0:0:
475,192,85985,1,0,0:0:0:0:
109,192,85985,1,0,0:0:0:0:
36,192,85985,1,0,0:0:0:0:
182,192,86156,128,0,86328:0:0:0:0:
402,192,86156,128,0,86328:0:0:0:0:
329,192,86328,1,0,0:0:0:0:
475,192,86328,1,0,0:0:0:0:
36,192,86328,1,0,0:0:0:0:
109,192,86328,1,0,0:0:0:0:
402,192,86499,1,0,0:0:0:0:
182,192,86499,1,0,0:0:0:0:
36,192,86499,1,0,0:0:0:0:
256,192,86499,1,0,0:0:0:0:
109,192,86671,1,0,0:0:0:0:
329,192,86671,1,0,0:0:0:0:
475,192,86671,1,0,0:0:0:0:
256,192,86671,1,0,0:0:0:0:
36,192,86842,1,0,0:0:0:0:
256,192,86842,1,0,0:0:0:0:
182,192,86842,1,0,0:0:0:0:
402,192,86842,1,0,0:0:0:0:
109,192,87013,1,0,0:0:0:0:
36,192,87013,1,0,0:0:0:0:
182,192,87013,1,0,0:0:0:0:
329,192,87013,1,0,0:0:0:0:
475,192,87013,1,0,0:0:0:0:
256,192,87185,1,0,0:0:0:0:
402,192,87185,1,0,0:0:0:0:
109,192,87271,1,0,0:0:0:0:
182,192,87271,1,0,0:0:0:0:
329,192,87356,1,0,0:0:0:0:
475,192,87356,1,0,0:0:0:0:
36,192,87356,1,0,0:0:0:0:
256,192,87356,1,0,0:0:0:0:
182,192,87528,128,0,87699:0:0:0:0:
402,192,87528,128,0,87699:0:0:0:0:
36,192,87699,1,0,0:0:0:0:
256,192,87699,1,0,0:0:0:0:
475,192,87699,1,0,0:0:0:0:
109,192,87699,1,0,0:0:0:0:
109,192,87871,1,0,0:0:0:0:
402,192,87871,1,0,0:0:0:0:
329,192,87956,1,0,0:0:0:0:
475,192,87956,1,0,0:0:0:0:
182,192,88042,1,0,0:0:0:0:
36,192,88042,1,0,0:0:0:0:
256,192,88042,1,0,0:0:0:0:
402,192,88042,1,0,0:0:0:0:
109,192,88213,128,0,88385:0:0:0:0:
329,192,88213,128,0,88385:0:0:0:0:
256,192,88385,1,0,0:0:0:0:
475,192,88385,1,0,0:0:0:0:
36,192,88385,1,0,0:0:0:0:
402,192,88385,1,0,0:0:0:0:
182,192,88556,1,0,0:0:0:0:
329,192,88556,1,0,0:0:0:0:
109,192,88642,1,0,0:0:0:0:
402,192,88642,1,0,0:0:0:0:
256,192,88728,1,0,0:0:0:0:
36,192,88728,1,0,0:0:0:0:
329,192,88728,1,0,0:0:0:0:
475,192,88728,1,0,0:0:0:0:
109,192,88899,128,0,89071:0:0:0:0:
402,192,88899,128,0,89071:0:0:0:0:
182,192,89071,1,0,0:0:0:0:
36,192,89071,1,0,0:0:0:0:
329,192,89071,1,0,0:0:0:0:
475,192,89071,1,0,0:0:0:0:
36,192,89242,1,0,0:0:0:0:
182,192,89242,1,0,0:0:0:0:
329,192,89328,1,0,0:0:0:0:
475,192,89328,1,0,0:0:0:0:
36,192,89413,1,0,0:0:0:0:
182,192,89413,1,0,0:0:0:0:
256,192,89413,1,0,0:0:0:0:
36,192,89585,1,0,0:0:0:0:
182,192,89585,1,0,0:0:0:0:
329,192,89585,1,0,0:0:0:0:
256,192,89671,1,0,0:0:0:0:
402,192,89671,1,0,0:0:0:0:
475,192,89671,1,0,0:0:0:0:
109,192,89756,1,0,0:0:0:0:
36,192,89756,1,0,0:0:0:0:
182,192,89756,1,0,0:0:0:0:
329,192,89756,1,0,0:0:0:0:
256,192,89928,1,0,0:0:0:0:
402,192,89928,1,0,0:0:0:0:
475,192,90013,1,0,0:0:0:0:
109,192,90013,1,0,0:0:0:0:
182,192,90099,1,0,0:0:0:0:
329,192,90099,1,0,0:0:0:0:
36,192,90099,1,0,0:0:0:0:
402,192,90099,1,0,0:0:0:0:
109,192,90271,128,0,90442:0:0:0:0:
256,192,90271,128,0,90442:0:0:0:0:
402,192,90442,1,0,0:0:0:0:
182,192,90442,1,0,0:0:0:0:
36,192,90442,1,0,0:0:0:0:
475,192,90442,1,0,0:0:0:0:
36,192,90613,1,0,0:0:0:0:
329,192,90613,1,0,0:0:0:0:
182,192,90699,1,0,0:0:0:0:
475,192,90699,1,0,0:0:0:0:
256,192,90785,1,0,0:0:0:0:
109,192,90785,1,0,0:0:0:0:
36,192,90785,1,0,0:0:0:0:
402,192,90785,1,0,0:0:0:0:
182,192,90956,128,0,91128:0:0:0:0:
329,192,90956,128,0,91128:0:0:0:0:
109,192,91128,1,0,0:0:0:0:
256,192,91128,1,0,0:0:0:0:
402,192,91128,1,0,0:0:0:0:
475,192,91128,1,0,0:0:0:0:
182,192,91299,1,0,0:0:0:0:
329,192,91299,1,0,0:0:0:0:
36,192,91385,1,0,0:0:0:0:
475,192,91385,1,0,0:0:0:0:
109,192,91471,1,0,0:0:0:0:
256,192,91471,1,0,0:0:0:0:
402,192,91471,1,0,0:0:0:0:
182,192,91471,1,0,0:0:0:0:
329,192,91642,128,0,91813:0:0:0:0:
475,192,91642,128,0,91813:0:0:0:0:
109,192,91813,1,0,0:0:0:0:
402,192,91813,1,0,0:0:0:0:
256,192,91813,1,0,0:0:0:0:
36,192,91813,1,0,0:0:0:0:
36,192,91985,1,0,0:0:0:0:
182,192,91985,1,0,0:0:0:0:
329,192,91985,1,0,0:0:0:0:
402,192,91985,1,0,0:0:0:0:
109,192,92156,1,0,0:0:0:0:
36,192,92156,1,0,0:0:0:0:
256,192,92156,1,0,0:0:0:0:
475,192,92156,1,0,0:0:0:0:
109,192,92328,1,0,0:0:0:0:
182,192,92328,1,0,0:0:0:0:
329,192,92328,1,0,0:0:0:0:
402,192,92328,1,0,0:0:0:0:
256,192,92499,1,0,0:0:0:0:
36,192,92499,1,0,0:0:0:0:
182,192,92499,1,0,0:0:0:0:
402,192,92499,1,0,0:0:0:0:
475,192,92499,1,0,0:0:0:0:
109,192,92671,1,0,0:0:0:0:
329,192,92671,1,0,0:0:0:0:
475,192,92756,1,0,0:0:0:0:
256,192,92756,1,0,0:0:0:0:
182,192,92842,1,0,0:0:0:0:
36,192,92842,1,0,0:0:0:0:
329,192,92842,1,0,0:0:0:0:
402,192,92842,1,0,0:0:0:0:
475,192,93013,128,0,93185:0:0:0:0:
256,192,93013,128,0,93185:0:0:0:0:
182,192,93185,1,0,0:0:0:0:
329,192,93185,1,0,0:0:0:0:
36,192,93185,1,0,0:0:0:0:
109,192,93185,1,0,0:0:0:0:
36,192,93356,1,0,0:0:0:0:
256,192,93356,1,0,0:0:0:0:
109,192,93442,1,0,0:0:0:0:
329,192,93442,1,0,0:0:0:0:
182,192,93528,1,0,0:0:0:0:
402,192,93528,1,0,0:0:0:0:
475,192,93528,1,0,0:0:0:0:
36,192,93528,1,0,0:0:0:0:
109,192,93699,128,0,93871:0:0:0:0:
329,192,93699,128,0,93871:0:0:0:0:
36,192,93871,1,0,0:0:0:0:
402,192,93871,1,0,0:0:0:0:
256,192,93871,1,0,0:0:0:0:
182,192,93871,1,0,0:0:0:0:
329,192,94042,1,0,0:0:0:0:
475,192,94042,1,0,0:0:0:0:
182,192,94042,1,0,0:0:0:0:
36,192,94128,1,0,0:0:0:0:
109,192,94128,1,0,0:0:0:0:
256,192,94128,1,0,0:0:0:0:
329,192,94213,1,0,0:0:0:0:
475,192,94213,1,0,0:0:0:0:
36,192,94385,1,0,0:0:0:0:
402,192,94385,1,0,0:0:0:0:
182,192,94385,1,0,0:0:0:0:
256,192,94471,1,0,0:0:0:0:
36,192,94556,1,0,0:0:0:0:
109,192,94556,1,0,0:0:0:0:
329,192,94556,1,0,0:0:0:0:
475,192,94556,1,0,0:0:0:0:
182,192,94642,1,0,0:0:0:0:
329,192,94728,1,0,0:0:0:0:
475,192,94728,1,0,0:0:0:0:
256,192,94813,1,0,0:0:0:0:
36,192,94813,1,0,0:0:0:0:
109,192,94813,1,0,0:0:0:0:
402,192,94813,1,0,0:0:0:0:
182,192,94899,1,0,0:0:0:0:
182,192,94985,1,0,0:0:0:0:
329,192,95071,1,0,0:0:0:0:
329,192,95156,1,0,0:0:0:0:
109,192,95242,1,0,0:0:0:0:
36,192,95242,1,0,0:0:0:0:
256,192,95242,1,0,0:0:0:0:
402,192,95242,1,0,0:0:0:0:
475,192,95242,1,0,0:0:0:0:
182,192,95413,1,0,0:0:0:0:
329,192,95413,1,0,0:0:0:0:
256,192,95499,1,0,0:0:0:0:
475,192,95499,1,0,0:0:0:0:
36,192,95585,1,0,0:0:0:0:
109,192,95585,1,0,0:0:0:0:
182,192,95585,1,0,0:0:0:0:
402,192,95585,1,0,0:0:0:0:
329,192,95756,1,0,0:0:0:0:
475,192,95756,1,0,0:0:0:0:
256,192,95842,1,0,0:0:0:0:
36,192,95928,1,0,0:0:0:0:
182,192,95928,1,0,0:0:0:0:
402,192,95928,1,0,0:0:0:0:
475,192,95928,1,0,0:0:0:0:
109,192,96099,1,0,0:0:0:0:
329,192,96099,1,0,0:0:0:0:
256,192,96185,1,0,0:0:0:0:
182,192,96185,1,0,0:0:0:0:
36,192,96271,1,0,0:0:0:0:
402,192,96271,1,0,0:0:0:0:
475,192,96271,1,0,0:0:0:0:
329,192,96271,1,0,0:0:0:0:
182,192,96442,1,0,0:0:0:0:
109,192,96442,1,0,0:0:0:0:
256,192,96528,1,0,0:0:0:0:
36,192,96613,1,0,0:0:0:0:
475,192,96613,1,0,0:0:0:0:
329,192,96613,1,0,0:0:0:0:
402,192,96613,1,0,0:0:0:0:
109,192,96785,1,0,0:0:0:0:
256,192,96785,1,0,0:0:0:0:
329,192,96871,1,0,0:0:0:0:
36,192,96871,1,0,0:0:0:0:
109,192,96956,1,0,0:0:0:0:
256,192,96956,1,0,0:0:0:0:
402,192,96956,1,0,0:0:0:0:
475,192,96956,1,0,0:0:0:0:
182,192,97128,1,0,0:0:0:0:
329,192,97128,1,0,0:0:0:0:
36,192,97128,1,0,0:0:0:0:
402,192,97213,1,0,0:0:0:0:
109,192,97256,1,0,0:0:0:0:
256,192,97299,1,0,0:0:0:0:
475,192,97299,1,0,0:0:0:0:
329,192,97299,1,0,0:0:0:0:
182,192,97299,1,0,0:0:0:0:
36,192,97428,1,0,0:0:0:0:
109,192,97471,1,0,0:0:0:0:
256,192,97471,1,0,0:0:0:0:
402,192,97471,1,0,0:0:0:0:
36,192,97642,1,0,0:0:0:0:
182,192,97642,1,0,0:0:0:0:
329,192,97642,1,0,0:0:0:0:
475,192,97642,1,0,0:0:0:0:
36,192,97813,1,0,0:0:0:0:
109,192,97813,1,0,0:0:0:0:
256,192,97813,1,0,0:0:0:0:
402,192,97813,1,0,0:0:0:0:
36,192,97985,1,0,0:0:0:0:
256,192,97985,1,0,0:0:0:0:
475,192,97985,1,0,0:0:0:0:
109,192,97985,1,0,0:0:0:0:
402,192,97985,1,0,0:0:0:0:
182,192,98071,1,0,0:0:0:0:
329,192,98071,1,0,0:0:0:0:
182,192,98242,1,0,0:0:0:0:
329,192,98242,1,0,0:0:0:0:
36,192,98328,1,0,0:0:0:0:
475,192,98328,1,0,0:0:0:0:
256,192,98328,1,0,0:0:0:0:
109,192,98328,1,0,0:0:0:0:
402,192,98328,1,0,0:0:0:0:
329,192,98499,1,0,0:0:0:0:
475,192,98499,1,0,0:0:0:0:
475,192,98585,1,0,0:0:0:0:
329,192,98585,1,0,0:0:0:0:
256,192,98671,1,0,0:0:0:0:
36,192,98671,1,0,0:0:0:0:
109,192,98671,1,0,0:0:0:0:
182,192,98671,1,0,0:0:0:0:
329,192,98756,1,0,0:0:0:0:
475,192,98756,1,0,0:0:0:0:
36,192,99013,1,0,0:0:0:0:
109,192,99013,1,0,0:0:0:0:
256,192,99013,1,0,0:0:0:0:
402,192,99013,1,0,0:0:0:0:
475,192,99013,1,0,0:0:0:0:
36,192,99185,1,0,0:0:0:0:
182,192,99185,1,0,0:0:0:0:
329,192,99185,1,0,0:0:0:0:
475,192,99185,1,0,0:0:0:0:
36,192,99356,1,0,0:0:0:0:
109,192,99356,1,0,0:0:0:0:
256,192,99356,1,0,0:0:0:0:
402,192,99356,1,0,0:0:0:0:
475,192,99356,1,0,0:0:0:0:
36,192,99442,1,0,0:0:0:0:
109,192,99442,1,0,0:0:0:0:
256,192,99442,1,0,0:0:0:0:
402,192,99442,1,0,0:0:0:0:
475,192,99442,1,0,0:0:0:0:
36,192,99613,1,0,0:0:0:0:
109,192,99613,1,0,0:0:0:0:
256,192,99613,1,0,0:0:0:0:
402,192,99613,1,0,0:0:0:0:
475,192,99613,1,0,0:0:0:0:
182,192,99699,1,0,0:0:0:0:
329,192,99699,1,0,0:0:0:0:
36,192,99871,1,0,0:0:0:0:
109,192,99871,1,0,0:0:0:0:
256,192,99871,1,0,0:0:0:0:
402,192,99871,1,0,0:0:0:0:
475,192,99871,1,0,0:0:0:0:
36,192,99956,1,0,0:0:0:0:
182,192,99956,1,0,0:0:0:0:
329,192,99956,1,0,0:0:0:0:
475,192,99956,1,0,0:0:0:0:
36,192,100213,1,0,0:0:0:0:
109,192,100213,1,0,0:0:0:0:
256,192,100213,1,0,0:0:0:0:
402,192,100213,1,0,0:0:0:0:
475,192,100213,1,0,0:0:0:0:
329,192,100385,1,0,0:0:0:0:
475,192,100385,1,0,0:0:0:0:
36,192,100471,1,0,0:0:0:0:
182,192,100471,1,0,0:0:0:0:
109,192,100556,1,0,0:0:0:0:
256,192,100556,1,0,0:0:0:0:
182,192,100642,1,0,0:0:0:0:
329,192,100642,1,0,0:0:0:0:
256,192,100728,1,0,0:0:0:0:
475,192,100728,1,0,0:0:0:0:
402,192,100728,1,0,0:0:0:0:
36,192,100813,1,0,0:0:0:0:
109,192,100813,1,0,0:0:0:0:
329,192,100899,1,0,0:0:0:0:
475,192,100899,1,0,0:0:0:0:
36,192,100985,1,0,0:0:0:0:
182,192,100985,1,0,0:0:0:0:
329,192,101071,1,0,0:0:0:0:
402,192,101071,1,0,0:0:0:0:
256,192,101071,1,0,0:0:0:0:
109,192,101156,1,0,0:0:0:0:
182,192,101156,1,0,0:0:0:0:
475,192,101242,1,0,0:0:0:0:
36,192,101242,1,0,0:0:0:0:
329,192,101242,1,0,0:0:0:0:
182,192,101328,1,0,0:0:0:0:
256,192,101328,1,0,0:0:0:0:
402,192,101413,1,0,0:0:0:0:
475,192,101413,1,0,0:0:0:0:
36,192,101499,1,0,0:0:0:0:
109,192,101499,1,0,0:0:0:0:
182,192,101585,1,0,0:0:0:0:
329,192,101585,1,0,0:0:0:0:
402,192,101585,1,0,0:0:0:0:
36,192,101671,1,0,0:0:0:0:
109,192,101671,1,0,0:0:0:0:
256,192,101756,1,0,0:0:0:0:
329,192,101756,1,0,0:0:0:0:
475,192,101756,1,0,0:0:0:0:
182,192,101842,1,0,0:0:0:0:
36,192,101842,1,0,0:0:0:0:
402,192,101928,1,0,0:0:0:0:
475,192,101928,1,0,0:0:0:0:
109,192,102013,1,0,0:0:0:0:
256,192,102013,1,0,0:0:0:0:
329,192,102099,1,0,0:0:0:0:
402,192,102099,1,0,0:0:0:0:
475,192,102099,1,0,0:0:0:0:
182,192,102185,1,0,0:0:0:0:
36,192,102185,1,0,0:0:0:0:
256,192,102271,1,0,0:0:0:0:
402,192,102271,1,0,0:0:0:0:
109,192,102356,1,0,0:0:0:0:
36,192,102356,1,0,0:0:0:0:
182,192,102442,1,0,0:0:0:0:
329,192,102442,1,0,0:0:0:0:
475,192,102442,1,0,0:0:0:0:
109,192,102528,1,0,0:0:0:0:
36,192,102528,1,0,0:0:0:0:
256,192,102613,1,0,0:0:0:0:
402,192,102613,1,0,0:0:0:0:
475,192,102613,1,0,0:0:0:0:
182,192,102699,1,0,0:0:0:0:
36,192,102699,1,0,0:0:0:0:
329,192,102785,1,0,0:0:0:0:
475,192,102785,1,0,0:0:0:0:
109,192,102871,1,0,0:0:0:0:
182,192,102871,1,0,0:0:0:0:
475,192,102956,1,0,0:0:0:0:
256,192,102956,1,0,0:0:0:0:
329,192,102956,1,0,0:0:0:0:
36,192,103042,1,0,0:0:0:0:
109,192,103042,1,0,0:0:0:0:
475,192,103128,1,0,0:0:0:0:
402,192,103128,1,0,0:0:0:0:
256,192,103128,1,0,0:0:0:0:
182,192,103213,1,0,0:0:0:0:
329,192,103213,1,0,0:0:0:0:
256,192,103299,1,0,0:0:0:0:
109,192,103299,1,0,0:0:0:0:
36,192,103299,1,0,0:0:0:0:
182,192,103385,1,0,0:0:0:0:
402,192,103385,1,0,0:0:0:0:
475,192,103385,1,0,0:0:0:0:
36,192,103471,1,0,0:0:0:0:
109,192,103471,1,0,0:0:0:0:
329,192,103471,1,0,0:0:0:0:
475,192,103513,1,0,0:0:0:0:
182,192,103556,1,0,0:0:0:0:
256,192,103599,1,0,0:0:0:0:
402,192,103642,1,0,0:0:0:0:
109,192,103685,1,0,0:0:0:0:
329,192,103728,1,0,0:0:0:0:
36,192,103771,1,0,0:0:0:0:
182,192,103813,1,0,0:0:0:0:
475,192,103813,1,0,0:0:0:0:
256,192,103856,1,0,0:0:0:0:
402,192,103899,1,0,0:0:0:0:
109,192,103942,1,0,0:0:0:0:
182,192,103985,1,0,0:0:0:0:
329,192,103985,1,0,0:0:0:0:
475,192,104028,1,0,0:0:0:0:
36,192,104071,1,0,0:0:0:0:
109,192,104113,1,0,0:0:0:0:
256,192,104156,1,0,0:0:0:0:
402,192,104199,1,0,0:0:0:0:
182,192,104242,1,0,0:0:0:0:
36,192,104285,1,0,0:0:0:0:
329,192,104328,1,0,0:0:0:0:
109,192,104371,1,0,0:0:0:0:
475,192,104413,1,0,0:0:0:0:
402,192,104456,1,0,0:0:0:0:
182,192,104499,1,0,0:0:0:0:
256,192,104499,1,0,0:0:0:0:
36,192,104542,1,0,0:0:0:0:
475,192,104585,1,0,0:0:0:0:
329,192,104628,1,0,0:0:0:0:
182,192,104671,1,0,0:0:0:0:
109,192,104713,1,0,0:0:0:0:
402,192,104756,1,0,0:0:0:0:
256,192,104799,1,0,0:0:0:0:
36,192,104842,1,0,0:0:0:0:
182,192,104842,1,0,0:0:0:0:
329,192,104842,1,0,0:0:0:0:
475,192,104842,128,0,106128:0:0:0:0:
402,192,104928,128,0,105099:0:0:0:0:
329,192,105013,128,0,105185:0:0:0:0:
256,192,105099,128,0,105271:0:0:0:0:
402,192,105185,128,0,106128:0:0:0:0:
329,192,105271,128,0,105442:0:0:0:0:
256,192,105356,128,0,105528:0:0:0:0:
182,192,105442,128,0,105613:0:0:0:0:
329,192,105528,128,0,106128:0:0:0:0:
256,192,105613,128,0,105785:0:0:0:0:
182,192,105699,128,0,105871:0:0:0:0:
109,192,105785,128,0,105956:0:0:0:0:
256,192,105871,128,0,106128:0:0:0:0:
182,192,105956,128,0,106213:0:0:0:0:
109,192,106042,128,0,106213:0:0:0:0:
36,192,106128,128,0,106213:0:0:0:0:
256,192,106213,1,0,0:0:0:0:
402,192,106213,1,0,0:0:0:0:
475,192,106213,1,0,0:0:0:0:
182,192,106385,1,0,0:0:0:0:
329,192,106385,1,0,0:0:0:0:
402,192,106385,1,0,0:0:0:0:
36,192,106385,1,0,0:0:0:0:
256,192,106556,1,0,0:0:0:0:
109,192,106556,1,0,0:0:0:0:
36,192,106556,1,0,0:0:0:0:
329,192,106556,1,0,0:0:0:0:
182,192,106728,1,0,0:0:0:0:
402,192,106728,1,0,0:0:0:0:
256,192,106728,1,0,0:0:0:0:
475,192,106728,1,0,0:0:0:0:
109,192,106728,1,0,0:0:0:0:
256,192,106899,1,0,0:0:0:0:
402,192,106899,1,0,0:0:0:0:
36,192,106899,1,0,0:0:0:0:
109,192,106899,1,0,0:0:0:0:
182,192,107071,1,0,0:0:0:0:
329,192,107071,1,0,0:0:0:0:
329,192,107156,1,0,0:0:0:0:
182,192,107156,1,0,0:0:0:0:
402,192,107242,1,0,0:0:0:0:
475,192,107242,1,0,0:0:0:0:
109,192,107242,1,0,0:0:0:0:
256,192,107242,1,0,0:0:0:0:
182,192,107413,128,0,107499:0:0:0:0:
256,192,107499,128,0,107585:0:0:0:0:
36,192,107585,128,0,107928:0:0:0:0:
329,192,107671,128,0,107756:0:0:0:0:
402,192,107756,128,0,107842:0:0:0:0:
475,192,107842,128,0,107928:0:0:0:0:
109,192,107928,128,0,108185:0:0:0:0:
329,192,108013,128,0,108099:0:0:0:0:
402,192,108099,128,0,108185:0:0:0:0:
329,192,108185,128,0,108271:0:0:0:0:
475,192,108271,128,0,108613:0:0:0:0:
182,192,108356,128,0,108442:0:0:0:0:
109,192,108442,128,0,108528:0:0:0:0:
182,192,108528,128,0,108613:0:0:0:0:
329,192,108613,128,0,108956:0:0:0:0:
36,192,108699,128,0,108785:0:0:0:0:
109,192,108785,128,0,108871:0:0:0:0:
182,192,108871,128,0,108956:0:0:0:0:
36,192,108956,1,0,0:0:0:0:
256,192,108956,1,0,0:0:0:0:
402,192,108956,1,0,0:0:0:0:
475,192,108956,1,0,0:0:0:0:
109,192,109128,1,0,0:0:0:0:
256,192,109128,1,0,0:0:0:0:
402,192,109128,1,0,0:0:0:0:
36,192,109128,1,0,0:0:0:0:
109,192,109299,1,0,0:0:0:0:
182,192,109299,1,0,0:0:0:0:
329,192,109299,1,0,0:0:0:0:
475,192,109299,1,0,0:0:0:0:
182,192,109471,1,0,0:0:0:0:
36,192,109471,1,0,0:0:0:0:
256,192,109471,1,0,0:0:0:0:
402,192,109471,1,0,0:0:0:0:
475,192,109471,1,0,0:0:0:0:
36,192,109642,1,0,0:0:0:0:
182,192,109642,1,0,0:0:0:0:
329,192,109642,1,0,0:0:0:0:
109,192,109642,1,0,0:0:0:0:
256,192,109813,1,0,0:0:0:0:
402,192,109813,1,0,0:0:0:0:
256,192,109899,1,0,0:0:0:0:
402,192,109899,1,0,0:0:0:0:
329,192,109985,1,0,0:0:0:0:
475,192,109985,1,0,0:0:0:0:
36,192,109985,1,0,0:0:0:0:
109,192,109985,1,0,0:0:0:0:
182,192,110156,128,0,110242:0:0:0:0:
36,192,110242,128,0,110328:0:0:0:0:
256,192,110328,128,0,110671:0:0:0:0:
109,192,110413,128,0,110499:0:0:0:0:
182,192,110499,128,0,110585:0:0:0:0:
329,192,110542,128,0,110628:0:0:0:0:
402,192,110585,128,0,110671:0:0:0:0:
475,192,110671,128,0,111013:0:0:0:0:
109,192,110756,128,0,110842:0:0:0:0:
182,192,110842,128,0,110928:0:0:0:0:
109,192,110928,128,0,111013:0:0:0:0:
402,192,111013,128,0,111356:0:0:0:0:
329,192,111099,128,0,111185:0:0:0:0:
256,192,111142,128,0,111228:0:0:0:0:
182,192,111185,128,0,111271:0:0:0:0:
109,192,111271,128,0,111356:0:0:0:0:
329,192,111356,128,0,111699:0:0:0:0:
182,192,111442,128,0,111528:0:0:0:0:
109,192,111528,128,0,111613:0:0:0:0:
36,192,111613,128,0,111699:0:0:0:0:
256,192,111699,1,0,0:0:0:0:
182,192,111699,1,0,0:0:0:0:
402,192,111699,1,0,0:0:0:0:
475,192,111699,1,0,0:0:0:0:
36,192,111871,1,0,0:0:0:0:
109,192,111871,1,0,0:0:0:0:
256,192,111871,1,0,0:0:0:0:
402,192,111871,1,0,0:0:0:0:
182,192,112042,1,0,0:0:0:0:
36,192,112042,1,0,0:0:0:0:
329,192,112042,1,0,0:0:0:0:
475,192,112042,1,0,0:0:0:0:
109,192,112213,1,0,0:0:0:0:
256,192,112213,1,0,0:0:0:0:
402,192,112213,1,0,0:0:0:0:
475,192,112213,1,0,0:0:0:0:
182,192,112213,1,0,0:0:0:0:
36,192,112385,1,0,0:0:0:0:
109,192,112385,1,0,0:0:0:0:
256,192,112385,1,0,0:0:0:0:
402,192,112385,1,0,0:0:0:0:
182,192,112556,1,0,0:0:0:0:
329,192,112556,1,0,0:0:0:0:
182,192,112642,1,0,0:0:0:0:
329,192,112642,1,0,0:0:0:0:
256,192,112728,1,0,0:0:0:0:
402,192,112728,1,0,0:0:0:0:
475,192,112728,1,0,0:0:0:0:
109,192,112728,1,0,0:0:0:0:
256,192,112899,128,0,112985:0:0:0:0:
329,192,112985,128,0,113071:0:0:0:0:
109,192,113071,128,0,113413:0:0:0:0:
402,192,113156,128,0,113242:0:0:0:0:
475,192,113242,128,0,113328:0:0:0:0:
329,192,113328,128,0,113413:0:0:0:0:
402,192,113413,128,0,113756:0:0:0:0:
36,192,113499,128,0,113585:0:0:0:0:
182,192,113585,128,0,113671:0:0:0:0:
109,192,113671,128,0,113756:0:0:0:0:
36,192,113756,128,0,114099:0:0:0:0:
329,192,113842,128,0,113928:0:0:0:0:
402,192,113928,128,0,114013:0:0:0:0:
475,192,114013,128,0,114099:0:0:0:0:
329,192,114099,128,0,114442:0:0:0:0:
109,192,114185,128,0,114271:0:0:0:0:
182,192,114271,128,0,114356:0:0:0:0:
256,192,114356,128,0,114442:0:0:0:0:
36,192,114442,1,0,0:0:0:0:
402,192,114442,1,0,0:0:0:0:
475,192,114442,1,0,0:0:0:0:
109,192,114442,1,0,0:0:0:0:
36,192,114613,1,0,0:0:0:0:
182,192,114613,1,0,0:0:0:0:
256,192,114613,1,0,0:0:0:0:
402,192,114613,1,0,0:0:0:0:
109,192,114785,1,0,0:0:0:0:
36,192,114785,1,0,0:0:0:0:
329,192,114785,1,0,0:0:0:0:
402,192,114785,1,0,0:0:0:0:
256,192,114956,1,0,0:0:0:0:
329,192,114956,1,0,0:0:0:0:
475,192,114956,1,0,0:0:0:0:
182,192,114956,1,0,0:0:0:0:
36,192,114956,1,0,0:0:0:0:
109,192,115128,1,0,0:0:0:0:
182,192,115128,1,0,0:0:0:0:
329,192,115128,1,0,0:0:0:0:
402,192,115128,1,0,0:0:0:0:
109,192,115299,1,0,0:0:0:0:
402,192,115299,1,0,0:0:0:0:
402,192,115385,1,0,0:0:0:0:
109,192,115385,1,0,0:0:0:0:
182,192,115471,1,0,0:0:0:0:
36,192,115471,1,0,0:0:0:0:
329,192,115471,1,0,0:0:0:0:
475,192,115471,1,0,0:0:0:0:
109,192,115642,128,0,115728:0:0:0:0:
256,192,115728,128,0,115813:0:0:0:0:
36,192,115813,128,0,116156:0:0:0:0:
402,192,115813,1,0,0:0:0:0:
475,192,115813,1,0,0:0:0:0:
182,192,115899,128,0,115985:0:0:0:0:
329,192,115985,128,0,116071:0:0:0:0:
402,192,116071,128,0,116156:0:0:0:0:
109,192,116071,1,0,0:0:0:0:
256,192,116071,1,0,0:0:0:0:
475,192,116156,128,0,116499:0:0:0:0:
329,192,116242,128,0,116328:0:0:0:0:
182,192,116328,128,0,116413:0:0:0:0:
256,192,116328,1,0,0:0:0:0:
402,192,116328,1,0,0:0:0:0:
36,192,116413,128,0,116499:0:0:0:0:
329,192,116499,128,0,116842:0:0:0:0:
109,192,116499,1,0,0:0:0:0:
402,192,116499,1,0,0:0:0:0:
256,192,116585,128,0,116671:0:0:0:0:
36,192,116671,128,0,116756:0:0:0:0:
475,192,116756,128,0,116842:0:0:0:0:
109,192,116756,1,0,0:0:0:0:
256,192,116756,1,0,0:0:0:0:
182,192,116842,128,0,117185:0:0:0:0:
402,192,116928,128,0,117013:0:0:0:0:
329,192,117013,128,0,117099:0:0:0:0:
402,192,117099,128,0,117185:0:0:0:0:
109,192,117185,1,0,0:0:0:0:
475,192,117185,1,0,0:0:0:0:
256,192,117185,1,0,0:0:0:0:
36,192,117185,1,0,0:0:0:0:
109,192,117356,1,0,0:0:0:0:
182,192,117356,1,0,0:0:0:0:
329,192,117356,1,0,0:0:0:0:
475,192,117356,1,0,0:0:0:0:
182,192,117528,1,0,0:0:0:0:
256,192,117528,1,0,0:0:0:0:
402,192,117528,1,0,0:0:0:0:
36,192,117528,1,0,0:0:0:0:
329,192,117699,1,0,0:0:0:0:
475,192,117699,1,0,0:0:0:0:
109,192,117699,1,0,0:0:0:0:
36,192,117699,1,0,0:0:0:0:
256,192,117699,1,0,0:0:0:0:
182,192,117871,1,0,0:0:0:0:
109,192,117871,1,0,0:0:0:0:
402,192,117871,1,0,0:0:0:0:
329,192,117871,1,0,0:0:0:0:
182,192,118042,1,0,0:0:0:0:
329,192,118042,1,0,0:0:0:0:
182,192,118128,1,0,0:0:0:0:
329,192,118128,1,0,0:0:0:0:
36,192,118213,1,0,0:0:0:0:
109,192,118213,1,0,0:0:0:0:
256,192,118213,1,0,0:0:0:0:
475,192,118213,1,0,0:0:0:0:
182,192,118385,128,0,118471:0:0:0:0:
256,192,118471,128,0,118556:0:0:0:0:
329,192,118556,128,0,118899:0:0:0:0:
475,192,118642,128,0,118813:0:0:0:0:
36,192,118728,128,0,119071:0:0:0:0:
182,192,118813,128,0,118985:0:0:0:0:
475,192,118899,128,0,119156:0:0:0:0:
329,192,118985,128,0,119242:0:0:0:0:
182,192,119071,128,0,119328:0:0:0:0:
36,192,119156,128,0,119413:0:0:0:0:
475,192,119242,128,0,119585:0:0:0:0:
329,192,119328,128,0,119499:0:0:0:0:
182,192,119413,128,0,119756:0:0:0:0:
36,192,119499,128,0,119671:0:0:0:0:
329,192,119585,128,0,119928:0:0:0:0:
475,192,119671,128,0,119842:0:0:0:0:
36,192,119756,128,0,119928:0:0:0:0:
182,192,119842,128,0,119928:0:0:0:0:
256,192,119928,1,0,0:0:0:0:
402,192,119928,1,0,0:0:0:0:
475,192,119928,1,0,0:0:0:0:
109,192,119928,1,0,0:0:0:0:
36,192,120099,1,0,0:0:0:0:
182,192,120099,1,0,0:0:0:0:
256,192,120099,1,0,0:0:0:0:
402,192,120099,1,0,0:0:0:0:
109,192,120271,1,0,0:0:0:0:
36,192,120271,1,0,0:0:0:0:
329,192,120271,1,0,0:0:0:0:
475,192,120271,1,0,0:0:0:0:
402,192,120442,1,0,0:0:0:0:
475,192,120442,1,0,0:0:0:0:
256,192,120442,1,0,0:0:0:0:
182,192,120442,1,0,0:0:0:0:
36,192,120442,1,0,0:0:0:0:
109,192,120613,1,0,0:0:0:0:
182,192,120613,1,0,0:0:0:0:
329,192,120613,1,0,0:0:0:0:
402,192,120613,1,0,0:0:0:0:
182,192,120785,1,0,0:0:0:0:
329,192,120785,1,0,0:0:0:0:
329,192,120871,1,0,0:0:0:0:
182,192,120871,1,0,0:0:0:0:
36,192,120956,1,0,0:0:0:0:
256,192,120956,1,0,0:0:0:0:
402,192,120956,1,0,0:0:0:0:
475,192,120956,1,0,0:0:0:0:
109,192,121128,128,0,121213:0:0:0:0:
182,192,121213,128,0,121299:0:0:0:0:
329,192,121299,128,0,121471:0:0:0:0:
402,192,121385,128,0,121899:0:0:0:0:
256,192,121471,128,0,121728:0:0:0:0:
329,192,121556,128,0,121985:0:0:0:0:
182,192,121642,128,0,121813:0:0:0:0:
109,192,121728,128,0,122242:0:0:0:0:
256,192,121813,128,0,122071:0:0:0:0:
182,192,121899,128,0,122156:0:0:0:0:
402,192,121985,128,0,122585:0:0:0:0:
329,192,122071,128,0,122499:0:0:0:0:
256,192,122156,128,0,122413:0:0:0:0:
182,192,122242,128,0,122328:0:0:0:0:
109,192,122328,128,0,122585:0:0:0:0:
182,192,122413,128,0,122671:0:0:0:0:
256,192,122499,128,0,122671:0:0:0:0:
329,192,122585,128,0,122671:0:0:0:0:
402,192,122671,1,0,0:0:0:0:
475,192,122671,1,0,0:0:0:0:
36,192,122671,1,0,0:0:0:0:
109,192,122671,1,0,0:0:0:0:
182,192,122756,1,0,0:0:0:0:
256,192,122842,1,0,0:0:0:0:
36,192,122928,1,0,0:0:0:0:
109,192,122928,1,0,0:0:0:0:
329,192,122928,1,0,0:0:0:0:
475,192,122928,1,0,0:0:0:0:
182,192,123013,1,0,0:0:0:0:
256,192,123099,1,0,0:0:0:0:
402,192,123185,1,0,0:0:0:0:
475,192,123185,1,0,0:0:0:0:
36,192,123185,1,0,0:0:0:0:
109,192,123185,1,0,0:0:0:0:
329,192,123271,1,0,0:0:0:0:
182,192,123356,1,0,0:0:0:0:
256,192,123442,1,0,0:0:0:0:
402,192,123442,1,0,0:0:0:0:
475,192,123442,1,0,0:0:0:0:
36,192,123442,1,0,0:0:0:0:
109,192,123528,1,0,0:0:0:0:
329,192,123613,1,0,0:0:0:0:
182,192,123699,1,0,0:0:0:0:
402,192,123785,1,0,0:0:0:0:
256,192,123871,1,0,0:0:0:0:
109,192,123956,1,0,0:0:0:0:
36,192,124042,1,0,0:0:0:0:
329,192,124042,1,0,0:0:0:0:
475,192,124042,1,0,0:0:0:0:
182,192,124042,1,0,0:0:0:0:
402,192,124128,1,0,0:0:0:0:
256,192,124213,1,0,0:0:0:0:
109,192,124299,1,0,0:0:0:0:
36,192,124299,1,0,0:0:0:0:
329,192,124299,1,0,0:0:0:0:
475,192,124299,1,0,0:0:0:0:
182,192,124385,1,0,0:0:0:0:
402,192,124471,1,0,0:0:0:0:
36,192,124556,1,0,0:0:0:0:
109,192,124556,1,0,0:0:0:0:
256,192,124556,1,0,0:0:0:0:
475,192,124556,1,0,0:0:0:0:
329,192,124642,1,0,0:0:0:0:
182,192,124728,1,0,0:0:0:0:
256,192,124813,1,0,0:0:0:0:
36,192,124813,1,0,0:0:0:0:
402,192,124813,1,0,0:0:0:0:
475,192,124813,1,0,0:0:0:0:
109,192,124899,1,0,0:0:0:0:
329,192,124985,1,0,0:0:0:0:
475,192,125071,1,0,0:0:0:0:
182,192,125071,1,0,0:0:0:0:
402,192,125156,1,0,0:0:0:0:
36,192,125156,1,0,0:0:0:0:
329,192,125242,1,0,0:0:0:0:
182,192,125242,1,0,0:0:0:0:
36,192,125328,1,0,0:0:0:0:
256,192,125328,1,0,0:0:0:0:
402,192,125413,1,0,0:0:0:0:
475,192,125413,1,0,0:0:0:0:
329,192,125413,1,0,0:0:0:0:
182,192,125413,1,0,0:0:0:0:
109,192,125499,1,0,0:0:0:0:
256,192,125499,1,0,0:0:0:0:
36,192,125585,1,0,0:0:0:0:
329,192,125585,1,0,0:0:0:0:
182,192,125671,1,0,0:0:0:0:
402,192,125671,1,0,0:0:0:0:
475,192,125671,1,0,0:0:0:0:
109,192,125671,1,0,0:0:0:0:
256,192,125756,1,0,0:0:0:0:
36,192,125756,1,0,0:0:0:0:
182,192,125842,1,0,0:0:0:0:
329,192,125842,1,0,0:0:0:0:
256,192,125928,1,0,0:0:0:0:
402,192,125928,1,0,0:0:0:0:
475,192,125928,1,0,0:0:0:0:
109,192,125928,1,0,0:0:0:0:
182,192,126013,1,0,0:0:0:0:
329,192,126013,1,0,0:0:0:0:
256,192,126099,1,0,0:0:0:0:
36,192,126099,1,0,0:0:0:0:
109,192,126099,1,0,0:0:0:0:
475,192,126099,1,0,0:0:0:0:
329,192,126185,1,0,0:0:0:0:
402,192,126185,1,0,0:0:0:0:
182,192,126271,1,0,0:0:0:0:
36,192,126271,1,0,0:0:0:0:
256,192,126356,1,0,0:0:0:0:
109,192,126356,1,0,0:0:0:0:
402,192,126356,1,0,0:0:0:0:
475,192,126356,1,0,0:0:0:0:
182,192,126442,1,0,0:0:0:0:
329,192,126442,1,0,0:0:0:0:
256,192,126528,1,0,0:0:0:0:
475,192,126613,1,0,0:0:0:0:
36,192,126613,1,0,0:0:0:0:
109,192,126613,1,0,0:0:0:0:
329,192,126613,1,0,0:0:0:0:
402,192,126699,1,0,0:0:0:0:
256,192,126785,1,0,0:0:0:0:
182,192,126785,1,0,0:0:0:0:
109,192,126785,1,0,0:0:0:0:
36,192,126785,1,0,0:0:0:0:
329,192,126871,1,0,0:0:0:0:
475,192,126871,1,0,0:0:0:0:
402,192,126871,1,0,0:0:0:0:
256,192,126956,1,0,0:0:0:0:
36,192,127042,1,0,0:0:0:0:
109,192,127042,1,0,0:0:0:0:
182,192,127042,1,0,0:0:0:0:
475,192,127042,1,0,0:0:0:0:
402,192,127128,1,0,0:0:0:0:
36,192,127213,1,0,0:0:0:0:
109,192,127213,1,0,0:0:0:0:
182,192,127213,1,0,0:0:0:0:
256,192,127213,1,0,0:0:0:0:
402,192,127299,1,0,0:0:0:0:
475,192,127299,1,0,0:0:0:0:
329,192,127299,1,0,0:0:0:0:
36,192,127385,1,0,0:0:0:0:
109,192,127385,1,0,0:0:0:0:
182,192,127385,1,0,0:0:0:0:
475,192,127471,1,0,0:0:0:0:
329,192,127471,1,0,0:0:0:0:
256,192,127471,128,0,127642:0:0:0:0:
402,192,127471,1,0,0:0:0:0:
36,192,127556,128,0,127728:0:0:0:0:
182,192,127642,128,0,127813:0:0:0:0:
402,192,127728,128,0,127899:0:0:0:0:
109,192,127813,128,0,127985:0:0:0:0:
329,192,127899,128,0,128071:0:0:0:0:
36,192,127985,128,0,128156:0:0:0:0:
256,192,128071,128,0,128156:0:0:0:0:
475,192,128156,1,0,0:0:0:0:
329,192,128156,1,0,0:0:0:0:
109,192,128156,1,0,0:0:0:0:
402,192,128156,1,0,0:0:0:0:
182,192,128156,1,0,0:0:0:0:
36,192,128413,1,0,0:0:0:0:
109,192,128413,1,0,0:0:0:0:
329,192,128413,1,0,0:0:0:0:
475,192,128413,1,0,0:0:0:0:
256,192,128413,1,0,0:0:0:0:
36,192,128671,1,0,0:0:0:0:
109,192,128671,1,0,0:0:0:0:
329,192,128671,1,0,0:0:0:0:
475,192,128671,1,0,0:0:0:0:
256,192,128671,1,0,0:0:0:0:
36,192,129185,1,0,0:0:0:0:
402,192,129185,1,0,0:0:0:0:
475,192,129185,1,0,0:0:0:0:
182,192,129185,1,0,0:0:0:0:
256,192,129185,1,0,0:0:0:0:
36,192,129442,1,0,0:0:0:0:
402,192,129442,1,0,0:0:0:0:
475,192,129442,1,0,0:0:0:0:
182,192,129442,1,0,0:0:0:0:
256,192,129442,1,0,0:0:0:0:
36,192,129699,1,0,0:0:0:0:
182,192,129699,1,0,0:0:0:0:
402,192,129699,1,0,0:0:0:0:
475,192,129699,1,0,0:0:0:0:
256,192,129699,1,0,0:0:0:0:
109,192,129956,1,0,0:0:0:0:
36,192,129956,1,0,0:0:0:0:
475,192,129956,1,0,0:0:0:0:
256,192,129956,1,0,0:0:0:0:
329,192,129956,1,0,0:0:0:0:
109,192,130128,1,0,0:0:0:0:
256,192,130128,1,0,0:0:0:0:
36,192,130128,1,0,0:0:0:0:
475,192,130128,1,0,0:0:0:0:
329,192,130128,1,0,0:0:0:0:
36,192,130385,1,0,0:0:0:0:
182,192,130385,1,0,0:0:0:0:
329,192,130385,1,0,0:0:0:0:
475,192,130385,1,0,0:0:0:0:
256,192,130556,1,0,0:0:0:0:
36,192,130556,1,0,0:0:0:0:
475,192,130556,1,0,0:0:0:0:
256,192,130899,1,0,0:0:0:0:
402,192,130899,1,0,0:0:0:0:
475,192,130899,1,0,0:0:0:0:
36,192,130899,1,0,0:0:0:0:
109,192,130899,1,0,0:0:0:0:
36,192,131156,1,0,0:0:0:0:
256,192,131156,1,0,0:0:0:0:
402,192,131156,1,0,0:0:0:0:
475,192,131156,1,0,0:0:0:0:
109,192,131156,1,0,0:0:0:0:
36,192,131413,1,0,0:0:0:0:
256,192,131413,1,0,0:0:0:0:
402,192,131413,1,0,0:0:0:0:
475,192,131413,1,0,0:0:0:0:
109,192,131413,1,0,0:0:0:0:
36,192,131928,1,0,0:0:0:0:
475,192,131928,1,0,0:0:0:0:
329,192,131928,1,0,0:0:0:0:
402,192,131928,1,0,0:0:0:0:
182,192,131928,1,0,0:0:0:0:
329,192,132185,1,0,0:0:0:0:
402,192,132185,1,0,0:0:0:0:
475,192,132185,1,0,0:0:0:0:
36,192,132185,1,0,0:0:0:0:
182,192,132185,1,0,0:0:0:0:
36,192,132356,1,0,0:0:0:0:
109,192,132356,1,0,0:0:0:0:
402,192,132356,1,0,0:0:0:0:
475,192,132356,1,0,0:0:0:0:
256,192,132356,1,0,0:0:0:0:
36,192,132613,1,0,0:0:0:0:
109,192,132613,1,0,0:0:0:0:
402,192,132613,1,0,0:0:0:0:
475,192,132613,1,0,0:0:0:0:
256,192,132613,1,0,0:0:0:0:
329,192,132871,1,0,0:0:0:0:
402,192,132871,1,0,0:0:0:0:
475,192,132871,1,0,0:0:0:0:
36,192,132871,1,0,0:0:0:0:
182,192,132871,1,0,0:0:0:0:
256,192,133042,1,0,0:0:0:0:
402,192,133042,1,0,0:0:0:0:
475,192,133042,1,0,0:0:0:0:
109,192,133042,1,0,0:0:0:0:
36,192,133042,1,0,0:0:0:0:
475,192,133128,1,0,0:0:0:0:
402,192,133128,1,0,0:0:0:0:
256,192,133128,1,0,0:0:0:0:
109,192,133128,1,0,0:0:0:0:
36,192,133128,1,0,0:0:0:0:
36,192,133299,1,0,0:0:0:0:
475,192,133299,1,0,0:0:0:0:
256,192,133299,1,0,0:0:0:0:
109,192,133642,1,0,0:0:0:0:
182,192,133642,1,0,0:0:0:0:
402,192,133642,1,0,0:0:0:0:
475,192,133642,1,0,0:0:0:0:
329,192,133642,1,0,0:0:0:0:
109,192,133899,1,0,0:0:0:0:
182,192,133899,1,0,0:0:0:0:
402,192,133899,1,0,0:0:0:0:
475,192,133899,1,0,0:0:0:0:
329,192,133899,1,0,0:0:0:0:
109,192,134156,1,0,0:0:0:0:
182,192,134156,1,0,0:0:0:0:
402,192,134156,1,0,0:0:0:0:
475,192,134156,1,0,0:0:0:0:
329,192,134156,1,0,0:0:0:0:
36,192,134671,1,0,0:0:0:0:
402,192,134671,1,0,0:0:0:0:
475,192,134671,1,0,0:0:0:0:
109,192,134671,1,0,0:0:0:0:
256,192,134671,1,0,0:0:0:0:
109,192,134928,1,0,0:0:0:0:
36,192,134928,1,0,0:0:0:0:
402,192,134928,1,0,0:0:0:0:
475,192,134928,1,0,0:0:0:0:
256,192,134928,1,0,0:0:0:0:
109,192,135185,1,0,0:0:0:0:
36,192,135185,1,0,0:0:0:0:
402,192,135185,1,0,0:0:0:0:
475,192,135185,1,0,0:0:0:0:
256,192,135185,1,0,0:0:0:0:
109,192,135442,1,0,0:0:0:0:
36,192,135442,1,0,0:0:0:0:
475,192,135442,1,0,0:0:0:0:
402,192,135442,1,0,0:0:0:0:
182,192,135442,1,0,0:0:0:0:
109,192,135613,1,0,0:0:0:0:
36,192,135613,1,0,0:0:0:0:
402,192,135613,1,0,0:0:0:0:
475,192,135613,1,0,0:0:0:0:
182,192,135613,1,0,0:0:0:0:
109,192,135871,1,0,0:0:0:0:
36,192,135871,1,0,0:0:0:0:
402,192,135871,1,0,0:0:0:0:
475,192,135871,1,0,0:0:0:0:
329,192,135871,1,0,0:0:0:0:
256,192,136042,1,0,0:0:0:0:
36,192,136042,1,0,0:0:0:0:
475,192,136042,1,0,0:0:0:0:
36,192,136385,1,0,0:0:0:0:
402,192,136385,1,0,0:0:0:0:
475,192,136385,1,0,0:0:0:0:
329,192,136385,1,0,0:0:0:0:
182,192,136385,1,0,0:0:0:0:
36,192,136642,1,0,0:0:0:0:
329,192,136642,1,0,0:0:0:0:
402,192,136642,1,0,0:0:0:0:
475,192,136642,1,0,0:0:0:0:
182,192,136642,1,0,0:0:0:0:
36,192,136899,1,0,0:0:0:0:
329,192,136899,1,0,0:0:0:0:
402,192,136899,1,0,0:0:0:0:
475,192,136899,1,0,0:0:0:0:
182,192,136899,1,0,0:0:0:0:
36,192,137413,1,0,0:0:0:0:
182,192,137413,1,0,0:0:0:0:
329,192,137413,1,0,0:0:0:0:
475,192,137413,1,0,0:0:0:0:
256,192,137413,1,0,0:0:0:0:
182,192,137671,1,0,0:0:0:0:
36,192,137671,1,0,0:0:0:0:
329,192,137671,1,0,0:0:0:0:
475,192,137671,1,0,0:0:0:0:
256,192,137671,1,0,0:0:0:0:
182,192,137842,1,0,0:0:0:0:
36,192,137842,1,0,0:0:0:0:
329,192,137842,1,0,0:0:0:0:
475,192,137842,1,0,0:0:0:0:
256,192,137842,1,0,0:0:0:0:
36,192,138099,1,0,0:0:0:0:
182,192,138099,1,0,0:0:0:0:
329,192,138099,1,0,0:0:0:0:
475,192,138099,1,0,0:0:0:0:
256,192,138099,1,0,0:0:0:0:
475,192,138356,1,0,0:0:0:0:
402,192,138356,1,0,0:0:0:0:
329,192,138356,1,0,0:0:0:0:
109,192,138442,1,0,0:0:0:0:
36,192,138442,1,0,0:0:0:0:
256,192,138442,1,0,0:0:0:0:
402,192,138528,1,0,0:0:0:0:
182,192,138528,1,0,0:0:0:0:
475,192,138528,1,0,0:0:0:0:
109,192,138613,1,0,0:0:0:0:
329,192,138613,1,0,0:0:0:0:
256,192,138613,1,0,0:0:0:0:
36,192,138656,1,0,0:0:0:0:
475,192,138699,1,0,0:0:0:0:
182,192,138742,1,0,0:0:0:0:
402,192,138742,1,0,0:0:0:0:
109,192,138785,1,0,0:0:0:0:
329,192,138785,1,0,0:0:0:0:
36,192,138785,1,0,0:0:0:0:
256,192,138785,1,0,0:0:0:0:
475,192,138871,128,0,138956:0:0:0:0:
402,192,138956,128,0,139042:0:0:0:0:
329,192,139042,128,0,139128:0:0:0:0:
36,192,139128,128,0,140499:0:0:0:0:
109,192,139128,1,0,0:0:0:0:
182,192,139128,1,0,0:0:0:0:
475,192,139128,1,0,0:0:0:0:
402,192,139128,1,0,0:0:0:0:
109,192,139385,1,0,0:0:0:0:
182,192,139385,1,0,0:0:0:0:
402,192,139385,1,0,0:0:0:0:
475,192,139385,1,0,0:0:0:0:
182,192,139642,1,0,0:0:0:0:
109,192,139642,1,0,0:0:0:0:
402,192,139642,1,0,0:0:0:0:
475,192,139642,1,0,0:0:0:0:
109,192,140156,1,0,0:0:0:0:
182,192,140156,1,0,0:0:0:0:
402,192,140156,1,0,0:0:0:0:
475,192,140156,1,0,0:0:0:0:
109,192,140413,1,0,0:0:0:0:
182,192,140413,1,0,0:0:0:0:
402,192,140413,1,0,0:0:0:0:
475,192,140413,1,0,0:0:0:0:
256,192,140499,128,0,141185:0:0:0:0:
36,192,140671,1,0,0:0:0:0:
109,192,140671,1,0,0:0:0:0:
329,192,140671,1,0,0:0:0:0:
475,192,140671,1,0,0:0:0:0:
36,192,140928,1,0,0:0:0:0:
109,192,140928,1,0,0:0:0:0:
329,192,140928,1,0,0:0:0:0:
475,192,140928,1,0,0:0:0:0:
36,192,141099,1,0,0:0:0:0:
182,192,141099,1,0,0:0:0:0:
402,192,141099,1,0,0:0:0:0:
475,192,141099,1,0,0:0:0:0:
329,192,141185,128,0,141528:0:0:0:0:
36,192,141356,1,0,0:0:0:0:
182,192,141356,1,0,0:0:0:0:
402,192,141356,1,0,0:0:0:0:
475,192,141356,1,0,0:0:0:0:
109,192,141528,1,0,0:0:0:0:
36,192,141528,1,0,0:0:0:0:
256,192,141528,1,0,0:0:0:0:
402,192,141528,1,0,0:0:0:0:
475,192,141528,1,0,0:0:0:0:
402,192,141871,128,0,143071:0:0:0:0:
109,192,141871,1,0,0:0:0:0:
36,192,141871,1,0,0:0:0:0:
256,192,141871,1,0,0:0:0:0:
475,192,141871,1,0,0:0:0:0:
256,192,142128,1,0,0:0:0:0:
109,192,142128,1,0,0:0:0:0:
36,192,142128,1,0,0:0:0:0:
475,192,142128,1,0,0:0:0:0:
256,192,142385,1,0,0:0:0:0:
36,192,142385,1,0,0:0:0:0:
109,192,142385,1,0,0:0:0:0:
475,192,142385,1,0,0:0:0:0:
256,192,142899,1,0,0:0:0:0:
109,192,142899,1,0,0:0:0:0:
36,192,142899,1,0,0:0:0:0:
182,192,142899,1,0,0:0:0:0:
329,192,143071,128,0,143156:0:0:0:0:
402,192,143156,128,0,143242:0:0:0:0:
109,192,143156,1,0,0:0:0:0:
36,192,143156,1,0,0:0:0:0:
182,192,143156,1,0,0:0:0:0:
256,192,143156,1,0,0:0:0:0:
475,192,143242,128,0,143585:0:0:0:0:
256,192,143328,1,0,0:0:0:0:
182,192,143328,1,0,0:0:0:0:
109,192,143328,1,0,0:0:0:0:
36,192,143328,1,0,0:0:0:0:
329,192,143585,128,0,143928:0:0:0:0:
36,192,143585,1,0,0:0:0:0:
109,192,143585,1,0,0:0:0:0:
256,192,143585,1,0,0:0:0:0:
402,192,143585,1,0,0:0:0:0:
36,192,143842,1,0,0:0:0:0:
109,192,143842,1,0,0:0:0:0:
402,192,143842,1,0,0:0:0:0:
182,192,143842,1,0,0:0:0:0:
256,192,143928,128,0,144271:0:0:0:0:
109,192,144013,1,0,0:0:0:0:
36,192,144013,1,0,0:0:0:0:
402,192,144013,1,0,0:0:0:0:
475,192,144013,1,0,0:0:0:0:
475,192,144099,1,0,0:0:0:0:
402,192,144099,1,0,0:0:0:0:
109,192,144099,1,0,0:0:0:0:
36,192,144099,1,0,0:0:0:0:
36,192,144271,1,0,0:0:0:0:
182,192,144271,1,0,0:0:0:0:
329,192,144271,1,0,0:0:0:0:
475,192,144271,1,0,0:0:0:0:
109,192,144271,1,0,0:0:0:0:
256,192,144613,128,0,146071:0:0:0:0:
36,192,144613,1,0,0:0:0:0:
182,192,144613,1,0,0:0:0:0:
402,192,144613,1,0,0:0:0:0:
475,192,144613,1,0,0:0:0:0:
36,192,144871,1,0,0:0:0:0:
182,192,144871,1,0,0:0:0:0:
402,192,144871,1,0,0:0:0:0:
475,192,144871,1,0,0:0:0:0:
402,192,145128,1,0,0:0:0:0:
475,192,145128,1,0,0:0:0:0:
182,192,145128,1,0,0:0:0:0:
36,192,145128,1,0,0:0:0:0:
36,192,145642,1,0,0:0:0:0:
182,192,145642,1,0,0:0:0:0:
402,192,145642,1,0,0:0:0:0:
475,192,145642,1,0,0:0:0:0:
182,192,145899,1,0,0:0:0:0:
36,192,145899,1,0,0:0:0:0:
402,192,145899,1,0,0:0:0:0:
475,192,145899,1,0,0:0:0:0:
329,192,146071,128,0,146671:0:0:0:0:
402,192,146156,1,0,0:0:0:0:
475,192,146156,1,0,0:0:0:0:
182,192,146156,1,0,0:0:0:0:
36,192,146156,1,0,0:0:0:0:
36,192,146413,1,0,0:0:0:0:
109,192,146413,1,0,0:0:0:0:
256,192,146413,1,0,0:0:0:0:
475,192,146413,1,0,0:0:0:0:
256,192,146585,1,0,0:0:0:0:
109,192,146585,1,0,0:0:0:0:
36,192,146585,1,0,0:0:0:0:
475,192,146585,1,0,0:0:0:0:
402,192,146671,128,0,147013:0:0:0:0:
36,192,146842,1,0,0:0:0:0:
256,192,146842,1,0,0:0:0:0:
109,192,146842,1,0,0:0:0:0:
475,192,146842,1,0,0:0:0:0:
182,192,147013,1,0,0:0:0:0:
36,192,147013,1,0,0:0:0:0:
256,192,147013,1,0,0:0:0:0:
329,192,147013,1,0,0:0:0:0:
475,192,147013,1,0,0:0:0:0:
475,192,147356,128,0,148728:0:0:0:0:
36,192,147356,1,0,0:0:0:0:
256,192,147356,1,0,0:0:0:0:
109,192,147356,1,0,0:0:0:0:
402,192,147356,1,0,0:0:0:0:
36,192,147613,1,0,0:0:0:0:
109,192,147613,1,0,0:0:0:0:
256,192,147613,1,0,0:0:0:0:
402,192,147613,1,0,0:0:0:0:
36,192,147785,1,0,0:0:0:0:
109,192,147785,1,0,0:0:0:0:
256,192,147785,1,0,0:0:0:0:
402,192,147785,1,0,0:0:0:0:
182,192,147871,1,0,0:0:0:0:
329,192,147871,1,0,0:0:0:0:
402,192,147871,1,0,0:0:0:0:
36,192,148042,1,0,0:0:0:0:
109,192,148042,1,0,0:0:0:0:
256,192,148042,1,0,0:0:0:0:
402,192,148042,1,0,0:0:0:0:
36,192,148299,1,0,0:0:0:0:
109,192,148299,1,0,0:0:0:0:
256,192,148299,1,0,0:0:0:0:
402,192,148299,1,0,0:0:0:0:
36,192,148471,1,0,0:0:0:0:
109,192,148471,1,0,0:0:0:0:
256,192,148471,1,0,0:0:0:0:
402,192,148471,1,0,0:0:0:0:
402,192,148556,1,0,0:0:0:0:
329,192,148556,1,0,0:0:0:0:
182,192,148556,1,0,0:0:0:0:
36,192,148728,1,0,0:0:0:0:
109,192,148728,1,0,0:0:0:0:
256,192,148728,1,0,0:0:0:0:
402,192,148728,1,0,0:0:0:0:
36,192,148842,1,0,0:0:0:0:
329,192,148842,1,0,0:0:0:0:
475,192,148842,1,0,0:0:0:0:
182,192,148842,1,0,0:0:0:0:
109,192,148956,1,0,0:0:0:0:
256,192,148956,1,0,0:0:0:0:
402,192,148956,1,0,0:0:0:0:
475,192,148956,1,0,0:0:0:0:
329,192,149071,1,0,0:0:0:0:
182,192,149071,1,0,0:0:0:0:
36,192,149071,1,0,0:0:0:0:
109,192,149071,1,0,0:0:0:0:
475,192,149185,1,0,0:0:0:0:
256,192,149185,1,0,0:0:0:0:
329,192,149185,1,0,0:0:0:0:
402,192,149185,1,0,0:0:0:0:
182,192,149299,1,0,0:0:0:0:
36,192,149299,1,0,0:0:0:0:
256,192,149299,1,0,0:0:0:0:
109,192,149299,1,0,0:0:0:0:
36,192,149413,1,0,0:0:0:0:
475,192,149413,1,0,0:0:0:0:
109,192,149413,1,0,0:0:0:0:
402,192,149413,1,0,0:0:0:0:
329,192,149413,1,0,0:0:0:0:
182,192,149499,1,0,0:0:0:0:
256,192,149585,1,0,0:0:0:0:
36,192,149642,1,0,0:0:0:0:
109,192,149642,1,0,0:0:0:0:
475,192,149642,1,0,0:0:0:0:
402,192,149699,1,0,0:0:0:0:
256,192,149756,1,0,0:0:0:0:
182,192,149756,1,0,0:0:0:0:
329,192,149756,1,0,0:0:0:0:
109,192,149813,1,0,0:0:0:0:
36,192,149871,1,0,0:0:0:0:
475,192,149871,1,0,0:0:0:0:
402,192,149871,1,0,0:0:0:0:
329,192,149928,1,0,0:0:0:0:
256,192,149985,1,0,0:0:0:0:
182,192,150042,1,0,0:0:0:0:
109,192,150099,1,0,0:0:0:0:
36,192,150099,1,0,0:0:0:0:
329,192,150099,1,0,0:0:0:0:
402,192,150099,1,0,0:0:0:0:
475,192,150099,1,0,0:0:0:0:
329,192,150785,128,0,152842:0:0:0:0:
182,192,152842,1,0,0:0:0:0:
182,192,153528,128,0,155585:0:0:0:0:
329,192,154213,1,0,0:0:0:0:
329,192,154299,1,0,0:0:0:0:
329,192,154471,1,0,0:0:0:0:
329,192,154728,1,0,0:0:0:0:
329,192,154813,1,0,0:0:0:0:
329,192,154985,1,0,0:0:0:0:
329,192,155242,1,0,0:0:0:0:
329,192,155413,1,0,0:0:0:0:
36,192,155585,1,0,0:0:0:0:
475,192,155585,1,0,0:0:0:0:
402,192,155585,1,0,0:0:0:0:
329,192,155585,1,0,0:0:0:0:
109,192,155671,1,0,0:0:0:0:
256,192,155671,1,0,0:0:0:0:
329,192,155756,1,0,0:0:0:0:
475,192,155756,1,0,0:0:0:0:
182,192,155756,1,0,0:0:0:0:
36,192,155842,1,0,0:0:0:0:
109,192,155842,1,0,0:0:0:0:
256,192,155928,1,0,0:0:0:0:
402,192,155928,1,0,0:0:0:0:
475,192,155928,1,0,0:0:0:0:
182,192,156013,1,0,0:0:0:0:
36,192,156013,1,0,0:0:0:0:
109,192,156099,1,0,0:0:0:0:
329,192,156099,1,0,0:0:0:0:
475,192,156099,1,0,0:0:0:0:
256,192,156185,1,0,0:0:0:0:
402,192,156185,1,0,0:0:0:0:
182,192,156271,1,0,0:0:0:0:
36,192,156271,1,0,0:0:0:0:
329,192,156271,1,0,0:0:0:0:
402,192,156356,1,0,0:0:0:0:
475,192,156356,1,0,0:0:0:0:
36,192,156442,1,0,0:0:0:0:
109,192,156442,1,0,0:0:0:0:
256,192,156442,1,0,0:0:0:0:
329,192,156528,1,0,0:0:0:0:
475,192,156528,1,0,0:0:0:0:
182,192,156613,1,0,0:0:0:0:
36,192,156613,1,0,0:0:0:0:
402,192,156613,1,0,0:0:0:0:
256,192,156699,1,0,0:0:0:0:
329,192,156699,1,0,0:0:0:0:
109,192,156785,1,0,0:0:0:0:
402,192,156785,1,0,0:0:0:0:
475,192,156785,1,0,0:0:0:0:
182,192,156871,1,0,0:0:0:0:
256,192,156871,1,0,0:0:0:0:
36,192,156956,1,0,0:0:0:0:
109,192,156956,1,0,0:0:0:0:
475,192,156956,1,0,0:0:0:0:
329,192,156956,1,0,0:0:0:0:
402,192,157042,1,0,0:0:0:0:
182,192,157042,1,0,0:0:0:0:
36,192,157128,1,0,0:0:0:0:
256,192,157128,1,0,0:0:0:0:
475,192,157128,1,0,0:0:0:0:
109,192,157213,1,0,0:0:0:0:
329,192,157213,1,0,0:0:0:0:
182,192,157299,1,0,0:0:0:0:
402,192,157299,1,0,0:0:0:0:
475,192,157299,1,0,0:0:0:0:
329,192,157385,1,0,0:0:0:0:
36,192,157385,1,0,0:0:0:0:
109,192,157471,1,0,0:0:0:0:
256,192,157471,1,0,0:0:0:0:
475,192,157471,1,0,0:0:0:0:
182,192,157556,1,0,0:0:0:0:
329,192,157556,1,0,0:0:0:0:
256,192,157642,1,0,0:0:0:0:
402,192,157642,1,0,0:0:0:0:
36,192,157642,1,0,0:0:0:0:
109,192,157728,1,0,0:0:0:0:
182,192,157728,1,0,0:0:0:0:
329,192,157813,1,0,0:0:0:0:
475,192,157813,1,0,0:0:0:0:
36,192,157813,1,0,0:0:0:0:
256,192,157899,1,0,0:0:0:0:
402,192,157899,1,0,0:0:0:0:
182,192,157985,1,0,0:0:0:0:
109,192,157985,1,0,0:0:0:0:
329,192,157985,1,0,0:0:0:0:
475,192,158071,1,0,0:0:0:0:
256,192,158071,1,0,0:0:0:0:
36,192,158156,1,0,0:0:0:0:
109,192,158156,1,0,0:0:0:0:
329,192,158156,1,0,0:0:0:0:
182,192,158242,1,0,0:0:0:0:
402,192,158242,1,0,0:0:0:0:
475,192,158242,1,0,0:0:0:0:
36,192,158328,1,0,0:0:0:0:
109,192,158328,1,0,0:0:0:0:
256,192,158328,1,0,0:0:0:0:
329,192,158371,1,0,0:0:0:0:
402,192,158413,1,0,0:0:0:0:
182,192,158413,1,0,0:0:0:0:
475,192,158456,1,0,0:0:0:0:
36,192,158499,1,0,0:0:0:0:
256,192,158499,1,0,0:0:0:0:
109,192,158542,1,0,0:0:0:0:
182,192,158585,1,0,0:0:0:0:
402,192,158585,1,0,0:0:0:0:
329,192,158628,1,0,0:0:0:0:
36,192,158671,1,0,0:0:0:0:
256,192,158671,1,0,0:0:0:0:
475,192,158713,1,0,0:0:0:0:
109,192,158756,1,0,0:0:0:0:
402,192,158756,1,0,0:0:0:0:
182,192,158799,1,0,0:0:0:0:
256,192,158842,1,0,0:0:0:0:
475,192,158842,1,0,0:0:0:0:
329,192,158885,1,0,0:0:0:0:
36,192,158928,1,0,0:0:0:0:
109,192,158928,1,0,0:0:0:0:
182,192,158971,1,0,0:0:0:0:
475,192,159013,1,0,0:0:0:0:
402,192,159013,1,0,0:0:0:0:
256,192,159013,1,0,0:0:0:0:
329,192,159056,1,0,0:0:0:0:
36,192,159099,1,0,0:0:0:0:
109,192,159099,1,0,0:0:0:0:
182,192,159142,1,0,0:0:0:0:
256,192,159185,1,0,0:0:0:0:
475,192,159185,1,0,0:0:0:0:
402,192,159228,1,0,0:0:0:0:
329,192,159271,1,0,0:0:0:0:
36,192,159271,1,0,0:0:0:0:
182,192,159313,1,0,0:0:0:0:
256,192,159356,1,0,0:0:0:0:
475,192,159356,1,0,0:0:0:0:
109,192,159399,1,0,0:0:0:0:
402,192,159442,1,0,0:0:0:0:
36,192,159442,1,0,0:0:0:0:
182,192,159485,1,0,0:0:0:0:
329,192,159528,1,0,0:0:0:0:
475,192,159528,1,0,0:0:0:0:
256,192,159571,1,0,0:0:0:0:
109,192,159613,1,0,0:0:0:0:
36,192,159613,1,0,0:0:0:0:
182,192,159656,1,0,0:0:0:0:
329,192,159699,1,0,0:0:0:0:
402,192,159699,1,0,0:0:0:0:
475,192,159699,1,0,0:0:0:0:
182,192,159871,1,0,0:0:0:0:
182,192,159956,1,0,0:0:0:0:
329,192,160042,1,0,0:0:0:0:
329,192,160128,1,0,0:0:0:0:
109,192,160213,1,0,0:0:0:0:
182,192,160213,1,0,0:0:0:0:
182,192,160299,1,0,0:0:0:0:
109,192,160299,1,0,0:0:0:0:
402,192,160385,1,0,0:0:0:0:
329,192,160385,1,0,0:0:0:0:
329,192,160471,1,0,0:0:0:0:
402,192,160471,1,0,0:0:0:0:
182,192,160556,1,0,0:0:0:0:
36,192,160556,1,0,0:0:0:0:
36,192,160642,1,0,0:0:0:0:
182,192,160642,1,0,0:0:0:0:
329,192,160728,1,0,0:0:0:0:
475,192,160728,1,0,0:0:0:0:
36,192,161071,1,0,0:0:0:0:
109,192,161071,1,0,0:0:0:0:
256,192,161071,1,0,0:0:0:0:
402,192,161071,1,0,0:0:0:0:
475,192,161071,1,0,0:0:0:0:
182,192,161242,1,0,0:0:0:0:
329,192,161242,128,0,161413:0:0:0:0:
182,192,161328,1,0,0:0:0:0:
36,192,161413,1,0,0:0:0:0:
256,192,161413,1,0,0:0:0:0:
402,192,161413,1,0,0:0:0:0:
475,192,161413,1,0,0:0:0:0:
109,192,161585,1,0,0:0:0:0:
182,192,161585,1,0,0:0:0:0:
329,192,161585,1,0,0:0:0:0:
36,192,161756,1,0,0:0:0:0:
256,192,161756,1,0,0:0:0:0:
402,192,161756,1,0,0:0:0:0:
475,192,161756,1,0,0:0:0:0:
109,192,161756,1,0,0:0:0:0:
329,192,161928,1,0,0:0:0:0:
182,192,161928,128,0,162099:0:0:0:0:
329,192,162013,1,0,0:0:0:0:
256,192,162099,1,0,0:0:0:0:
475,192,162099,1,0,0:0:0:0:
36,192,162099,1,0,0:0:0:0:
109,192,162099,1,0,0:0:0:0:
182,192,162271,1,0,0:0:0:0:
329,192,162271,1,0,0:0:0:0:
402,192,162271,1,0,0:0:0:0:
109,192,162442,1,0,0:0:0:0:
36,192,162442,1,0,0:0:0:0:
256,192,162442,1,0,0:0:0:0:
475,192,162442,1,0,0:0:0:0:
402,192,162442,1,0,0:0:0:0:
109,192,162613,1,0,0:0:0:0:
329,192,162613,128,0,162785:0:0:0:0:
109,192,162699,1,0,0:0:0:0:
36,192,162785,1,0,0:0:0:0:
256,192,162785,1,0,0:0:0:0:
182,192,162785,1,0,0:0:0:0:
402,192,162785,1,0,0:0:0:0:
329,192,162956,1,0,0:0:0:0:
109,192,162956,1,0,0:0:0:0:
36,192,163128,1,0,0:0:0:0:
182,192,163128,1,0,0:0:0:0:
402,192,163128,1,0,0:0:0:0:
256,192,163128,1,0,0:0:0:0:
475,192,163128,1,0,0:0:0:0:
402,192,163299,1,0,0:0:0:0:
109,192,163299,128,0,163471:0:0:0:0:
402,192,163385,1,0,0:0:0:0:
182,192,163471,1,0,0:0:0:0:
329,192,163471,1,0,0:0:0:0:
475,192,163471,1,0,0:0:0:0:
36,192,163471,1,0,0:0:0:0:
256,192,163642,1,0,0:0:0:0:
256,192,163728,1,0,0:0:0:0:
36,192,163813,1,0,0:0:0:0:
182,192,163813,1,0,0:0:0:0:
329,192,163813,1,0,0:0:0:0:
475,192,163813,1,0,0:0:0:0:
402,192,163813,1,0,0:0:0:0:
182,192,163985,128,0,164156:0:0:0:0:
256,192,163985,128,0,164156:0:0:0:0:
329,192,164071,128,0,164156:0:0:0:0:
36,192,164156,1,0,0:0:0:0:
109,192,164156,1,0,0:0:0:0:
402,192,164156,1,0,0:0:0:0:
475,192,164156,1,0,0:0:0:0:
329,192,164328,1,0,0:0:0:0:
329,192,164413,128,0,164499:0:0:0:0:
36,192,164499,1,0,0:0:0:0:
182,192,164499,1,0,0:0:0:0:
256,192,164499,1,0,0:0:0:0:
475,192,164499,1,0,0:0:0:0:
402,192,164499,1,0,0:0:0:0:
109,192,164671,128,0,164842:0:0:0:0:
256,192,164671,128,0,164842:0:0:0:0:
329,192,164756,128,0,164842:0:0:0:0:
36,192,164842,1,0,0:0:0:0:
402,192,164842,1,0,0:0:0:0:
475,192,164842,1,0,0:0:0:0:
182,192,164842,1,0,0:0:0:0:
256,192,165013,1,0,0:0:0:0:
256,192,165099,128,0,165185:0:0:0:0:
36,192,165185,1,0,0:0:0:0:
182,192,165185,1,0,0:0:0:0:
109,192,165185,1,0,0:0:0:0:
402,192,165185,1,0,0:0:0:0:
475,192,165185,1,0,0:0:0:0:
329,192,165356,128,0,165528:0:0:0:0:
182,192,165356,128,0,165528:0:0:0:0:
402,192,165442,128,0,165528:0:0:0:0:
36,192,165528,1,0,0:0:0:0:
109,192,165528,1,0,0:0:0:0:
475,192,165528,1,0,0:0:0:0:
256,192,165528,1,0,0:0:0:0:
182,192,165699,1,0,0:0:0:0:
182,192,165785,128,0,165871:0:0:0:0:
36,192,165871,1,0,0:0:0:0:
329,192,165871,1,0,0:0:0:0:
475,192,165871,1,0,0:0:0:0:
256,192,165871,1,0,0:0:0:0:
402,192,165871,1,0,0:0:0:0:
109,192,166042,128,0,166213:0:0:0:0:
182,192,166128,128,0,166213:0:0:0:0:
256,192,166213,1,0,0:0:0:0:
402,192,166213,1,0,0:0:0:0:
475,192,166213,1,0,0:0:0:0:
36,192,166213,1,0,0:0:0:0:
329,192,166385,128,0,166556:0:0:0:0:
182,192,166385,128,0,166556:0:0:0:0:
36,192,166556,1,0,0:0:0:0:
109,192,166556,1,0,0:0:0:0:
256,192,166556,1,0,0:0:0:0:
402,192,166556,1,0,0:0:0:0:
475,192,166556,1,0,0:0:0:0:
182,192,166728,1,0,0:0:0:0:
329,192,166728,128,0,166813:0:0:0:0:
182,192,166813,1,0,0:0:0:0:
402,192,166813,128,0,166899:0:0:0:0:
256,192,166899,1,0,0:0:0:0:
109,192,166899,1,0,0:0:0:0:
36,192,166899,1,0,0:0:0:0:
475,192,166899,1,0,0:0:0:0:
182,192,167071,1,0,0:0:0:0:
329,192,167071,1,0,0:0:0:0:
402,192,167071,1,0,0:0:0:0:
109,192,167242,1,0,0:0:0:0:
36,192,167242,1,0,0:0:0:0:
256,192,167242,1,0,0:0:0:0:
329,192,167242,1,0,0:0:0:0:
475,192,167242,1,0,0:0:0:0:
329,192,167413,1,0,0:0:0:0:
182,192,167413,128,0,167499:0:0:0:0:
329,192,167499,1,0,0:0:0:0:
109,192,167499,128,0,167585:0:0:0:0:
36,192,167585,1,0,0:0:0:0:
256,192,167585,1,0,0:0:0:0:
402,192,167585,1,0,0:0:0:0:
475,192,167585,1,0,0:0:0:0:
109,192,167756,1,0,0:0:0:0:
182,192,167756,1,0,0:0:0:0:
329,192,167756,1,0,0:0:0:0:
36,192,167928,1,0,0:0:0:0:
182,192,167928,1,0,0:0:0:0:
256,192,167928,1,0,0:0:0:0:
402,192,167928,1,0,0:0:0:0:
475,192,167928,1,0,0:0:0:0:
109,192,168099,1,0,0:0:0:0:
329,192,168099,128,0,168185:0:0:0:0:
109,192,168185,1,0,0:0:0:0:
402,192,168185,128,0,168271:0:0:0:0:
36,192,168271,1,0,0:0:0:0:
182,192,168271,1,0,0:0:0:0:
475,192,168271,1,0,0:0:0:0:
256,192,168271,1,0,0:0:0:0:
109,192,168442,1,0,0:0:0:0:
402,192,168442,1,0,0:0:0:0:
329,192,168442,1,0,0:0:0:0:
36,192,168613,1,0,0:0:0:0:
475,192,168613,1,0,0:0:0:0:
256,192,168613,1,0,0:0:0:0:
182,192,168613,1,0,0:0:0:0:
329,192,168613,1,0,0:0:0:0:
402,192,168785,1,0,0:0:0:0:
109,192,168785,128,0,168871:0:0:0:0:
402,192,168871,1,0,0:0:0:0:
182,192,168871,128,0,168956:0:0:0:0:
36,192,168956,1,0,0:0:0:0:
256,192,168956,1,0,0:0:0:0:
329,192,168956,1,0,0:0:0:0:
475,192,168956,1,0,0:0:0:0:
256,192,169128,1,0,0:0:0:0:
256,192,169213,1,0,0:0:0:0:
36,192,169299,128,0,170671:0:0:0:0:
182,192,169299,1,0,0:0:0:0:
402,192,169299,1,0,0:0:0:0:
475,192,169299,1,0,0:0:0:0:
329,192,169471,1,0,0:0:0:0:
182,192,169556,1,0,0:0:0:0:
256,192,169642,1,0,0:0:0:0:
475,192,169642,1,0,0:0:0:0:
402,192,169642,1,0,0:0:0:0:
329,192,169813,1,0,0:0:0:0:
182,192,169813,1,0,0:0:0:0:
475,192,169985,128,0,170671:0:0:0:0:
109,192,169985,1,0,0:0:0:0:
256,192,169985,1,0,0:0:0:0:
402,192,169985,1,0,0:0:0:0:
182,192,170156,1,0,0:0:0:0:
109,192,170328,1,0,0:0:0:0:
329,192,170328,1,0,0:0:0:0:
402,192,170328,1,0,0:0:0:0:
256,192,170499,1,0,0:0:0:0:
182,192,170671,128,0,172042:0:0:0:0:
109,192,170671,1,0,0:0:0:0:
329,192,170671,1,0,0:0:0:0:
402,192,170671,1,0,0:0:0:0:
256,192,170842,1,0,0:0:0:0:
402,192,170928,1,0,0:0:0:0:
36,192,171013,1,0,0:0:0:0:
109,192,171013,1,0,0:0:0:0:
329,192,171013,1,0,0:0:0:0:
256,192,171185,1,0,0:0:0:0:
475,192,171185,1,0,0:0:0:0:
329,192,171356,128,0,172042:0:0:0:0:
109,192,171356,1,0,0:0:0:0:
36,192,171356,1,0,0:0:0:0:
402,192,171356,1,0,0:0:0:0:
256,192,171528,1,0,0:0:0:0:
402,192,171699,1,0,0:0:0:0:
475,192,171699,1,0,0:0:0:0:
109,192,171699,1,0,0:0:0:0:
256,192,171871,1,0,0:0:0:0:
36,192,172042,1,0,0:0:0:0:
109,192,172042,1,0,0:0:0:0:
256,192,172042,1,0,0:0:0:0:
402,192,172042,1,0,0:0:0:0:
475,192,172042,1,0,0:0:0:0:
329,192,172213,1,0,0:0:0:0:
182,192,172213,128,0,172385:0:0:0:0:
329,192,172299,1,0,0:0:0:0:
36,192,172385,1,0,0:0:0:0:
109,192,172385,1,0,0:0:0:0:
256,192,172385,1,0,0:0:0:0:
475,192,172385,1,0,0:0:0:0:
182,192,172556,1,0,0:0:0:0:
402,192,172556,1,0,0:0:0:0:
329,192,172556,128,0,172642:0:0:0:0:
329,192,172728,1,0,0:0:0:0:
256,192,172728,1,0,0:0:0:0:
475,192,172728,1,0,0:0:0:0:
36,192,172728,1,0,0:0:0:0:
109,192,172728,1,0,0:0:0:0:
182,192,172899,1,0,0:0:0:0:
402,192,172899,128,0,173071:0:0:0:0:
182,192,172985,1,0,0:0:0:0:
36,192,173071,1,0,0:0:0:0:
109,192,173071,1,0,0:0:0:0:
256,192,173071,1,0,0:0:0:0:
475,192,173071,1,0,0:0:0:0:
402,192,173242,1,0,0:0:0:0:
182,192,173242,1,0,0:0:0:0:
329,192,173242,128,0,173328:0:0:0:0:
36,192,173413,1,0,0:0:0:0:
256,192,173413,1,0,0:0:0:0:
475,192,173413,1,0,0:0:0:0:
109,192,173413,1,0,0:0:0:0:
329,192,173413,1,0,0:0:0:0:
402,192,173585,1,0,0:0:0:0:
182,192,173585,128,0,173756:0:0:0:0:
402,192,173671,1,0,0:0:0:0:
36,192,173756,1,0,0:0:0:0:
109,192,173756,1,0,0:0:0:0:
256,192,173756,1,0,0:0:0:0:
475,192,173756,1,0,0:0:0:0:
329,192,173928,128,0,174013:0:0:0:0:
182,192,173928,1,0,0:0:0:0:
36,192,174099,1,0,0:0:0:0:
256,192,174099,1,0,0:0:0:0:
402,192,174099,1,0,0:0:0:0:
475,192,174099,1,0,0:0:0:0:
182,192,174099,1,0,0:0:0:0:
109,192,174271,1,0,0:0:0:0:
329,192,174271,128,0,174442:0:0:0:0:
109,192,174356,1,0,0:0:0:0:
402,192,174442,1,0,0:0:0:0:
475,192,174442,1,0,0:0:0:0:
36,192,174442,1,0,0:0:0:0:
182,192,174442,1,0,0:0:0:0:
256,192,174613,1,0,0:0:0:0:
256,192,174699,1,0,0:0:0:0:
36,192,174785,1,0,0:0:0:0:
182,192,174785,1,0,0:0:0:0:
329,192,174785,1,0,0:0:0:0:
402,192,174785,1,0,0:0:0:0:
475,192,174785,1,0,0:0:0:0:
109,192,174956,128,0,175128:0:0:0:0:
256,192,174956,128,0,175128:0:0:0:0:
329,192,175042,128,0,175128:0:0:0:0:
36,192,175128,1,0,0:0:0:0:
182,192,175128,1,0,0:0:0:0:
402,192,175128,1,0,0:0:0:0:
475,192,175128,1,0,0:0:0:0:
329,192,175299,1,0,0:0:0:0:
109,192,175299,1,0,0:0:0:0:
329,192,175385,128,0,175471:0:0:0:0:
256,192,175471,1,0,0:0:0:0:
36,192,175471,1,0,0:0:0:0:
182,192,175471,1,0,0:0:0:0:
475,192,175471,1,0,0:0:0:0:
402,192,175471,1,0,0:0:0:0:
329,192,175642,128,0,175813:0:0:0:0:
402,192,175642,128,0,175813:0:0:0:0:
182,192,175728,128,0,175813:0:0:0:0:
36,192,175813,1,0,0:0:0:0:
256,192,175813,1,0,0:0:0:0:
109,192,175813,1,0,0:0:0:0:
475,192,175813,1,0,0:0:0:0:
182,192,175985,1,0,0:0:0:0:
329,192,175985,1,0,0:0:0:0:
182,192,176071,128,0,176156:0:0:0:0:
36,192,176156,1,0,0:0:0:0:
109,192,176156,1,0,0:0:0:0:
256,192,176156,1,0,0:0:0:0:
402,192,176156,1,0,0:0:0:0:
475,192,176156,1,0,0:0:0:0:
36,192,176328,128,0,176499:0:0:0:0:
109,192,176328,128,0,176499:0:0:0:0:
256,192,176413,128,0,176499:0:0:0:0:
182,192,176499,1,0,0:0:0:0:
329,192,176499,1,0,0:0:0:0:
402,192,176499,1,0,0:0:0:0:
475,192,176499,1,0,0:0:0:0:
402,192,176671,1,0,0:0:0:0:
109,192,176671,1,0,0:0:0:0:
402,192,176756,128,0,176842:0:0:0:0:
36,192,176842,1,0,0:0:0:0:
182,192,176842,1,0,0:0:0:0:
329,192,176842,1,0,0:0:0:0:
256,192,176842,1,0,0:0:0:0:
475,192,176842,1,0,0:0:0:0:
329,192,177013,128,0,177185:0:0:0:0:
475,192,177013,128,0,177185:0:0:0:0:
182,192,177099,128,0,177185:0:0:0:0:
36,192,177185,1,0,0:0:0:0:
109,192,177185,1,0,0:0:0:0:
402,192,177185,1,0,0:0:0:0:
256,192,177185,1,0,0:0:0:0:
182,192,177356,128,0,177528:0:0:0:0:
329,192,177356,128,0,177528:0:0:0:0:
256,192,177528,1,0,0:0:0:0:
109,192,177528,128,0,177699:0:0:0:0:
36,192,177528,128,0,177699:0:0:0:0:
402,192,177528,128,0,177699:0:0:0:0:
475,192,177528,128,0,177699:0:0:0:0:
402,192,177785,1,0,0:0:0:0:
475,192,177785,1,0,0:0:0:0:
109,192,177871,128,0,177956:0:0:0:0:
36,192,177871,128,0,177956:0:0:0:0:
475,192,177871,1,0,0:0:0:0:
402,192,177871,1,0,0:0:0:0:
182,192,178042,128,0,178128:0:0:0:0:
109,192,178042,128,0,178128:0:0:0:0:
402,192,178042,1,0,0:0:0:0:
475,192,178042,1,0,0:0:0:0:
182,192,178213,128,0,178299:0:0:0:0:
256,192,178213,128,0,178299:0:0:0:0:
402,192,178299,1,0,0:0:0:0:
475,192,178299,1,0,0:0:0:0:
256,192,178385,128,0,178471:0:0:0:0:
329,192,178385,128,0,178471:0:0:0:0:
109,192,178385,1,0,0:0:0:0:
36,192,178385,1,0,0:0:0:0:
329,192,178556,128,0,178642:0:0:0:0:
402,192,178556,128,0,178642:0:0:0:0:
36,192,178556,1,0,0:0:0:0:
109,192,178556,1,0,0:0:0:0:
402,192,178728,128,0,178813:0:0:0:0:
475,192,178728,128,0,178813:0:0:0:0:
182,192,178813,1,0,0:0:0:0:
329,192,178813,1,0,0:0:0:0:
36,192,178899,128,0,179071:0:0:0:0:
109,192,178899,128,0,179071:0:0:0:0:
402,192,178899,128,0,179071:0:0:0:0:
475,192,178899,128,0,179071:0:0:0:0:
329,192,179156,1,0,0:0:0:0:
475,192,179156,1,0,0:0:0:0:
36,192,179242,128,0,179328:0:0:0:0:
109,192,179242,128,0,179328:0:0:0:0:
475,192,179242,1,0,0:0:0:0:
329,192,179242,1,0,0:0:0:0:
109,192,179413,128,0,179499:0:0:0:0:
182,192,179413,128,0,179499:0:0:0:0:
329,192,179413,1,0,0:0:0:0:
475,192,179413,1,0,0:0:0:0:
182,192,179585,128,0,179671:0:0:0:0:
256,192,179585,128,0,179671:0:0:0:0:
402,192,179671,1,0,0:0:0:0:
475,192,179671,1,0,0:0:0:0:
256,192,179756,128,0,179842:0:0:0:0:
329,192,179756,128,0,179842:0:0:0:0:
109,192,179756,1,0,0:0:0:0:
36,192,179756,1,0,0:0:0:0:
329,192,179928,128,0,180013:0:0:0:0:
402,192,179928,128,0,180013:0:0:0:0:
36,192,179928,1,0,0:0:0:0:
182,192,179928,1,0,0:0:0:0:
402,192,180099,128,0,180185:0:0:0:0:
475,192,180099,128,0,180185:0:0:0:0:
36,192,180099,1,0,0:0:0:0:
182,192,180099,1,0,0:0:0:0:
36,192,180185,1,0,0:0:0:0:
182,192,180185,1,0,0:0:0:0:
329,192,180271,128,0,181471:0:0:0:0:
475,192,180956,128,0,181471:0:0:0:0:
36,192,181128,1,0,0:0:0:0:
182,192,181128,1,0,0:0:0:0:
329,192,181642,128,0,181899:0:0:0:0:
475,192,181642,128,0,181899:0:0:0:0:
36,192,181642,1,0,0:0:0:0:
182,192,181642,1,0,0:0:0:0:
182,192,181985,1,0,0:0:0:0:
329,192,181985,1,0,0:0:0:0:
36,192,181985,1,0,0:0:0:0:
475,192,181985,1,0,0:0:0:0:
182,192,182156,1,0,0:0:0:0:
329,192,182156,1,0,0:0:0:0:
36,192,182156,1,0,0:0:0:0:
475,192,182156,1,0,0:0:0:0:
109,192,182328,1,0,0:0:0:0:
256,192,182328,1,0,0:0:0:0:
36,192,182413,1,0,0:0:0:0:
182,192,182499,1,0,0:0:0:0:
402,192,182499,1,0,0:0:0:0:
109,192,182585,1,0,0:0:0:0:
329,192,182585,1,0,0:0:0:0:
256,192,182671,128,0,183013:0:0:0:0:
36,192,183013,1,0,0:0:0:0:
109,192,183013,1,0,0:0:0:0:
475,192,183013,1,0,0:0:0:0:
402,192,183013,1,0,0:0:0:0:
182,192,183185,1,0,0:0:0:0:
256,192,183271,1,0,0:0:0:0:
329,192,183356,1,0,0:0:0:0:
402,192,183356,1,0,0:0:0:0:
329,192,183442,1,0,0:0:0:0:
402,192,183442,1,0,0:0:0:0:
402,192,183528,1,0,0:0:0:0:
329,192,183528,1,0,0:0:0:0:
329,192,183613,1,0,0:0:0:0:
402,192,183613,1,0,0:0:0:0:
36,192,183699,1,0,0:0:0:0:
109,192,183699,1,0,0:0:0:0:
182,192,183699,1,0,0:0:0:0:
329,192,183871,1,0,0:0:0:0:
402,192,183871,1,0,0:0:0:0:
329,192,183956,1,0,0:0:0:0:
402,192,183956,1,0,0:0:0:0:
402,192,184042,1,0,0:0:0:0:
329,192,184042,1,0,0:0:0:0:
329,192,184213,1,0,0:0:0:0:
402,192,184213,1,0,0:0:0:0:
36,192,184385,1,0,0:0:0:0:
109,192,184385,1,0,0:0:0:0:
256,192,184385,1,0,0:0:0:0:
475,192,184385,1,0,0:0:0:0:
402,192,184385,1,0,0:0:0:0:
329,192,184556,1,0,0:0:0:0:
256,192,184642,1,0,0:0:0:0:
182,192,184728,1,0,0:0:0:0:
109,192,184728,1,0,0:0:0:0:
109,192,184813,1,0,0:0:0:0:
182,192,184813,1,0,0:0:0:0:
182,192,184899,1,0,0:0:0:0:
109,192,184899,1,0,0:0:0:0:
182,192,184985,1,0,0:0:0:0:
109,192,184985,1,0,0:0:0:0:
402,192,185071,1,0,0:0:0:0:
329,192,185071,1,0,0:0:0:0:
475,192,185071,1,0,0:0:0:0:
182,192,185242,1,0,0:0:0:0:
109,192,185242,1,0,0:0:0:0:
109,192,185328,1,0,0:0:0:0:
182,192,185328,1,0,0:0:0:0:
182,192,185413,1,0,0:0:0:0:
109,192,185413,1,0,0:0:0:0:
109,192,185585,1,0,0:0:0:0:
182,192,185585,1,0,0:0:0:0:
36,192,185756,1,0,0:0:0:0:
109,192,185756,1,0,0:0:0:0:
256,192,185756,1,0,0:0:0:0:
402,192,185756,1,0,0:0:0:0:
475,192,185756,1,0,0:0:0:0:
329,192,185928,128,0,186356:0:0:0:0:
402,192,185928,128,0,186099:0:0:0:0:
182,192,186013,128,0,186613:0:0:0:0:
109,192,186013,128,0,186271:0:0:0:0:
475,192,186185,128,0,186356:0:0:0:0:
402,192,186185,128,0,186356:0:0:0:0:
109,192,186356,128,0,186613:0:0:0:0:
36,192,186356,128,0,186613:0:0:0:0:
402,192,186442,1,0,0:0:0:0:
475,192,186442,1,0,0:0:0:0:
256,192,186442,128,0,187042:0:0:0:0:
329,192,186613,128,0,187042:0:0:0:0:
402,192,186613,128,0,186785:0:0:0:0:
182,192,186699,128,0,187042:0:0:0:0:
109,192,186699,128,0,186956:0:0:0:0:
402,192,186871,128,0,187128:0:0:0:0:
475,192,186871,128,0,187128:0:0:0:0:
36,192,187042,128,0,187128:0:0:0:0:
109,192,187042,128,0,187128:0:0:0:0:
182,192,187128,1,0,0:0:0:0:
329,192,187128,1,0,0:0:0:0:
256,192,187128,1,0,0:0:0:0:
182,192,187299,128,0,187728:0:0:0:0:
109,192,187299,128,0,187471:0:0:0:0:
329,192,187385,128,0,187985:0:0:0:0:
402,192,187385,128,0,187642:0:0:0:0:
36,192,187556,128,0,187728:0:0:0:0:
109,192,187556,128,0,187728:0:0:0:0:
402,192,187728,128,0,187985:0:0:0:0:
475,192,187728,128,0,187985:0:0:0:0:
109,192,187813,1,0,0:0:0:0:
36,192,187813,1,0,0:0:0:0:
256,192,187813,128,0,188413:0:0:0:0:
109,192,187985,128,0,188071:0:0:0:0:
182,192,187985,128,0,188071:0:0:0:0:
329,192,188071,128,0,188156:0:0:0:0:
402,192,188071,128,0,188156:0:0:0:0:
182,192,188156,128,0,188242:0:0:0:0:
109,192,188156,128,0,188242:0:0:0:0:
329,192,188242,128,0,188328:0:0:0:0:
402,192,188242,128,0,188328:0:0:0:0:
182,192,188328,128,0,188413:0:0:0:0:
109,192,188328,128,0,188413:0:0:0:0:
329,192,188413,128,0,188499:0:0:0:0:
402,192,188413,128,0,188499:0:0:0:0:
36,192,188499,1,0,0:0:0:0:
109,192,188499,1,0,0:0:0:0:
256,192,188499,1,0,0:0:0:0:
475,192,188499,1,0,0:0:0:0:
182,192,188671,1,0,0:0:0:0:
256,192,188756,1,0,0:0:0:0:
329,192,188842,1,0,0:0:0:0:
402,192,188842,1,0,0:0:0:0:
329,192,188928,1,0,0:0:0:0:
402,192,188928,1,0,0:0:0:0:
402,192,189013,1,0,0:0:0:0:
329,192,189013,1,0,0:0:0:0:
329,192,189099,1,0,0:0:0:0:
402,192,189099,1,0,0:0:0:0:
36,192,189185,1,0,0:0:0:0:
109,192,189185,1,0,0:0:0:0:
182,192,189185,1,0,0:0:0:0:
329,192,189356,1,0,0:0:0:0:
402,192,189356,1,0,0:0:0:0:
329,192,189442,1,0,0:0:0:0:
402,192,189442,1,0,0:0:0:0:
329,192,189528,1,0,0:0:0:0:
402,192,189528,1,0,0:0:0:0:
329,192,189699,1,0,0:0:0:0:
402,192,189699,1,0,0:0:0:0:
36,192,189871,1,0,0:0:0:0:
109,192,189871,1,0,0:0:0:0:
256,192,189871,1,0,0:0:0:0:
402,192,189871,1,0,0:0:0:0:
475,192,189871,1,0,0:0:0:0:
329,192,190042,1,0,0:0:0:0:
256,192,190128,1,0,0:0:0:0:
182,192,190213,1,0,0:0:0:0:
109,192,190213,1,0,0:0:0:0:
109,192,190299,1,0,0:0:0:0:
182,192,190299,1,0,0:0:0:0:
182,192,190385,1,0,0:0:0:0:
109,192,190385,1,0,0:0:0:0:
109,192,190471,1,0,0:0:0:0:
182,192,190471,1,0,0:0:0:0:
329,192,190556,1,0,0:0:0:0:
402,192,190556,1,0,0:0:0:0:
475,192,190556,1,0,0:0:0:0:
182,192,190728,1,0,0:0:0:0:
109,192,190728,1,0,0:0:0:0:
109,192,190813,1,0,0:0:0:0:
182,192,190813,1,0,0:0:0:0:
109,192,190899,128,0,191071:0:0:0:0:
182,192,190899,128,0,191071:0:0:0:0:
329,192,191071,128,0,191242:0:0:0:0:
402,192,191071,128,0,191242:0:0:0:0:
109,192,191242,128,0,193899:0:0:0:0:
182,192,191242,1,0,0:0:0:0:
256,192,191242,1,0,0:0:0:0:
329,192,191413,1,0,0:0:0:0:
475,192,191499,1,0,0:0:0:0:
402,192,191499,1,0,0:0:0:0:
402,192,191756,1,0,0:0:0:0:
475,192,191756,1,0,0:0:0:0:
182,192,191928,128,0,193213:0:0:0:0:
402,192,192013,1,0,0:0:0:0:
475,192,192013,1,0,0:0:0:0:
256,192,192099,1,0,0:0:0:0:
329,192,192099,1,0,0:0:0:0:
402,192,192271,1,0,0:0:0:0:
475,192,192271,1,0,0:0:0:0:
329,192,192442,128,0,192528:0:0:0:0:
36,192,192613,128,0,193899:0:0:0:0:
256,192,192613,1,0,0:0:0:0:
475,192,192613,1,0,0:0:0:0:
329,192,192613,1,0,0:0:0:0:
402,192,192871,1,0,0:0:0:0:
475,192,192871,1,0,0:0:0:0:
402,192,193128,1,0,0:0:0:0:
475,192,193128,1,0,0:0:0:0:
182,192,193299,128,0,193899:0:0:0:0:
402,192,193385,1,0,0:0:0:0:
475,192,193385,1,0,0:0:0:0:
256,192,193471,1,0,0:0:0:0:
329,192,193471,1,0,0:0:0:0:
402,192,193642,1,0,0:0:0:0:
475,192,193642,1,0,0:0:0:0:
329,192,193728,1,0,0:0:0:0:
402,192,193813,1,0,0:0:0:0:
329,192,193899,1,0,0:0:0:0:
256,192,193985,1,0,0:0:0:0:
109,192,193985,1,0,0:0:0:0:
36,192,193985,1,0,0:0:0:0:
475,192,193985,1,0,0:0:0:0:
402,192,193985,1,0,0:0:0:0:
182,192,194156,1,0,0:0:0:0:
36,192,194156,1,0,0:0:0:0:
256,192,194242,1,0,0:0:0:0:
329,192,194328,1,0,0:0:0:0:
475,192,194328,1,0,0:0:0:0:
182,192,194413,1,0,0:0:0:0:
36,192,194413,1,0,0:0:0:0:
329,192,194499,1,0,0:0:0:0:
475,192,194499,1,0,0:0:0:0:
182,192,194585,1,0,0:0:0:0:
36,192,194585,1,0,0:0:0:0:
256,192,194671,1,0,0:0:0:0:
402,192,194671,1,0,0:0:0:0:
475,192,194671,1,0,0:0:0:0:
182,192,194842,1,0,0:0:0:0:
329,192,194842,1,0,0:0:0:0:
182,192,194928,1,0,0:0:0:0:
329,192,194928,1,0,0:0:0:0:
329,192,195013,1,0,0:0:0:0:
182,192,195013,1,0,0:0:0:0:
182,192,195185,1,0,0:0:0:0:
329,192,195185,1,0,0:0:0:0:
36,192,195356,1,0,0:0:0:0:
109,192,195356,1,0,0:0:0:0:
256,192,195356,1,0,0:0:0:0:
402,192,195356,1,0,0:0:0:0:
475,192,195356,1,0,0:0:0:0:
329,192,195528,1,0,0:0:0:0:
475,192,195528,1,0,0:0:0:0:
256,192,195613,1,0,0:0:0:0:
182,192,195699,1,0,0:0:0:0:
36,192,195699,1,0,0:0:0:0:
329,192,195785,1,0,0:0:0:0:
475,192,195785,1,0,0:0:0:0:
182,192,195871,1,0,0:0:0:0:
36,192,195871,1,0,0:0:0:0:
329,192,195956,1,0,0:0:0:0:
475,192,195956,1,0,0:0:0:0:
256,192,196042,1,0,0:0:0:0:
109,192,196042,1,0,0:0:0:0:
36,192,196042,1,0,0:0:0:0:
182,192,196213,1,0,0:0:0:0:
329,192,196213,1,0,0:0:0:0:
182,192,196299,1,0,0:0:0:0:
329,192,196299,1,0,0:0:0:0:
182,192,196385,128,0,196471:0:0:0:0:
329,192,196385,128,0,196471:0:0:0:0:
182,192,196556,128,0,196728:0:0:0:0:
329,192,196556,128,0,196728:0:0:0:0:
36,192,196728,1,0,0:0:0:0:
109,192,196728,1,0,0:0:0:0:
256,192,196728,1,0,0:0:0:0:
402,192,196728,1,0,0:0:0:0:
475,192,196728,1,0,0:0:0:0:
36,192,196899,128,0,197328:0:0:0:0:
109,192,196985,128,0,197328:0:0:0:0:
329,192,197156,128,0,197242:0:0:0:0:
402,192,197156,128,0,197242:0:0:0:0:
329,192,197328,128,0,197413:0:0:0:0:
402,192,197328,128,0,197413:0:0:0:0:
36,192,197413,128,0,198013:0:0:0:0:
109,192,197413,128,0,197499:0:0:0:0:
182,192,197413,128,0,197585:0:0:0:0:
109,192,197585,128,0,198013:0:0:0:0:
182,192,197671,128,0,198013:0:0:0:0:
402,192,197842,128,0,197928:0:0:0:0:
475,192,197842,128,0,197928:0:0:0:0:
402,192,198013,128,0,198099:0:0:0:0:
475,192,198013,128,0,198099:0:0:0:0:
109,192,198099,128,0,198699:0:0:0:0:
182,192,198099,128,0,198185:0:0:0:0:
329,192,198099,128,0,198271:0:0:0:0:
182,192,198271,128,0,198699:0:0:0:0:
329,192,198356,128,0,198699:0:0:0:0:
36,192,198528,128,0,198613:0:0:0:0:
475,192,198528,128,0,198613:0:0:0:0:
36,192,198699,128,0,198785:0:0:0:0:
475,192,198699,128,0,198785:0:0:0:0:
109,192,198785,1,0,0:0:0:0:
182,192,198785,1,0,0:0:0:0:
329,192,198785,1,0,0:0:0:0:
402,192,198785,1,0,0:0:0:0:
329,192,198956,1,0,0:0:0:0:
475,192,198956,1,0,0:0:0:0:
475,192,199042,1,0,0:0:0:0:
329,192,199042,1,0,0:0:0:0:
182,192,199128,1,0,0:0:0:0:
36,192,199128,1,0,0:0:0:0:
36,192,199213,1,0,0:0:0:0:
182,192,199213,1,0,0:0:0:0:
329,192,199299,1,0,0:0:0:0:
475,192,199299,1,0,0:0:0:0:
475,192,199385,1,0,0:0:0:0:
329,192,199385,1,0,0:0:0:0:
182,192,199471,1,0,0:0:0:0:
36,192,199471,1,0,0:0:0:0:
109,192,199471,1,0,0:0:0:0:
36,192,199813,1,0,0:0:0:0:
109,192,199813,1,0,0:0:0:0:
182,192,199813,1,0,0:0:0:0:
36,192,200156,1,0,0:0:0:0:
109,192,200156,1,0,0:0:0:0:
256,192,200156,1,0,0:0:0:0:
475,192,200156,1,0,0:0:0:0:
402,192,200156,1,0,0:0:0:0:
329,192,200328,1,0,0:0:0:0:
402,192,200328,1,0,0:0:0:0:
402,192,200413,1,0,0:0:0:0:
329,192,200413,1,0,0:0:0:0:
329,192,200499,1,0,0:0:0:0:
402,192,200499,1,0,0:0:0:0:
402,192,200585,1,0,0:0:0:0:
329,192,200585,1,0,0:0:0:0:
329,192,200671,1,0,0:0:0:0:
402,192,200671,1,0,0:0:0:0:
402,192,200756,1,0,0:0:0:0:
329,192,200756,1,0,0:0:0:0:
36,192,200842,1,0,0:0:0:0:
256,192,200842,1,0,0:0:0:0:
475,192,200842,1,0,0:0:0:0:
109,192,200842,1,0,0:0:0:0:
109,192,201013,1,0,0:0:0:0:
182,192,201013,1,0,0:0:0:0:
182,192,201099,1,0,0:0:0:0:
109,192,201099,1,0,0:0:0:0:
109,192,201185,1,0,0:0:0:0:
182,192,201185,1,0,0:0:0:0:
182,192,201271,1,0,0:0:0:0:
109,192,201271,1,0,0:0:0:0:
109,192,201356,1,0,0:0:0:0:
182,192,201356,1,0,0:0:0:0:
182,192,201442,1,0,0:0:0:0:
109,192,201442,1,0,0:0:0:0:
256,192,201528,1,0,0:0:0:0:
402,192,201528,1,0,0:0:0:0:
475,192,201528,1,0,0:0:0:0:
36,192,201528,1,0,0:0:0:0:
182,192,201699,128,0,201871:0:0:0:0:
256,192,201699,128,0,201785:0:0:0:0:
329,192,201699,128,0,201785:0:0:0:0:
109,192,201785,128,0,201871:0:0:0:0:
36,192,201785,128,0,201871:0:0:0:0:
256,192,201871,128,0,202042:0:0:0:0:
329,192,201871,128,0,201956:0:0:0:0:
402,192,201871,128,0,201956:0:0:0:0:
182,192,201956,128,0,202042:0:0:0:0:
109,192,201956,128,0,202042:0:0:0:0:
329,192,202042,128,0,202213:0:0:0:0:
402,192,202042,128,0,202128:0:0:0:0:
475,192,202042,128,0,202128:0:0:0:0:
182,192,202128,128,0,202213:0:0:0:0:
256,192,202128,128,0,202213:0:0:0:0:
475,192,202213,1,0,0:0:0:0:
402,192,202213,1,0,0:0:0:0:
36,192,202213,128,0,202471:0:0:0:0:
109,192,202213,128,0,202471:0:0:0:0:
329,192,202385,128,0,202471:0:0:0:0:
475,192,202471,128,0,202556:0:0:0:0:
36,192,202556,128,0,202813:0:0:0:0:
109,192,202556,128,0,202813:0:0:0:0:
182,192,202556,1,0,0:0:0:0:
329,192,202556,1,0,0:0:0:0:
256,192,202728,1,0,0:0:0:0:
402,192,202728,1,0,0:0:0:0:
475,192,202728,1,0,0:0:0:0:
402,192,202899,128,0,203156:0:0:0:0:
475,192,202899,128,0,203156:0:0:0:0:
36,192,202899,1,0,0:0:0:0:
109,192,202899,1,0,0:0:0:0:
182,192,203071,128,0,203156:0:0:0:0:
36,192,203156,128,0,203242:0:0:0:0:
402,192,203242,128,0,203499:0:0:0:0:
475,192,203242,128,0,203499:0:0:0:0:
182,192,203242,1,0,0:0:0:0:
329,192,203242,1,0,0:0:0:0:
256,192,203413,1,0,0:0:0:0:
109,192,203413,1,0,0:0:0:0:
36,192,203413,1,0,0:0:0:0:
109,192,203585,128,0,203842:0:0:0:0:
182,192,203585,128,0,203842:0:0:0:0:
329,192,203585,1,0,0:0:0:0:
475,192,203585,1,0,0:0:0:0:
402,192,203756,128,0,203842:0:0:0:0:
475,192,203842,128,0,203928:0:0:0:0:
109,192,203928,128,0,204185:0:0:0:0:
182,192,203928,128,0,204185:0:0:0:0:
256,192,203928,1,0,0:0:0:0:
329,192,203928,1,0,0:0:0:0:
402,192,204099,1,0,0:0:0:0:
475,192,204099,1,0,0:0:0:0:
329,192,204099,1,0,0:0:0:0:
36,192,204271,1,0,0:0:0:0:
109,192,204271,1,0,0:0:0:0:
402,192,204271,1,0,0:0:0:0:
475,192,204271,1,0,0:0:0:0:
256,192,204271,1,0,0:0:0:0:
182,192,204442,128,0,204871:0:0:0:0:
329,192,204442,128,0,204871:0:0:0:0:
182,192,204956,128,0,205042:0:0:0:0:
329,192,204956,128,0,205042:0:0:0:0:
36,192,204956,128,0,205899:0:0:0:0:
109,192,204956,128,0,206071:0:0:0:0:
475,192,205642,128,0,205728:0:0:0:0:
182,192,205642,128,0,206242:0:0:0:0:
256,192,205642,128,0,206413:0:0:0:0:
402,192,205642,128,0,206585:0:0:0:0:
475,192,205813,128,0,206756:0:0:0:0:
36,192,205985,128,0,206928:0:0:0:0:
109,192,206156,128,0,207099:0:0:0:0:
182,192,206328,128,0,207271:0:0:0:0:
256,192,206499,128,0,207442:0:0:0:0:
402,192,206671,128,0,207613:0:0:0:0:
475,192,206842,128,0,207613:0:0:0:0:
36,192,207013,128,0,207613:0:0:0:0:
109,192,207185,128,0,207613:0:0:0:0:
182,192,207356,128,0,207613:0:0:0:0:
256,192,207528,128,0,207613:0:0:0:0:
475,192,207699,128,0,207785:0:0:0:0:
402,192,207699,128,0,207785:0:0:0:0:
36,192,207699,128,0,208985:0:0:0:0:
109,192,207699,128,0,209156:0:0:0:0:
475,192,208385,128,0,208813:0:0:0:0:
256,192,208385,128,0,208471:0:0:0:0:
402,192,208385,128,0,208642:0:0:0:0:
182,192,208385,128,0,209328:0:0:0:0:
256,192,208556,128,0,209499:0:0:0:0:
402,192,208728,128,0,209671:0:0:0:0:
475,192,208899,128,0,209842:0:0:0:0:
36,192,209071,128,0,210013:0:0:0:0:
109,192,209242,128,0,210185:0:0:0:0:
182,192,209413,128,0,210356:0:0:0:0:
256,192,209585,128,0,210356:0:0:0:0:
402,192,209756,128,0,210356:0:0:0:0:
475,192,209928,128,0,210356:0:0:0:0:
36,192,210099,128,0,210356:0:0:0:0:
109,192,210271,128,0,210356:0:0:0:0:
475,192,210442,128,0,210528:0:0:0:0:
402,192,210442,128,0,210528:0:0:0:0:
109,192,210442,128,0,211213:0:0:0:0:
36,192,210442,128,0,211042:0:0:0:0:
329,192,211128,128,0,211556:0:0:0:0:
402,192,211128,128,0,211728:0:0:0:0:
256,192,211128,128,0,211385:0:0:0:0:
475,192,211128,128,0,211899:0:0:0:0:
36,192,211128,128,0,212071:0:0:0:0:
109,192,211299,128,0,212242:0:0:0:0:
256,192,211471,128,0,212413:0:0:0:0:
329,192,211642,128,0,212585:0:0:0:0:
402,192,211813,128,0,212756:0:0:0:0:
475,192,211985,128,0,212928:0:0:0:0:
36,192,212156,128,0,213099:0:0:0:0:
109,192,212328,128,0,213099:0:0:0:0:
256,192,212499,128,0,213099:0:0:0:0:
329,192,212671,128,0,213099:0:0:0:0:
402,192,212842,128,0,213099:0:0:0:0:
475,192,213013,128,0,213099:0:0:0:0:
256,192,213185,128,0,213271:0:0:0:0:
329,192,213185,128,0,213271:0:0:0:0:
36,192,213185,128,0,214128:0:0:0:0:
182,192,213185,128,0,214471:0:0:0:0:
109,192,213871,128,0,214299:0:0:0:0:
256,192,213871,128,0,214642:0:0:0:0:
402,192,213871,128,0,214813:0:0:0:0:
475,192,213871,128,0,213956:0:0:0:0:
475,192,214042,128,0,214985:0:0:0:0:
36,192,214213,128,0,215156:0:0:0:0:
109,192,214385,128,0,215328:0:0:0:0:
182,192,214556,128,0,215499:0:0:0:0:
256,192,214728,128,0,215671:0:0:0:0:
402,192,214899,128,0,215842:0:0:0:0:
475,192,215071,128,0,215842:0:0:0:0:
36,192,215242,128,0,215842:0:0:0:0:
109,192,215413,128,0,215842:0:0:0:0:
182,192,215585,128,0,215842:0:0:0:0:
256,192,215756,128,0,215842:0:0:0:0:
109,192,215928,128,0,216013:0:0:0:0:
402,192,215928,128,0,216013:0:0:0:0:
36,192,215928,128,0,217213:0:0:0:0:
475,192,215928,128,0,217042:0:0:0:0:
402,192,216613,128,0,216871:0:0:0:0:
329,192,216613,128,0,216699:0:0:0:0:
109,192,216613,128,0,217385:0:0:0:0:
182,192,216613,128,0,217556:0:0:0:0:
329,192,216785,128,0,217728:0:0:0:0:
402,192,216956,128,0,217899:0:0:0:0:
475,192,217128,128,0,218071:0:0:0:0:
36,192,217299,128,0,218242:0:0:0:0:
109,192,217471,128,0,218413:0:0:0:0:
182,192,217642,128,0,218585:0:0:0:0:
329,192,217813,128,0,218585:0:0:0:0:
402,192,217985,128,0,218585:0:0:0:0:
475,192,218156,128,0,218585:0:0:0:0:
36,192,218328,128,0,218585:0:0:0:0:
109,192,218499,128,0,218585:0:0:0:0:
329,192,218671,128,0,218756:0:0:0:0:
402,192,218671,128,0,218756:0:0:0:0:
182,192,218671,128,0,219613:0:0:0:0:
475,192,218671,128,0,220128:0:0:0:0:
329,192,219356,128,0,219785:0:0:0:0:
402,192,219356,128,0,219956:0:0:0:0:
36,192,219356,128,0,220299:0:0:0:0:
109,192,219356,128,0,219442:0:0:0:0:
109,192,219528,128,0,220471:0:0:0:0:
182,192,219699,128,0,220642:0:0:0:0:
329,192,219871,128,0,220813:0:0:0:0:
402,192,220042,128,0,220985:0:0:0:0:
475,192,220213,128,0,221156:0:0:0:0:
36,192,220385,128,0,221328:0:0:0:0:
109,192,220556,128,0,221328:0:0:0:0:
182,192,220728,128,0,221328:0:0:0:0:
329,192,220899,128,0,221328:0:0:0:0:
402,192,221071,128,0,221328:0:0:0:0:
475,192,221242,128,0,221328:0:0:0:0:
36,192,221413,128,0,221499:0:0:0:0:
329,192,221413,128,0,221499:0:0:0:0:
182,192,221413,128,0,222699:0:0:0:0:
402,192,221413,128,0,222013:0:0:0:0:
36,192,222099,128,0,222356:0:0:0:0:
109,192,222099,128,0,222528:0:0:0:0:
256,192,222099,128,0,222871:0:0:0:0:
402,192,222099,128,0,223042:0:0:0:0:
475,192,222099,128,0,222185:0:0:0:0:
475,192,222271,128,0,223213:0:0:0:0:
36,192,222442,128,0,223385:0:0:0:0:
109,192,222613,128,0,223556:0:0:0:0:
182,192,222785,128,0,223728:0:0:0:0:
256,192,222956,128,0,223899:0:0:0:0:
402,192,223128,128,0,224071:0:0:0:0:
475,192,223299,128,0,224071:0:0:0:0:
36,192,223471,128,0,224071:0:0:0:0:
109,192,223642,128,0,224071:0:0:0:0:
182,192,223813,128,0,224071:0:0:0:0:
256,192,223985,128,0,224071:0:0:0:0:
182,192,224156,128,0,224242:0:0:0:0:
329,192,224156,128,0,224242:0:0:0:0:
109,192,224156,128,0,224242:0:0:0:0:
402,192,224156,128,0,224242:0:0:0:0:
475,192,224328,128,0,224371:0:0:0:0:
36,192,224499,128,0,224542:0:0:0:0:
109,192,224671,128,0,224713:0:0:0:0:
182,192,224842,128,0,224885:0:0:0:0:
256,192,224842,128,0,226813:0:0:0:0:
329,192,225013,128,0,225056:0:0:0:0:
402,192,225185,128,0,225228:0:0:0:0:
475,192,225356,128,0,225399:0:0:0:0:
36,192,225528,128,0,225571:0:0:0:0:
109,192,225699,128,0,225742:0:0:0:0:
182,192,225871,128,0,225913:0:0:0:0:
329,192,226042,128,0,226085:0:0:0:0:
109,192,226213,128,0,226299:0:0:0:0:
36,192,226213,128,0,226299:0:0:0:0:
329,192,226599,128,0,226685:0:0:0:0:
402,192,226599,128,0,226685:0:0:0:0:
109,192,226899,1,0,0:0:0:0:
256,192,226899,1,0,0:0:0:0:
36,192,226899,128,0,228613:0:0:0:0:
402,192,226942,128,0,227028:0:0:0:0:
475,192,226942,128,0,227028:0:0:0:0:
329,192,227371,128,0,227971:0:0:0:0:
402,192,227371,128,0,227971:0:0:0:0:
182,192,227628,128,0,228228:0:0:0:0:
109,192,227628,128,0,228228:0:0:0:0:
329,192,228056,128,0,228099:0:0:0:0:
402,192,228056,128,0,228099:0:0:0:0:
182,192,228313,128,0,228356:0:0:0:0:
109,192,228313,128,0,228356:0:0:0:0:
109,192,228956,128,0,229042:0:0:0:0:
182,192,228956,128,0,229042:0:0:0:0:
256,192,229342,128,0,229428:0:0:0:0:
329,192,229342,128,0,229428:0:0:0:0:
109,192,229642,128,0,231356:0:0:0:0:
475,192,229685,128,0,229771:0:0:0:0:
402,192,229685,128,0,229771:0:0:0:0:
402,192,230113,128,0,230756:0:0:0:0:
329,192,230113,128,0,230756:0:0:0:0:
182,192,230371,128,0,230971:0:0:0:0:
256,192,230371,128,0,230971:0:0:0:0:
329,192,230842,128,0,230885:0:0:0:0:
402,192,230842,128,0,230885:0:0:0:0:
256,192,231056,128,0,231099:0:0:0:0:
182,192,231056,128,0,231099:0:0:0:0:
36,192,231742,128,0,231828:0:0:0:0:
109,192,231742,128,0,231828:0:0:0:0:
182,192,232085,128,0,232171:0:0:0:0:
256,192,232085,128,0,232171:0:0:0:0:
256,192,232385,128,0,234099:0:0:0:0:
402,192,232428,128,0,232513:0:0:0:0:
475,192,232428,128,0,232513:0:0:0:0:
329,192,232856,128,0,233456:0:0:0:0:
402,192,232856,128,0,233456:0:0:0:0:
36,192,233113,128,0,233713:0:0:0:0:
182,192,233113,128,0,233713:0:0:0:0:
329,192,233542,128,0,233585:0:0:0:0:
402,192,233542,128,0,233585:0:0:0:0:
182,192,233799,128,0,233842:0:0:0:0:
36,192,233799,128,0,233842:0:0:0:0:
109,192,234485,128,0,234571:0:0:0:0:
182,192,234485,128,0,234571:0:0:0:0:
329,192,234828,128,0,234913:0:0:0:0:
182,192,234828,128,0,234913:0:0:0:0:
475,192,235128,128,0,236842:0:0:0:0:
402,192,235171,128,0,235256:0:0:0:0:
329,192,235171,128,0,235256:0:0:0:0:
256,192,235642,128,0,236242:0:0:0:0:
329,192,235642,128,0,236242:0:0:0:0:
182,192,235856,128,0,236456:0:0:0:0:
109,192,235856,128,0,236456:0:0:0:0:
256,192,236328,128,0,236371:0:0:0:0:
329,192,236328,128,0,236371:0:0:0:0:
109,192,236542,128,0,236585:0:0:0:0:
182,192,236542,128,0,236585:0:0:0:0:
109,192,237442,128,0,237528:0:0:0:0:
182,192,237442,128,0,237528:0:0:0:0:
36,192,237699,128,0,237785:0:0:0:0:
109,192,237699,128,0,237785:0:0:0:0:
36,192,237913,128,0,237999:0:0:0:0:
182,192,237913,128,0,237999:0:0:0:0:
36,192,238813,128,0,238899:0:0:0:0:
109,192,238813,128,0,238899:0:0:0:0:
109,192,239285,128,0,239371:0:0:0:0:
182,192,239285,128,0,239371:0:0:0:0:
182,192,240185,128,0,240271:0:0:0:0:
329,192,240185,128,0,240271:0:0:0:0:
109,192,240613,128,0,240699:0:0:0:0:
256,192,240613,128,0,240699:0:0:0:0:
182,192,241342,128,0,241428:0:0:0:0:
36,192,241342,128,0,241428:0:0:0:0:
36,192,242906,128,0,242992:0:0:0:0:
182,192,242906,128,0,242992:0:0:0:0:
109,192,243163,128,0,243249:0:0:0:0:
256,192,243163,128,0,243249:0:0:0:0:
182,192,243378,128,0,243463:0:0:0:0:
329,192,243378,128,0,243463:0:0:0:0:
256,192,243613,128,0,243699:0:0:0:0:
402,192,243613,128,0,243699:0:0:0:0:
475,192,243849,128,0,243935:0:0:0:0:
329,192,243849,128,0,243935:0:0:0:0:
36,192,244513,128,0,244599:0:0:0:0:
182,192,244513,128,0,244599:0:0:0:0:
109,192,244642,128,0,244728:0:0:0:0:
256,192,244642,128,0,244728:0:0:0:0:
182,192,244771,128,0,244856:0:0:0:0:
329,192,244771,128,0,244856:0:0:0:0:
402,192,244985,128,0,245071:0:0:0:0:
256,192,244985,128,0,245071:0:0:0:0:
329,192,245199,128,0,245285:0:0:0:0:
475,192,245199,128,0,245285:0:0:0:0:
36,192,245885,128,0,245971:0:0:0:0:
329,192,245885,128,0,245971:0:0:0:0:
109,192,246013,128,0,246099:0:0:0:0:
402,192,246013,128,0,246099:0:0:0:0:
475,192,246142,128,0,246228:0:0:0:0:
182,192,246142,128,0,246228:0:0:0:0:
36,192,247299,1,0,0:0:0:0:
109,192,247356,1,0,0:0:0:0:
256,192,247413,1,0,0:0:0:0:
329,192,247471,1,0,0:0:0:0:
109,192,247985,1,0,0:0:0:0:
256,192,248042,1,0,0:0:0:0:
329,192,248099,1,0,0:0:0:0:
475,192,248156,1,0,0:0:0:0:
329,192,248671,1,0,0:0:0:0:
402,192,248756,1,0,0:0:0:0:
475,192,248842,1,0,0:0:0:0:
402,192,248928,1,0,0:0:0:0:
329,192,249013,1,0,0:0:0:0:
182,192,249099,1,0,0:0:0:0:
402,192,249185,1,0,0:0:0:0:
329,192,249271,1,0,0:0:0:0:
256,192,249356,1,0,0:0:0:0:
109,192,249442,1,0,0:0:0:0:
329,192,249528,1,0,0:0:0:0:
256,192,249613,1,0,0:0:0:0:
182,192,249699,1,0,0:0:0:0:
36,192,249785,1,0,0:0:0:0:
329,192,249871,1,0,0:0:0:0:
256,192,249956,1,0,0:0:0:0:
182,192,250042,1,0,0:0:0:0:
109,192,250128,1,0,0:0:0:0:
36,192,250213,128,0,250813:0:0:0:0:
182,192,250385,128,0,250985:0:0:0:0:
329,192,250556,128,0,251071:0:0:0:0:
475,192,250728,128,0,251242:0:0:0:0:
36,192,250899,128,0,251499:0:0:0:0:
109,192,250985,128,0,251499:0:0:0:0:
182,192,251071,128,0,251499:0:0:0:0:
329,192,251156,128,0,251499:0:0:0:0:
402,192,251242,128,0,251499:0:0:0:0:
475,192,251328,128,0,251499:0:0:0:0:
36,192,251585,1,0,0:0:0:0:
109,192,251585,1,0,0:0:0:0:
256,192,251585,1,0,0:0:0:0:
475,192,251585,1,0,0:0:0:0:
402,192,251585,1,0,0:0:0:0:
182,192,251671,1,0,0:0:0:0:
329,192,251671,1,0,0:0:0:0:
256,192,251756,1,0,0:0:0:0:
36,192,251756,1,0,0:0:0:0:
109,192,251842,1,0,0:0:0:0:
329,192,251842,1,0,0:0:0:0:
182,192,251928,1,0,0:0:0:0:
402,192,251928,1,0,0:0:0:0:
475,192,251928,1,0,0:0:0:0:
36,192,251928,1,0,0:0:0:0:
256,192,252013,1,0,0:0:0:0:
109,192,252013,1,0,0:0:0:0:
329,192,252099,1,0,0:0:0:0:
475,192,252099,1,0,0:0:0:0:
182,192,252185,1,0,0:0:0:0:
36,192,252185,1,0,0:0:0:0:
256,192,252271,1,0,0:0:0:0:
402,192,252271,1,0,0:0:0:0:
109,192,252271,1,0,0:0:0:0:
475,192,252271,1,0,0:0:0:0:
329,192,252356,1,0,0:0:0:0:
182,192,252356,1,0,0:0:0:0:
36,192,252442,1,0,0:0:0:0:
256,192,252442,1,0,0:0:0:0:
402,192,252528,1,0,0:0:0:0:
109,192,252528,1,0,0:0:0:0:
182,192,252613,1,0,0:0:0:0:
475,192,252613,1,0,0:0:0:0:
256,192,252613,1,0,0:0:0:0:
36,192,252613,128,0,252871:0:0:0:0:
329,192,252699,1,0,0:0:0:0:
402,192,252699,1,0,0:0:0:0:
109,192,252785,1,0,0:0:0:0:
182,192,252785,1,0,0:0:0:0:
402,192,252871,1,0,0:0:0:0:
475,192,252871,1,0,0:0:0:0:
36,192,252956,1,0,0:0:0:0:
182,192,252956,1,0,0:0:0:0:
256,192,252956,1,0,0:0:0:0:
329,192,252956,1,0,0:0:0:0:
402,192,253042,1,0,0:0:0:0:
475,192,253042,1,0,0:0:0:0:
109,192,253128,1,0,0:0:0:0:
256,192,253128,1,0,0:0:0:0:
182,192,253213,1,0,0:0:0:0:
329,192,253213,1,0,0:0:0:0:
256,192,253299,1,0,0:0:0:0:
402,192,253299,1,0,0:0:0:0:
475,192,253299,1,0,0:0:0:0:
36,192,253299,1,0,0:0:0:0:
109,192,253385,1,0,0:0:0:0:
182,192,253385,1,0,0:0:0:0:
329,192,253471,1,0,0:0:0:0:
475,192,253471,1,0,0:0:0:0:
256,192,253556,1,0,0:0:0:0:
36,192,253556,1,0,0:0:0:0:
109,192,253642,1,0,0:0:0:0:
402,192,253642,1,0,0:0:0:0:
182,192,253642,1,0,0:0:0:0:
475,192,253642,1,0,0:0:0:0:
329,192,253728,1,0,0:0:0:0:
256,192,253728,1,0,0:0:0:0:
36,192,253813,1,0,0:0:0:0:
109,192,253813,1,0,0:0:0:0:
182,192,253899,1,0,0:0:0:0:
256,192,253899,1,0,0:0:0:0:
402,192,253985,1,0,0:0:0:0:
475,192,253985,1,0,0:0:0:0:
36,192,253985,1,0,0:0:0:0:
329,192,253985,128,0,254242:0:0:0:0:
182,192,254071,1,0,0:0:0:0:
256,192,254071,1,0,0:0:0:0:
109,192,254156,1,0,0:0:0:0:
36,192,254156,1,0,0:0:0:0:
182,192,254242,1,0,0:0:0:0:
256,192,254242,1,0,0:0:0:0:
36,192,254328,1,0,0:0:0:0:
329,192,254328,1,0,0:0:0:0:
402,192,254328,1,0,0:0:0:0:
475,192,254328,1,0,0:0:0:0:
109,192,254413,1,0,0:0:0:0:
256,192,254413,1,0,0:0:0:0:
182,192,254499,1,0,0:0:0:0:
402,192,254499,1,0,0:0:0:0:
109,192,254585,1,0,0:0:0:0:
329,192,254585,1,0,0:0:0:0:
36,192,254671,1,0,0:0:0:0:
182,192,254671,1,0,0:0:0:0:
256,192,254671,1,0,0:0:0:0:
475,192,254671,1,0,0:0:0:0:
329,192,254756,1,0,0:0:0:0:
402,192,254756,1,0,0:0:0:0:
256,192,254842,1,0,0:0:0:0:
36,192,254842,1,0,0:0:0:0:
109,192,254928,1,0,0:0:0:0:
402,192,254928,1,0,0:0:0:0:
182,192,255013,1,0,0:0:0:0:
329,192,255013,1,0,0:0:0:0:
475,192,255013,1,0,0:0:0:0:
36,192,255013,1,0,0:0:0:0:
256,192,255099,1,0,0:0:0:0:
109,192,255099,1,0,0:0:0:0:
402,192,255185,1,0,0:0:0:0:
475,192,255185,1,0,0:0:0:0:
182,192,255271,1,0,0:0:0:0:
36,192,255271,1,0,0:0:0:0:
109,192,255356,1,0,0:0:0:0:
329,192,255356,1,0,0:0:0:0:
475,192,255356,1,0,0:0:0:0:
402,192,255356,128,0,255613:0:0:0:0:
182,192,255442,1,0,0:0:0:0:
256,192,255442,1,0,0:0:0:0:
36,192,255528,1,0,0:0:0:0:
109,192,255528,1,0,0:0:0:0:
256,192,255613,1,0,0:0:0:0:
329,192,255613,1,0,0:0:0:0:
36,192,255699,1,0,0:0:0:0:
182,192,255699,1,0,0:0:0:0:
402,192,255699,1,0,0:0:0:0:
475,192,255699,1,0,0:0:0:0:
109,192,255785,1,0,0:0:0:0:
256,192,255785,1,0,0:0:0:0:
329,192,255871,1,0,0:0:0:0:
475,192,255871,1,0,0:0:0:0:
182,192,255956,1,0,0:0:0:0:
36,192,255956,1,0,0:0:0:0:
256,192,256042,1,0,0:0:0:0:
402,192,256042,1,0,0:0:0:0:
109,192,256042,1,0,0:0:0:0:
329,192,256042,1,0,0:0:0:0:
182,192,256128,1,0,0:0:0:0:
475,192,256128,1,0,0:0:0:0:
36,192,256213,1,0,0:0:0:0:
109,192,256213,1,0,0:0:0:0:
256,192,256299,1,0,0:0:0:0:
402,192,256299,1,0,0:0:0:0:
182,192,256385,1,0,0:0:0:0:
36,192,256385,1,0,0:0:0:0:
109,192,256385,1,0,0:0:0:0:
329,192,256385,1,0,0:0:0:0:
402,192,256471,1,0,0:0:0:0:
475,192,256471,1,0,0:0:0:0:
182,192,256556,1,0,0:0:0:0:
256,192,256556,1,0,0:0:0:0:
329,192,256642,1,0,0:0:0:0:
402,192,256642,1,0,0:0:0:0:
36,192,256728,1,0,0:0:0:0:
109,192,256728,1,0,0:0:0:0:
182,192,256728,1,0,0:0:0:0:
475,192,256728,128,0,256985:0:0:0:0:
256,192,256813,1,0,0:0:0:0:
329,192,256813,1,0,0:0:0:0:
36,192,256899,1,0,0:0:0:0:
109,192,256899,1,0,0:0:0:0:
182,192,256985,1,0,0:0:0:0:
256,192,256985,1,0,0:0:0:0:
329,192,257071,1,0,0:0:0:0:
402,192,257071,1,0,0:0:0:0:
475,192,257071,1,0,0:0:0:0:
36,192,257071,1,0,0:0:0:0:
109,192,257156,1,0,0:0:0:0:
256,192,257156,1,0,0:0:0:0:
182,192,257242,1,0,0:0:0:0:
402,192,257242,1,0,0:0:0:0:
329,192,257328,1,0,0:0:0:0:
36,192,257328,1,0,0:0:0:0:
109,192,257413,1,0,0:0:0:0:
182,192,257413,1,0,0:0:0:0:
402,192,257413,1,0,0:0:0:0:
475,192,257413,1,0,0:0:0:0:
256,192,257499,1,0,0:0:0:0:
36,192,257499,1,0,0:0:0:0:
182,192,257585,1,0,0:0:0:0:
329,192,257585,1,0,0:0:0:0:
109,192,257671,1,0,0:0:0:0:
402,192,257671,1,0,0:0:0:0:
256,192,257756,1,0,0:0:0:0:
36,192,257756,1,0,0:0:0:0:
329,192,257756,1,0,0:0:0:0:
475,192,257756,1,0,0:0:0:0:
182,192,257842,1,0,0:0:0:0:
109,192,257842,1,0,0:0:0:0:
256,192,257928,1,0,0:0:0:0:
475,192,257928,1,0,0:0:0:0:
402,192,258013,1,0,0:0:0:0:
182,192,258013,1,0,0:0:0:0:
109,192,258099,1,0,0:0:0:0:
329,192,258099,1,0,0:0:0:0:
475,192,258099,1,0,0:0:0:0:
36,192,258099,128,0,258356:0:0:0:0:
182,192,258185,1,0,0:0:0:0:
256,192,258185,1,0,0:0:0:0:
329,192,258271,1,0,0:0:0:0:
402,192,258271,1,0,0:0:0:0:
109,192,258356,1,0,0:0:0:0:
182,192,258356,1,0,0:0:0:0:
256,192,258442,1,0,0:0:0:0:
402,192,258442,1,0,0:0:0:0:
475,192,258442,1,0,0:0:0:0:
36,192,258442,1,0,0:0:0:0:
182,192,258528,1,0,0:0:0:0:
329,192,258528,1,0,0:0:0:0:
109,192,258613,1,0,0:0:0:0:
36,192,258613,1,0,0:0:0:0:
256,192,258699,1,0,0:0:0:0:
402,192,258699,1,0,0:0:0:0:
182,192,258785,1,0,0:0:0:0:
329,192,258785,1,0,0:0:0:0:
475,192,258785,1,0,0:0:0:0:
36,192,258785,1,0,0:0:0:0:
109,192,258871,1,0,0:0:0:0:
256,192,258871,1,0,0:0:0:0:
475,192,258956,1,0,0:0:0:0:
402,192,258956,1,0,0:0:0:0:
36,192,259042,1,0,0:0:0:0:
182,192,259042,1,0,0:0:0:0:
256,192,259128,1,0,0:0:0:0:
329,192,259128,1,0,0:0:0:0:
109,192,259128,1,0,0:0:0:0:
402,192,259128,1,0,0:0:0:0:
182,192,259213,1,0,0:0:0:0:
36,192,259213,1,0,0:0:0:0:
329,192,259299,1,0,0:0:0:0:
475,192,259299,1,0,0:0:0:0:
256,192,259385,1,0,0:0:0:0:
182,192,259385,1,0,0:0:0:0:
36,192,259471,1,0,0:0:0:0:
109,192,259471,1,0,0:0:0:0:
475,192,259471,1,0,0:0:0:0:
402,192,259471,128,0,259728:0:0:0:0:
329,192,259556,1,0,0:0:0:0:
256,192,259556,1,0,0:0:0:0:
36,192,259642,1,0,0:0:0:0:
109,192,259642,1,0,0:0:0:0:
182,192,259728,1,0,0:0:0:0:
256,192,259728,1,0,0:0:0:0:
402,192,259813,1,0,0:0:0:0:
329,192,259813,1,0,0:0:0:0:
475,192,259813,1,0,0:0:0:0:
36,192,259813,1,0,0:0:0:0:
109,192,259899,1,0,0:0:0:0:
256,192,259899,1,0,0:0:0:0:
182,192,259985,1,0,0:0:0:0:
475,192,259985,1,0,0:0:0:0:
402,192,260071,1,0,0:0:0:0:
109,192,260071,1,0,0:0:0:0:
36,192,260156,1,0,0:0:0:0:
182,192,260156,1,0,0:0:0:0:
475,192,260156,1,0,0:0:0:0:
256,192,260156,1,0,0:0:0:0:
329,192,260242,1,0,0:0:0:0:
402,192,260242,1,0,0:0:0:0:
36,192,260328,1,0,0:0:0:0:
182,192,260328,1,0,0:0:0:0:
256,192,260413,1,0,0:0:0:0:
402,192,260413,1,0,0:0:0:0:
109,192,260499,1,0,0:0:0:0:
36,192,260499,1,0,0:0:0:0:
329,192,260499,1,0,0:0:0:0:
475,192,260499,1,0,0:0:0:0:
182,192,260585,1,0,0:0:0:0:
256,192,260585,1,0,0:0:0:0:
329,192,260671,1,0,0:0:0:0:
475,192,260671,1,0,0:0:0:0:
36,192,260756,1,0,0:0:0:0:
109,192,260756,1,0,0:0:0:0:
256,192,260842,1,0,0:0:0:0:
402,192,260842,1,0,0:0:0:0:
475,192,260842,1,0,0:0:0:0:
182,192,260842,128,0,261099:0:0:0:0:
36,192,260928,1,0,0:0:0:0:
109,192,260928,1,0,0:0:0:0:
402,192,261013,1,0,0:0:0:0:
475,192,261013,1,0,0:0:0:0:
329,192,261099,1,0,0:0:0:0:
256,192,261099,1,0,0:0:0:0:
402,192,261185,1,0,0:0:0:0:
475,192,261185,1,0,0:0:0:0:
36,192,261185,1,0,0:0:0:0:
182,192,261185,1,0,0:0:0:0:
329,192,261271,1,0,0:0:0:0:
109,192,261271,1,0,0:0:0:0:
182,192,261356,1,0,0:0:0:0:
402,192,261356,1,0,0:0:0:0:
36,192,261442,1,0,0:0:0:0:
109,192,261442,1,0,0:0:0:0:
256,192,261442,1,0,0:0:0:0:
475,192,261442,1,0,0:0:0:0:
402,192,261528,1,0,0:0:0:0:
329,192,261613,1,0,0:0:0:0:
182,192,261613,1,0,0:0:0:0:
109,192,261699,1,0,0:0:0:0:
36,192,261699,1,0,0:0:0:0:
256,192,261699,1,0,0:0:0:0:
402,192,261699,1,0,0:0:0:0:
475,192,261785,1,0,0:0:0:0:
36,192,261871,1,0,0:0:0:0:
109,192,261871,1,0,0:0:0:0:
182,192,261871,1,0,0:0:0:0:
329,192,261871,1,0,0:0:0:0:
402,192,261956,1,0,0:0:0:0:
475,192,261956,1,0,0:0:0:0:
256,192,261956,1,0,0:0:0:0:
182,192,262042,1,0,0:0:0:0:
329,192,262042,1,0,0:0:0:0:
109,192,262128,1,0,0:0:0:0:
256,192,262128,1,0,0:0:0:0:
182,192,262213,1,0,0:0:0:0:
36,192,262213,1,0,0:0:0:0:
402,192,262213,1,0,0:0:0:0:
475,192,262213,1,0,0:0:0:0:
329,192,262299,1,0,0:0:0:0:
36,192,262385,1,0,0:0:0:0:
109,192,262385,1,0,0:0:0:0:
402,192,262385,1,0,0:0:0:0:
475,192,262385,1,0,0:0:0:0:
182,192,262471,1,0,0:0:0:0:
109,192,262556,1,0,0:0:0:0:
36,192,262556,1,0,0:0:0:0:
256,192,262556,1,0,0:0:0:0:
402,192,262556,1,0,0:0:0:0:
475,192,262556,1,0,0:0:0:0:
182,192,262642,1,0,0:0:0:0:
329,192,262642,1,0,0:0:0:0:
256,192,262728,1,0,0:0:0:0:
36,192,262813,1,0,0:0:0:0:
109,192,262813,1,0,0:0:0:0:
329,192,262813,1,0,0:0:0:0:
475,192,262813,1,0,0:0:0:0:
402,192,262813,1,0,0:0:0:0:
182,192,262899,1,0,0:0:0:0:
256,192,262899,1,0,0:0:0:0:
329,192,262985,1,0,0:0:0:0:
402,192,262985,1,0,0:0:0:0:
36,192,263071,1,0,0:0:0:0:
109,192,263071,1,0,0:0:0:0:
182,192,263071,1,0,0:0:0:0:
256,192,263071,1,0,0:0:0:0:
475,192,263071,1,0,0:0:0:0:
329,192,263156,1,0,0:0:0:0:
36,192,263242,1,0,0:0:0:0:
109,192,263242,1,0,0:0:0:0:
402,192,263242,1,0,0:0:0:0:
475,192,263242,1,0,0:0:0:0:
256,192,263242,1,0,0:0:0:0:
182,192,263328,1,0,0:0:0:0:
329,192,263328,1,0,0:0:0:0:
36,192,263413,1,0,0:0:0:0:
109,192,263499,1,0,0:0:0:0:
256,192,263499,1,0,0:0:0:0:
182,192,263499,1,0,0:0:0:0:
475,192,263499,1,0,0:0:0:0:
402,192,263499,1,0,0:0:0:0:
329,192,263585,1,0,0:0:0:0:
36,192,263671,1,0,0:0:0:0:
109,192,263671,1,0,0:0:0:0:
256,192,263756,1,0,0:0:0:0:
402,192,263756,1,0,0:0:0:0:
475,192,263756,1,0,0:0:0:0:
329,192,263756,1,0,0:0:0:0:
182,192,263756,1,0,0:0:0:0:
36,192,263842,1,0,0:0:0:0:
109,192,263928,1,0,0:0:0:0:
182,192,263928,1,0,0:0:0:0:
256,192,263928,1,0,0:0:0:0:
475,192,263928,1,0,0:0:0:0:
402,192,263928,1,0,0:0:0:0:
36,192,264013,1,0,0:0:0:0:
329,192,264013,1,0,0:0:0:0:
256,192,264099,1,0,0:0:0:0:
182,192,264185,1,0,0:0:0:0:
109,192,264185,1,0,0:0:0:0:
36,192,264185,1,0,0:0:0:0:
402,192,264185,1,0,0:0:0:0:
475,192,264185,1,0,0:0:0:0:
256,192,264271,1,0,0:0:0:0:
329,192,264356,1,0,0:0:0:0:
475,192,264356,1,0,0:0:0:0:
109,192,264442,1,0,0:0:0:0:
36,192,264442,1,0,0:0:0:0:
182,192,264442,1,0,0:0:0:0:
402,192,264442,1,0,0:0:0:0:
256,192,264442,1,0,0:0:0:0:
329,192,264528,1,0,0:0:0:0:
36,192,264613,1,0,0:0:0:0:
109,192,264613,1,0,0:0:0:0:
256,192,264613,1,0,0:0:0:0:
402,192,264613,1,0,0:0:0:0:
475,192,264613,1,0,0:0:0:0:
109,192,264699,1,0,0:0:0:0:
36,192,264699,1,0,0:0:0:0:
256,192,264699,1,0,0:0:0:0:
402,192,264699,1,0,0:0:0:0:
475,192,264699,1,0,0:0:0:0:
182,192,264871,1,0,0:0:0:0:
36,192,264871,1,0,0:0:0:0:
256,192,264871,1,0,0:0:0:0:
329,192,264871,1,0,0:0:0:0:
475,192,264871,1,0,0:0:0:0:
36,192,265299,1,0,0:0:0:0:
109,192,265299,1,0,0:0:0:0:
256,192,265299,1,0,0:0:0:0:
402,192,265299,1,0,0:0:0:0:
475,192,265299,1,0,0:0:0:0:
329,192,265385,1,0,0:0:0:0:
182,192,265385,1,0,0:0:0:0:
475,192,265471,1,0,0:0:0:0:
109,192,265556,1,0,0:0:0:0:
36,192,265556,1,0,0:0:0:0:
256,192,265556,1,0,0:0:0:0:
329,192,265556,1,0,0:0:0:0:
402,192,265556,1,0,0:0:0:0:
182,192,265642,1,0,0:0:0:0:
475,192,265728,1,0,0:0:0:0:
256,192,265728,1,0,0:0:0:0:
36,192,265813,1,0,0:0:0:0:
109,192,265813,1,0,0:0:0:0:
182,192,265813,1,0,0:0:0:0:
329,192,265813,1,0,0:0:0:0:
402,192,265813,1,0,0:0:0:0:
256,192,265899,1,0,0:0:0:0:
402,192,265985,1,0,0:0:0:0:
475,192,265985,1,0,0:0:0:0:
36,192,265985,1,0,0:0:0:0:
109,192,265985,1,0,0:0:0:0:
329,192,265985,1,0,0:0:0:0:
182,192,266071,1,0,0:0:0:0:
256,192,266071,1,0,0:0:0:0:
402,192,266156,1,0,0:0:0:0:
36,192,266242,1,0,0:0:0:0:
109,192,266242,1,0,0:0:0:0:
182,192,266242,1,0,0:0:0:0:
329,192,266242,1,0,0:0:0:0:
475,192,266242,1,0,0:0:0:0:
256,192,266328,1,0,0:0:0:0:
36,192,266413,1,0,0:0:0:0:
329,192,266413,1,0,0:0:0:0:
109,192,266499,1,0,0:0:0:0:
182,192,266499,1,0,0:0:0:0:
256,192,266499,1,0,0:0:0:0:
402,192,266499,1,0,0:0:0:0:
475,192,266499,1,0,0:0:0:0:
329,192,266585,1,0,0:0:0:0:
36,192,266671,1,0,0:0:0:0:
109,192,266671,1,0,0:0:0:0:
182,192,266671,1,0,0:0:0:0:
402,192,266671,1,0,0:0:0:0:
475,192,266671,1,0,0:0:0:0:
256,192,266756,1,0,0:0:0:0:
329,192,266756,1,0,0:0:0:0:
109,192,266842,1,0,0:0:0:0:
182,192,266928,1,0,0:0:0:0:
256,192,266928,1,0,0:0:0:0:
402,192,266928,1,0,0:0:0:0:
475,192,266928,1,0,0:0:0:0:
36,192,266928,1,0,0:0:0:0:
329,192,267013,1,0,0:0:0:0:
109,192,267099,1,0,0:0:0:0:
256,192,267099,1,0,0:0:0:0:
182,192,267185,1,0,0:0:0:0:
36,192,267185,1,0,0:0:0:0:
329,192,267185,1,0,0:0:0:0:
402,192,267185,1,0,0:0:0:0:
475,192,267185,1,0,0:0:0:0:
256,192,267271,1,0,0:0:0:0:
109,192,267356,1,0,0:0:0:0:
36,192,267356,1,0,0:0:0:0:
402,192,267356,1,0,0:0:0:0:
475,192,267356,1,0,0:0:0:0:
182,192,267356,1,0,0:0:0:0:
36,192,267442,1,0,0:0:0:0:
109,192,267442,1,0,0:0:0:0:
182,192,267442,1,0,0:0:0:0:
402,192,267442,1,0,0:0:0:0:
475,192,267442,1,0,0:0:0:0:
36,192,267613,1,0,0:0:0:0:
109,192,267613,1,0,0:0:0:0:
329,192,267613,1,0,0:0:0:0:
402,192,267613,1,0,0:0:0:0:
475,192,267613,1,0,0:0:0:0:
182,192,267699,128,0,268042:0:0:0:0:
329,192,267871,128,0,268042:0:0:0:0:
36,192,268042,1,0,0:0:0:0:
109,192,268042,1,0,0:0:0:0:
256,192,268042,1,0,0:0:0:0:
402,192,268128,1,0,0:0:0:0:
329,192,268128,1,0,0:0:0:0:
475,192,268128,1,0,0:0:0:0:
36,192,268213,1,0,0:0:0:0:
109,192,268213,1,0,0:0:0:0:
256,192,268213,1,0,0:0:0:0:
182,192,268299,1,0,0:0:0:0:
329,192,268299,1,0,0:0:0:0:
402,192,268299,1,0,0:0:0:0:
36,192,268385,1,0,0:0:0:0:
256,192,268385,1,0,0:0:0:0:
475,192,268385,1,0,0:0:0:0:
109,192,268471,1,0,0:0:0:0:
182,192,268471,1,0,0:0:0:0:
329,192,268471,1,0,0:0:0:0:
256,192,268556,1,0,0:0:0:0:
402,192,268556,1,0,0:0:0:0:
475,192,268556,1,0,0:0:0:0:
36,192,268642,1,0,0:0:0:0:
109,192,268642,1,0,0:0:0:0:
182,192,268642,1,0,0:0:0:0:
329,192,268728,1,0,0:0:0:0:
402,192,268728,1,0,0:0:0:0:
475,192,268728,1,0,0:0:0:0:
36,192,268813,1,0,0:0:0:0:
182,192,268813,1,0,0:0:0:0:
256,192,268813,1,0,0:0:0:0:
109,192,268899,1,0,0:0:0:0:
402,192,268899,1,0,0:0:0:0:
475,192,268899,1,0,0:0:0:0:
182,192,268985,1,0,0:0:0:0:
256,192,268985,1,0,0:0:0:0:
329,192,268985,1,0,0:0:0:0:
36,192,269071,1,0,0:0:0:0:
109,192,269071,1,0,0:0:0:0:
402,192,269071,1,0,0:0:0:0:
256,192,269156,1,0,0:0:0:0:
182,192,269156,1,0,0:0:0:0:
475,192,269156,1,0,0:0:0:0:
329,192,269242,1,0,0:0:0:0:
402,192,269242,1,0,0:0:0:0:
36,192,269242,1,0,0:0:0:0:
109,192,269328,1,0,0:0:0:0:
182,192,269328,1,0,0:0:0:0:
256,192,269328,1,0,0:0:0:0:
329,192,269413,1,0,0:0:0:0:
402,192,269413,1,0,0:0:0:0:
475,192,269413,1,0,0:0:0:0:
36,192,269413,1,0,0:0:0:0:
109,192,269499,1,0,0:0:0:0:
182,192,269499,1,0,0:0:0:0:
256,192,269499,1,0,0:0:0:0:
329,192,269585,1,0,0:0:0:0:
402,192,269585,1,0,0:0:0:0:
475,192,269585,1,0,0:0:0:0:
36,192,269671,1,0,0:0:0:0:
109,192,269671,1,0,0:0:0:0:
256,192,269671,1,0,0:0:0:0:
182,192,269756,1,0,0:0:0:0:
329,192,269756,1,0,0:0:0:0:
475,192,269756,1,0,0:0:0:0:
36,192,269842,1,0,0:0:0:0:
109,192,269842,1,0,0:0:0:0:
256,192,269842,1,0,0:0:0:0:
329,192,269928,1,0,0:0:0:0:
182,192,269928,1,0,0:0:0:0:
402,192,269928,1,0,0:0:0:0:
109,192,270013,1,0,0:0:0:0:
256,192,270013,1,0,0:0:0:0:
36,192,270013,1,0,0:0:0:0:
329,192,270099,1,0,0:0:0:0:
402,192,270099,1,0,0:0:0:0:
475,192,270099,1,0,0:0:0:0:
182,192,270185,1,0,0:0:0:0:
109,192,270185,1,0,0:0:0:0:
256,192,270185,1,0,0:0:0:0:
402,192,270271,1,0,0:0:0:0:
475,192,270271,1,0,0:0:0:0:
36,192,270271,1,0,0:0:0:0:
182,192,270356,1,0,0:0:0:0:
256,192,270356,1,0,0:0:0:0:
329,192,270356,1,0,0:0:0:0:
109,192,270442,1,0,0:0:0:0:
36,192,270442,1,0,0:0:0:0:
475,192,270442,1,0,0:0:0:0:
256,192,270528,1,0,0:0:0:0:
329,192,270528,1,0,0:0:0:0:
182,192,270528,1,0,0:0:0:0:
402,192,270613,1,0,0:0:0:0:
475,192,270613,1,0,0:0:0:0:
36,192,270613,1,0,0:0:0:0:
109,192,270699,1,0,0:0:0:0:
182,192,270699,1,0,0:0:0:0:
256,192,270699,1,0,0:0:0:0:
402,192,270785,1,0,0:0:0:0:
475,192,270785,1,0,0:0:0:0:
36,192,270785,1,0,0:0:0:0:
329,192,270828,1,0,0:0:0:0:
256,192,270871,1,0,0:0:0:0:
109,192,270871,1,0,0:0:0:0:
182,192,270913,1,0,0:0:0:0:
36,192,270956,1,0,0:0:0:0:
475,192,270956,1,0,0:0:0:0:
329,192,270999,1,0,0:0:0:0:
109,192,271042,1,0,0:0:0:0:
256,192,271042,1,0,0:0:0:0:
402,192,271085,1,0,0:0:0:0:
182,192,271128,1,0,0:0:0:0:
36,192,271128,1,0,0:0:0:0:
329,192,271171,1,0,0:0:0:0:
109,192,271213,1,0,0:0:0:0:
475,192,271213,1,0,0:0:0:0:
256,192,271256,1,0,0:0:0:0:
402,192,271299,1,0,0:0:0:0:
329,192,271299,1,0,0:0:0:0:
36,192,271342,1,0,0:0:0:0:
109,192,271385,1,0,0:0:0:0:
182,192,271385,1,0,0:0:0:0:
329,192,271428,1,0,0:0:0:0:
256,192,271471,1,0,0:0:0:0:
475,192,271471,1,0,0:0:0:0:
36,192,271513,1,0,0:0:0:0:
182,192,271556,1,0,0:0:0:0:
402,192,271556,1,0,0:0:0:0:
109,192,271599,1,0,0:0:0:0:
329,192,271642,1,0,0:0:0:0:
256,192,271642,1,0,0:0:0:0:
475,192,271685,1,0,0:0:0:0:
182,192,271728,1,0,0:0:0:0:
36,192,271728,1,0,0:0:0:0:
402,192,271771,1,0,0:0:0:0:
109,192,271813,1,0,0:0:0:0:
329,192,271813,1,0,0:0:0:0:
256,192,271856,1,0,0:0:0:0:
182,192,271899,1,0,0:0:0:0:
475,192,271899,1,0,0:0:0:0:
36,192,271942,1,0,0:0:0:0:
329,192,271985,1,0,0:0:0:0:
402,192,271985,1,0,0:0:0:0:
109,192,272028,1,0,0:0:0:0:
182,192,272071,1,0,0:0:0:0:
256,192,272071,1,0,0:0:0:0:
329,192,272113,1,0,0:0:0:0:
402,192,272156,1,0,0:0:0:0:
475,192,272156,1,0,0:0:0:0:
36,192,272156,128,0,272413:0:0:0:0:
109,192,272242,128,0,272499:0:0:0:0:
182,192,272328,128,0,272585:0:0:0:0:
256,192,272413,128,0,272671:0:0:0:0:
36,192,272499,1,0,0:0:0:0:
329,192,272499,128,0,272756:0:0:0:0:
109,192,272585,1,0,0:0:0:0:
402,192,272585,128,0,272842:0:0:0:0:
182,192,272671,1,0,0:0:0:0:
475,192,272671,128,0,272928:0:0:0:0:
256,192,272756,128,0,272842:0:0:0:0:
182,192,272842,128,0,272928:0:0:0:0:
36,192,272928,128,0,273013:0:0:0:0:
329,192,273013,128,0,273099:0:0:0:0:
182,192,273099,128,0,273185:0:0:0:0:
475,192,273185,1,0,0:0:0:0:
36,192,273185,1,0,0:0:0:0:
329,192,273271,128,0,273528:0:0:0:0:
256,192,273356,128,0,273528:0:0:0:0:
182,192,273442,128,0,273528:0:0:0:0:
36,192,273528,1,0,0:0:0:0:
109,192,273528,1,0,0:0:0:0:
402,192,273528,1,0,0:0:0:0:
475,192,273528,1,0,0:0:0:0:
182,192,273613,1,0,0:0:0:0:
256,192,273613,1,0,0:0:0:0:
329,192,273613,1,0,0:0:0:0:
475,192,273699,1,0,0:0:0:0:
109,192,273785,1,0,0:0:0:0:
182,192,273785,1,0,0:0:0:0:
256,192,273785,1,0,0:0:0:0:
329,192,273871,1,0,0:0:0:0:
402,192,273871,1,0,0:0:0:0:
475,192,273871,1,0,0:0:0:0:
36,192,273956,1,0,0:0:0:0:
109,192,273956,1,0,0:0:0:0:
329,192,274042,1,0,0:0:0:0:
182,192,274042,1,0,0:0:0:0:
329,192,274128,1,0,0:0:0:0:
182,192,274128,1,0,0:0:0:0:
402,192,274213,1,0,0:0:0:0:
475,192,274213,1,0,0:0:0:0:
109,192,274213,1,0,0:0:0:0:
36,192,274299,1,0,0:0:0:0:
256,192,274299,1,0,0:0:0:0:
109,192,274385,1,0,0:0:0:0:
329,192,274385,1,0,0:0:0:0:
182,192,274471,1,0,0:0:0:0:
402,192,274471,1,0,0:0:0:0:
36,192,274556,1,0,0:0:0:0:
475,192,274556,1,0,0:0:0:0:
256,192,274556,1,0,0:0:0:0:
109,192,274642,1,0,0:0:0:0:
329,192,274642,1,0,0:0:0:0:
402,192,274728,1,0,0:0:0:0:
182,192,274728,1,0,0:0:0:0:
475,192,274813,1,0,0:0:0:0:
256,192,274813,1,0,0:0:0:0:
182,192,274899,1,0,0:0:0:0:
36,192,274899,1,0,0:0:0:0:
109,192,274899,1,0,0:0:0:0:
329,192,274985,1,0,0:0:0:0:
402,192,274985,1,0,0:0:0:0:
475,192,274985,1,0,0:0:0:0:
256,192,275071,1,0,0:0:0:0:
182,192,275156,1,0,0:0:0:0:
402,192,275156,1,0,0:0:0:0:
475,192,275156,1,0,0:0:0:0:
36,192,275242,1,0,0:0:0:0:
109,192,275242,1,0,0:0:0:0:
329,192,275242,1,0,0:0:0:0:
475,192,275328,1,0,0:0:0:0:
402,192,275328,1,0,0:0:0:0:
109,192,275413,1,0,0:0:0:0:
36,192,275413,1,0,0:0:0:0:
109,192,275499,1,0,0:0:0:0:
36,192,275499,1,0,0:0:0:0:
182,192,275585,1,0,0:0:0:0:
402,192,275585,1,0,0:0:0:0:
475,192,275585,1,0,0:0:0:0:
36,192,275671,1,0,0:0:0:0:
329,192,275671,1,0,0:0:0:0:
109,192,275756,1,0,0:0:0:0:
402,192,275756,1,0,0:0:0:0:
182,192,275842,1,0,0:0:0:0:
475,192,275842,1,0,0:0:0:0:
36,192,275928,1,0,0:0:0:0:
109,192,275928,1,0,0:0:0:0:
329,192,275928,1,0,0:0:0:0:
256,192,276013,1,0,0:0:0:0:
475,192,276013,1,0,0:0:0:0:
402,192,276099,1,0,0:0:0:0:
182,192,276099,1,0,0:0:0:0:
109,192,276185,1,0,0:0:0:0:
329,192,276185,1,0,0:0:0:0:
36,192,276271,1,0,0:0:0:0:
256,192,276271,1,0,0:0:0:0:
475,192,276271,1,0,0:0:0:0:
182,192,276356,1,0,0:0:0:0:
402,192,276356,1,0,0:0:0:0:
329,192,276356,1,0,0:0:0:0:
36,192,276442,1,0,0:0:0:0:
109,192,276528,1,0,0:0:0:0:
256,192,276528,1,0,0:0:0:0:
329,192,276528,1,0,0:0:0:0:
402,192,276613,1,0,0:0:0:0:
475,192,276613,1,0,0:0:0:0:
182,192,276613,1,0,0:0:0:0:
329,192,276699,1,0,0:0:0:0:
36,192,276699,1,0,0:0:0:0:
256,192,276785,1,0,0:0:0:0:
109,192,276785,1,0,0:0:0:0:
109,192,276871,1,0,0:0:0:0:
256,192,276871,1,0,0:0:0:0:
402,192,276956,1,0,0:0:0:0:
475,192,276956,1,0,0:0:0:0:
182,192,276956,1,0,0:0:0:0:
36,192,277042,1,0,0:0:0:0:
256,192,277042,1,0,0:0:0:0:
109,192,277128,1,0,0:0:0:0:
329,192,277128,1,0,0:0:0:0:
182,192,277213,1,0,0:0:0:0:
402,192,277213,1,0,0:0:0:0:
36,192,277299,1,0,0:0:0:0:
256,192,277299,1,0,0:0:0:0:
475,192,277299,1,0,0:0:0:0:
109,192,277385,1,0,0:0:0:0:
329,192,277385,1,0,0:0:0:0:
182,192,277471,1,0,0:0:0:0:
402,192,277471,1,0,0:0:0:0:
256,192,277556,1,0,0:0:0:0:
475,192,277556,1,0,0:0:0:0:
36,192,277642,1,0,0:0:0:0:
109,192,277642,1,0,0:0:0:0:
329,192,277642,1,0,0:0:0:0:
182,192,277728,1,0,0:0:0:0:
402,192,277728,1,0,0:0:0:0:
475,192,277728,1,0,0:0:0:0:
329,192,277813,1,0,0:0:0:0:
109,192,277899,1,0,0:0:0:0:
36,192,277899,1,0,0:0:0:0:
256,192,277899,1,0,0:0:0:0:
402,192,277985,1,0,0:0:0:0:
475,192,277985,1,0,0:0:0:0:
182,192,277985,1,0,0:0:0:0:
109,192,278071,1,0,0:0:0:0:
36,192,278071,1,0,0:0:0:0:
329,192,278156,1,0,0:0:0:0:
402,192,278156,1,0,0:0:0:0:
329,192,278242,1,0,0:0:0:0:
402,192,278242,1,0,0:0:0:0:
36,192,278328,1,0,0:0:0:0:
182,192,278328,1,0,0:0:0:0:
256,192,278328,1,0,0:0:0:0:
109,192,278413,1,0,0:0:0:0:
329,192,278413,1,0,0:0:0:0:
182,192,278499,1,0,0:0:0:0:
402,192,278499,1,0,0:0:0:0:
256,192,278585,1,0,0:0:0:0:
475,192,278585,1,0,0:0:0:0:
36,192,278671,1,0,0:0:0:0:
329,192,278671,1,0,0:0:0:0:
109,192,278671,1,0,0:0:0:0:
256,192,278756,1,0,0:0:0:0:
402,192,278756,1,0,0:0:0:0:
329,192,278842,1,0,0:0:0:0:
182,192,278842,1,0,0:0:0:0:
109,192,278928,1,0,0:0:0:0:
256,192,278928,1,0,0:0:0:0:
182,192,279013,1,0,0:0:0:0:
36,192,279013,1,0,0:0:0:0:
475,192,279013,1,0,0:0:0:0:
256,192,279099,1,0,0:0:0:0:
329,192,279099,1,0,0:0:0:0:
402,192,279099,1,0,0:0:0:0:
109,192,279185,1,0,0:0:0:0:
182,192,279271,1,0,0:0:0:0:
256,192,279271,1,0,0:0:0:0:
329,192,279271,1,0,0:0:0:0:
402,192,279356,1,0,0:0:0:0:
475,192,279356,1,0,0:0:0:0:
36,192,279356,1,0,0:0:0:0:
109,192,279442,1,0,0:0:0:0:
182,192,279442,1,0,0:0:0:0:
256,192,279528,1,0,0:0:0:0:
402,192,279528,1,0,0:0:0:0:
402,192,279613,1,0,0:0:0:0:
256,192,279613,1,0,0:0:0:0:
36,192,279699,1,0,0:0:0:0:
109,192,279699,1,0,0:0:0:0:
329,192,279699,1,0,0:0:0:0:
182,192,279785,1,0,0:0:0:0:
475,192,279785,1,0,0:0:0:0:
256,192,279871,1,0,0:0:0:0:
402,192,279871,1,0,0:0:0:0:
182,192,279956,1,0,0:0:0:0:
475,192,279956,1,0,0:0:0:0:
36,192,280042,1,0,0:0:0:0:
109,192,280042,1,0,0:0:0:0:
329,192,280042,1,0,0:0:0:0:
256,192,280128,1,0,0:0:0:0:
402,192,280128,1,0,0:0:0:0:
182,192,280213,1,0,0:0:0:0:
475,192,280213,1,0,0:0:0:0:
109,192,280299,1,0,0:0:0:0:
329,192,280299,1,0,0:0:0:0:
36,192,280385,1,0,0:0:0:0:
475,192,280385,1,0,0:0:0:0:
256,192,280385,1,0,0:0:0:0:
329,192,280471,1,0,0:0:0:0:
402,192,280471,1,0,0:0:0:0:
182,192,280471,1,0,0:0:0:0:
36,192,280556,1,0,0:0:0:0:
109,192,280642,1,0,0:0:0:0:
256,192,280642,1,0,0:0:0:0:
402,192,280642,1,0,0:0:0:0:
475,192,280728,1,0,0:0:0:0:
182,192,280728,1,0,0:0:0:0:
329,192,280728,1,0,0:0:0:0:
256,192,280813,1,0,0:0:0:0:
402,192,280813,1,0,0:0:0:0:
36,192,280899,1,0,0:0:0:0:
182,192,280899,1,0,0:0:0:0:
182,192,280985,1,0,0:0:0:0:
36,192,280985,1,0,0:0:0:0:
329,192,281071,1,0,0:0:0:0:
475,192,281071,1,0,0:0:0:0:
256,192,281071,1,0,0:0:0:0:
36,192,281156,1,0,0:0:0:0:
109,192,281156,1,0,0:0:0:0:
182,192,281242,1,0,0:0:0:0:
329,192,281242,1,0,0:0:0:0:
402,192,281328,1,0,0:0:0:0:
475,192,281328,1,0,0:0:0:0:
256,192,281413,1,0,0:0:0:0:
36,192,281413,1,0,0:0:0:0:
109,192,281413,1,0,0:0:0:0:
329,192,281499,1,0,0:0:0:0:
475,192,281499,1,0,0:0:0:0:
182,192,281585,1,0,0:0:0:0:
36,192,281585,1,0,0:0:0:0:
256,192,281671,1,0,0:0:0:0:
109,192,281671,1,0,0:0:0:0:
182,192,281756,1,0,0:0:0:0:
402,192,281756,1,0,0:0:0:0:
475,192,281756,1,0,0:0:0:0:
36,192,281842,1,0,0:0:0:0:
329,192,281842,1,0,0:0:0:0:
256,192,281842,1,0,0:0:0:0:
475,192,281928,1,0,0:0:0:0:
36,192,282013,1,0,0:0:0:0:
182,192,282013,1,0,0:0:0:0:
256,192,282013,1,0,0:0:0:0:
402,192,282099,1,0,0:0:0:0:
329,192,282099,1,0,0:0:0:0:
475,192,282099,1,0,0:0:0:0:
36,192,282185,1,0,0:0:0:0:
109,192,282185,1,0,0:0:0:0:
182,192,282271,1,0,0:0:0:0:
329,192,282271,1,0,0:0:0:0:
182,192,282356,1,0,0:0:0:0:
329,192,282356,1,0,0:0:0:0:
36,192,282442,1,0,0:0:0:0:
256,192,282442,1,0,0:0:0:0:
475,192,282442,1,0,0:0:0:0:
109,192,282528,1,0,0:0:0:0:
402,192,282528,1,0,0:0:0:0:
182,192,282613,1,0,0:0:0:0:
329,192,282613,1,0,0:0:0:0:
109,192,282699,1,0,0:0:0:0:
402,192,282699,1,0,0:0:0:0:
256,192,282785,1,0,0:0:0:0:
36,192,282785,1,0,0:0:0:0:
475,192,282785,1,0,0:0:0:0:
329,192,282871,1,0,0:0:0:0:
109,192,282871,1,0,0:0:0:0:
402,192,282956,1,0,0:0:0:0:
182,192,282956,1,0,0:0:0:0:
475,192,282956,1,0,0:0:0:0:
36,192,282956,1,0,0:0:0:0:
256,192,282956,1,0,0:0:0:0:
109,192,283299,1,0,0:0:0:0:
182,192,283299,1,0,0:0:0:0:
329,192,283299,1,0,0:0:0:0:
402,192,283299,1,0,0:0:0:0:
475,192,283299,1,0,0:0:0:0:
36,192,283556,1,0,0:0:0:0:
109,192,283556,1,0,0:0:0:0:
256,192,283556,1,0,0:0:0:0:
402,192,283556,1,0,0:0:0:0:
475,192,283556,1,0,0:0:0:0:
182,192,283813,1,0,0:0:0:0:
36,192,283813,1,0,0:0:0:0:
329,192,283813,1,0,0:0:0:0:
109,192,283813,1,0,0:0:0:0:
475,192,283813,1,0,0:0:0:0:
182,192,284071,1,0,0:0:0:0:
256,192,284071,1,0,0:0:0:0:
36,192,284071,1,0,0:0:0:0:
402,192,284071,1,0,0:0:0:0:
475,192,284071,1,0,0:0:0:0:
402,192,284328,1,0,0:0:0:0:
329,192,284328,1,0,0:0:0:0:
475,192,284328,1,0,0:0:0:0:
36,192,284499,1,0,0:0:0:0:
109,192,284499,1,0,0:0:0:0:
256,192,284499,1,0,0:0:0:0:
182,192,284499,1,0,0:0:0:0:
329,192,284585,1,0,0:0:0:0:
402,192,284585,1,0,0:0:0:0:
475,192,284585,1,0,0:0:0:0:
109,192,284671,1,0,0:0:0:0:
182,192,284756,1,0,0:0:0:0:
256,192,284756,1,0,0:0:0:0:
402,192,284756,1,0,0:0:0:0:
36,192,284842,1,0,0:0:0:0:
329,192,284842,1,0,0:0:0:0:
475,192,284842,1,0,0:0:0:0:
109,192,284928,1,0,0:0:0:0:
182,192,284928,1,0,0:0:0:0:
329,192,285013,1,0,0:0:0:0:
402,192,285013,1,0,0:0:0:0:
329,192,285099,1,0,0:0:0:0:
402,192,285099,1,0,0:0:0:0:
36,192,285185,1,0,0:0:0:0:
109,192,285185,1,0,0:0:0:0:
256,192,285185,1,0,0:0:0:0:
475,192,285271,1,0,0:0:0:0:
182,192,285271,1,0,0:0:0:0:
109,192,285356,1,0,0:0:0:0:
402,192,285356,1,0,0:0:0:0:
329,192,285442,1,0,0:0:0:0:
182,192,285442,1,0,0:0:0:0:
36,192,285528,1,0,0:0:0:0:
256,192,285528,1,0,0:0:0:0:
475,192,285528,1,0,0:0:0:0:
109,192,285613,1,0,0:0:0:0:
329,192,285613,1,0,0:0:0:0:
182,192,285699,1,0,0:0:0:0:
402,192,285699,1,0,0:0:0:0:
256,192,285785,1,0,0:0:0:0:
475,192,285785,1,0,0:0:0:0:
36,192,285871,1,0,0:0:0:0:
109,192,285871,1,0,0:0:0:0:
329,192,285871,1,0,0:0:0:0:
182,192,285956,1,0,0:0:0:0:
402,192,285956,1,0,0:0:0:0:
475,192,285956,1,0,0:0:0:0:
256,192,286042,1,0,0:0:0:0:
36,192,286128,1,0,0:0:0:0:
109,192,286128,1,0,0:0:0:0:
329,192,286128,1,0,0:0:0:0:
182,192,286213,1,0,0:0:0:0:
402,192,286213,1,0,0:0:0:0:
475,192,286213,1,0,0:0:0:0:
256,192,286299,1,0,0:0:0:0:
109,192,286299,1,0,0:0:0:0:
329,192,286385,1,0,0:0:0:0:
475,192,286385,1,0,0:0:0:0:
475,192,286471,1,0,0:0:0:0:
329,192,286471,1,0,0:0:0:0:
36,192,286556,1,0,0:0:0:0:
109,192,286556,1,0,0:0:0:0:
182,192,286556,1,0,0:0:0:0:
402,192,286642,1,0,0:0:0:0:
256,192,286642,1,0,0:0:0:0:
329,192,286728,1,0,0:0:0:0:
475,192,286728,1,0,0:0:0:0:
182,192,286813,1,0,0:0:0:0:
36,192,286813,1,0,0:0:0:0:
109,192,286899,1,0,0:0:0:0:
256,192,286899,1,0,0:0:0:0:
329,192,286899,1,0,0:0:0:0:
182,192,286985,1,0,0:0:0:0:
402,192,286985,1,0,0:0:0:0:
475,192,287071,1,0,0:0:0:0:
329,192,287071,1,0,0:0:0:0:
109,192,287156,1,0,0:0:0:0:
256,192,287156,1,0,0:0:0:0:
36,192,287242,1,0,0:0:0:0:
182,192,287242,1,0,0:0:0:0:
402,192,287285,1,0,0:0:0:0:
475,192,287285,1,0,0:0:0:0:
329,192,287328,1,0,0:0:0:0:
36,192,287371,1,0,0:0:0:0:
109,192,287371,1,0,0:0:0:0:
256,192,287413,1,0,0:0:0:0:
475,192,287499,1,0,0:0:0:0:
402,192,287499,1,0,0:0:0:0:
109,192,287542,1,0,0:0:0:0:
36,192,287542,1,0,0:0:0:0:
182,192,287585,1,0,0:0:0:0:
329,192,287585,1,0,0:0:0:0:
256,192,287671,1,0,0:0:0:0:
475,192,287756,1,0,0:0:0:0:
36,192,287756,1,0,0:0:0:0:
329,192,287799,1,0,0:0:0:0:
402,192,287799,1,0,0:0:0:0:
109,192,287842,1,0,0:0:0:0:
182,192,287885,1,0,0:0:0:0:
256,192,287885,1,0,0:0:0:0:
475,192,287928,1,0,0:0:0:0:
36,192,287928,1,0,0:0:0:0:
109,192,288013,1,0,0:0:0:0:
329,192,288056,1,0,0:0:0:0:
402,192,288056,1,0,0:0:0:0:
182,192,288099,1,0,0:0:0:0:
256,192,288185,1,0,0:0:0:0:
329,192,288271,1,0,0:0:0:0:
475,192,288271,1,0,0:0:0:0:
36,192,288313,1,0,0:0:0:0:
109,192,288313,1,0,0:0:0:0:
182,192,288356,1,0,0:0:0:0:
256,192,288442,1,0,0:0:0:0:
402,192,288485,1,0,0:0:0:0:
475,192,288485,1,0,0:0:0:0:
109,192,288528,1,0,0:0:0:0:
182,192,288613,1,0,0:0:0:0:
256,192,288613,1,0,0:0:0:0:
402,192,288656,1,0,0:0:0:0:
329,192,288656,1,0,0:0:0:0:
475,192,288699,1,0,0:0:0:0:
36,192,288742,1,0,0:0:0:0:
109,192,288742,1,0,0:0:0:0:
256,192,288785,1,0,0:0:0:0:
329,192,288871,1,0,0:0:0:0:
109,192,288913,1,0,0:0:0:0:
36,192,288913,1,0,0:0:0:0:
402,192,288956,1,0,0:0:0:0:
475,192,288956,1,0,0:0:0:0:
182,192,289042,1,0,0:0:0:0:
256,192,289128,1,0,0:0:0:0:
402,192,289171,1,0,0:0:0:0:
475,192,289171,1,0,0:0:0:0:
329,192,289213,1,0,0:0:0:0:
109,192,289256,1,0,0:0:0:0:
36,192,289256,1,0,0:0:0:0:
182,192,289299,1,0,0:0:0:0:
256,192,289299,1,0,0:0:0:0:
402,192,289385,1,0,0:0:0:0:
36,192,289428,1,0,0:0:0:0:
109,192,289428,1,0,0:0:0:0:
329,192,289471,1,0,0:0:0:0:
182,192,289556,1,0,0:0:0:0:
256,192,289642,1,0,0:0:0:0:
36,192,289642,1,0,0:0:0:0:
475,192,289642,1,0,0:0:0:0:
109,192,289728,1,0,0:0:0:0:
182,192,289813,1,0,0:0:0:0:
402,192,289856,1,0,0:0:0:0:
475,192,289856,1,0,0:0:0:0:
256,192,289899,1,0,0:0:0:0:
109,192,289985,1,0,0:0:0:0:
36,192,289985,128,0,291185:0:0:0:0:
329,192,289985,1,0,0:0:0:0:
402,192,290071,1,0,0:0:0:0:
475,192,290071,1,0,0:0:0:0:
182,192,290156,1,0,0:0:0:0:
256,192,290156,1,0,0:0:0:0:
329,192,290242,1,0,0:0:0:0:
402,192,290242,1,0,0:0:0:0:
109,192,290328,1,0,0:0:0:0:
182,192,290328,1,0,0:0:0:0:
256,192,290413,1,0,0:0:0:0:
329,192,290413,1,0,0:0:0:0:
182,192,290499,1,0,0:0:0:0:
109,192,290499,1,0,0:0:0:0:
329,192,290585,1,0,0:0:0:0:
256,192,290585,1,0,0:0:0:0:
402,192,290671,1,0,0:0:0:0:
475,192,290671,1,0,0:0:0:0:
256,192,290756,1,0,0:0:0:0:
182,192,290756,1,0,0:0:0:0:
402,192,290842,1,0,0:0:0:0:
329,192,290842,1,0,0:0:0:0:
182,192,290928,1,0,0:0:0:0:
109,192,290928,1,0,0:0:0:0:
402,192,291013,128,0,291271:0:0:0:0:
256,192,291013,1,0,0:0:0:0:
329,192,291099,128,0,291356:0:0:0:0:
182,192,291099,1,0,0:0:0:0:
256,192,291185,128,0,291356:0:0:0:0:
109,192,291185,1,0,0:0:0:0:
182,192,291271,128,0,291356:0:0:0:0:
36,192,291271,1,0,0:0:0:0:
475,192,291356,128,0,292642:0:0:0:0:
402,192,291356,1,0,0:0:0:0:
109,192,291356,1,0,0:0:0:0:
256,192,291442,1,0,0:0:0:0:
182,192,291442,1,0,0:0:0:0:
329,192,291528,1,0,0:0:0:0:
402,192,291528,1,0,0:0:0:0:
109,192,291613,1,0,0:0:0:0:
182,192,291613,1,0,0:0:0:0:
256,192,291699,1,0,0:0:0:0:
329,192,291699,1,0,0:0:0:0:
36,192,291785,1,0,0:0:0:0:
109,192,291785,1,0,0:0:0:0:
182,192,291871,1,0,0:0:0:0:
256,192,291871,1,0,0:0:0:0:
109,192,291956,1,0,0:0:0:0:
36,192,291956,1,0,0:0:0:0:
182,192,292042,1,0,0:0:0:0:
256,192,292042,1,0,0:0:0:0:
329,192,292128,1,0,0:0:0:0:
402,192,292128,1,0,0:0:0:0:
109,192,292213,1,0,0:0:0:0:
182,192,292213,1,0,0:0:0:0:
256,192,292299,1,0,0:0:0:0:
329,192,292299,1,0,0:0:0:0:
36,192,292385,128,0,292642:0:0:0:0:
182,192,292385,1,0,0:0:0:0:
109,192,292471,128,0,292728:0:0:0:0:
256,192,292471,1,0,0:0:0:0:
182,192,292556,128,0,292728:0:0:0:0:
329,192,292556,1,0,0:0:0:0:
256,192,292642,128,0,292728:0:0:0:0:
402,192,292642,1,0,0:0:0:0:
475,192,292728,1,0,0:0:0:0:
36,192,292728,1,0,0:0:0:0:
329,192,292771,1,0,0:0:0:0:
182,192,292813,1,0,0:0:0:0:
109,192,292856,1,0,0:0:0:0:
402,192,292856,1,0,0:0:0:0:
256,192,292899,1,0,0:0:0:0:
36,192,292942,1,0,0:0:0:0:
182,192,292985,1,0,0:0:0:0:
329,192,292985,1,0,0:0:0:0:
475,192,292985,1,0,0:0:0:0:
109,192,293028,1,0,0:0:0:0:
402,192,293071,1,0,0:0:0:0:
256,192,293113,1,0,0:0:0:0:
36,192,293156,1,0,0:0:0:0:
182,192,293199,1,0,0:0:0:0:
475,192,293242,1,0,0:0:0:0:
109,192,293242,1,0,0:0:0:0:
329,192,293242,1,0,0:0:0:0:
402,192,293285,1,0,0:0:0:0:
256,192,293328,1,0,0:0:0:0:
36,192,293371,1,0,0:0:0:0:
182,192,293413,1,0,0:0:0:0:
109,192,293413,1,0,0:0:0:0:
475,192,293413,1,0,0:0:0:0:
329,192,293456,1,0,0:0:0:0:
402,192,293499,1,0,0:0:0:0:
256,192,293542,1,0,0:0:0:0:
36,192,293585,1,0,0:0:0:0:
109,192,293628,1,0,0:0:0:0:
182,192,293671,1,0,0:0:0:0:
329,192,293671,1,0,0:0:0:0:
475,192,293671,1,0,0:0:0:0:
256,192,293713,1,0,0:0:0:0:
36,192,293756,1,0,0:0:0:0:
402,192,293799,1,0,0:0:0:0:
109,192,293842,1,0,0:0:0:0:
182,192,293842,1,0,0:0:0:0:
329,192,293842,1,0,0:0:0:0:
256,192,293885,1,0,0:0:0:0:
402,192,293928,1,0,0:0:0:0:
475,192,293928,1,0,0:0:0:0:
36,192,293928,1,0,0:0:0:0:
109,192,293971,1,0,0:0:0:0:
182,192,294013,1,0,0:0:0:0:
256,192,294056,1,0,0:0:0:0:
475,192,294099,128,0,294271:0:0:0:0:
329,192,294099,128,0,294185:0:0:0:0:
402,192,294099,1,0,0:0:0:0:
182,192,294185,128,0,294356:0:0:0:0:
36,192,294185,128,0,294271:0:0:0:0:
109,192,294185,1,0,0:0:0:0:
402,192,294271,128,0,294442:0:0:0:0:
256,192,294271,128,0,294356:0:0:0:0:
329,192,294271,1,0,0:0:0:0:
109,192,294356,128,0,294528:0:0:0:0:
475,192,294356,128,0,294442:0:0:0:0:
36,192,294356,1,0,0:0:0:0:
329,192,294442,128,0,294613:0:0:0:0:
182,192,294442,128,0,294528:0:0:0:0:
256,192,294442,1,0,0:0:0:0:
36,192,294528,128,0,294699:0:0:0:0:
402,192,294528,128,0,294613:0:0:0:0:
475,192,294528,1,0,0:0:0:0:
256,192,294613,128,0,294785:0:0:0:0:
109,192,294613,128,0,294699:0:0:0:0:
182,192,294613,1,0,0:0:0:0:
475,192,294699,128,0,294871:0:0:0:0:
329,192,294699,128,0,294785:0:0:0:0:
402,192,294699,1,0,0:0:0:0:
182,192,294785,128,0,294956:0:0:0:0:
36,192,294785,128,0,294871:0:0:0:0:
109,192,294785,1,0,0:0:0:0:
402,192,294871,128,0,295042:0:0:0:0:
256,192,294871,128,0,294956:0:0:0:0:
329,192,294871,1,0,0:0:0:0:
109,192,294956,128,0,295128:0:0:0:0:
475,192,294956,128,0,295042:0:0:0:0:
36,192,294956,1,0,0:0:0:0:
329,192,295042,128,0,295128:0:0:0:0:
182,192,295042,128,0,295128:0:0:0:0:
256,192,295128,128,0,295471:0:0:0:0:
36,192,295471,1,0,0:0:0:0:
109,192,295471,1,0,0:0:0:0:
402,192,295471,1,0,0:0:0:0:
475,192,295471,1,0,0:0:0:0:
36,192,295813,1,0,0:0:0:0:
475,192,295813,1,0,0:0:0:0:
109,192,295813,1,0,0:0:0:0:
256,192,295813,1,0,0:0:0:0:
402,192,295813,1,0,0:0:0:0:
329,192,295899,1,0,0:0:0:0:
182,192,295899,1,0,0:0:0:0:
36,192,295985,1,0,0:0:0:0:
109,192,295985,1,0,0:0:0:0:
36,192,296071,1,0,0:0:0:0:
109,192,296071,1,0,0:0:0:0:
402,192,296156,1,0,0:0:0:0:
475,192,296156,1,0,0:0:0:0:
256,192,296156,1,0,0:0:0:0:
329,192,296242,1,0,0:0:0:0:
182,192,296242,1,0,0:0:0:0:
109,192,296328,1,0,0:0:0:0:
402,192,296328,1,0,0:0:0:0:
329,192,296413,1,0,0:0:0:0:
182,192,296413,1,0,0:0:0:0:
36,192,296499,1,0,0:0:0:0:
256,192,296499,1,0,0:0:0:0:
475,192,296499,1,0,0:0:0:0:
109,192,296585,1,0,0:0:0:0:
329,192,296585,1,0,0:0:0:0:
182,192,296671,1,0,0:0:0:0:
402,192,296671,1,0,0:0:0:0:
256,192,296756,1,0,0:0:0:0:
475,192,296756,1,0,0:0:0:0:
36,192,296842,1,0,0:0:0:0:
109,192,296842,1,0,0:0:0:0:
329,192,296842,1,0,0:0:0:0:
182,192,296928,1,0,0:0:0:0:
402,192,296928,1,0,0:0:0:0:
475,192,296928,1,0,0:0:0:0:
36,192,297013,1,0,0:0:0:0:
256,192,297099,1,0,0:0:0:0:
109,192,297099,1,0,0:0:0:0:
329,192,297099,1,0,0:0:0:0:
36,192,297185,1,0,0:0:0:0:
402,192,297185,1,0,0:0:0:0:
475,192,297185,1,0,0:0:0:0:
182,192,297271,1,0,0:0:0:0:
109,192,297271,1,0,0:0:0:0:
256,192,297356,1,0,0:0:0:0:
329,192,297356,1,0,0:0:0:0:
329,192,297442,1,0,0:0:0:0:
256,192,297442,1,0,0:0:0:0:
36,192,297528,1,0,0:0:0:0:
109,192,297528,1,0,0:0:0:0:
475,192,297528,1,0,0:0:0:0:
402,192,297613,1,0,0:0:0:0:
182,192,297613,1,0,0:0:0:0:
256,192,297699,1,0,0:0:0:0:
475,192,297699,1,0,0:0:0:0:
329,192,297785,1,0,0:0:0:0:
36,192,297785,1,0,0:0:0:0:
109,192,297871,1,0,0:0:0:0:
182,192,297871,1,0,0:0:0:0:
402,192,297871,1,0,0:0:0:0:
256,192,297956,1,0,0:0:0:0:
475,192,297956,1,0,0:0:0:0:
402,192,298042,1,0,0:0:0:0:
182,192,298042,1,0,0:0:0:0:
109,192,298128,1,0,0:0:0:0:
329,192,298128,1,0,0:0:0:0:
256,192,298213,1,0,0:0:0:0:
36,192,298213,1,0,0:0:0:0:
475,192,298213,1,0,0:0:0:0:
329,192,298299,1,0,0:0:0:0:
402,192,298299,1,0,0:0:0:0:
182,192,298299,1,0,0:0:0:0:
256,192,298385,1,0,0:0:0:0:
109,192,298471,1,0,0:0:0:0:
182,192,298471,1,0,0:0:0:0:
329,192,298471,1,0,0:0:0:0:
36,192,298556,1,0,0:0:0:0:
475,192,298556,1,0,0:0:0:0:
256,192,298556,1,0,0:0:0:0:
329,192,298642,1,0,0:0:0:0:
402,192,298642,1,0,0:0:0:0:
109,192,298728,1,0,0:0:0:0:
182,192,298728,1,0,0:0:0:0:
109,192,298813,1,0,0:0:0:0:
182,192,298813,1,0,0:0:0:0:
256,192,298899,1,0,0:0:0:0:
402,192,298899,1,0,0:0:0:0:
475,192,298899,1,0,0:0:0:0:
36,192,298985,1,0,0:0:0:0:
329,192,298985,1,0,0:0:0:0:
109,192,299071,1,0,0:0:0:0:
402,192,299071,1,0,0:0:0:0:
182,192,299156,1,0,0:0:0:0:
475,192,299156,1,0,0:0:0:0:
36,192,299242,1,0,0:0:0:0:
402,192,299242,1,0,0:0:0:0:
329,192,299242,1,0,0:0:0:0:
109,192,299328,1,0,0:0:0:0:
182,192,299328,1,0,0:0:0:0:
329,192,299413,1,0,0:0:0:0:
256,192,299413,1,0,0:0:0:0:
475,192,299499,1,0,0:0:0:0:
402,192,299499,1,0,0:0:0:0:
36,192,299585,1,0,0:0:0:0:
182,192,299585,1,0,0:0:0:0:
109,192,299585,1,0,0:0:0:0:
475,192,299671,1,0,0:0:0:0:
402,192,299671,1,0,0:0:0:0:
329,192,299671,1,0,0:0:0:0:
182,192,299756,1,0,0:0:0:0:
402,192,299842,1,0,0:0:0:0:
256,192,299842,1,0,0:0:0:0:
329,192,299842,1,0,0:0:0:0:
36,192,299928,1,0,0:0:0:0:
475,192,299928,1,0,0:0:0:0:
109,192,299928,1,0,0:0:0:0:
329,192,300013,1,0,0:0:0:0:
256,192,300013,1,0,0:0:0:0:
182,192,300099,1,0,0:0:0:0:
109,192,300099,1,0,0:0:0:0:
109,192,300185,1,0,0:0:0:0:
182,192,300185,1,0,0:0:0:0:
402,192,300271,1,0,0:0:0:0:
475,192,300271,1,0,0:0:0:0:
329,192,300271,1,0,0:0:0:0:
36,192,300356,1,0,0:0:0:0:
256,192,300356,1,0,0:0:0:0:
109,192,300442,1,0,0:0:0:0:
329,192,300442,1,0,0:0:0:0:
182,192,300528,1,0,0:0:0:0:
402,192,300528,1,0,0:0:0:0:
36,192,300613,1,0,0:0:0:0:
256,192,300613,1,0,0:0:0:0:
475,192,300613,1,0,0:0:0:0:
109,192,300699,1,0,0:0:0:0:
329,192,300699,1,0,0:0:0:0:
182,192,300785,1,0,0:0:0:0:
402,192,300785,1,0,0:0:0:0:
256,192,300871,1,0,0:0:0:0:
475,192,300871,1,0,0:0:0:0:
36,192,300956,1,0,0:0:0:0:
109,192,300956,1,0,0:0:0:0:
109,192,301128,1,0,0:0:0:0:
36,192,301128,1,0,0:0:0:0:
402,192,301299,1,0,0:0:0:0:
475,192,301299,1,0,0:0:0:0:
182,192,301299,1,0,0:0:0:0:
36,192,301299,1,0,0:0:0:0:
329,192,301299,1,0,0:0:0:0:
109,192,301385,1,0,0:0:0:0:
256,192,301385,1,0,0:0:0:0:
329,192,301471,1,0,0:0:0:0:
402,192,301471,1,0,0:0:0:0:
329,192,301556,1,0,0:0:0:0:
402,192,301556,1,0,0:0:0:0:
36,192,301642,1,0,0:0:0:0:
182,192,301642,1,0,0:0:0:0:
475,192,301642,1,0,0:0:0:0:
109,192,301728,1,0,0:0:0:0:
256,192,301728,1,0,0:0:0:0:
182,192,301813,1,0,0:0:0:0:
329,192,301813,1,0,0:0:0:0:
256,192,301899,1,0,0:0:0:0:
402,192,301899,1,0,0:0:0:0:
109,192,301985,1,0,0:0:0:0:
329,192,301985,1,0,0:0:0:0:
475,192,301985,1,0,0:0:0:0:
182,192,302071,1,0,0:0:0:0:
36,192,302071,1,0,0:0:0:0:
256,192,302156,1,0,0:0:0:0:
109,192,302156,1,0,0:0:0:0:
182,192,302242,1,0,0:0:0:0:
329,192,302242,1,0,0:0:0:0:
256,192,302328,1,0,0:0:0:0:
36,192,302328,1,0,0:0:0:0:
475,192,302328,1,0,0:0:0:0:
109,192,302413,1,0,0:0:0:0:
329,192,302413,1,0,0:0:0:0:
402,192,302413,1,0,0:0:0:0:
36,192,302499,1,0,0:0:0:0:
182,192,302585,1,0,0:0:0:0:
256,192,302585,1,0,0:0:0:0:
475,192,302585,1,0,0:0:0:0:
109,192,302671,1,0,0:0:0:0:
329,192,302671,1,0,0:0:0:0:
402,192,302671,1,0,0:0:0:0:
36,192,302756,1,0,0:0:0:0:
182,192,302756,1,0,0:0:0:0:
256,192,302842,1,0,0:0:0:0:
475,192,302842,1,0,0:0:0:0:
475,192,302928,1,0,0:0:0:0:
256,192,302928,1,0,0:0:0:0:
36,192,303013,1,0,0:0:0:0:
109,192,303013,1,0,0:0:0:0:
329,192,303013,1,0,0:0:0:0:
402,192,303099,1,0,0:0:0:0:
182,192,303099,1,0,0:0:0:0:
109,192,303185,1,0,0:0:0:0:
329,192,303185,1,0,0:0:0:0:
182,192,303271,1,0,0:0:0:0:
402,192,303271,1,0,0:0:0:0:
256,192,303356,1,0,0:0:0:0:
475,192,303356,1,0,0:0:0:0:
36,192,303356,1,0,0:0:0:0:
109,192,303442,1,0,0:0:0:0:
329,192,303442,1,0,0:0:0:0:
182,192,303528,1,0,0:0:0:0:
402,192,303528,1,0,0:0:0:0:
256,192,303613,1,0,0:0:0:0:
36,192,303699,1,0,0:0:0:0:
109,192,303699,1,0,0:0:0:0:
329,192,303699,1,0,0:0:0:0:
402,192,303699,1,0,0:0:0:0:
475,192,303699,1,0,0:0:0:0:
36,192,303956,1,0,0:0:0:0:
109,192,303956,1,0,0:0:0:0:
329,192,303956,1,0,0:0:0:0:
402,192,303956,1,0,0:0:0:0:
256,192,303956,1,0,0:0:0:0:
109,192,304385,1,0,0:0:0:0:
36,192,304385,1,0,0:0:0:0:
182,192,304385,1,0,0:0:0:0:
329,192,304385,1,0,0:0:0:0:
402,192,304385,1,0,0:0:0:0:
256,192,304642,1,0,0:0:0:0:
402,192,304642,1,0,0:0:0:0:
475,192,304642,1,0,0:0:0:0:
109,192,304642,1,0,0:0:0:0:
182,192,304642,1,0,0:0:0:0:
109,192,305242,1,0,0:0:0:0:
182,192,305242,1,0,0:0:0:0:
329,192,305242,1,0,0:0:0:0:
402,192,305242,1,0,0:0:0:0:
182,192,305499,1,0,0:0:0:0:
109,192,305499,1,0,0:0:0:0:
329,192,305499,1,0,0:0:0:0:
402,192,305499,1,0,0:0:0:0:
182,192,305756,1,0,0:0:0:0:
109,192,305756,1,0,0:0:0:0:
329,192,305756,1,0,0:0:0:0:
402,192,305756,1,0,0:0:0:0:
182,192,306013,1,0,0:0:0:0:
109,192,306013,1,0,0:0:0:0:
329,192,306013,1,0,0:0:0:0:
402,192,306013,1,0,0:0:0:0:
256,192,306099,128,0,306442:0:0:0:0:
36,192,306442,1,0,0:0:0:0:
109,192,306442,1,0,0:0:0:0:
402,192,306442,1,0,0:0:0:0:
475,192,306442,1,0,0:0:0:0:
182,192,306528,128,0,306699:0:0:0:0:
329,192,306528,128,0,306699:0:0:0:0:
36,192,306613,1,0,0:0:0:0:
475,192,306613,1,0,0:0:0:0:
109,192,306699,128,0,306871:0:0:0:0:
256,192,306699,128,0,306871:0:0:0:0:
329,192,306785,1,0,0:0:0:0:
402,192,306785,1,0,0:0:0:0:
475,192,306785,1,0,0:0:0:0:
182,192,306871,128,0,306956:0:0:0:0:
36,192,306871,128,0,306956:0:0:0:0:
329,192,306956,128,0,307042:0:0:0:0:
475,192,306956,128,0,307042:0:0:0:0:
36,192,307042,128,0,307128:0:0:0:0:
182,192,307042,128,0,307128:0:0:0:0:
256,192,307128,1,0,0:0:0:0:
109,192,307128,1,0,0:0:0:0:
402,192,307128,1,0,0:0:0:0:
36,192,307213,128,0,307471:0:0:0:0:
329,192,307213,1,0,0:0:0:0:
109,192,307299,128,0,307471:0:0:0:0:
402,192,307299,1,0,0:0:0:0:
256,192,307299,1,0,0:0:0:0:
182,192,307385,128,0,307471:0:0:0:0:
475,192,307385,1,0,0:0:0:0:
256,192,307471,1,0,0:0:0:0:
329,192,307471,1,0,0:0:0:0:
109,192,307556,128,0,307813:0:0:0:0:
402,192,307556,1,0,0:0:0:0:
182,192,307642,128,0,307813:0:0:0:0:
475,192,307642,1,0,0:0:0:0:
36,192,307642,1,0,0:0:0:0:
256,192,307728,128,0,307813:0:0:0:0:
402,192,307728,1,0,0:0:0:0:
36,192,307813,1,0,0:0:0:0:
329,192,307813,1,0,0:0:0:0:
475,192,307813,1,0,0:0:0:0:
256,192,307899,128,0,308071:0:0:0:0:
402,192,307899,128,0,308071:0:0:0:0:
36,192,307985,1,0,0:0:0:0:
109,192,307985,1,0,0:0:0:0:
182,192,308071,128,0,308242:0:0:0:0:
329,192,308071,128,0,308242:0:0:0:0:
475,192,308156,1,0,0:0:0:0:
36,192,308156,1,0,0:0:0:0:
109,192,308242,128,0,308328:0:0:0:0:
256,192,308242,128,0,308328:0:0:0:0:
329,192,308328,128,0,308413:0:0:0:0:
475,192,308328,128,0,308413:0:0:0:0:
36,192,308413,128,0,308499:0:0:0:0:
182,192,308413,128,0,308499:0:0:0:0:
256,192,308499,1,0,0:0:0:0:
402,192,308499,1,0,0:0:0:0:
475,192,308499,1,0,0:0:0:0:
109,192,308585,128,0,308842:0:0:0:0:
329,192,308585,1,0,0:0:0:0:
182,192,308671,128,0,308842:0:0:0:0:
402,192,308671,1,0,0:0:0:0:
475,192,308671,1,0,0:0:0:0:
256,192,308756,128,0,308842:0:0:0:0:
329,192,308756,1,0,0:0:0:0:
36,192,308842,1,0,0:0:0:0:
475,192,308842,128,0,308928:0:0:0:0:
402,192,308842,128,0,308928:0:0:0:0:
109,192,308928,128,0,309013:0:0:0:0:
182,192,308928,128,0,309013:0:0:0:0:
329,192,309013,128,0,309099:0:0:0:0:
402,192,309013,128,0,309099:0:0:0:0:
109,192,309099,128,0,309185:0:0:0:0:
36,192,309099,128,0,309185:0:0:0:0:
182,192,309185,1,0,0:0:0:0:
256,192,309185,1,0,0:0:0:0:
402,192,309185,1,0,0:0:0:0:
475,192,309185,1,0,0:0:0:0:
109,192,309271,128,0,309442:0:0:0:0:
329,192,309271,128,0,309442:0:0:0:0:
475,192,309356,1,0,0:0:0:0:
182,192,309356,1,0,0:0:0:0:
256,192,309442,128,0,309613:0:0:0:0:
36,192,309442,128,0,309613:0:0:0:0:
109,192,309528,1,0,0:0:0:0:
329,192,309528,1,0,0:0:0:0:
182,192,309613,128,0,309699:0:0:0:0:
402,192,309613,128,0,309699:0:0:0:0:
256,192,309699,128,0,309785:0:0:0:0:
475,192,309699,128,0,309785:0:0:0:0:
109,192,309785,128,0,309871:0:0:0:0:
329,192,309785,128,0,309871:0:0:0:0:
182,192,309871,1,0,0:0:0:0:
36,192,309871,1,0,0:0:0:0:
402,192,309871,1,0,0:0:0:0:
256,192,309956,128,0,310213:0:0:0:0:
109,192,309956,1,0,0:0:0:0:
329,192,310042,128,0,310213:0:0:0:0:
182,192,310042,1,0,0:0:0:0:
475,192,310042,1,0,0:0:0:0:
402,192,310128,128,0,310213:0:0:0:0:
36,192,310128,1,0,0:0:0:0:
109,192,310213,1,0,0:0:0:0:
182,192,310213,1,0,0:0:0:0:
475,192,310299,128,0,310556:0:0:0:0:
256,192,310299,1,0,0:0:0:0:
402,192,310385,128,0,310556:0:0:0:0:
36,192,310385,1,0,0:0:0:0:
109,192,310385,1,0,0:0:0:0:
329,192,310471,128,0,310556:0:0:0:0:
182,192,310471,1,0,0:0:0:0:
36,192,310556,1,0,0:0:0:0:
109,192,310556,1,0,0:0:0:0:
256,192,310556,1,0,0:0:0:0:
402,192,310642,128,0,310813:0:0:0:0:
475,192,310642,128,0,310813:0:0:0:0:
182,192,310728,1,0,0:0:0:0:
36,192,310728,1,0,0:0:0:0:
329,192,310813,128,0,310985:0:0:0:0:
256,192,310813,128,0,310985:0:0:0:0:
402,192,310899,1,0,0:0:0:0:
36,192,310899,1,0,0:0:0:0:
109,192,310985,128,0,311071:0:0:0:0:
182,192,310985,128,0,311071:0:0:0:0:
329,192,311071,128,0,311156:0:0:0:0:
402,192,311071,128,0,311156:0:0:0:0:
109,192,311156,128,0,311242:0:0:0:0:
36,192,311156,128,0,311242:0:0:0:0:
182,192,311242,1,0,0:0:0:0:
256,192,311242,1,0,0:0:0:0:
475,192,311242,1,0,0:0:0:0:
329,192,311328,128,0,311585:0:0:0:0:
36,192,311328,1,0,0:0:0:0:
402,192,311413,128,0,311585:0:0:0:0:
109,192,311413,1,0,0:0:0:0:
256,192,311413,1,0,0:0:0:0:
475,192,311499,128,0,311585:0:0:0:0:
36,192,311499,1,0,0:0:0:0:
182,192,311585,128,0,311671:0:0:0:0:
109,192,311671,128,0,311756:0:0:0:0:
182,192,311756,128,0,311842:0:0:0:0:
256,192,311842,128,0,311928:0:0:0:0:
36,192,311928,1,0,0:0:0:0:
109,192,311928,1,0,0:0:0:0:
475,192,311928,1,0,0:0:0:0:
329,192,311928,1,0,0:0:0:0:
182,192,312013,1,0,0:0:0:0:
256,192,312013,1,0,0:0:0:0:
402,192,312013,1,0,0:0:0:0:
36,192,312099,1,0,0:0:0:0:
109,192,312099,1,0,0:0:0:0:
329,192,312099,1,0,0:0:0:0:
256,192,312185,1,0,0:0:0:0:
475,192,312185,1,0,0:0:0:0:
402,192,312185,1,0,0:0:0:0:
182,192,312271,1,0,0:0:0:0:
329,192,312271,1,0,0:0:0:0:
36,192,312271,1,0,0:0:0:0:
109,192,312356,1,0,0:0:0:0:
256,192,312356,1,0,0:0:0:0:
475,192,312356,1,0,0:0:0:0:
402,192,312442,1,0,0:0:0:0:
329,192,312442,1,0,0:0:0:0:
36,192,312442,1,0,0:0:0:0:
182,192,312528,1,0,0:0:0:0:
109,192,312528,1,0,0:0:0:0:
256,192,312528,1,0,0:0:0:0:
329,192,312613,1,0,0:0:0:0:
402,192,312613,1,0,0:0:0:0:
475,192,312613,1,0,0:0:0:0:
109,192,312699,1,0,0:0:0:0:
36,192,312699,1,0,0:0:0:0:
256,192,312699,1,0,0:0:0:0:
182,192,312785,1,0,0:0:0:0:
402,192,312785,1,0,0:0:0:0:
475,192,312785,1,0,0:0:0:0:
329,192,312871,1,0,0:0:0:0:
256,192,312871,1,0,0:0:0:0:
36,192,312871,1,0,0:0:0:0:
109,192,312956,128,0,313042:0:0:0:0:
182,192,312956,128,0,313042:0:0:0:0:
329,192,313042,128,0,313128:0:0:0:0:
402,192,313042,128,0,313128:0:0:0:0:
109,192,313128,128,0,313213:0:0:0:0:
182,192,313128,128,0,313213:0:0:0:0:
329,192,313213,128,0,313299:0:0:0:0:
402,192,313213,128,0,313299:0:0:0:0:
36,192,313299,1,0,0:0:0:0:
109,192,313299,1,0,0:0:0:0:
256,192,313299,1,0,0:0:0:0:
475,192,313299,1,0,0:0:0:0:
182,192,313385,1,0,0:0:0:0:
329,192,313385,1,0,0:0:0:0:
402,192,313385,1,0,0:0:0:0:
256,192,313471,1,0,0:0:0:0:
36,192,313471,1,0,0:0:0:0:
109,192,313471,1,0,0:0:0:0:
329,192,313556,1,0,0:0:0:0:
402,192,313556,1,0,0:0:0:0:
475,192,313556,1,0,0:0:0:0:
36,192,313642,1,0,0:0:0:0:
182,192,313642,1,0,0:0:0:0:
256,192,313642,1,0,0:0:0:0:
109,192,313728,1,0,0:0:0:0:
402,192,313728,1,0,0:0:0:0:
475,192,313728,1,0,0:0:0:0:
329,192,313813,1,0,0:0:0:0:
256,192,313813,1,0,0:0:0:0:
182,192,313813,1,0,0:0:0:0:
36,192,313899,1,0,0:0:0:0:
109,192,313899,1,0,0:0:0:0:
475,192,313899,1,0,0:0:0:0:
402,192,313985,1,0,0:0:0:0:
182,192,313985,1,0,0:0:0:0:
329,192,313985,1,0,0:0:0:0:
109,192,314071,1,0,0:0:0:0:
36,192,314071,1,0,0:0:0:0:
256,192,314071,1,0,0:0:0:0:
329,192,314156,1,0,0:0:0:0:
402,192,314156,1,0,0:0:0:0:
475,192,314156,1,0,0:0:0:0:
182,192,314242,1,0,0:0:0:0:
256,192,314242,1,0,0:0:0:0:
36,192,314242,1,0,0:0:0:0:
109,192,314328,128,0,314413:0:0:0:0:
329,192,314328,128,0,314413:0:0:0:0:
256,192,314413,128,0,314499:0:0:0:0:
475,192,314413,128,0,314499:0:0:0:0:
402,192,314499,128,0,314585:0:0:0:0:
182,192,314499,128,0,314585:0:0:0:0:
109,192,314585,128,0,314671:0:0:0:0:
329,192,314585,128,0,314671:0:0:0:0:
256,192,314671,1,0,0:0:0:0:
36,192,314671,1,0,0:0:0:0:
475,192,314671,1,0,0:0:0:0:
402,192,314671,1,0,0:0:0:0:
109,192,314756,1,0,0:0:0:0:
182,192,314756,1,0,0:0:0:0:
329,192,314756,1,0,0:0:0:0:
256,192,314842,1,0,0:0:0:0:
36,192,314842,1,0,0:0:0:0:
475,192,314842,1,0,0:0:0:0:
402,192,314928,1,0,0:0:0:0:
182,192,314928,1,0,0:0:0:0:
329,192,314928,1,0,0:0:0:0:
36,192,315013,1,0,0:0:0:0:
109,192,315013,1,0,0:0:0:0:
256,192,315013,1,0,0:0:0:0:
329,192,315099,1,0,0:0:0:0:
402,192,315099,1,0,0:0:0:0:
475,192,315099,1,0,0:0:0:0:
182,192,315185,1,0,0:0:0:0:
36,192,315185,1,0,0:0:0:0:
109,192,315185,1,0,0:0:0:0:
256,192,315271,1,0,0:0:0:0:
329,192,315271,1,0,0:0:0:0:
402,192,315271,1,0,0:0:0:0:
36,192,315356,1,0,0:0:0:0:
475,192,315356,1,0,0:0:0:0:
109,192,315356,1,0,0:0:0:0:
182,192,315399,1,0,0:0:0:0:
256,192,315399,1,0,0:0:0:0:
329,192,315442,1,0,0:0:0:0:
402,192,315442,1,0,0:0:0:0:
475,192,315485,1,0,0:0:0:0:
36,192,315485,1,0,0:0:0:0:
109,192,315528,1,0,0:0:0:0:
182,192,315528,1,0,0:0:0:0:
256,192,315571,1,0,0:0:0:0:
329,192,315571,1,0,0:0:0:0:
402,192,315613,1,0,0:0:0:0:
475,192,315613,1,0,0:0:0:0:
36,192,315656,1,0,0:0:0:0:
109,192,315656,1,0,0:0:0:0:
182,192,315699,1,0,0:0:0:0:
256,192,315699,1,0,0:0:0:0:
329,192,315742,1,0,0:0:0:0:
402,192,315742,1,0,0:0:0:0:
475,192,315785,1,0,0:0:0:0:
36,192,315785,1,0,0:0:0:0:
109,192,315828,1,0,0:0:0:0:
182,192,315828,1,0,0:0:0:0:
256,192,315871,1,0,0:0:0:0:
329,192,315871,1,0,0:0:0:0:
402,192,315913,1,0,0:0:0:0:
475,192,315913,1,0,0:0:0:0:
109,192,315956,1,0,0:0:0:0:
36,192,315956,1,0,0:0:0:0:
182,192,315999,1,0,0:0:0:0:
256,192,315999,1,0,0:0:0:0:
402,192,316042,1,0,0:0:0:0:
475,192,316042,1,0,0:0:0:0:
329,192,316042,128,0,316128:0:0:0:0:
36,192,316128,128,0,316213:0:0:0:0:
109,192,316213,128,0,316299:0:0:0:0:
256,192,316213,1,0,0:0:0:0:
182,192,316299,128,0,316385:0:0:0:0:
329,192,316385,128,0,316471:0:0:0:0:
256,192,316471,128,0,316556:0:0:0:0:
402,192,316556,128,0,316642:0:0:0:0:
36,192,316556,1,0,0:0:0:0:
475,192,316642,128,0,316728:0:0:0:0:
402,192,316728,128,0,316813:0:0:0:0:
182,192,316728,1,0,0:0:0:0:
329,192,316728,1,0,0:0:0:0:
36,192,316813,128,0,316899:0:0:0:0:
109,192,316899,128,0,316985:0:0:0:0:
182,192,316985,128,0,317071:0:0:0:0:
329,192,317071,128,0,317156:0:0:0:0:
475,192,317156,128,0,317242:0:0:0:0:
36,192,317242,128,0,317328:0:0:0:0:
109,192,317285,128,0,317371:0:0:0:0:
182,192,317328,128,0,317413:0:0:0:0:
256,192,317371,128,0,317456:0:0:0:0:
402,192,317413,1,0,0:0:0:0:
475,192,317413,1,0,0:0:0:0:
329,192,317413,128,0,317499:0:0:0:0:
36,192,317499,1,0,0:0:0:0:
182,192,317585,1,0,0:0:0:0:
475,192,317671,1,0,0:0:0:0:
256,192,317671,1,0,0:0:0:0:
402,192,317671,1,0,0:0:0:0:
109,192,317671,1,0,0:0:0:0:
329,192,317756,1,0,0:0:0:0:
182,192,317842,1,0,0:0:0:0:
36,192,317928,1,0,0:0:0:0:
109,192,317928,1,0,0:0:0:0:
402,192,317928,1,0,0:0:0:0:
256,192,317928,1,0,0:0:0:0:
475,192,318013,1,0,0:0:0:0:
182,192,318099,1,0,0:0:0:0:
329,192,318185,1,0,0:0:0:0:
109,192,318271,1,0,0:0:0:0:
256,192,318356,1,0,0:0:0:0:
329,192,318442,1,0,0:0:0:0:
475,192,318442,1,0,0:0:0:0:
182,192,318442,1,0,0:0:0:0:
36,192,318442,1,0,0:0:0:0:
109,192,318528,1,0,0:0:0:0:
256,192,318613,1,0,0:0:0:0:
109,192,318699,1,0,0:0:0:0:
36,192,318699,1,0,0:0:0:0:
475,192,318699,1,0,0:0:0:0:
402,192,318699,1,0,0:0:0:0:
182,192,318785,1,0,0:0:0:0:
329,192,318871,1,0,0:0:0:0:
36,192,318956,1,0,0:0:0:0:
256,192,318956,1,0,0:0:0:0:
475,192,318956,1,0,0:0:0:0:
109,192,318956,1,0,0:0:0:0:
402,192,319042,1,0,0:0:0:0:
182,192,319128,1,0,0:0:0:0:
475,192,319213,1,0,0:0:0:0:
36,192,319213,1,0,0:0:0:0:
329,192,319213,1,0,0:0:0:0:
256,192,319213,1,0,0:0:0:0:
109,192,319299,1,0,0:0:0:0:
475,192,319385,1,0,0:0:0:0:
36,192,319385,1,0,0:0:0:0:
256,192,319385,1,0,0:0:0:0:
329,192,319385,1,0,0:0:0:0:
182,192,319471,1,0,0:0:0:0:
109,192,319556,1,0,0:0:0:0:
36,192,319642,1,0,0:0:0:0:
402,192,319642,1,0,0:0:0:0:
475,192,319642,1,0,0:0:0:0:
256,192,319642,1,0,0:0:0:0:
182,192,319728,1,0,0:0:0:0:
36,192,319813,1,0,0:0:0:0:
475,192,319813,1,0,0:0:0:0:
329,192,319813,1,0,0:0:0:0:
109,192,319813,1,0,0:0:0:0:
109,192,320156,1,0,0:0:0:0:
256,192,320156,1,0,0:0:0:0:
402,192,320156,1,0,0:0:0:0:
475,192,320156,1,0,0:0:0:0:
36,192,320156,1,0,0:0:0:0:
182,192,320242,1,0,0:0:0:0:
329,192,320328,1,0,0:0:0:0:
36,192,320413,1,0,0:0:0:0:
182,192,320413,1,0,0:0:0:0:
475,192,320413,1,0,0:0:0:0:
109,192,320413,1,0,0:0:0:0:
256,192,320499,1,0,0:0:0:0:
329,192,320585,1,0,0:0:0:0:
36,192,320671,1,0,0:0:0:0:
475,192,320671,1,0,0:0:0:0:
109,192,320671,1,0,0:0:0:0:
402,192,320671,1,0,0:0:0:0:
256,192,320756,1,0,0:0:0:0:
329,192,320842,1,0,0:0:0:0:
182,192,320928,1,0,0:0:0:0:
402,192,321013,1,0,0:0:0:0:
109,192,321099,1,0,0:0:0:0:
36,192,321185,1,0,0:0:0:0:
182,192,321185,1,0,0:0:0:0:
475,192,321185,1,0,0:0:0:0:
256,192,321185,1,0,0:0:0:0:
329,192,321271,1,0,0:0:0:0:
402,192,321356,1,0,0:0:0:0:
182,192,321442,1,0,0:0:0:0:
256,192,321442,1,0,0:0:0:0:
475,192,321442,1,0,0:0:0:0:
36,192,321442,1,0,0:0:0:0:
109,192,321528,1,0,0:0:0:0:
402,192,321613,1,0,0:0:0:0:
475,192,321613,1,0,0:0:0:0:
36,192,321613,1,0,0:0:0:0:
256,192,321613,1,0,0:0:0:0:
182,192,321699,1,0,0:0:0:0:
329,192,321785,1,0,0:0:0:0:
475,192,321871,1,0,0:0:0:0:
256,192,321871,1,0,0:0:0:0:
109,192,321871,1,0,0:0:0:0:
36,192,321871,1,0,0:0:0:0:
402,192,321956,1,0,0:0:0:0:
182,192,322042,1,0,0:0:0:0:
475,192,322128,1,0,0:0:0:0:
36,192,322128,1,0,0:0:0:0:
109,192,322128,1,0,0:0:0:0:
256,192,322128,1,0,0:0:0:0:
402,192,322213,1,0,0:0:0:0:
36,192,322299,1,0,0:0:0:0:
182,192,322299,1,0,0:0:0:0:
256,192,322299,1,0,0:0:0:0:
329,192,322299,1,0,0:0:0:0:
109,192,322385,1,0,0:0:0:0:
402,192,322385,1,0,0:0:0:0:
475,192,322385,1,0,0:0:0:0:
256,192,322385,1,0,0:0:0:0:
182,192,322471,1,0,0:0:0:0:
475,192,322556,1,0,0:0:0:0:
329,192,322556,1,0,0:0:0:0:
36,192,322556,1,0,0:0:0:0:
109,192,322556,1,0,0:0:0:0:
36,192,322899,1,0,0:0:0:0:
109,192,322899,1,0,0:0:0:0:
329,192,322899,1,0,0:0:0:0:
475,192,322899,1,0,0:0:0:0:
182,192,322899,1,0,0:0:0:0:
256,192,322985,1,0,0:0:0:0:
402,192,323071,1,0,0:0:0:0:
182,192,323156,1,0,0:0:0:0:
36,192,323156,1,0,0:0:0:0:
109,192,323156,1,0,0:0:0:0:
475,192,323156,1,0,0:0:0:0:
329,192,323242,1,0,0:0:0:0:
109,192,323328,1,0,0:0:0:0:
256,192,323413,1,0,0:0:0:0:
402,192,323413,1,0,0:0:0:0:
475,192,323413,1,0,0:0:0:0:
36,192,323413,1,0,0:0:0:0:
182,192,323499,1,0,0:0:0:0:
329,192,323585,1,0,0:0:0:0:
109,192,323671,1,0,0:0:0:0:
256,192,323756,1,0,0:0:0:0:
402,192,323842,1,0,0:0:0:0:
36,192,323928,1,0,0:0:0:0:
109,192,323928,1,0,0:0:0:0:
182,192,323928,1,0,0:0:0:0:
475,192,323928,1,0,0:0:0:0:
329,192,324013,1,0,0:0:0:0:
182,192,324099,1,0,0:0:0:0:
402,192,324185,1,0,0:0:0:0:
475,192,324185,1,0,0:0:0:0:
36,192,324185,1,0,0:0:0:0:
109,192,324185,1,0,0:0:0:0:
256,192,324271,1,0,0:0:0:0:
182,192,324356,1,0,0:0:0:0:
329,192,324442,1,0,0:0:0:0:
475,192,324442,1,0,0:0:0:0:
36,192,324442,1,0,0:0:0:0:
402,192,324442,1,0,0:0:0:0:
109,192,324528,1,0,0:0:0:0:
256,192,324613,1,0,0:0:0:0:
402,192,324699,1,0,0:0:0:0:
36,192,324699,1,0,0:0:0:0:
475,192,324699,1,0,0:0:0:0:
182,192,324699,1,0,0:0:0:0:
329,192,324785,1,0,0:0:0:0:
109,192,324871,1,0,0:0:0:0:
36,192,324871,1,0,0:0:0:0:
256,192,324871,1,0,0:0:0:0:
475,192,324871,1,0,0:0:0:0:
402,192,324956,1,0,0:0:0:0:
182,192,325042,1,0,0:0:0:0:
329,192,325128,1,0,0:0:0:0:
109,192,325128,1,0,0:0:0:0:
36,192,325128,1,0,0:0:0:0:
475,192,325128,1,0,0:0:0:0:
256,192,325213,1,0,0:0:0:0:
36,192,325299,1,0,0:0:0:0:
182,192,325299,1,0,0:0:0:0:
402,192,325299,1,0,0:0:0:0:
475,192,325299,1,0,0:0:0:0:
36,192,325642,1,0,0:0:0:0:
109,192,325642,1,0,0:0:0:0:
256,192,325642,1,0,0:0:0:0:
402,192,325642,1,0,0:0:0:0:
475,192,325642,1,0,0:0:0:0:
182,192,325728,1,0,0:0:0:0:
329,192,325813,1,0,0:0:0:0:
109,192,325899,1,0,0:0:0:0:
402,192,325899,1,0,0:0:0:0:
475,192,325899,1,0,0:0:0:0:
36,192,325899,1,0,0:0:0:0:
256,192,325985,1,0,0:0:0:0:
182,192,326071,1,0,0:0:0:0:
329,192,326156,1,0,0:0:0:0:
36,192,326156,1,0,0:0:0:0:
109,192,326156,1,0,0:0:0:0:
475,192,326156,1,0,0:0:0:0:
256,192,326242,1,0,0:0:0:0:
402,192,326328,1,0,0:0:0:0:
182,192,326413,1,0,0:0:0:0:
329,192,326499,1,0,0:0:0:0:
109,192,326585,1,0,0:0:0:0:
256,192,326671,1,0,0:0:0:0:
402,192,326671,1,0,0:0:0:0:
475,192,326671,1,0,0:0:0:0:
36,192,326671,1,0,0:0:0:0:
182,192,326756,1,0,0:0:0:0:
329,192,326842,1,0,0:0:0:0:
109,192,326928,1,0,0:0:0:0:
36,192,326928,1,0,0:0:0:0:
475,192,326928,1,0,0:0:0:0:
256,192,326928,1,0,0:0:0:0:
402,192,327013,1,0,0:0:0:0:
256,192,327099,1,0,0:0:0:0:
109,192,327099,1,0,0:0:0:0:
36,192,327099,1,0,0:0:0:0:
475,192,327099,1,0,0:0:0:0:
329,192,327185,1,0,0:0:0:0:
182,192,327271,1,0,0:0:0:0:
256,192,327356,1,0,0:0:0:0:
402,192,327356,1,0,0:0:0:0:
475,192,327356,1,0,0:0:0:0:
36,192,327356,1,0,0:0:0:0:
109,192,327442,1,0,0:0:0:0:
182,192,327528,1,0,0:0:0:0:
36,192,327613,1,0,0:0:0:0:
402,192,327613,1,0,0:0:0:0:
475,192,327613,1,0,0:0:0:0:
256,192,327613,1,0,0:0:0:0:
182,192,327699,1,0,0:0:0:0:
109,192,327699,1,0,0:0:0:0:
329,192,327699,1,0,0:0:0:0:
402,192,327785,1,0,0:0:0:0:
475,192,327785,1,0,0:0:0:0:
36,192,327785,1,0,0:0:0:0:
256,192,327785,1,0,0:0:0:0:
182,192,327871,1,0,0:0:0:0:
329,192,327871,1,0,0:0:0:0:
109,192,327871,1,0,0:0:0:0:
475,192,327913,1,0,0:0:0:0:
256,192,327956,1,0,0:0:0:0:
402,192,327956,1,0,0:0:0:0:
36,192,327999,1,0,0:0:0:0:
109,192,328042,1,0,0:0:0:0:
182,192,328042,1,0,0:0:0:0:
329,192,328042,1,0,0:0:0:0:
475,192,328042,1,0,0:0:0:0:
402,192,328128,1,0,0:0:0:0:
256,192,328128,1,0,0:0:0:0:
182,192,328213,1,0,0:0:0:0:
329,192,328213,1,0,0:0:0:0:
256,192,328299,1,0,0:0:0:0:
109,192,328299,1,0,0:0:0:0:
36,192,328385,128,0,329756:0:0:0:0:
329,192,328385,128,0,328471:0:0:0:0:
475,192,328385,128,0,328471:0:0:0:0:
402,192,328385,128,0,328471:0:0:0:0:
182,192,328385,128,0,328471:0:0:0:0:
256,192,328471,128,0,328556:0:0:0:0:
182,192,328556,128,0,328642:0:0:0:0:
402,192,328556,1,0,0:0:0:0:
109,192,328642,128,0,328728:0:0:0:0:
329,192,328642,128,0,328728:0:0:0:0:
475,192,328642,128,0,328728:0:0:0:0:
256,192,328728,128,0,328813:0:0:0:0:
329,192,328813,128,0,328899:0:0:0:0:
475,192,328899,128,0,328985:0:0:0:0:
109,192,328899,128,0,328985:0:0:0:0:
182,192,328899,1,0,0:0:0:0:
256,192,328985,128,0,329071:0:0:0:0:
402,192,329071,128,0,329156:0:0:0:0:
182,192,329156,128,0,329242:0:0:0:0:
329,192,329242,128,0,329328:0:0:0:0:
475,192,329242,1,0,0:0:0:0:
109,192,329328,128,0,329413:0:0:0:0:
256,192,329413,128,0,329499:0:0:0:0:
402,192,329413,128,0,329499:0:0:0:0:
475,192,329413,128,0,329499:0:0:0:0:
182,192,329499,128,0,329585:0:0:0:0:
256,192,329585,128,0,329671:0:0:0:0:
109,192,329585,1,0,0:0:0:0:
475,192,329671,128,0,329756:0:0:0:0:
402,192,329671,128,0,329756:0:0:0:0:
182,192,329671,128,0,329756:0:0:0:0:
109,192,329756,128,0,330442:0:0:0:0:
329,192,329756,128,0,329842:0:0:0:0:
402,192,329842,128,0,329928:0:0:0:0:
256,192,329928,128,0,330013:0:0:0:0:
475,192,329928,128,0,330013:0:0:0:0:
36,192,329928,1,0,0:0:0:0:
329,192,330013,128,0,330099:0:0:0:0:
182,192,330099,128,0,330185:0:0:0:0:
256,192,330185,128,0,330271:0:0:0:0:
402,192,330185,128,0,330271:0:0:0:0:
475,192,330185,128,0,330271:0:0:0:0:
329,192,330271,128,0,330356:0:0:0:0:
36,192,330271,1,0,0:0:0:0:
475,192,330356,128,0,330442:0:0:0:0:
402,192,330356,128,0,330442:0:0:0:0:
256,192,330356,128,0,330442:0:0:0:0:
182,192,330442,128,0,330956:0:0:0:0:
36,192,330442,128,0,330528:0:0:0:0:
329,192,330528,128,0,330613:0:0:0:0:
109,192,330613,128,0,330699:0:0:0:0:
402,192,330613,128,0,330699:0:0:0:0:
256,192,330613,1,0,0:0:0:0:
36,192,330699,128,0,330785:0:0:0:0:
475,192,330785,128,0,330956:0:0:0:0:
329,192,330785,128,0,330871:0:0:0:0:
402,192,330871,128,0,330956:0:0:0:0:
109,192,330956,128,0,331042:0:0:0:0:
36,192,330956,1,0,0:0:0:0:
329,192,330956,1,0,0:0:0:0:
182,192,331042,128,0,331128:0:0:0:0:
402,192,331042,128,0,331128:0:0:0:0:
256,192,331128,128,0,332499:0:0:0:0:
475,192,331128,128,0,331213:0:0:0:0:
36,192,331128,128,0,331213:0:0:0:0:
109,192,331128,128,0,331213:0:0:0:0:
329,192,331213,128,0,331299:0:0:0:0:
182,192,331299,128,0,331385:0:0:0:0:
402,192,331299,1,0,0:0:0:0:
36,192,331385,128,0,331471:0:0:0:0:
109,192,331385,128,0,331471:0:0:0:0:
475,192,331385,128,0,331471:0:0:0:0:
329,192,331471,128,0,331556:0:0:0:0:
182,192,331556,128,0,331642:0:0:0:0:
36,192,331642,128,0,331728:0:0:0:0:
475,192,331642,128,0,331728:0:0:0:0:
329,192,331642,1,0,0:0:0:0:
109,192,331728,128,0,331813:0:0:0:0:
402,192,331813,128,0,331899:0:0:0:0:
182,192,331899,128,0,331985:0:0:0:0:
329,192,331985,128,0,332071:0:0:0:0:
36,192,331985,1,0,0:0:0:0:
109,192,332071,128,0,332156:0:0:0:0:
182,192,332156,128,0,332242:0:0:0:0:
402,192,332156,128,0,332242:0:0:0:0:
475,192,332156,128,0,332242:0:0:0:0:
36,192,332242,128,0,332328:0:0:0:0:
475,192,332328,128,0,332413:0:0:0:0:
109,192,332328,1,0,0:0:0:0:
182,192,332413,128,0,332499:0:0:0:0:
402,192,332413,128,0,332499:0:0:0:0:
36,192,332413,128,0,332499:0:0:0:0:
329,192,332499,128,0,332842:0:0:0:0:
109,192,332499,128,0,332585:0:0:0:0:
256,192,332585,128,0,332671:0:0:0:0:
182,192,332585,128,0,332671:0:0:0:0:
475,192,332585,128,0,332671:0:0:0:0:
402,192,332671,128,0,332756:0:0:0:0:
36,192,332671,1,0,0:0:0:0:
109,192,332756,128,0,332842:0:0:0:0:
36,192,332842,128,0,333185:0:0:0:0:
182,192,332842,128,0,332928:0:0:0:0:
256,192,332842,128,0,332928:0:0:0:0:
475,192,332842,128,0,332928:0:0:0:0:
402,192,332928,128,0,333013:0:0:0:0:
182,192,333013,128,0,333099:0:0:0:0:
329,192,333013,1,0,0:0:0:0:
256,192,333099,128,0,333185:0:0:0:0:
475,192,333099,128,0,333185:0:0:0:0:
402,192,333099,128,0,333185:0:0:0:0:
109,192,333185,128,0,333528:0:0:0:0:
329,192,333185,128,0,333271:0:0:0:0:
256,192,333271,128,0,333356:0:0:0:0:
475,192,333271,128,0,333356:0:0:0:0:
36,192,333271,128,0,333356:0:0:0:0:
402,192,333356,128,0,333442:0:0:0:0:
182,192,333356,128,0,333442:0:0:0:0:
329,192,333356,1,0,0:0:0:0:
256,192,333442,128,0,333528:0:0:0:0:
182,192,333528,128,0,333871:0:0:0:0:
36,192,333528,128,0,333699:0:0:0:0:
402,192,333528,128,0,333613:0:0:0:0:
475,192,333528,128,0,333699:0:0:0:0:
329,192,333613,128,0,333699:0:0:0:0:
402,192,333699,128,0,333785:0:0:0:0:
109,192,333699,1,0,0:0:0:0:
475,192,333785,128,0,333871:0:0:0:0:
256,192,333871,128,0,335242:0:0:0:0:
36,192,333871,128,0,333956:0:0:0:0:
109,192,333871,128,0,333956:0:0:0:0:
329,192,333871,128,0,333956:0:0:0:0:
402,192,333956,128,0,334042:0:0:0:0:
475,192,334042,128,0,334128:0:0:0:0:
182,192,334042,1,0,0:0:0:0:
36,192,334128,128,0,334213:0:0:0:0:
109,192,334128,128,0,334213:0:0:0:0:
329,192,334128,128,0,334213:0:0:0:0:
402,192,334213,128,0,334299:0:0:0:0:
475,192,334299,128,0,334385:0:0:0:0:
329,192,334385,128,0,334471:0:0:0:0:
109,192,334385,128,0,334471:0:0:0:0:
182,192,334385,1,0,0:0:0:0:
475,192,334471,128,0,334556:0:0:0:0:
36,192,334556,128,0,334642:0:0:0:0:
329,192,334642,128,0,334728:0:0:0:0:
109,192,334728,128,0,334813:0:0:0:0:
475,192,334728,1,0,0:0:0:0:
182,192,334813,128,0,334899:0:0:0:0:
36,192,334899,128,0,334985:0:0:0:0:
329,192,334899,128,0,334985:0:0:0:0:
402,192,334899,128,0,334985:0:0:0:0:
109,192,334985,128,0,335071:0:0:0:0:
182,192,335071,128,0,335156:0:0:0:0:
329,192,335071,1,0,0:0:0:0:
36,192,335156,128,0,335242:0:0:0:0:
402,192,335156,128,0,335242:0:0:0:0:
475,192,335156,128,0,335242:0:0:0:0:
329,192,335242,128,0,335928:0:0:0:0:
109,192,335242,128,0,335328:0:0:0:0:
256,192,335328,128,0,335413:0:0:0:0:
182,192,335413,128,0,335499:0:0:0:0:
475,192,335413,128,0,335499:0:0:0:0:
36,192,335413,1,0,0:0:0:0:
402,192,335499,128,0,335585:0:0:0:0:
109,192,335585,128,0,335671:0:0:0:0:
256,192,335671,128,0,335756:0:0:0:0:
36,192,335671,128,0,335756:0:0:0:0:
475,192,335671,128,0,335756:0:0:0:0:
182,192,335756,128,0,335842:0:0:0:0:
109,192,335756,1,0,0:0:0:0:
36,192,335842,128,0,335928:0:0:0:0:
256,192,335842,128,0,335928:0:0:0:0:
475,192,335842,128,0,335928:0:0:0:0:
402,192,335928,128,0,336442:0:0:0:0:
182,192,335928,128,0,336013:0:0:0:0:
109,192,336013,128,0,336099:0:0:0:0:
329,192,336099,128,0,336185:0:0:0:0:
36,192,336099,128,0,336185:0:0:0:0:
256,192,336099,1,0,0:0:0:0:
182,192,336185,128,0,336271:0:0:0:0:
475,192,336271,128,0,336442:0:0:0:0:
109,192,336271,128,0,336356:0:0:0:0:
36,192,336271,128,0,336442:0:0:0:0:
256,192,336356,128,0,336442:0:0:0:0:
329,192,336442,128,0,336528:0:0:0:0:
182,192,336442,1,0,0:0:0:0:
402,192,336528,128,0,336613:0:0:0:0:
109,192,336528,128,0,336613:0:0:0:0:
475,192,336613,128,0,337899:0:0:0:0:
36,192,336613,128,0,336785:0:0:0:0:
256,192,336613,128,0,336699:0:0:0:0:
182,192,336613,128,0,336785:0:0:0:0:
329,192,336699,128,0,336785:0:0:0:0:
109,192,336785,128,0,336871:0:0:0:0:
402,192,336785,128,0,336871:0:0:0:0:
182,192,336871,128,0,337042:0:0:0:0:
36,192,336871,128,0,336956:0:0:0:0:
329,192,336871,128,0,337042:0:0:0:0:
256,192,336956,128,0,337042:0:0:0:0:
109,192,337042,128,0,337128:0:0:0:0:
402,192,337042,128,0,337128:0:0:0:0:
36,192,337042,128,0,337128:0:0:0:0:
256,192,337128,128,0,337299:0:0:0:0:
329,192,337128,128,0,337299:0:0:0:0:
182,192,337128,128,0,337213:0:0:0:0:
109,192,337213,128,0,337299:0:0:0:0:
36,192,337299,128,0,337471:0:0:0:0:
182,192,337299,128,0,337385:0:0:0:0:
402,192,337299,128,0,337471:0:0:0:0:
329,192,337385,128,0,337471:0:0:0:0:
256,192,337471,128,0,337642:0:0:0:0:
109,192,337471,128,0,337642:0:0:0:0:
182,192,337556,128,0,337642:0:0:0:0:
329,192,337556,128,0,337642:0:0:0:0:
402,192,337556,128,0,337642:0:0:0:0:
36,192,337642,128,0,337728:0:0:0:0:
109,192,337728,128,0,337813:0:0:0:0:
256,192,337728,128,0,337813:0:0:0:0:
402,192,337728,128,0,337813:0:0:0:0:
182,192,337813,128,0,337899:0:0:0:0:
329,192,337813,128,0,337899:0:0:0:0:
36,192,337813,128,0,337899:0:0:0:0:
402,192,337899,128,0,337985:0:0:0:0:
109,192,337985,1,0,0:0:0:0:
182,192,337985,1,0,0:0:0:0:
36,192,337985,1,0,0:0:0:0:
475,192,337985,128,0,338071:0:0:0:0:
402,192,338071,128,0,338156:0:0:0:0:
109,192,338099,1,0,0:0:0:0:
36,192,338099,1,0,0:0:0:0:
182,192,338099,1,0,0:0:0:0:
329,192,338156,128,0,338242:0:0:0:0:
182,192,338213,1,0,0:0:0:0:
109,192,338213,1,0,0:0:0:0:
36,192,338213,1,0,0:0:0:0:
256,192,338242,128,0,338328:0:0:0:0:
402,192,338328,1,0,0:0:0:0:
475,192,338328,1,0,0:0:0:0:
329,192,338328,1,0,0:0:0:0:
182,192,338328,1,0,0:0:0:0:
36,192,338328,128,0,338413:0:0:0:0:
109,192,338413,128,0,338499:0:0:0:0:
329,192,338442,1,0,0:0:0:0:
402,192,338442,1,0,0:0:0:0:
475,192,338442,1,0,0:0:0:0:
182,192,338499,128,0,338585:0:0:0:0:
329,192,338556,1,0,0:0:0:0:
402,192,338556,1,0,0:0:0:0:
475,192,338556,1,0,0:0:0:0:
256,192,338585,128,0,338671:0:0:0:0:
329,192,338671,1,0,0:0:0:0:
402,192,338671,1,0,0:0:0:0:
182,192,338671,1,0,0:0:0:0:
475,192,338671,1,0,0:0:0:0:
36,192,338671,1,0,0:0:0:0:
256,192,338756,1,0,0:0:0:0:
109,192,338756,1,0,0:0:0:0:
329,192,338842,1,0,0:0:0:0:
182,192,338842,1,0,0:0:0:0:
256,192,338899,1,0,0:0:0:0:
402,192,338899,1,0,0:0:0:0:
475,192,338899,1,0,0:0:0:0:
36,192,338899,1,0,0:0:0:0:
109,192,338928,1,0,0:0:0:0:
329,192,339013,1,0,0:0:0:0:
36,192,339013,1,0,0:0:0:0:
182,192,339013,1,0,0:0:0:0:
402,192,339099,1,0,0:0:0:0:
256,192,339099,1,0,0:0:0:0:
109,192,339128,1,0,0:0:0:0:
475,192,339128,1,0,0:0:0:0:
182,192,339185,1,0,0:0:0:0:
36,192,339185,1,0,0:0:0:0:
329,192,339185,1,0,0:0:0:0:
256,192,339271,1,0,0:0:0:0:
402,192,339271,1,0,0:0:0:0:
36,192,339356,1,0,0:0:0:0:
109,192,339356,1,0,0:0:0:0:
182,192,339356,1,0,0:0:0:0:
329,192,339356,1,0,0:0:0:0:
475,192,339356,1,0,0:0:0:0:
