osu file format v14

[General]
AudioFilename: audio.mp3
AudioLeadIn: 0
PreviewTime: 196526
Countdown: 0
SampleSet: Soft
StackLeniency: 0.7
Mode: 3
LetterboxInBreaks: 0
SpecialStyle: 0
WidescreenStoryboard: 0

[Editor]
DistanceSpacing: 2
BeatDivisor: 8
GridSize: 16
TimelineZoom: 4

[Metadata]
Title:DARK THUNDER
TitleUnicode:DARK THUNDER
Artist:Camellia
ArtistUnicode:かめりあ
Creator:Surono
Version:APHOTIC PAROXYSM
Source:
Tags:sudden shower c86 かめるかめりあ kamelcamellia hardcore techo marathon
BeatmapID:1542722
BeatmapSetID:730979

[Difficulty]
HPDrainRate:7.7
CircleSize:4
OverallDifficulty:8.3
ApproachRate:5
SliderMultiplier:1.4
SliderTickRate:1

[Events]
//Background and Video events
0,0,"madnut.jpg",0,0
//Break Periods
//Storyboard Layer 0 (Background)
//Storyboard Layer 1 (Fail)
//Storyboard Layer 2 (Pass)
//Storyboard Layer 3 (Foreground)
//Storyboard Sound Samples

[TimingPoints]
412,342.857142857143,4,2,1,69,1,0
44297,-101.010101010101,4,2,1,35,0,0
44340,-102.040816326531,4,2,1,35,0,0
44383,-103.092783505155,4,2,1,35,0,0
44426,-104.166666666667,4,2,1,35,0,0
44469,-105.263157894737,4,2,1,35,0,0
44511,-106.382978723404,4,2,1,35,0,0
44554,-107.52688172043,4,2,1,35,0,0
44597,-108.695652173913,4,2,1,35,0,0
44640,-109.89010989011,4,2,1,35,0,0
44683,-111.111111111111,4,2,1,35,0,0
44726,-112.359550561798,4,2,1,35,0,0
44769,-113.636363636364,4,2,1,35,0,0
44812,-114.942528735632,4,2,1,35,0,0
44854,-116.279069767442,4,2,1,35,0,0
44897,-117.647058823529,4,2,1,35,0,0
44940,-119.047619047619,4,2,1,35,0,0
44983,-120.481927710843,4,2,1,35,0,0
45026,-121.951219512195,4,2,1,35,0,0
45069,-123.456790123457,4,2,1,35,0,0
45112,-125,4,2,1,35,0,0
45154,-126.582278481013,4,2,1,35,0,0
45197,-128.205128205128,4,2,1,35,0,0
45240,-129.87012987013,4,2,1,35,0,0
45283,-131.578947368421,4,2,1,35,0,0
45326,-133.333333333333,4,2,1,35,0,0
58012,-125,4,2,1,35,0,0
58354,-117.647058823529,4,2,1,35,0,0
58697,-111.111111111111,4,2,1,35,0,0
59040,-105.263157894737,4,2,1,35,0,0
59383,-100,4,2,1,35,0,0
86812,-1000,4,2,1,69,0,0
87497,-200,4,2,1,69,0,0
87540,-166.666666666667,4,2,1,69,0,0
87583,-142.857142857143,4,2,1,69,0,0
87626,-125,4,2,1,69,0,0
87669,-111.111111111111,4,2,1,69,0,0
87712,-100,4,2,1,69,0,0
154012,-101.010101010101,4,2,1,69,0,0
154055,-102.040816326531,4,2,1,69,0,0
154098,-103.092783505155,4,2,1,69,0,0
154141,-104.166666666667,4,2,1,69,0,0
154184,-105.263157894737,4,2,1,69,0,0
154227,-106.382978723404,4,2,1,69,0,0
154270,-107.52688172043,4,2,1,69,0,0
154312,-108.695652173913,4,2,1,35,0,0
154355,-109.89010989011,4,2,1,35,0,0
154398,-111.111111111111,4,2,1,35,0,0
154441,-112.359550561798,4,2,1,35,0,0
154484,-113.636363636364,4,2,1,35,0,0
154527,-114.942528735632,4,2,1,35,0,0
154570,-116.279069767442,4,2,1,35,0,0
154612,-117.647058823529,4,2,1,35,0,0
154655,-119.047619047619,4,2,1,35,0,0
154698,-120.481927710843,4,2,1,35,0,0
154741,-121.951219512195,4,2,1,35,0,0
154784,-123.456790123457,4,2,1,35,0,0
154827,-125,4,2,1,35,0,0
154870,-126.582278481013,4,2,1,35,0,0
154912,-128.205128205128,4,2,1,35,0,0
154955,-129.87012987013,4,2,1,35,0,0
154998,-131.578947368421,4,2,1,35,0,0
155040,-133.333333333333,4,2,1,35,0,0
164983,-125,4,2,1,35,0,0
165326,-117.647058823529,4,2,1,35,0,0
165669,-111.111111111111,4,2,1,35,0,0
166012,-105.263157894737,4,2,1,35,0,0
166354,-99.9999999999999,4,2,1,35,0,0

[HitObjects]
64,192,412,5,0,0:0:0:0:
448,192,412,1,0,0:0:0:0:
192,192,583,1,0,0:0:0:0:
320,192,754,1,0,0:0:0:0:
448,192,754,1,0,0:0:0:0:
64,192,926,1,0,0:0:0:0:
448,192,1097,1,0,0:0:0:0:
64,192,1269,1,0,0:0:0:0:
448,192,1440,1,0,0:0:0:0:
192,192,1612,1,0,0:0:0:0:
64,192,1783,1,0,0:0:0:0:
448,192,1783,1,0,0:0:0:0:
320,192,1954,1,0,0:0:0:0:
64,192,2126,1,0,0:0:0:0:
192,192,2126,1,0,0:0:0:0:
448,192,2297,1,0,0:0:0:0:
64,192,2469,1,0,0:0:0:0:
448,192,2640,1,0,0:0:0:0:
320,192,2812,1,0,0:0:0:0:
192,192,2897,1,0,0:0:0:0:
448,192,2983,1,0,0:0:0:0:
64,192,3069,1,0,0:0:0:0:
192,192,3154,1,0,0:0:0:0:
320,192,3154,1,0,0:0:0:0:
448,192,3326,1,0,0:0:0:0:
64,192,3326,1,0,0:0:0:0:
320,192,3497,1,0,0:0:0:0:
192,192,3669,1,0,0:0:0:0:
64,192,3669,1,0,0:0:0:0:
448,192,3840,1,0,0:0:0:0:
64,192,4012,1,0,0:0:0:0:
320,192,4183,1,0,0:0:0:0:
448,192,4183,1,0,0:0:0:0:
192,192,4354,1,0,0:0:0:0:
320,192,4440,1,0,0:0:0:0:
448,192,4526,1,0,0:0:0:0:
64,192,4526,1,0,0:0:0:0:
192,192,4697,1,0,0:0:0:0:
64,192,4869,1,0,0:0:0:0:
320,192,4869,1,0,0:0:0:0:
448,192,5040,1,0,0:0:0:0:
192,192,5126,1,0,0:0:0:0:
320,192,5212,1,0,0:0:0:0:
64,192,5297,1,0,0:0:0:0:
448,192,5383,1,0,0:0:0:0:
320,192,5469,1,0,0:0:0:0:
192,192,5554,1,0,0:0:0:0:
448,192,5640,1,0,0:0:0:0:
64,192,5726,1,0,0:0:0:0:
192,192,5812,1,0,0:0:0:0:
320,192,5897,1,0,0:0:0:0:
448,192,5897,1,0,0:0:0:0:
192,192,6069,1,0,0:0:0:0:
64,192,6240,1,0,0:0:0:0:
448,192,6240,1,0,0:0:0:0:
320,192,6412,1,0,0:0:0:0:
192,192,6583,1,0,0:0:0:0:
448,192,6754,1,0,0:0:0:0:
192,192,6926,1,0,0:0:0:0:
320,192,7097,1,0,0:0:0:0:
64,192,7269,1,0,0:0:0:0:
448,192,7269,1,0,0:0:0:0:
192,192,7440,1,0,0:0:0:0:
448,192,7612,1,0,0:0:0:0:
320,192,7612,1,0,0:0:0:0:
64,192,7783,1,0,0:0:0:0:
320,192,7954,1,0,0:0:0:0:
448,192,8126,1,0,0:0:0:0:
192,192,8297,1,0,0:0:0:0:
320,192,8383,1,0,0:0:0:0:
64,192,8469,1,0,0:0:0:0:
448,192,8554,1,0,0:0:0:0:
192,192,8640,1,0,0:0:0:0:
320,192,8640,1,0,0:0:0:0:
64,192,8812,1,0,0:0:0:0:
448,192,8812,1,0,0:0:0:0:
192,192,8983,1,0,0:0:0:0:
320,192,9154,1,0,0:0:0:0:
448,192,9154,1,0,0:0:0:0:
64,192,9326,1,0,0:0:0:0:
448,192,9497,1,0,0:0:0:0:
192,192,9669,1,0,0:0:0:0:
64,192,9669,1,0,0:0:0:0:
192,192,9840,1,0,0:0:0:0:
64,192,9840,1,0,0:0:0:0:
320,192,10012,1,0,0:0:0:0:
448,192,10012,1,0,0:0:0:0:
64,192,10183,1,0,0:0:0:0:
448,192,10354,1,0,0:0:0:0:
192,192,10354,1,0,0:0:0:0:
64,192,10526,1,0,0:0:0:0:
320,192,10612,1,0,0:0:0:0:
192,192,10697,1,0,0:0:0:0:
448,192,10783,1,0,0:0:0:0:
64,192,10869,1,0,0:0:0:0:
192,192,10954,1,0,0:0:0:0:
320,192,11040,1,0,0:0:0:0:
64,192,11126,1,0,0:0:0:0:
448,192,11212,1,0,0:0:0:0:
320,192,11297,1,0,0:0:0:0:
192,192,11383,1,0,0:0:0:0:
64,192,11383,128,2,11554:0:0:0:0:
320,192,11554,1,0,0:0:0:0:
64,192,11726,1,0,0:0:0:0:
448,192,11726,128,2,11897:0:0:0:0:
192,192,11897,128,2,12069:0:0:0:0:
320,192,12069,128,2,12240:0:0:0:0:
64,192,12240,1,0,0:0:0:0:
320,192,12412,128,2,12583:0:0:0:0:
192,192,12583,1,0,0:0:0:0:
448,192,12754,1,0,0:0:0:0:
64,192,12754,128,2,12926:0:0:0:0:
320,192,12926,1,0,0:0:0:0:
64,192,13097,1,0,0:0:0:0:
192,192,13097,128,2,13269:0:0:0:0:
448,192,13269,128,2,13440:0:0:0:0:
320,192,13440,128,2,13612:0:0:0:0:
64,192,13612,1,0,0:0:0:0:
320,192,13783,128,2,13954:0:0:0:0:
192,192,13869,1,0,0:0:0:0:
448,192,13954,1,0,0:0:0:0:
64,192,14040,1,0,0:0:0:0:
320,192,14126,128,2,14297:0:0:0:0:
192,192,14126,1,0,0:0:0:0:
64,192,14297,1,0,0:0:0:0:
448,192,14297,1,0,0:0:0:0:
192,192,14469,128,2,14640:0:0:0:0:
320,192,14640,128,2,14812:0:0:0:0:
448,192,14640,1,0,0:0:0:0:
64,192,14812,128,2,14983:0:0:0:0:
448,192,14983,1,0,0:0:0:0:
64,192,15154,128,2,15326:0:0:0:0:
320,192,15154,1,0,0:0:0:0:
192,192,15326,1,0,0:0:0:0:
320,192,15412,1,0,0:0:0:0:
448,192,15497,128,2,15669:0:0:0:0:
64,192,15497,1,0,0:0:0:0:
192,192,15669,1,0,0:0:0:0:
64,192,15840,128,2,16012:0:0:0:0:
320,192,15840,1,0,0:0:0:0:
448,192,16012,128,2,16183:0:0:0:0:
192,192,16097,1,0,0:0:0:0:
320,192,16183,128,2,16354:0:0:0:0:
64,192,16269,1,0,0:0:0:0:
448,192,16354,1,0,0:0:0:0:
320,192,16440,1,0,0:0:0:0:
192,192,16526,128,2,16697:0:0:0:0:
448,192,16612,1,0,0:0:0:0:
64,192,16697,1,0,0:0:0:0:
192,192,16783,1,0,0:0:0:0:
320,192,16869,1,0,0:0:0:0:
448,192,16869,128,2,17040:0:0:0:0:
192,192,17040,1,0,0:0:0:0:
448,192,17212,1,0,0:0:0:0:
64,192,17212,128,2,17383:0:0:0:0:
320,192,17383,128,2,17554:0:0:0:0:
192,192,17554,128,2,17726:0:0:0:0:
448,192,17726,1,0,0:0:0:0:
192,192,17897,128,2,18069:0:0:0:0:
320,192,18069,1,0,0:0:0:0:
64,192,18240,1,0,0:0:0:0:
448,192,18240,128,2,18412:0:0:0:0:
192,192,18412,1,0,0:0:0:0:
448,192,18583,1,0,0:0:0:0:
320,192,18583,128,2,18754:0:0:0:0:
64,192,18754,128,2,18926:0:0:0:0:
192,192,18926,128,2,19097:0:0:0:0:
448,192,19097,1,0,0:0:0:0:
192,192,19269,128,2,19440:0:0:0:0:
320,192,19354,1,0,0:0:0:0:
64,192,19440,1,0,0:0:0:0:
448,192,19526,1,0,0:0:0:0:
192,192,19612,128,2,19783:0:0:0:0:
320,192,19612,1,0,0:0:0:0:
448,192,19783,1,0,0:0:0:0:
64,192,19783,1,0,0:0:0:0:
320,192,19954,128,2,20126:0:0:0:0:
192,192,20126,128,2,20297:0:0:0:0:
64,192,20126,1,0,0:0:0:0:
448,192,20297,128,2,20469:0:0:0:0:
64,192,20469,1,0,0:0:0:0:
448,192,20640,128,2,20812:0:0:0:0:
192,192,20640,1,0,0:0:0:0:
320,192,20812,1,0,0:0:0:0:
192,192,20897,1,0,0:0:0:0:
64,192,20983,128,0,21326:0:0:0:0:
448,192,20983,128,0,21326:0:0:0:0:
192,192,21326,1,8,0:0:0:0:
320,192,21326,1,8,0:0:0:0:
64,192,21497,1,8,0:0:0:0:
448,192,21497,1,8,0:0:0:0:
320,192,21669,1,0,0:0:0:0:
192,192,21840,1,0,0:0:0:0:
448,192,22012,1,8,1:0:0:0:
320,192,22054,1,8,1:0:0:0:
192,192,22097,1,8,1:0:0:0:
64,192,22140,1,8,1:0:0:0:
448,192,22183,1,8,1:0:0:0:
320,192,22226,1,8,1:0:0:0:
192,192,22269,1,8,1:0:0:0:
64,192,22312,1,8,1:0:0:0:
192,192,22354,1,4,0:0:0:0:
320,192,22354,1,8,0:0:0:0:
448,192,22354,1,8,0:0:0:0:
64,192,22697,1,0,0:0:0:0:
192,192,22869,1,0,0:0:0:0:
320,192,23040,1,8,0:0:0:0:
448,192,23040,1,8,0:0:0:0:
64,192,23040,1,0,0:0:0:0:
192,192,23383,1,0,0:0:0:0:
64,192,23554,1,0,0:0:0:0:
320,192,23726,1,0,0:0:0:0:
448,192,24069,1,0,0:0:0:0:
192,192,24240,1,0,0:0:0:0:
320,192,24326,1,0,0:0:0:0:
64,192,24412,1,8,0:0:0:0:
192,192,24412,1,8,0:0:0:0:
448,192,24412,1,0,0:0:0:0:
320,192,24754,1,0,0:0:0:0:
448,192,24926,1,0,0:0:0:0:
192,192,25097,1,0,0:0:0:0:
64,192,25097,1,0,0:0:0:0:
448,192,25440,1,0,0:0:0:0:
192,192,25612,1,0,0:0:0:0:
64,192,25783,1,0,0:0:0:0:
448,192,25783,1,8,0:0:0:0:
320,192,25783,1,8,0:0:0:0:
448,192,26126,1,0,0:0:0:0:
64,192,26297,1,0,0:0:0:0:
320,192,26469,1,0,0:0:0:0:
448,192,26640,1,0,0:0:0:0:
64,192,26640,1,8,0:0:0:0:
192,192,26640,1,8,0:0:0:0:
64,192,26812,1,0,0:0:0:0:
448,192,26983,1,0,0:0:0:0:
192,192,27069,1,0,0:0:0:0:
64,192,27154,1,0,0:0:0:0:
448,192,27154,1,8,0:0:0:0:
320,192,27154,1,8,0:0:0:0:
320,192,27497,1,0,0:0:0:0:
448,192,27669,1,0,0:0:0:0:
192,192,27840,1,0,0:0:0:0:
320,192,27840,1,0,0:0:0:0:
64,192,28183,1,0,0:0:0:0:
192,192,28354,1,0,0:0:0:0:
320,192,28526,1,8,0:0:0:0:
448,192,28526,1,8,0:0:0:0:
64,192,28526,1,0,0:0:0:0:
192,192,28869,1,0,0:0:0:0:
64,192,29040,1,0,0:0:0:0:
320,192,29212,1,0,0:0:0:0:
192,192,29554,1,0,0:0:0:0:
448,192,29726,1,0,0:0:0:0:
320,192,29812,1,0,0:0:0:0:
64,192,29897,1,8,0:0:0:0:
192,192,29897,1,8,0:0:0:0:
448,192,29897,1,0,0:0:0:0:
320,192,30240,1,0,0:0:0:0:
448,192,30412,1,0,0:0:0:0:
192,192,30583,1,0,0:0:0:0:
64,192,30583,1,0,0:0:0:0:
448,192,30926,1,0,0:0:0:0:
192,192,31097,1,0,0:0:0:0:
64,192,31269,1,0,0:0:0:0:
448,192,31269,1,8,0:0:0:0:
320,192,31269,1,8,0:0:0:0:
448,192,31612,1,0,0:0:0:0:
64,192,31783,1,0,0:0:0:0:
320,192,31954,1,0,0:0:0:0:
448,192,32126,1,8,0:0:0:0:
64,192,32126,1,8,0:0:0:0:
192,192,32126,1,0,0:0:0:0:
64,192,32297,1,0,0:0:0:0:
448,192,32469,1,0,0:0:0:0:
192,192,32554,1,0,0:0:0:0:
64,192,32640,1,8,0:0:0:0:
448,192,32640,1,8,0:0:0:0:
320,192,32640,1,0,0:0:0:0:
320,192,32983,1,0,0:0:0:0:
448,192,33154,1,0,0:0:0:0:
192,192,33326,1,0,0:0:0:0:
64,192,33326,1,0,0:0:0:0:
320,192,33326,1,4,0:0:0:0:
64,192,33669,1,0,0:0:0:0:
192,192,33840,1,0,0:0:0:0:
64,192,34012,1,8,0:0:0:0:
448,192,34012,1,8,0:0:0:0:
320,192,34012,128,0,34354:0:0:0:0:
192,192,34354,128,0,34526:0:0:0:0:
64,192,34526,1,0,0:0:0:0:
320,192,34697,1,0,0:0:0:0:
192,192,35040,1,0,0:0:0:0:
448,192,35212,1,0,0:0:0:0:
320,192,35297,1,0,0:0:0:0:
448,192,35383,1,8,0:0:0:0:
64,192,35383,1,8,0:0:0:0:
192,192,35383,128,0,35726:0:0:0:0:
320,192,35726,128,0,35897:0:0:0:0:
448,192,35897,1,0,0:0:0:0:
192,192,36069,1,0,0:0:0:0:
64,192,36069,1,0,0:0:0:0:
448,192,36412,1,0,0:0:0:0:
192,192,36583,1,0,0:0:0:0:
320,192,36754,1,8,0:0:0:0:
448,192,36754,1,8,0:0:0:0:
64,192,36754,128,0,37097:0:0:0:0:
448,192,37097,128,0,37269:0:0:0:0:
64,192,37269,1,0,0:0:0:0:
320,192,37440,1,0,0:0:0:0:
192,192,37612,1,0,0:0:0:0:
64,192,37612,1,8,0:0:0:0:
448,192,37612,1,8,0:0:0:0:
64,192,37783,1,0,0:0:0:0:
448,192,37954,1,0,0:0:0:0:
192,192,38040,1,0,0:0:0:0:
320,192,38126,1,8,0:0:0:0:
64,192,38126,1,8,0:0:0:0:
448,192,38126,128,0,38469:0:0:0:0:
64,192,38469,128,0,38640:0:0:0:0:
448,192,38640,1,0,0:0:0:0:
320,192,38812,1,0,0:0:0:0:
192,192,38812,1,0,0:0:0:0:
64,192,39154,1,0,0:0:0:0:
192,192,39326,1,0,0:0:0:0:
64,192,39497,1,8,0:0:0:0:
448,192,39497,1,8,0:0:0:0:
320,192,39497,128,0,39840:0:0:0:0:
192,192,39840,128,0,40012:0:0:0:0:
64,192,40012,1,0,0:0:0:0:
320,192,40183,1,0,0:0:0:0:
192,192,40526,1,0,0:0:0:0:
448,192,40697,1,0,0:0:0:0:
320,192,40783,1,0,0:0:0:0:
448,192,40869,1,8,0:0:0:0:
64,192,40869,1,8,0:0:0:0:
192,192,40869,128,0,41212:0:0:0:0:
320,192,41212,128,0,41383:0:0:0:0:
448,192,41383,1,0,0:0:0:0:
64,192,41554,1,0,0:0:0:0:
192,192,41554,1,0,0:0:0:0:
448,192,41897,1,0,0:0:0:0:
192,192,42069,1,0,0:0:0:0:
320,192,42240,1,0,0:0:0:0:
448,192,42240,1,8,0:0:0:0:
64,192,42240,128,8,42583:0:0:0:0:
448,192,42583,128,0,42754:0:0:0:0:
64,192,42754,1,0,0:0:0:0:
320,192,42926,1,0,0:0:0:0:
192,192,43097,1,0,0:0:0:0:
64,192,43097,1,8,0:0:0:0:
448,192,43097,1,8,0:0:0:0:
320,192,43269,1,0,0:0:0:0:
448,192,43269,1,0,0:0:0:0:
192,192,43269,1,0,0:0:0:0:
192,192,43440,1,0,0:0:0:0:
64,192,43440,1,0,0:0:0:0:
320,192,43440,1,0,0:0:0:0:
64,192,43612,1,8,0:0:0:0:
448,192,43612,128,8,43954:0:0:0:0:
320,192,43612,1,0,0:0:0:0:
320,192,43954,1,0,0:0:0:0:
64,192,43954,128,0,44126:0:0:0:0:
192,192,44126,128,0,44297:0:0:0:0:
320,192,44297,1,8,0:0:0:0:
64,192,44297,1,4,0:0:0:0:
448,192,44297,1,8,0:0:0:0:
192,192,44469,1,2,0:0:0:0:
320,192,44640,128,2,44812:0:0:0:0:
64,192,44812,128,2,44983:0:0:0:0:
448,192,44983,128,2,45154:0:0:0:0:
192,192,45154,1,2,0:0:0:0:
320,192,45326,1,2,0:0:0:0:
192,192,45497,1,2,0:0:0:0:
448,192,45669,128,2,45840:0:0:0:0:
320,192,45840,1,2,0:0:0:0:
64,192,46012,128,2,46183:0:0:0:0:
192,192,46183,1,2,0:0:0:0:
448,192,46354,128,2,46526:0:0:0:0:
320,192,46526,1,2,0:0:0:0:
64,192,46697,128,2,46869:0:0:0:0:
192,192,46697,128,2,46869:0:0:0:0:
448,192,46869,128,2,46954:0:0:0:0:
448,192,47040,128,2,47554:0:0:0:0:
192,192,47554,128,2,48412:0:0:0:0:
448,192,48412,128,2,48926:0:0:0:0:
192,192,48926,128,2,49269:0:0:0:0:
448,192,49269,1,2,0:0:0:0:
64,192,49440,128,2,49612:0:0:0:0:
320,192,49612,1,2,0:0:0:0:
64,192,49783,128,2,49954:0:0:0:0:
320,192,49954,1,2,0:0:0:0:
192,192,50126,128,2,50297:0:0:0:0:
448,192,50297,128,2,50469:0:0:0:0:
64,192,50469,128,2,50640:0:0:0:0:
192,192,50469,128,2,50640:0:0:0:0:
320,192,50640,1,2,0:0:0:0:
192,192,50812,1,2,0:0:0:0:
320,192,50983,1,2,0:0:0:0:
64,192,51154,128,2,51326:0:0:0:0:
192,192,51326,1,2,0:0:0:0:
448,192,51497,128,2,51669:0:0:0:0:
320,192,51669,1,2,0:0:0:0:
64,192,51840,128,2,52012:0:0:0:0:
192,192,52012,1,2,0:0:0:0:
448,192,52183,128,2,52354:0:0:0:0:
320,192,52183,128,2,52354:0:0:0:0:
192,192,52354,1,2,0:0:0:0:
320,192,52526,128,2,52697:0:0:0:0:
192,192,52697,128,2,52869:0:0:0:0:
64,192,52869,128,2,53040:0:0:0:0:
448,192,53040,128,2,53212:0:0:0:0:
320,192,53212,1,2,0:0:0:0:
64,192,53383,128,2,53554:0:0:0:0:
192,192,53554,128,2,53726:0:0:0:0:
320,192,53726,128,2,53897:0:0:0:0:
448,192,53897,128,2,54069:0:0:0:0:
64,192,54069,1,2,0:0:0:0:
320,192,54240,128,2,54412:0:0:0:0:
192,192,54412,128,2,54583:0:0:0:0:
448,192,54583,128,2,54754:0:0:0:0:
64,192,54754,1,2,0:0:0:0:
320,192,54926,128,2,55097:0:0:0:0:
64,192,55097,1,2,0:0:0:0:
448,192,55269,128,2,55440:0:0:0:0:
192,192,55440,1,2,0:0:0:0:
320,192,55612,128,2,55783:0:0:0:0:
64,192,55783,128,2,55954:0:0:0:0:
448,192,55954,128,2,56126:0:0:0:0:
192,192,56126,1,2,0:0:0:0:
320,192,56297,1,2,0:0:0:0:
192,192,56469,1,2,0:0:0:0:
448,192,56640,128,2,56812:0:0:0:0:
320,192,56812,1,2,0:0:0:0:
64,192,56983,128,2,57154:0:0:0:0:
192,192,57154,1,2,0:0:0:0:
448,192,57326,128,2,57497:0:0:0:0:
320,192,57497,1,2,0:0:0:0:
64,192,57669,128,2,57840:0:0:0:0:
192,192,57669,128,2,57840:0:0:0:0:
448,192,57840,128,2,57926:0:0:0:0:
448,192,58012,128,2,58526:0:0:0:0:
64,192,58183,1,0,0:0:0:0:
320,192,58354,1,0,0:0:0:0:
192,192,58526,128,2,59383:0:0:0:0:
448,192,58697,1,0,0:0:0:0:
320,192,58869,1,0,0:0:0:0:
64,192,59040,1,0,0:0:0:0:
320,192,59212,1,0,0:0:0:0:
448,192,59383,128,2,59897:0:0:0:0:
64,192,59554,1,0,0:0:0:0:
320,192,59726,1,0,0:0:0:0:
192,192,59897,128,2,60240:0:0:0:0:
64,192,60069,1,0,0:0:0:0:
448,192,60240,1,0,0:0:0:0:
64,192,60412,1,0,0:0:0:0:
448,192,60583,1,0,0:0:0:0:
64,192,60754,1,0,0:0:0:0:
320,192,60926,1,0,0:0:0:0:
192,192,61097,1,0,0:0:0:0:
448,192,61269,1,0,0:0:0:0:
64,192,61440,1,0,0:0:0:0:
320,192,61612,1,0,0:0:0:0:
192,192,61783,1,0,0:0:0:0:
320,192,61954,1,0,0:0:0:0:
64,192,62126,1,0,0:0:0:0:
192,192,62297,1,0,0:0:0:0:
448,192,62469,1,0,0:0:0:0:
320,192,62640,1,0,0:0:0:0:
64,192,62812,1,0,0:0:0:0:
192,192,62983,1,0,0:0:0:0:
448,192,63154,1,0,0:0:0:0:
64,192,63326,1,0,0:0:0:0:
192,192,63497,1,0,0:0:0:0:
320,192,63669,1,0,0:0:0:0:
192,192,63840,1,0,0:0:0:0:
448,192,64012,1,0,0:0:0:0:
320,192,64183,1,0,0:0:0:0:
192,192,64354,1,0,0:0:0:0:
320,192,64526,1,0,0:0:0:0:
64,192,64697,1,0,0:0:0:0:
448,192,64869,1,0,0:0:0:0:
320,192,64954,1,0,0:0:0:0:
192,192,65040,1,0,0:0:0:0:
64,192,65126,1,0,0:0:0:0:
320,192,65212,1,0,0:0:0:0:
192,192,65297,1,0,0:0:0:0:
448,192,65383,1,0,0:0:0:0:
320,192,65469,1,0,0:0:0:0:
192,192,65554,1,0,0:0:0:0:
64,192,65554,1,0,0:0:0:0:
320,192,65640,1,0,0:0:0:0:
448,192,65640,1,0,0:0:0:0:
192,192,65726,1,0,0:0:0:0:
64,192,65726,1,0,0:0:0:0:
320,192,65812,1,0,0:0:0:0:
64,192,65897,1,8,0:0:0:0:
448,192,65897,1,8,0:0:0:0:
320,192,65983,1,8,0:0:0:0:
192,192,65983,1,8,0:0:0:0:
64,192,66069,1,8,0:0:0:0:
448,192,66069,1,8,0:0:0:0:
320,192,66154,1,8,0:0:0:0:
192,192,66154,1,8,0:0:0:0:
64,192,66240,1,8,0:0:0:0:
448,192,66240,1,4,0:0:0:0:
320,192,66240,1,8,0:0:0:0:
192,192,66583,1,8,0:0:0:0:
320,192,66926,128,8,67269:0:0:0:0:
64,192,67269,128,8,67440:0:0:0:0:
448,192,67612,1,8,0:0:0:0:
192,192,67954,1,8,0:0:0:0:
320,192,68297,1,8,0:0:0:0:
64,192,68640,1,8,0:0:0:0:
448,192,68812,1,0,0:0:0:0:
448,192,68983,1,0,0:0:0:0:
192,192,68983,1,0,0:0:0:0:
64,192,68983,1,0,0:0:0:0:
320,192,69326,1,8,0:0:0:0:
192,192,69669,1,8,0:0:0:0:
448,192,70012,1,8,0:0:0:0:
64,192,70354,1,8,0:0:0:0:
192,192,70526,1,0,0:0:0:0:
320,192,70697,1,8,0:0:0:0:
192,192,71040,1,8,0:0:0:0:
448,192,71383,1,8,0:0:0:0:
64,192,71554,1,0,0:0:0:0:
448,192,71726,1,0,0:0:0:0:
64,192,71726,1,0,0:0:0:0:
320,192,71726,1,0,0:0:0:0:
192,192,72069,1,8,0:0:0:0:
320,192,72412,128,8,72754:0:0:0:0:
448,192,72583,1,0,0:0:0:0:
64,192,72754,128,8,72926:0:0:0:0:
192,192,72926,1,0,0:0:0:0:
448,192,73097,1,8,0:0:0:0:
64,192,73269,1,0,0:0:0:0:
192,192,73440,1,8,0:0:0:0:
448,192,73612,1,0,0:0:0:0:
320,192,73783,1,8,0:0:0:0:
192,192,73954,1,0,0:0:0:0:
64,192,74126,1,8,0:0:0:0:
448,192,74297,1,0,0:0:0:0:
448,192,74469,1,0,0:0:0:0:
192,192,74469,1,0,0:0:0:0:
64,192,74469,1,0,0:0:0:0:
320,192,74812,1,8,0:0:0:0:
192,192,75154,1,8,0:0:0:0:
64,192,75326,1,0,0:0:0:0:
448,192,75497,1,8,0:0:0:0:
320,192,75669,1,0,0:0:0:0:
64,192,75840,1,8,0:0:0:0:
192,192,76012,1,0,0:0:0:0:
320,192,76183,1,8,0:0:0:0:
448,192,76354,1,0,0:0:0:0:
192,192,76526,1,8,0:0:0:0:
64,192,76697,1,0,0:0:0:0:
448,192,76869,1,8,1:0:0:0:
320,192,76912,1,8,1:0:0:0:
192,192,76954,1,8,1:0:0:0:
64,192,76997,1,8,1:0:0:0:
448,192,77040,1,8,1:0:0:0:
320,192,77083,1,8,1:0:0:0:
192,192,77126,1,8,1:0:0:0:
64,192,77169,1,8,1:0:0:0:
192,192,77212,1,4,0:0:0:0:
320,192,77212,1,8,0:0:0:0:
448,192,77212,1,8,0:0:0:0:
192,192,77554,1,8,0:0:0:0:
64,192,77554,1,8,0:0:0:0:
448,192,77726,1,0,0:0:0:0:
64,192,77812,1,0,0:0:0:0:
192,192,77897,1,8,0:0:0:0:
320,192,77897,1,8,0:0:0:0:
448,192,78240,1,8,0:0:0:0:
320,192,78240,1,8,0:0:0:0:
320,192,78412,1,8,0:0:0:0:
192,192,78412,1,8,0:0:0:0:
64,192,78583,1,8,0:0:0:0:
192,192,78583,1,8,0:0:0:0:
448,192,78754,1,0,0:0:0:0:
448,192,78926,1,8,0:0:0:0:
320,192,78926,1,8,0:0:0:0:
64,192,79097,1,0,0:0:0:0:
448,192,79183,1,0,0:0:0:0:
192,192,79269,1,8,0:0:0:0:
320,192,79269,1,8,0:0:0:0:
64,192,79440,1,8,0:0:0:0:
192,192,79440,1,8,0:0:0:0:
192,192,79612,1,8,0:0:0:0:
320,192,79612,1,8,0:0:0:0:
320,192,79783,1,8,0:0:0:0:
448,192,79783,1,8,0:0:0:0:
192,192,79954,1,0,0:0:0:0:
64,192,79954,1,0,0:0:0:0:
320,192,80297,1,8,0:0:0:0:
448,192,80297,1,8,0:0:0:0:
64,192,80469,1,0,0:0:0:0:
448,192,80554,1,0,0:0:0:0:
320,192,80640,1,8,0:0:0:0:
192,192,80640,1,8,0:0:0:0:
448,192,80812,1,0,0:0:0:0:
192,192,80983,1,8,0:0:0:0:
64,192,80983,1,8,0:0:0:0:
320,192,81154,1,8,0:0:0:0:
192,192,81154,1,8,0:0:0:0:
320,192,81326,1,8,0:0:0:0:
448,192,81326,1,8,0:0:0:0:
64,192,81497,1,0,0:0:0:0:
192,192,81669,1,8,0:0:0:0:
64,192,81669,1,8,0:0:0:0:
448,192,81840,1,0,0:0:0:0:
64,192,81926,1,0,0:0:0:0:
192,192,82012,1,8,0:0:0:0:
320,192,82012,1,8,0:0:0:0:
320,192,82183,1,8,0:0:0:0:
448,192,82183,1,8,0:0:0:0:
320,192,82354,1,8,0:0:0:0:
192,192,82354,1,8,0:0:0:0:
64,192,82440,1,8,0:0:0:0:
448,192,82440,1,8,0:0:0:0:
320,192,82526,1,8,0:0:0:0:
192,192,82526,1,8,0:0:0:0:
64,192,82612,1,8,0:0:0:0:
448,192,82612,1,8,0:0:0:0:
320,192,82697,1,8,0:0:0:0:
192,192,82697,1,8,0:0:0:0:
64,192,82869,1,8,0:0:0:0:
320,192,82869,1,8,0:0:0:0:
320,192,83040,1,8,0:0:0:0:
448,192,83040,1,8,0:0:0:0:
64,192,83212,1,8,0:0:0:0:
448,192,83212,1,8,0:0:0:0:
320,192,83383,1,8,0:0:0:0:
192,192,83383,1,8,0:0:0:0:
448,192,83554,1,8,0:0:0:0:
192,192,83554,1,8,0:0:0:0:
192,192,83726,1,8,0:0:0:0:
64,192,83726,1,8,0:0:0:0:
320,192,83812,1,8,0:0:0:0:
448,192,83812,1,8,0:0:0:0:
64,192,83897,1,8,0:0:0:0:
192,192,83897,1,8,0:0:0:0:
320,192,83983,1,8,0:0:0:0:
448,192,83983,1,8,0:0:0:0:
192,192,84069,1,8,0:0:0:0:
64,192,84069,1,8,0:0:0:0:
448,192,84240,1,8,0:0:0:0:
320,192,84240,1,8,0:0:0:0:
320,192,84412,1,8,0:0:0:0:
192,192,84412,1,8,0:0:0:0:
192,192,84583,1,8,0:0:0:0:
64,192,84583,1,8,0:0:0:0:
320,192,84754,1,8,0:0:0:0:
448,192,84754,1,8,0:0:0:0:
192,192,84926,1,8,0:0:0:0:
64,192,84926,1,8,0:0:0:0:
448,192,85097,1,8,0:0:0:0:
320,192,85097,1,8,0:0:0:0:
192,192,85183,1,8,0:0:0:0:
64,192,85183,1,8,0:0:0:0:
448,192,85269,1,8,0:0:0:0:
320,192,85269,1,8,0:0:0:0:
192,192,85354,1,8,0:0:0:0:
64,192,85354,1,8,0:0:0:0:
320,192,85440,1,8,0:0:0:0:
448,192,85440,1,8,0:0:0:0:
192,192,85526,1,8,0:0:0:0:
64,192,85526,1,8,0:0:0:0:
320,192,85612,1,8,0:0:0:0:
448,192,85612,1,8,0:0:0:0:
192,192,85697,1,8,0:0:0:0:
64,192,85697,1,8,0:0:0:0:
320,192,85783,1,8,0:0:0:0:
448,192,85783,1,8,0:0:0:0:
192,192,85869,1,8,0:0:0:0:
64,192,85869,1,8,0:0:0:0:
448,192,85954,1,0,1:0:0:0:
320,192,85997,1,0,1:0:0:0:
64,192,86040,1,8,1:0:0:0:
192,192,86083,1,8,1:0:0:0:
448,192,86126,1,8,1:0:0:0:
320,192,86169,1,8,1:0:0:0:
64,192,86212,1,8,1:0:0:0:
192,192,86254,1,8,1:0:0:0:
448,192,86297,1,8,1:0:0:0:
320,192,86340,1,8,1:0:0:0:
64,192,86383,1,8,1:0:0:0:
192,192,86426,1,8,1:0:0:0:
448,192,86469,1,8,1:0:0:0:
320,192,86512,1,8,1:0:0:0:
192,192,86554,1,8,1:0:0:0:
64,192,86597,1,8,1:0:0:0:
448,192,86640,1,8,1:0:0:0:
320,192,86683,1,8,1:0:0:0:
192,192,86726,1,8,1:0:0:0:
64,192,86769,1,8,1:0:0:0:
448,192,86812,1,0,0:0:0:0:
320,192,86812,1,0,0:0:0:0:
64,192,87840,1,8,1:0:0:0:
192,192,87883,1,8,1:0:0:0:
320,192,87926,1,8,1:0:0:0:
448,192,87969,1,8,1:0:0:0:
64,192,88012,1,8,1:0:0:0:
192,192,88054,1,8,1:0:0:0:
320,192,88097,1,8,1:0:0:0:
448,192,88140,1,8,1:0:0:0:
320,192,88183,1,4,0:0:0:0:
192,192,88183,1,8,0:0:0:0:
64,192,88183,1,8,0:0:0:0:
192,192,88354,1,0,0:0:0:0:
64,192,88354,1,0,0:0:0:0:
192,192,88526,1,0,0:0:0:0:
448,192,88526,1,0,0:0:0:0:
320,192,88697,1,0,0:0:0:0:
448,192,88697,1,0,0:0:0:0:
320,192,88869,1,0,0:0:0:0:
64,192,88869,1,0,0:0:0:0:
448,192,89040,1,0,0:0:0:0:
192,192,89212,1,8,0:0:0:0:
448,192,89212,1,8,0:0:0:0:
320,192,89383,1,0,0:0:0:0:
64,192,89383,1,0,0:0:0:0:
192,192,89554,1,0,0:0:0:0:
64,192,89554,1,0,0:0:0:0:
448,192,89726,1,0,0:0:0:0:
192,192,89812,1,0,0:0:0:0:
320,192,89897,1,8,0:0:0:0:
64,192,89897,1,8,0:0:0:0:
192,192,90069,1,0,0:0:0:0:
320,192,90069,1,0,0:0:0:0:
448,192,90240,1,0,0:0:0:0:
192,192,90240,1,0,0:0:0:0:
64,192,90412,1,0,0:0:0:0:
448,192,90583,1,8,1:0:0:0:
320,192,90626,1,8,1:0:0:0:
192,192,90669,1,8,1:0:0:0:
64,192,90712,1,8,1:0:0:0:
448,192,90754,1,8,1:0:0:0:
320,192,90797,1,8,1:0:0:0:
192,192,90840,1,8,1:0:0:0:
64,192,90883,1,8,1:0:0:0:
320,192,90926,1,8,0:0:0:0:
448,192,90926,1,8,0:0:0:0:
192,192,91097,1,0,0:0:0:0:
64,192,91097,1,0,0:0:0:0:
320,192,91269,1,0,0:0:0:0:
448,192,91269,1,0,0:0:0:0:
192,192,91354,1,0,0:0:0:0:
64,192,91354,1,0,0:0:0:0:
448,192,91440,1,0,0:0:0:0:
320,192,91440,1,0,0:0:0:0:
192,192,91526,1,0,0:0:0:0:
64,192,91526,1,0,0:0:0:0:
320,192,91612,1,8,0:0:0:0:
448,192,91612,1,8,0:0:0:0:
64,192,91783,1,0,0:0:0:0:
64,192,91954,1,8,0:0:0:0:
320,192,91954,1,8,0:0:0:0:
448,192,92126,1,0,0:0:0:0:
192,192,92126,1,0,0:0:0:0:
448,192,92297,1,0,0:0:0:0:
320,192,92297,1,0,0:0:0:0:
64,192,92469,1,0,0:0:0:0:
448,192,92554,1,0,0:0:0:0:
64,192,92640,1,8,0:0:0:0:
192,192,92640,1,8,0:0:0:0:
448,192,92812,1,0,0:0:0:0:
320,192,92812,1,0,0:0:0:0:
64,192,92983,1,8,1:0:0:0:
192,192,93026,1,8,1:0:0:0:
448,192,93069,1,8,1:0:0:0:
320,192,93112,1,8,1:0:0:0:
64,192,93154,1,8,1:0:0:0:
192,192,93197,1,8,1:0:0:0:
320,192,93240,1,8,1:0:0:0:
448,192,93283,1,8,1:0:0:0:
64,192,93326,1,8,1:0:0:0:
192,192,93326,1,8,1:0:0:0:
448,192,93412,1,8,1:0:0:0:
320,192,93412,1,8,1:0:0:0:
64,192,93497,1,8,1:0:0:0:
192,192,93540,1,8,1:0:0:0:
448,192,93583,1,8,1:0:0:0:
320,192,93626,1,8,1:0:0:0:
64,192,93669,1,8,0:0:0:0:
192,192,93669,1,8,0:0:0:0:
448,192,93840,1,0,0:0:0:0:
192,192,93840,1,0,0:0:0:0:
320,192,94012,1,0,0:0:0:0:
448,192,94012,1,0,0:0:0:0:
64,192,94183,1,0,0:0:0:0:
320,192,94183,1,0,0:0:0:0:
192,192,94354,1,0,0:0:0:0:
64,192,94354,1,0,0:0:0:0:
448,192,94526,1,0,0:0:0:0:
320,192,94697,1,8,0:0:0:0:
448,192,94697,1,8,0:0:0:0:
192,192,94869,1,0,0:0:0:0:
64,192,94869,1,0,0:0:0:0:
192,192,95040,1,0,0:0:0:0:
448,192,95040,1,0,0:0:0:0:
320,192,95212,1,0,0:0:0:0:
192,192,95297,1,0,0:0:0:0:
320,192,95383,1,8,0:0:0:0:
448,192,95383,1,8,0:0:0:0:
64,192,95554,1,0,0:0:0:0:
192,192,95554,1,0,0:0:0:0:
448,192,95726,1,8,1:0:0:0:
320,192,95769,1,8,1:0:0:0:
64,192,95812,1,8,1:0:0:0:
192,192,95854,1,8,1:0:0:0:
448,192,95897,1,8,1:0:0:0:
320,192,95940,1,8,1:0:0:0:
64,192,95983,1,8,1:0:0:0:
192,192,96026,1,8,1:0:0:0:
320,192,96069,1,8,0:0:0:0:
448,192,96069,1,8,0:0:0:0:
64,192,96154,1,8,1:0:0:0:
192,192,96197,1,8,1:0:0:0:
320,192,96240,1,8,1:0:0:0:
448,192,96283,1,8,1:0:0:0:
64,192,96326,1,8,1:0:0:0:
192,192,96369,1,8,1:0:0:0:
448,192,96412,1,8,0:0:0:0:
320,192,96412,1,8,0:0:0:0:
64,192,96583,1,0,0:0:0:0:
192,192,96583,1,0,0:0:0:0:
64,192,96754,1,0,0:0:0:0:
448,192,96754,1,0,0:0:0:0:
320,192,96840,1,0,0:0:0:0:
192,192,96840,1,0,0:0:0:0:
64,192,96926,1,0,0:0:0:0:
448,192,96926,1,0,0:0:0:0:
320,192,97012,1,0,0:0:0:0:
192,192,97012,1,0,0:0:0:0:
64,192,97097,1,8,0:0:0:0:
448,192,97097,1,8,0:0:0:0:
320,192,97269,1,0,0:0:0:0:
320,192,97440,1,0,0:0:0:0:
448,192,97440,1,0,0:0:0:0:
64,192,97612,1,0,0:0:0:0:
192,192,97612,1,0,0:0:0:0:
320,192,97783,1,8,1:0:0:0:
192,192,97826,1,8,1:0:0:0:
64,192,97869,1,8,1:0:0:0:
448,192,97954,1,0,0:0:0:0:
192,192,98040,1,8,1:0:0:0:
320,192,98083,1,8,1:0:0:0:
448,192,98126,1,8,0:0:0:0:
64,192,98126,1,8,0:0:0:0:
192,192,98297,1,8,1:0:0:0:
320,192,98340,1,8,1:0:0:0:
448,192,98383,1,8,1:0:0:0:
64,192,98469,1,8,1:0:0:0:
192,192,98512,1,8,1:0:0:0:
448,192,98554,1,8,1:0:0:0:
320,192,98597,1,8,1:0:0:0:
192,192,98640,1,8,1:0:0:0:
64,192,98640,1,0,1:0:0:0:
448,192,98726,1,8,1:0:0:0:
320,192,98769,1,8,1:0:0:0:
64,192,98812,1,0,1:0:0:0:
192,192,98812,1,8,1:0:0:0:
320,192,98897,1,8,1:0:0:0:
448,192,98897,1,0,1:0:0:0:
64,192,98983,1,0,1:0:0:0:
192,192,98983,1,8,1:0:0:0:
448,192,99026,1,8,1:0:0:0:
192,192,99069,1,0,1:0:0:0:
320,192,99069,1,8,1:0:0:0:
64,192,99112,1,8,1:0:0:0:
448,192,99154,1,4,0:0:0:0:
320,192,99154,1,8,0:0:0:0:
192,192,99154,1,8,0:0:0:0:
320,192,99326,1,0,0:0:0:0:
448,192,99326,1,0,0:0:0:0:
320,192,99497,1,0,0:0:0:0:
64,192,99497,1,0,0:0:0:0:
192,192,99669,1,0,0:0:0:0:
64,192,99669,1,0,0:0:0:0:
192,192,99840,1,0,0:0:0:0:
448,192,99840,1,0,0:0:0:0:
64,192,100012,1,0,0:0:0:0:
320,192,100183,1,8,0:0:0:0:
64,192,100183,1,8,0:0:0:0:
192,192,100354,1,0,0:0:0:0:
448,192,100354,1,0,0:0:0:0:
320,192,100526,1,0,0:0:0:0:
448,192,100526,1,0,0:0:0:0:
64,192,100697,1,0,0:0:0:0:
320,192,100783,1,0,0:0:0:0:
192,192,100869,1,8,0:0:0:0:
448,192,100869,1,8,0:0:0:0:
320,192,101040,1,0,0:0:0:0:
192,192,101040,1,0,0:0:0:0:
64,192,101212,1,0,0:0:0:0:
320,192,101212,1,0,0:0:0:0:
448,192,101383,1,0,0:0:0:0:
64,192,101554,1,8,1:0:0:0:
192,192,101597,1,8,1:0:0:0:
320,192,101640,1,8,1:0:0:0:
448,192,101683,1,8,1:0:0:0:
64,192,101726,1,8,1:0:0:0:
192,192,101769,1,8,1:0:0:0:
320,192,101812,1,8,1:0:0:0:
448,192,101854,1,8,1:0:0:0:
192,192,101897,1,8,0:0:0:0:
64,192,101897,1,8,0:0:0:0:
448,192,102069,1,0,0:0:0:0:
320,192,102069,1,0,0:0:0:0:
64,192,102240,1,0,0:0:0:0:
192,192,102240,1,0,0:0:0:0:
448,192,102326,1,0,0:0:0:0:
320,192,102326,1,0,0:0:0:0:
192,192,102412,1,0,0:0:0:0:
64,192,102412,1,0,0:0:0:0:
448,192,102497,1,0,0:0:0:0:
320,192,102497,1,0,0:0:0:0:
64,192,102583,1,0,0:0:0:0:
192,192,102583,1,0,0:0:0:0:
448,192,102754,1,0,0:0:0:0:
192,192,102926,1,8,0:0:0:0:
448,192,102926,1,8,0:0:0:0:
320,192,103097,1,0,0:0:0:0:
64,192,103097,1,0,0:0:0:0:
192,192,103269,1,0,0:0:0:0:
64,192,103269,1,0,0:0:0:0:
448,192,103440,1,0,0:0:0:0:
64,192,103526,1,0,0:0:0:0:
320,192,103612,1,8,0:0:0:0:
448,192,103612,1,8,0:0:0:0:
192,192,103783,1,0,0:0:0:0:
64,192,103783,1,0,0:0:0:0:
448,192,103954,1,8,1:0:0:0:
320,192,103997,1,8,1:0:0:0:
64,192,104040,1,8,1:0:0:0:
192,192,104083,1,8,1:0:0:0:
448,192,104126,1,8,1:0:0:0:
320,192,104169,1,8,1:0:0:0:
192,192,104212,1,8,1:0:0:0:
64,192,104254,1,8,1:0:0:0:
448,192,104297,1,8,1:0:0:0:
320,192,104297,1,0,1:0:0:0:
64,192,104383,1,8,1:0:0:0:
192,192,104383,1,0,1:0:0:0:
448,192,104469,1,8,1:0:0:0:
320,192,104512,1,8,1:0:0:0:
64,192,104554,1,8,1:0:0:0:
192,192,104597,1,8,1:0:0:0:
320,192,104640,1,8,0:0:0:0:
448,192,104640,1,8,0:0:0:0:
64,192,104812,1,0,0:0:0:0:
320,192,104812,1,0,0:0:0:0:
192,192,104983,1,0,0:0:0:0:
64,192,104983,1,0,0:0:0:0:
448,192,105154,1,0,0:0:0:0:
192,192,105154,1,0,0:0:0:0:
320,192,105326,1,0,0:0:0:0:
448,192,105326,1,0,0:0:0:0:
64,192,105497,1,0,0:0:0:0:
192,192,105669,1,8,0:0:0:0:
64,192,105669,1,8,0:0:0:0:
320,192,105840,1,0,0:0:0:0:
448,192,105840,1,0,0:0:0:0:
320,192,106012,1,0,0:0:0:0:
64,192,106012,1,0,0:0:0:0:
192,192,106183,1,0,0:0:0:0:
320,192,106269,1,0,0:0:0:0:
192,192,106354,1,8,0:0:0:0:
64,192,106354,1,8,0:0:0:0:
448,192,106526,1,0,0:0:0:0:
320,192,106526,1,0,0:0:0:0:
64,192,106697,1,8,1:0:0:0:
192,192,106740,1,8,1:0:0:0:
448,192,106783,1,8,1:0:0:0:
320,192,106826,1,8,1:0:0:0:
64,192,106869,1,8,1:0:0:0:
192,192,106912,1,8,1:0:0:0:
448,192,106954,1,8,1:0:0:0:
320,192,106997,1,8,1:0:0:0:
192,192,107040,1,0,0:0:0:0:
64,192,107040,1,0,0:0:0:0:
448,192,107126,1,8,1:0:0:0:
320,192,107169,1,8,1:0:0:0:
192,192,107212,1,8,1:0:0:0:
64,192,107254,1,8,1:0:0:0:
448,192,107297,1,8,1:0:0:0:
320,192,107340,1,8,1:0:0:0:
64,192,107383,1,8,0:0:0:0:
192,192,107383,1,8,0:0:0:0:
448,192,107554,1,0,0:0:0:0:
320,192,107554,1,0,0:0:0:0:
448,192,107726,1,0,0:0:0:0:
64,192,107726,1,0,0:0:0:0:
192,192,107812,1,0,0:0:0:0:
320,192,107812,1,0,0:0:0:0:
448,192,107897,1,0,0:0:0:0:
64,192,107897,1,0,0:0:0:0:
192,192,107983,1,0,0:0:0:0:
320,192,107983,1,0,0:0:0:0:
448,192,108069,1,8,0:0:0:0:
64,192,108069,1,8,0:0:0:0:
192,192,108240,1,0,0:0:0:0:
192,192,108412,1,0,0:0:0:0:
64,192,108412,1,0,0:0:0:0:
320,192,108583,1,0,0:0:0:0:
448,192,108583,1,0,0:0:0:0:
192,192,108754,1,8,1:0:0:0:
320,192,108797,1,8,1:0:0:0:
448,192,108840,1,8,1:0:0:0:
64,192,108926,1,0,0:0:0:0:
320,192,109012,1,8,1:0:0:0:
192,192,109054,1,8,1:0:0:0:
64,192,109097,1,8,0:0:0:0:
448,192,109097,1,8,0:0:0:0:
320,192,109269,1,8,1:0:0:0:
192,192,109312,1,8,1:0:0:0:
64,192,109354,1,8,1:0:0:0:
448,192,109440,1,0,0:0:0:0:
192,192,109526,1,8,1:0:0:0:
320,192,109569,1,8,1:0:0:0:
448,192,109612,1,8,1:0:0:0:
64,192,109612,1,0,1:0:0:0:
192,192,109783,1,8,0:0:0:0:
320,192,109783,1,8,0:0:0:0:
192,192,109954,128,0,110126:0:0:0:0:
320,192,110126,1,8,0:0:0:0:
448,192,110126,1,8,0:0:0:0:
64,192,110126,1,4,0:0:0:0:
192,192,110297,1,0,0:0:0:0:
64,192,110297,1,0,0:0:0:0:
448,192,110469,1,0,0:0:0:0:
64,192,110469,1,0,0:0:0:0:
320,192,110640,1,0,0:0:0:0:
448,192,110640,1,0,0:0:0:0:
64,192,110812,1,0,0:0:0:0:
192,192,110812,1,0,0:0:0:0:
320,192,110983,1,0,0:0:0:0:
64,192,111154,1,8,0:0:0:0:
448,192,111154,1,8,0:0:0:0:
192,192,111326,1,0,0:0:0:0:
320,192,111326,1,0,0:0:0:0:
192,192,111497,1,0,0:0:0:0:
448,192,111497,1,0,0:0:0:0:
320,192,111669,1,0,0:0:0:0:
192,192,111754,1,0,0:0:0:0:
448,192,111840,1,8,0:0:0:0:
320,192,111840,1,8,0:0:0:0:
192,192,112012,1,0,0:0:0:0:
64,192,112012,1,0,0:0:0:0:
64,192,112183,1,0,0:0:0:0:
448,192,112183,1,0,0:0:0:0:
192,192,112354,1,0,0:0:0:0:
448,192,112526,1,8,0:0:0:0:
320,192,112526,1,8,0:0:0:0:
64,192,112697,1,0,0:0:0:0:
192,192,112869,1,0,0:0:0:0:
320,192,112869,1,0,0:0:0:0:
64,192,113040,1,0,0:0:0:0:
448,192,113040,1,0,0:0:0:0:
320,192,113212,1,0,0:0:0:0:
192,192,113212,1,0,0:0:0:0:
64,192,113297,1,0,0:0:0:0:
448,192,113297,1,0,0:0:0:0:
320,192,113383,1,0,0:0:0:0:
192,192,113383,1,0,0:0:0:0:
64,192,113469,1,0,0:0:0:0:
448,192,113469,1,0,0:0:0:0:
320,192,113554,1,0,0:0:0:0:
192,192,113554,1,0,0:0:0:0:
448,192,113726,1,0,0:0:0:0:
192,192,113897,1,8,0:0:0:0:
320,192,113897,1,8,0:0:0:0:
64,192,114069,1,0,0:0:0:0:
192,192,114069,1,0,0:0:0:0:
320,192,114240,1,0,0:0:0:0:
448,192,114240,1,0,0:0:0:0:
192,192,114412,1,0,0:0:0:0:
320,192,114497,1,0,0:0:0:0:
64,192,114583,1,8,0:0:0:0:
192,192,114583,1,8,0:0:0:0:
320,192,114754,1,0,0:0:0:0:
448,192,114754,1,0,0:0:0:0:
192,192,114926,1,0,0:0:0:0:
320,192,114926,1,0,0:0:0:0:
64,192,115097,1,0,0:0:0:0:
448,192,115269,1,8,0:0:0:0:
64,192,115269,1,8,0:0:0:0:
320,192,115440,1,0,0:0:0:0:
192,192,115526,1,0,0:0:0:0:
64,192,115612,1,8,0:0:0:0:
448,192,115612,1,8,0:0:0:0:
448,192,115783,1,0,0:0:0:0:
320,192,115783,1,0,0:0:0:0:
64,192,115954,1,0,0:0:0:0:
192,192,115954,1,0,0:0:0:0:
64,192,116126,1,0,0:0:0:0:
448,192,116126,1,0,0:0:0:0:
320,192,116297,1,0,0:0:0:0:
192,192,116297,1,0,0:0:0:0:
448,192,116469,1,0,0:0:0:0:
448,192,116640,1,8,0:0:0:0:
320,192,116640,1,8,0:0:0:0:
64,192,116812,1,0,0:0:0:0:
320,192,116812,1,0,0:0:0:0:
448,192,116983,1,0,0:0:0:0:
192,192,116983,1,0,0:0:0:0:
64,192,117154,1,0,0:0:0:0:
320,192,117240,1,0,0:0:0:0:
192,192,117326,1,8,0:0:0:0:
64,192,117326,1,8,0:0:0:0:
192,192,117497,1,0,0:0:0:0:
448,192,117497,1,0,0:0:0:0:
320,192,117669,1,0,0:0:0:0:
64,192,117669,1,0,0:0:0:0:
192,192,117840,1,0,0:0:0:0:
320,192,118012,1,0,0:0:0:0:
448,192,118012,1,0,0:0:0:0:
192,192,118183,1,0,0:0:0:0:
64,192,118354,1,8,0:0:0:0:
448,192,118354,1,8,0:0:0:0:
320,192,118526,1,0,0:0:0:0:
192,192,118526,1,0,0:0:0:0:
448,192,118697,1,0,0:0:0:0:
64,192,118697,1,0,0:0:0:0:
192,192,118783,1,0,0:0:0:0:
320,192,118783,1,0,0:0:0:0:
64,192,118869,1,0,0:0:0:0:
448,192,118869,1,0,0:0:0:0:
192,192,118954,1,0,0:0:0:0:
320,192,118954,1,0,0:0:0:0:
64,192,119040,1,8,0:0:0:0:
448,192,119040,1,8,0:0:0:0:
320,192,119212,1,0,0:0:0:0:
192,192,119383,1,8,0:0:0:0:
448,192,119383,1,8,0:0:0:0:
320,192,119554,1,0,0:0:0:0:
64,192,119554,1,0,0:0:0:0:
192,192,119726,1,0,0:0:0:0:
448,192,119726,1,0,0:0:0:0:
64,192,119897,1,0,0:0:0:0:
192,192,119983,1,0,0:0:0:0:
320,192,119983,1,0,0:0:0:0:
448,192,120069,1,0,0:0:0:0:
320,192,120240,1,0,0:0:0:0:
64,192,120240,1,0,0:0:0:0:
192,192,120412,1,0,0:0:0:0:
448,192,120412,1,0,0:0:0:0:
320,192,120497,1,0,0:0:0:0:
64,192,120497,1,0,0:0:0:0:
192,192,120583,1,0,0:0:0:0:
448,192,120583,1,0,0:0:0:0:
320,192,120754,1,8,0:0:0:0:
64,192,120754,1,8,0:0:0:0:
320,192,120926,128,0,121097:0:0:0:0:
192,192,121097,1,8,0:0:0:0:
64,192,121097,1,8,0:0:0:0:
448,192,121097,1,4,0:0:0:0:
320,192,121269,1,0,0:0:0:0:
448,192,121269,1,0,0:0:0:0:
64,192,121440,1,0,0:0:0:0:
448,192,121440,1,0,0:0:0:0:
192,192,121612,1,0,0:0:0:0:
64,192,121612,1,0,0:0:0:0:
448,192,121783,1,0,0:0:0:0:
320,192,121783,1,0,0:0:0:0:
192,192,121954,1,0,0:0:0:0:
448,192,122126,1,8,0:0:0:0:
64,192,122126,1,8,0:0:0:0:
320,192,122297,1,0,0:0:0:0:
192,192,122297,1,0,0:0:0:0:
320,192,122469,1,0,0:0:0:0:
64,192,122469,1,0,0:0:0:0:
192,192,122640,1,0,0:0:0:0:
320,192,122726,1,0,0:0:0:0:
64,192,122812,1,8,0:0:0:0:
192,192,122812,1,8,0:0:0:0:
320,192,122983,1,0,0:0:0:0:
448,192,122983,1,0,0:0:0:0:
448,192,123154,1,0,0:0:0:0:
64,192,123154,1,0,0:0:0:0:
320,192,123326,1,0,0:0:0:0:
64,192,123497,1,8,0:0:0:0:
192,192,123497,1,8,0:0:0:0:
448,192,123669,1,0,0:0:0:0:
320,192,123840,1,8,0:0:0:0:
192,192,123840,1,8,0:0:0:0:
448,192,124012,1,0,0:0:0:0:
64,192,124012,1,0,0:0:0:0:
192,192,124183,1,0,0:0:0:0:
320,192,124183,1,0,0:0:0:0:
448,192,124269,1,0,0:0:0:0:
64,192,124269,1,0,0:0:0:0:
192,192,124354,1,0,0:0:0:0:
320,192,124354,1,0,0:0:0:0:
448,192,124440,1,0,0:0:0:0:
64,192,124440,1,0,0:0:0:0:
192,192,124526,1,0,0:0:0:0:
320,192,124526,1,0,0:0:0:0:
64,192,124697,1,0,0:0:0:0:
320,192,124869,1,8,0:0:0:0:
192,192,124869,1,8,0:0:0:0:
448,192,125040,1,0,0:0:0:0:
320,192,125040,1,0,0:0:0:0:
192,192,125212,1,0,0:0:0:0:
64,192,125212,1,0,0:0:0:0:
320,192,125383,1,0,0:0:0:0:
192,192,125469,1,0,0:0:0:0:
448,192,125554,1,8,0:0:0:0:
320,192,125554,1,8,0:0:0:0:
192,192,125726,1,0,0:0:0:0:
64,192,125726,1,0,0:0:0:0:
320,192,125897,1,0,0:0:0:0:
192,192,125897,1,0,0:0:0:0:
448,192,126069,1,0,0:0:0:0:
448,192,126240,1,8,0:0:0:0:
64,192,126240,1,8,0:0:0:0:
192,192,126412,1,0,0:0:0:0:
320,192,126497,1,0,0:0:0:0:
448,192,126583,1,8,0:0:0:0:
64,192,126583,1,8,0:0:0:0:
448,192,126754,1,0,0:0:0:0:
192,192,126754,1,0,0:0:0:0:
320,192,126926,1,0,0:0:0:0:
64,192,126926,1,0,0:0:0:0:
64,192,127097,1,0,0:0:0:0:
448,192,127097,1,0,0:0:0:0:
192,192,127269,1,0,0:0:0:0:
320,192,127269,1,0,0:0:0:0:
448,192,127440,1,8,1:0:0:0:
320,192,127483,1,8,1:0:0:0:
64,192,127526,1,8,1:0:0:0:
192,192,127569,1,8,1:0:0:0:
320,192,127612,1,8,0:0:0:0:
448,192,127612,1,8,0:0:0:0:
64,192,127654,1,8,1:0:0:0:
192,192,127697,1,8,1:0:0:0:
448,192,127740,1,8,1:0:0:0:
320,192,127783,1,8,1:0:0:0:
64,192,127826,1,8,1:0:0:0:
192,192,127869,1,8,1:0:0:0:
320,192,127912,1,8,1:0:0:0:
64,192,127954,1,8,0:0:0:0:
448,192,127954,1,8,0:0:0:0:
192,192,127997,1,8,1:0:0:0:
320,192,128040,1,8,1:0:0:0:
448,192,128083,1,8,1:0:0:0:
64,192,128126,1,8,1:0:0:0:
192,192,128169,1,8,1:0:0:0:
448,192,128212,1,8,1:0:0:0:
320,192,128254,1,8,1:0:0:0:
64,192,128297,1,8,0:0:0:0:
192,192,128297,1,8,0:0:0:0:
448,192,128340,1,8,1:0:0:0:
320,192,128383,1,8,1:0:0:0:
64,192,128426,1,8,1:0:0:0:
192,192,128469,1,8,1:0:0:0:
448,192,128512,1,8,1:0:0:0:
320,192,128554,1,8,1:0:0:0:
192,192,128597,1,8,1:0:0:0:
64,192,128640,1,8,0:0:0:0:
448,192,128640,1,8,0:0:0:0:
320,192,128683,1,8,1:0:0:0:
192,192,128726,1,8,1:0:0:0:
64,192,128769,1,8,1:0:0:0:
448,192,128812,1,8,1:0:0:0:
320,192,128854,1,8,1:0:0:0:
64,192,128897,1,8,1:0:0:0:
192,192,128940,1,8,1:0:0:0:
320,192,128983,1,8,0:0:0:0:
448,192,128983,1,8,0:0:0:0:
64,192,129026,1,8,1:0:0:0:
192,192,129069,1,8,1:0:0:0:
448,192,129112,1,8,1:0:0:0:
320,192,129154,1,8,1:0:0:0:
64,192,129197,1,8,1:0:0:0:
192,192,129240,1,8,1:0:0:0:
320,192,129283,1,8,1:0:0:0:
64,192,129326,1,8,0:0:0:0:
448,192,129326,1,8,0:0:0:0:
192,192,129369,1,8,1:0:0:0:
320,192,129412,1,8,1:0:0:0:
448,192,129454,1,8,1:0:0:0:
64,192,129497,1,8,0:0:0:0:
192,192,129497,1,8,0:0:0:0:
320,192,129540,1,8,1:0:0:0:
448,192,129583,1,8,1:0:0:0:
64,192,129626,1,8,1:0:0:0:
320,192,129669,1,8,0:0:0:0:
192,192,129669,1,8,0:0:0:0:
448,192,129712,1,8,1:0:0:0:
64,192,129754,1,8,1:0:0:0:
192,192,129797,1,8,1:0:0:0:
320,192,129840,1,8,0:0:0:0:
448,192,129840,1,8,0:0:0:0:
64,192,129883,1,8,1:0:0:0:
192,192,129926,1,8,1:0:0:0:
320,192,129969,1,8,1:0:0:0:
64,192,130012,1,8,0:0:0:0:
448,192,130012,1,8,0:0:0:0:
192,192,130054,1,8,1:0:0:0:
448,192,130097,1,8,0:0:0:0:
320,192,130097,1,8,0:0:0:0:
192,192,130140,1,8,1:0:0:0:
64,192,130183,1,8,0:0:0:0:
320,192,130183,1,8,0:0:0:0:
448,192,130226,1,8,1:0:0:0:
64,192,130269,1,8,0:0:0:0:
192,192,130269,1,8,0:0:0:0:
320,192,130312,1,8,1:0:0:0:
448,192,130354,1,8,0:0:0:0:
192,192,130354,1,8,0:0:0:0:
64,192,130397,1,8,1:0:0:0:
320,192,130440,1,8,0:0:0:0:
448,192,130440,1,8,0:0:0:0:
192,192,130483,1,8,1:0:0:0:
320,192,130526,1,8,0:0:0:0:
64,192,130526,1,0,0:0:0:0:
448,192,130569,1,8,1:0:0:0:
192,192,130612,1,8,0:0:0:0:
64,192,130612,1,8,0:0:0:0:
320,192,130654,1,8,1:0:0:0:
64,192,130697,1,4,0:0:0:0:
448,192,130697,1,8,0:0:0:0:
192,192,130697,1,8,0:0:0:0:
64,192,130869,128,0,131040:0:0:0:0:
320,192,131040,128,8,131726:0:0:0:0:
448,192,131040,128,8,131212:0:0:0:0:
192,192,131383,128,0,131554:0:0:0:0:
448,192,131554,128,0,131726:0:0:0:0:
64,192,131726,1,8,1:0:0:0:
192,192,131769,1,8,1:0:0:0:
320,192,131812,1,8,1:0:0:0:
448,192,131854,1,8,1:0:0:0:
64,192,131897,1,8,1:0:0:0:
192,192,131940,1,8,1:0:0:0:
320,192,131983,1,8,1:0:0:0:
448,192,132026,1,8,1:0:0:0:
320,192,132069,1,4,0:0:0:0:
192,192,132069,1,8,0:0:0:0:
64,192,132069,1,8,0:0:0:0:
448,192,132412,1,0,0:0:0:0:
320,192,132583,1,0,0:0:0:0:
192,192,132754,1,8,0:0:0:0:
64,192,132754,1,8,0:0:0:0:
448,192,132754,1,0,0:0:0:0:
320,192,133097,1,0,0:0:0:0:
448,192,133269,1,0,0:0:0:0:
192,192,133440,1,0,0:0:0:0:
64,192,133783,1,0,0:0:0:0:
320,192,133954,1,0,0:0:0:0:
192,192,134040,1,0,0:0:0:0:
448,192,134126,1,8,0:0:0:0:
320,192,134126,1,8,0:0:0:0:
64,192,134126,1,0,0:0:0:0:
192,192,134469,1,0,0:0:0:0:
64,192,134640,1,0,0:0:0:0:
320,192,134812,1,0,0:0:0:0:
64,192,135154,1,0,0:0:0:0:
320,192,135326,1,0,0:0:0:0:
448,192,135497,1,0,0:0:0:0:
64,192,135497,1,8,0:0:0:0:
192,192,135497,1,8,0:0:0:0:
64,192,135840,1,0,0:0:0:0:
448,192,136012,1,0,0:0:0:0:
192,192,136183,1,0,0:0:0:0:
64,192,136354,1,0,0:0:0:0:
448,192,136354,1,8,0:0:0:0:
320,192,136354,1,8,0:0:0:0:
448,192,136526,1,0,0:0:0:0:
64,192,136697,1,0,0:0:0:0:
320,192,136783,1,0,0:0:0:0:
448,192,136869,1,0,0:0:0:0:
64,192,136869,1,8,0:0:0:0:
192,192,136869,1,8,0:0:0:0:
192,192,137212,1,0,0:0:0:0:
64,192,137383,1,0,0:0:0:0:
320,192,137554,1,0,0:0:0:0:
448,192,137897,1,0,0:0:0:0:
320,192,138069,1,0,0:0:0:0:
192,192,138240,1,8,0:0:0:0:
64,192,138240,1,8,0:0:0:0:
448,192,138240,1,0,0:0:0:0:
320,192,138583,1,0,0:0:0:0:
448,192,138754,1,0,0:0:0:0:
192,192,138926,1,0,0:0:0:0:
320,192,139269,1,0,0:0:0:0:
64,192,139440,1,0,0:0:0:0:
192,192,139526,1,0,0:0:0:0:
448,192,139612,1,8,0:0:0:0:
320,192,139612,1,8,0:0:0:0:
64,192,139612,1,0,0:0:0:0:
192,192,139954,1,0,0:0:0:0:
64,192,140126,1,0,0:0:0:0:
320,192,140297,1,0,0:0:0:0:
64,192,140640,1,0,0:0:0:0:
320,192,140812,1,0,0:0:0:0:
448,192,140983,1,0,0:0:0:0:
64,192,140983,1,8,0:0:0:0:
192,192,140983,1,8,0:0:0:0:
64,192,141326,1,0,0:0:0:0:
448,192,141497,1,0,0:0:0:0:
192,192,141669,1,0,0:0:0:0:
64,192,141840,1,8,0:0:0:0:
448,192,141840,1,8,0:0:0:0:
320,192,141840,1,0,0:0:0:0:
448,192,142012,1,0,0:0:0:0:
64,192,142183,1,0,0:0:0:0:
320,192,142269,1,0,0:0:0:0:
448,192,142354,1,8,0:0:0:0:
64,192,142354,1,8,0:0:0:0:
192,192,142354,1,0,0:0:0:0:
192,192,142697,1,8,1:0:0:0:
320,192,142740,1,8,1:0:0:0:
448,192,142783,1,8,1:0:0:0:
64,192,142826,1,8,1:0:0:0:
192,192,142869,1,8,1:0:0:0:
320,192,142912,1,8,1:0:0:0:
448,192,142954,1,8,1:0:0:0:
64,192,142997,1,8,1:0:0:0:
320,192,143040,1,0,0:0:0:0:
192,192,143040,1,0,0:0:0:0:
448,192,143083,1,8,1:0:0:0:
64,192,143126,1,8,1:0:0:0:
192,192,143169,1,8,1:0:0:0:
448,192,143212,1,8,1:0:0:0:
320,192,143254,1,8,1:0:0:0:
64,192,143297,1,8,1:0:0:0:
192,192,143340,1,8,1:0:0:0:
448,192,143383,1,8,1:0:0:0:
320,192,143426,1,8,1:0:0:0:
64,192,143469,1,8,1:0:0:0:
192,192,143512,1,8,1:0:0:0:
320,192,143554,1,0,0:0:0:0:
448,192,143554,1,8,0:0:0:0:
192,192,143640,1,0,0:0:0:0:
64,192,143640,1,8,0:0:0:0:
64,192,143726,1,4,0:0:0:0:
448,192,143726,1,8,0:0:0:0:
320,192,143726,128,8,144069:0:0:0:0:
192,192,144069,128,0,144240:0:0:0:0:
64,192,144240,1,0,0:0:0:0:
320,192,144412,1,0,0:0:0:0:
192,192,144754,1,0,0:0:0:0:
448,192,144926,1,0,0:0:0:0:
320,192,145012,1,0,0:0:0:0:
448,192,145097,1,0,0:0:0:0:
64,192,145097,1,8,0:0:0:0:
192,192,145097,128,8,145440:0:0:0:0:
320,192,145440,128,0,145612:0:0:0:0:
448,192,145612,1,0,0:0:0:0:
192,192,145783,1,0,0:0:0:0:
448,192,146126,1,0,0:0:0:0:
192,192,146297,1,0,0:0:0:0:
320,192,146469,1,0,0:0:0:0:
448,192,146469,1,8,0:0:0:0:
64,192,146469,128,8,146812:0:0:0:0:
448,192,146812,128,0,146983:0:0:0:0:
64,192,146983,1,0,0:0:0:0:
320,192,147154,1,0,0:0:0:0:
192,192,147326,1,0,0:0:0:0:
64,192,147326,1,8,0:0:0:0:
448,192,147326,1,8,0:0:0:0:
64,192,147497,1,0,0:0:0:0:
448,192,147669,1,0,0:0:0:0:
192,192,147754,1,0,0:0:0:0:
320,192,147840,1,0,0:0:0:0:
64,192,147840,1,8,0:0:0:0:
448,192,147840,128,8,148183:0:0:0:0:
192,192,148183,128,0,148354:0:0:0:0:
448,192,148354,1,0,0:0:0:0:
192,192,148526,1,0,0:0:0:0:
64,192,148869,1,0,0:0:0:0:
192,192,149040,1,0,0:0:0:0:
64,192,149212,1,8,0:0:0:0:
448,192,149212,1,8,0:0:0:0:
320,192,149212,128,0,149554:0:0:0:0:
192,192,149554,128,0,149726:0:0:0:0:
64,192,149726,1,0,0:0:0:0:
320,192,149897,1,0,0:0:0:0:
192,192,150240,1,0,0:0:0:0:
448,192,150412,1,0,0:0:0:0:
320,192,150497,1,0,0:0:0:0:
448,192,150583,1,8,0:0:0:0:
64,192,150583,1,8,0:0:0:0:
192,192,150583,128,0,150926:0:0:0:0:
320,192,150926,128,0,151097:0:0:0:0:
448,192,151097,1,0,0:0:0:0:
192,192,151269,1,0,0:0:0:0:
448,192,151612,1,0,0:0:0:0:
192,192,151783,1,0,0:0:0:0:
320,192,151954,1,0,0:0:0:0:
448,192,151954,1,8,0:0:0:0:
64,192,151954,128,8,152297:0:0:0:0:
448,192,152297,128,0,152469:0:0:0:0:
64,192,152469,1,0,0:0:0:0:
320,192,152640,1,0,0:0:0:0:
192,192,152812,1,0,0:0:0:0:
64,192,152812,1,8,0:0:0:0:
448,192,152812,1,8,0:0:0:0:
64,192,152983,1,0,0:0:0:0:
448,192,153154,1,0,0:0:0:0:
192,192,153240,1,0,0:0:0:0:
64,192,153326,1,8,0:0:0:0:
448,192,153326,128,8,153669:0:0:0:0:
320,192,153326,1,0,0:0:0:0:
64,192,153669,1,8,1:0:0:0:
192,192,153712,1,8,1:0:0:0:
320,192,153754,1,8,1:0:0:0:
448,192,153797,1,8,1:0:0:0:
64,192,153840,1,8,1:0:0:0:
192,192,153883,1,8,1:0:0:0:
320,192,153926,1,8,1:0:0:0:
448,192,153969,1,8,1:0:0:0:
192,192,154012,1,8,0:0:0:0:
64,192,154012,1,8,0:0:0:0:
320,192,154012,1,4,0:0:0:0:
448,192,154183,1,2,0:0:0:0:
192,192,154354,128,2,154526:0:0:0:0:
448,192,154526,128,2,154697:0:0:0:0:
64,192,154697,128,2,154869:0:0:0:0:
320,192,154869,1,2,0:0:0:0:
192,192,155040,1,2,0:0:0:0:
320,192,155212,1,2,0:0:0:0:
64,192,155383,128,2,155554:0:0:0:0:
192,192,155554,1,2,0:0:0:0:
448,192,155726,128,2,155897:0:0:0:0:
320,192,155897,1,2,0:0:0:0:
64,192,156069,128,2,156240:0:0:0:0:
192,192,156240,1,2,0:0:0:0:
448,192,156412,128,2,156583:0:0:0:0:
320,192,156412,128,2,156583:0:0:0:0:
64,192,156583,128,2,156669:0:0:0:0:
64,192,156754,128,2,157269:0:0:0:0:
320,192,157269,128,2,158126:0:0:0:0:
64,192,158126,128,2,158640:0:0:0:0:
320,192,158640,128,2,158983:0:0:0:0:
64,192,158983,1,2,0:0:0:0:
448,192,159154,128,2,159326:0:0:0:0:
192,192,159326,1,2,0:0:0:0:
448,192,159497,128,2,159669:0:0:0:0:
192,192,159669,1,2,0:0:0:0:
320,192,159840,128,2,160012:0:0:0:0:
64,192,160012,128,2,160183:0:0:0:0:
320,192,160183,128,2,160354:0:0:0:0:
448,192,160183,128,2,160354:0:0:0:0:
192,192,160354,1,2,0:0:0:0:
320,192,160526,1,2,0:0:0:0:
192,192,160697,1,2,0:0:0:0:
448,192,160869,128,2,161040:0:0:0:0:
320,192,161040,1,2,0:0:0:0:
64,192,161212,128,2,161383:0:0:0:0:
192,192,161383,1,2,0:0:0:0:
448,192,161554,128,2,161726:0:0:0:0:
320,192,161726,1,2,0:0:0:0:
64,192,161897,128,2,162069:0:0:0:0:
192,192,161897,128,2,162069:0:0:0:0:
320,192,162069,1,2,0:0:0:0:
192,192,162240,128,2,162412:0:0:0:0:
320,192,162412,128,2,162583:0:0:0:0:
448,192,162583,128,2,162754:0:0:0:0:
64,192,162754,128,2,162926:0:0:0:0:
192,192,162926,1,2,0:0:0:0:
448,192,163097,128,2,163269:0:0:0:0:
320,192,163269,128,2,163440:0:0:0:0:
192,192,163440,128,2,163612:0:0:0:0:
64,192,163612,128,2,163783:0:0:0:0:
448,192,163783,1,2,0:0:0:0:
192,192,163954,128,2,164126:0:0:0:0:
320,192,164126,128,2,164297:0:0:0:0:
64,192,164297,128,2,164469:0:0:0:0:
448,192,164469,1,2,0:0:0:0:
192,192,164640,128,2,164812:0:0:0:0:
448,192,164812,1,2,0:0:0:0:
64,192,164983,128,2,165154:0:0:0:0:
320,192,165154,1,2,0:0:0:0:
192,192,165326,128,2,165497:0:0:0:0:
448,192,165497,128,2,165583:0:0:0:0:
320,192,165583,128,2,165669:0:0:0:0:
64,192,165669,128,2,165840:0:0:0:0:
320,192,165840,1,2,0:0:0:0:
192,192,166012,1,2,0:0:0:0:
448,192,166097,1,0,0:0:0:0:
320,192,166183,1,2,0:0:0:0:
64,192,166354,1,2,0:0:0:0:
448,192,166440,1,2,0:0:0:0:
192,192,166526,1,0,0:0:0:0:
320,192,166612,1,2,0:0:0:0:
448,192,166697,1,2,0:0:0:0:
64,192,166783,1,2,0:0:0:0:
320,192,166869,1,0,0:0:0:0:
64,192,166954,1,2,0:0:0:0:
320,192,167040,1,2,0:0:0:0:
192,192,167126,1,2,0:0:0:0:
448,192,167212,1,0,0:0:0:0:
64,192,167297,1,2,0:0:0:0:
448,192,167383,1,2,0:0:0:0:
320,192,167383,1,2,0:0:0:0:
64,192,167554,1,0,0:0:0:0:
320,192,167726,1,2,0:0:0:0:
320,192,167812,1,2,0:0:0:0:
448,192,167897,1,0,0:0:0:0:
192,192,167983,1,2,0:0:0:0:
192,192,168069,1,2,0:0:0:0:
64,192,168154,1,0,0:0:0:0:
448,192,168240,1,2,0:0:0:0:
448,192,168326,1,2,0:0:0:0:
320,192,168412,1,0,0:0:0:0:
64,192,168497,1,2,0:0:0:0:
192,192,168583,1,2,0:0:0:0:
448,192,168669,1,2,0:0:0:0:
320,192,168754,1,0,0:0:0:0:
64,192,168840,1,2,0:0:0:0:
448,192,168926,1,2,0:0:0:0:
192,192,169012,1,2,0:0:0:0:
320,192,169097,1,0,0:0:0:0:
320,192,169183,1,2,0:0:0:0:
448,192,169269,1,0,0:0:0:0:
192,192,169354,1,2,0:0:0:0:
192,192,169440,1,2,0:0:0:0:
64,192,169526,1,0,0:0:0:0:
448,192,169612,1,2,0:0:0:0:
448,192,169697,1,2,0:0:0:0:
320,192,169783,1,0,0:0:0:0:
64,192,169869,1,2,0:0:0:0:
448,192,169954,1,2,0:0:0:0:
192,192,170040,1,2,0:0:0:0:
320,192,170126,1,0,0:0:0:0:
64,192,170212,1,2,0:0:0:0:
320,192,170297,1,2,0:0:0:0:
448,192,170469,1,0,0:0:0:0:
64,192,170554,1,2,0:0:0:0:
192,192,170640,1,0,0:0:0:0:
448,192,170726,1,2,0:0:0:0:
64,192,170812,1,2,0:0:0:0:
320,192,170897,1,2,0:0:0:0:
448,192,170983,128,0,171069:0:0:0:0:
192,192,171069,128,2,171154:0:0:0:0:
320,192,171154,128,2,171240:0:0:0:0:
448,192,171240,1,2,0:0:0:0:
64,192,171326,1,0,0:0:0:0:
192,192,171412,1,2,0:0:0:0:
192,192,171497,128,2,171583:0:0:0:0:
448,192,171583,1,2,0:0:0:0:
320,192,171669,1,0,0:0:0:0:
64,192,171754,1,2,0:0:0:0:
192,192,171840,1,0,0:0:0:0:
448,192,171926,1,2,0:0:0:0:
320,192,172012,1,2,0:0:0:0:
64,192,172097,1,0,0:0:0:0:
448,192,172183,1,2,0:0:0:0:
192,192,172269,1,2,0:0:0:0:
64,192,172354,1,2,0:0:0:0:
448,192,172440,1,2,0:0:0:0:
320,192,172526,1,2,0:0:0:0:
64,192,172612,1,2,0:0:0:0:
448,192,172697,1,2,0:0:0:0:
192,192,172783,1,2,0:0:0:0:
448,192,172869,1,2,0:0:0:0:
64,192,172869,1,2,0:0:0:0:
64,192,172954,1,2,0:0:0:0:
320,192,173040,1,0,0:0:0:0:
448,192,173126,1,2,0:0:0:0:
64,192,173212,1,2,0:0:0:0:
64,192,173297,1,2,0:0:0:0:
192,192,173383,1,0,0:0:0:0:
448,192,173469,1,2,0:0:0:0:
448,192,173554,1,2,0:0:0:0:
320,192,173640,1,0,0:0:0:0:
64,192,173726,1,2,0:0:0:0:
64,192,173812,1,2,0:0:0:0:
448,192,173897,1,0,0:0:0:0:
448,192,173983,128,2,174069:0:0:0:0:
192,192,174069,1,0,0:0:0:0:
320,192,174154,1,2,0:0:0:0:
192,192,174240,1,2,0:0:0:0:
64,192,174326,1,2,0:0:0:0:
448,192,174412,1,2,0:0:0:0:
192,192,174497,1,2,0:0:0:0:
320,192,174583,1,2,0:0:0:0:
320,192,174669,1,2,0:0:0:0:
448,192,174754,1,0,0:0:0:0:
192,192,174840,1,2,0:0:0:0:
192,192,174926,1,2,0:0:0:0:
64,192,175012,1,0,0:0:0:0:
320,192,175097,1,2,0:0:0:0:
320,192,175183,1,2,0:0:0:0:
192,192,175269,1,8,0:0:0:0:
448,192,175354,1,10,0:0:0:0:
64,192,175440,1,8,0:0:0:0:
192,192,175526,1,8,0:0:0:0:
448,192,175612,1,8,1:0:0:0:
320,192,175654,1,8,1:0:0:0:
192,192,175697,1,8,1:0:0:0:
64,192,175740,1,8,1:0:0:0:
448,192,175783,1,8,1:0:0:0:
320,192,175826,1,8,1:0:0:0:
192,192,175869,1,8,1:0:0:0:
64,192,175912,1,8,1:0:0:0:
192,192,175954,1,4,0:0:0:0:
320,192,175954,1,8,0:0:0:0:
448,192,175954,1,8,0:0:0:0:
320,192,176126,1,0,0:0:0:0:
448,192,176212,1,0,0:0:0:0:
192,192,176297,1,0,0:0:0:0:
64,192,176383,1,0,0:0:0:0:
448,192,176469,1,0,0:0:0:0:
192,192,176554,1,0,0:0:0:0:
320,192,176640,1,0,0:0:0:0:
64,192,176726,1,0,0:0:0:0:
448,192,176812,1,0,0:0:0:0:
192,192,176897,128,0,177069:0:0:0:0:
64,192,176983,128,0,177069:0:0:0:0:
448,192,177069,1,8,3:0:0:0:
320,192,177154,128,0,177240:0:0:0:0:
448,192,177240,128,0,177326:0:0:0:0:
64,192,177326,1,0,0:0:0:0:
320,192,177412,1,0,0:0:0:0:
192,192,177497,1,0,0:0:0:0:
320,192,177583,1,0,0:0:0:0:
448,192,177669,1,0,0:0:0:0:
64,192,177754,1,0,0:0:0:0:
320,192,177840,1,0,0:0:0:0:
192,192,177926,1,0,0:0:0:0:
448,192,178012,1,0,0:0:0:0:
64,192,178097,1,0,0:0:0:0:
320,192,178183,1,0,0:0:0:0:
192,192,178269,1,0,0:0:0:0:
448,192,178354,1,0,0:0:0:0:
64,192,178354,1,0,0:0:0:0:
64,192,178440,1,0,0:0:0:0:
448,192,178526,1,0,0:0:0:0:
192,192,178612,1,0,0:0:0:0:
320,192,178697,1,0,0:0:0:0:
320,192,178783,1,0,0:0:0:0:
448,192,178869,1,0,0:0:0:0:
192,192,178954,1,0,0:0:0:0:
192,192,179040,1,0,0:0:0:0:
64,192,179126,1,0,0:0:0:0:
448,192,179212,1,0,0:0:0:0:
448,192,179297,1,0,0:0:0:0:
320,192,179383,1,0,0:0:0:0:
64,192,179469,1,0,0:0:0:0:
192,192,179554,1,0,0:0:0:0:
448,192,179640,1,0,0:0:0:0:
320,192,179726,1,0,0:0:0:0:
64,192,179812,1,0,0:0:0:0:
448,192,179897,1,0,0:0:0:0:
192,192,179983,1,0,0:0:0:0:
320,192,180069,1,0,0:0:0:0:
320,192,180154,1,0,0:0:0:0:
448,192,180240,1,0,0:0:0:0:
192,192,180326,1,0,0:0:0:0:
192,192,180412,1,0,0:0:0:0:
64,192,180497,1,0,0:0:0:0:
448,192,180583,1,0,0:0:0:0:
448,192,180669,1,0,0:0:0:0:
320,192,180754,1,0,0:0:0:0:
64,192,180840,1,0,0:0:0:0:
448,192,180926,1,0,0:0:0:0:
192,192,181012,1,0,0:0:0:0:
320,192,181097,1,0,0:0:0:0:
64,192,181183,1,0,0:0:0:0:
320,192,181269,1,0,0:0:0:0:
192,192,181354,1,0,0:0:0:0:
448,192,181440,1,0,0:0:0:0:
64,192,181526,1,0,0:0:0:0:
192,192,181612,1,0,0:0:0:0:
448,192,181697,1,0,0:0:0:0:
64,192,181783,1,0,0:0:0:0:
320,192,181869,1,0,0:0:0:0:
448,192,181954,128,0,182040:0:0:0:0:
192,192,182040,128,0,182126:0:0:0:0:
320,192,182126,128,0,182212:0:0:0:0:
448,192,182212,1,0,0:0:0:0:
64,192,182297,1,0,0:0:0:0:
192,192,182383,1,0,0:0:0:0:
192,192,182469,128,0,182554:0:0:0:0:
448,192,182554,1,0,0:0:0:0:
320,192,182640,1,0,0:0:0:0:
64,192,182726,1,0,0:0:0:0:
192,192,182812,1,0,0:0:0:0:
448,192,182897,1,0,0:0:0:0:
320,192,182983,1,0,0:0:0:0:
64,192,183069,1,0,0:0:0:0:
448,192,183154,1,0,0:0:0:0:
192,192,183240,1,0,0:0:0:0:
64,192,183326,1,0,0:0:0:0:
448,192,183412,1,0,0:0:0:0:
320,192,183497,1,0,0:0:0:0:
64,192,183583,1,0,0:0:0:0:
320,192,183669,1,0,0:0:0:0:
192,192,183754,1,0,0:0:0:0:
448,192,183840,1,0,0:0:0:0:
64,192,183840,1,0,0:0:0:0:
64,192,183926,1,0,0:0:0:0:
320,192,184012,1,0,0:0:0:0:
448,192,184097,1,0,0:0:0:0:
64,192,184183,1,0,0:0:0:0:
64,192,184269,1,0,0:0:0:0:
192,192,184354,1,0,0:0:0:0:
448,192,184440,1,0,0:0:0:0:
448,192,184526,1,0,0:0:0:0:
320,192,184612,1,0,0:0:0:0:
64,192,184697,1,0,0:0:0:0:
64,192,184783,1,0,0:0:0:0:
448,192,184869,1,0,0:0:0:0:
448,192,184954,128,0,185040:0:0:0:0:
192,192,185040,1,0,0:0:0:0:
320,192,185126,1,0,0:0:0:0:
192,192,185212,1,0,0:0:0:0:
64,192,185297,1,0,0:0:0:0:
448,192,185383,1,0,0:0:0:0:
192,192,185469,1,0,0:0:0:0:
320,192,185554,1,0,0:0:0:0:
320,192,185640,1,0,0:0:0:0:
448,192,185726,1,0,0:0:0:0:
192,192,185812,1,0,0:0:0:0:
192,192,185897,1,0,0:0:0:0:
64,192,185983,1,0,0:0:0:0:
320,192,186069,1,0,0:0:0:0:
320,192,186154,1,0,0:0:0:0:
192,192,186240,1,0,0:0:0:0:
448,192,186326,1,0,0:0:0:0:
64,192,186412,1,0,0:0:0:0:
192,192,186497,1,0,0:0:0:0:
448,192,186583,1,8,1:0:0:0:
320,192,186626,1,8,1:0:0:0:
64,192,186669,1,8,1:0:0:0:
192,192,186712,1,8,1:0:0:0:
448,192,186754,1,8,1:0:0:0:
320,192,186797,1,8,1:0:0:0:
192,192,186840,1,8,1:0:0:0:
64,192,186883,1,8,1:0:0:0:
192,192,186926,1,4,0:0:0:0:
320,192,186926,1,8,0:0:0:0:
448,192,186926,1,8,0:0:0:0:
64,192,187097,1,0,0:0:0:0:
448,192,187183,1,0,0:0:0:0:
320,192,187269,1,8,0:0:0:0:
192,192,187269,1,8,0:0:0:0:
64,192,187354,1,0,0:0:0:0:
448,192,187440,1,0,0:0:0:0:
320,192,187526,1,0,0:0:0:0:
192,192,187612,1,8,0:0:0:0:
64,192,187612,1,8,0:0:0:0:
448,192,187697,1,0,0:0:0:0:
320,192,187783,1,0,0:0:0:0:
64,192,187869,1,0,0:0:0:0:
448,192,187954,1,8,0:0:0:0:
192,192,187954,1,0,0:0:0:0:
320,192,188126,1,8,0:0:0:0:
64,192,188126,1,8,0:0:0:0:
192,192,188212,1,0,0:0:0:0:
320,192,188297,1,8,0:0:0:0:
448,192,188297,1,8,0:0:0:0:
64,192,188383,1,0,0:0:0:0:
448,192,188469,1,0,0:0:0:0:
192,192,188554,1,0,0:0:0:0:
448,192,188640,1,8,0:0:0:0:
320,192,188640,1,8,0:0:0:0:
64,192,188726,1,0,0:0:0:0:
320,192,188812,1,0,0:0:0:0:
448,192,188897,1,0,0:0:0:0:
64,192,188983,1,8,0:0:0:0:
192,192,188983,1,8,0:0:0:0:
320,192,189069,1,0,0:0:0:0:
448,192,189154,1,8,0:0:0:0:
64,192,189154,1,8,0:0:0:0:
320,192,189240,1,0,0:0:0:0:
448,192,189326,1,8,0:0:0:0:
192,192,189326,1,8,0:0:0:0:
64,192,189412,1,0,0:0:0:0:
192,192,189497,1,8,0:0:0:0:
320,192,189497,1,8,0:0:0:0:
64,192,189583,1,0,0:0:0:0:
320,192,189669,1,8,0:0:0:0:
448,192,189669,1,8,0:0:0:0:
192,192,189754,1,0,0:0:0:0:
448,192,189840,1,0,0:0:0:0:
64,192,189926,1,0,0:0:0:0:
192,192,190012,1,8,0:0:0:0:
320,192,190012,1,8,0:0:0:0:
448,192,190097,1,0,0:0:0:0:
192,192,190183,1,0,0:0:0:0:
320,192,190269,1,0,0:0:0:0:
448,192,190354,1,8,0:0:0:0:
64,192,190354,1,8,0:0:0:0:
192,192,190440,1,0,0:0:0:0:
64,192,190526,1,0,0:0:0:0:
448,192,190612,1,8,0:0:0:0:
320,192,190697,1,0,0:0:0:0:
192,192,190697,1,8,0:0:0:0:
64,192,190783,1,0,0:0:0:0:
192,192,190869,1,8,0:0:0:0:
320,192,190869,1,8,0:0:0:0:
448,192,190954,1,0,0:0:0:0:
192,192,191040,1,8,0:0:0:0:
64,192,191040,1,8,0:0:0:0:
320,192,191126,1,0,0:0:0:0:
64,192,191212,1,0,0:0:0:0:
448,192,191297,1,0,0:0:0:0:
320,192,191383,1,8,0:0:0:0:
192,192,191383,1,8,0:0:0:0:
64,192,191469,1,0,0:0:0:0:
320,192,191554,1,0,0:0:0:0:
192,192,191640,1,0,0:0:0:0:
64,192,191726,1,8,0:0:0:0:
448,192,191726,1,8,0:0:0:0:
320,192,191812,1,0,0:0:0:0:
448,192,191897,1,8,0:0:0:0:
192,192,191897,1,8,0:0:0:0:
320,192,191983,1,0,0:0:0:0:
64,192,192069,1,8,0:0:0:0:
448,192,192069,1,8,0:0:0:0:
192,192,192154,1,8,0:0:0:0:
320,192,192154,1,8,0:0:0:0:
64,192,192240,1,8,0:0:0:0:
448,192,192240,1,8,0:0:0:0:
320,192,192326,1,8,0:0:0:0:
192,192,192326,1,8,0:0:0:0:
448,192,192412,1,8,0:0:0:0:
64,192,192412,1,8,0:0:0:0:
192,192,192497,1,0,0:0:0:0:
64,192,192583,1,8,0:0:0:0:
320,192,192583,1,8,0:0:0:0:
448,192,192669,1,0,0:0:0:0:
192,192,192754,1,8,0:0:0:0:
64,192,192754,1,8,0:0:0:0:
320,192,192840,1,0,0:0:0:0:
192,192,192926,1,8,0:0:0:0:
448,192,192926,1,8,0:0:0:0:
64,192,193012,1,0,0:0:0:0:
320,192,193097,1,8,0:0:0:0:
448,192,193097,1,8,0:0:0:0:
192,192,193183,1,0,0:0:0:0:
64,192,193269,1,8,0:0:0:0:
320,192,193269,1,8,0:0:0:0:
448,192,193354,1,0,0:0:0:0:
320,192,193440,1,8,0:0:0:0:
192,192,193440,1,8,0:0:0:0:
448,192,193526,1,8,0:0:0:0:
64,192,193526,1,8,0:0:0:0:
320,192,193612,1,8,0:0:0:0:
192,192,193612,1,8,0:0:0:0:
448,192,193697,1,8,0:0:0:0:
64,192,193697,1,8,0:0:0:0:
320,192,193783,1,8,0:0:0:0:
192,192,193783,1,8,0:0:0:0:
64,192,193869,1,0,0:0:0:0:
192,192,193954,1,8,0:0:0:0:
448,192,193954,1,8,0:0:0:0:
320,192,194040,1,0,0:0:0:0:
192,192,194126,1,8,0:0:0:0:
64,192,194126,1,8,0:0:0:0:
320,192,194212,1,0,0:0:0:0:
64,192,194297,1,8,0:0:0:0:
448,192,194297,1,8,0:0:0:0:
320,192,194383,1,0,0:0:0:0:
192,192,194469,1,8,0:0:0:0:
448,192,194469,1,8,0:0:0:0:
64,192,194554,1,0,0:0:0:0:
192,192,194640,1,8,0:0:0:0:
320,192,194640,1,8,0:0:0:0:
448,192,194726,1,0,0:0:0:0:
64,192,194812,1,8,0:0:0:0:
192,192,194812,1,8,0:0:0:0:
320,192,194897,1,8,0:0:0:0:
448,192,194897,1,8,0:0:0:0:
192,192,194983,1,8,0:0:0:0:
64,192,194983,1,8,0:0:0:0:
320,192,195069,1,8,0:0:0:0:
448,192,195069,1,8,0:0:0:0:
192,192,195154,1,8,0:0:0:0:
64,192,195154,1,8,0:0:0:0:
320,192,195240,1,8,0:0:0:0:
448,192,195240,1,8,0:0:0:0:
192,192,195326,1,8,0:0:0:0:
64,192,195326,1,8,0:0:0:0:
320,192,195412,1,8,0:0:0:0:
448,192,195412,1,8,0:0:0:0:
192,192,195497,1,8,0:0:0:0:
64,192,195497,1,8,0:0:0:0:
320,192,195583,1,8,0:0:0:0:
448,192,195583,1,8,0:0:0:0:
64,192,195669,1,0,1:0:0:0:
192,192,195712,1,0,1:0:0:0:
448,192,195754,1,8,1:0:0:0:
320,192,195797,1,8,1:0:0:0:
64,192,195840,1,8,1:0:0:0:
192,192,195883,1,8,1:0:0:0:
448,192,195926,1,8,1:0:0:0:
320,192,195969,1,8,1:0:0:0:
64,192,196012,1,8,1:0:0:0:
192,192,196054,1,8,1:0:0:0:
448,192,196097,1,8,1:0:0:0:
320,192,196140,1,8,1:0:0:0:
64,192,196183,1,8,1:0:0:0:
192,192,196226,1,8,1:0:0:0:
320,192,196269,1,8,1:0:0:0:
448,192,196312,1,8,1:0:0:0:
64,192,196354,1,8,1:0:0:0:
192,192,196397,1,8,1:0:0:0:
320,192,196440,1,8,1:0:0:0:
448,192,196483,1,8,1:0:0:0:
192,192,196526,1,8,0:0:0:0:
64,192,196526,1,8,0:0:0:0:
448,192,196697,1,0,0:0:0:0:
320,192,196869,1,0,0:0:0:0:
64,192,197040,1,0,0:0:0:0:
448,192,197212,1,0,0:0:0:0:
192,192,197297,1,0,0:0:0:0:
320,192,197383,1,0,0:0:0:0:
64,192,197469,1,0,0:0:0:0:
448,192,197554,1,8,1:0:0:0:
320,192,197597,1,8,1:0:0:0:
192,192,197640,1,8,1:0:0:0:
64,192,197683,1,8,1:0:0:0:
448,192,197726,1,8,1:0:0:0:
320,192,197769,1,8,1:0:0:0:
192,192,197812,1,8,1:0:0:0:
64,192,197854,1,8,1:0:0:0:
320,192,197897,1,8,0:0:0:0:
448,192,197897,1,8,0:0:0:0:
192,192,197897,1,4,0:0:0:0:
64,192,198069,1,0,0:0:0:0:
192,192,198154,1,0,0:0:0:0:
320,192,198240,1,8,0:0:0:0:
448,192,198240,1,8,0:0:0:0:
448,192,198412,1,0,0:0:0:0:
320,192,198497,1,0,0:0:0:0:
192,192,198583,1,8,0:0:0:0:
64,192,198583,1,8,0:0:0:0:
448,192,198754,1,0,0:0:0:0:
192,192,198840,1,0,0:0:0:0:
320,192,198926,1,8,0:0:0:0:
64,192,198926,1,8,0:0:0:0:
64,192,199097,1,0,0:0:0:0:
320,192,199183,1,0,0:0:0:0:
448,192,199269,1,8,0:0:0:0:
192,192,199269,1,8,0:0:0:0:
320,192,199440,1,0,0:0:0:0:
192,192,199526,1,0,0:0:0:0:
448,192,199612,1,8,0:0:0:0:
64,192,199612,1,8,0:0:0:0:
192,192,199783,1,0,0:0:0:0:
320,192,199869,1,0,0:0:0:0:
64,192,199954,1,8,0:0:0:0:
448,192,199954,1,8,0:0:0:0:
192,192,200126,1,0,0:0:0:0:
320,192,200212,1,0,0:0:0:0:
192,192,200297,1,8,0:0:0:0:
448,192,200297,1,8,0:0:0:0:
64,192,200469,1,0,0:0:0:0:
448,192,200554,1,0,0:0:0:0:
320,192,200640,1,8,0:0:0:0:
192,192,200640,1,8,0:0:0:0:
448,192,200812,1,0,0:0:0:0:
64,192,200897,1,0,0:0:0:0:
192,192,200983,1,8,0:0:0:0:
320,192,200983,1,8,0:0:0:0:
320,192,201154,1,0,0:0:0:0:
448,192,201240,1,0,0:0:0:0:
64,192,201326,1,8,0:0:0:0:
192,192,201326,1,8,0:0:0:0:
192,192,201497,1,0,0:0:0:0:
64,192,201583,1,0,0:0:0:0:
448,192,201669,1,8,0:0:0:0:
320,192,201669,1,8,0:0:0:0:
192,192,201754,1,0,0:0:0:0:
448,192,201840,1,0,0:0:0:0:
64,192,201926,1,0,0:0:0:0:
192,192,202012,1,8,0:0:0:0:
320,192,202012,1,8,0:0:0:0:
64,192,202183,1,0,0:0:0:0:
448,192,202269,1,0,0:0:0:0:
192,192,202354,1,8,0:0:0:0:
320,192,202354,1,8,0:0:0:0:
192,192,202526,1,0,0:0:0:0:
64,192,202612,1,0,0:0:0:0:
448,192,202697,1,8,0:0:0:0:
320,192,202697,1,8,0:0:0:0:
192,192,202869,1,0,0:0:0:0:
448,192,202954,1,0,0:0:0:0:
64,192,203040,1,8,0:0:0:0:
192,192,203040,1,8,0:0:0:0:
320,192,203212,1,0,0:0:0:0:
64,192,203297,1,0,0:0:0:0:
320,192,203383,1,8,0:0:0:0:
448,192,203383,1,8,0:0:0:0:
64,192,203554,1,0,0:0:0:0:
192,192,203640,1,0,0:0:0:0:
320,192,203726,1,8,0:0:0:0:
448,192,203726,1,8,0:0:0:0:
448,192,203897,1,0,0:0:0:0:
192,192,203983,1,0,0:0:0:0:
320,192,204069,1,8,0:0:0:0:
64,192,204069,1,8,0:0:0:0:
448,192,204240,1,0,0:0:0:0:
320,192,204326,1,0,0:0:0:0:
192,192,204412,1,8,0:0:0:0:
64,192,204412,1,8,0:0:0:0:
64,192,204583,1,0,0:0:0:0:
320,192,204669,1,0,0:0:0:0:
448,192,204754,1,8,0:0:0:0:
192,192,204754,1,8,0:0:0:0:
320,192,204926,1,0,0:0:0:0:
192,192,205012,1,0,0:0:0:0:
448,192,205097,1,8,0:0:0:0:
64,192,205097,1,8,0:0:0:0:
192,192,205269,1,0,0:0:0:0:
320,192,205354,1,0,0:0:0:0:
64,192,205440,1,8,0:0:0:0:
448,192,205440,1,8,0:0:0:0:
192,192,205612,1,0,0:0:0:0:
320,192,205697,1,0,0:0:0:0:
192,192,205783,1,8,0:0:0:0:
448,192,205783,1,8,0:0:0:0:
320,192,205954,1,0,0:0:0:0:
448,192,206040,1,0,0:0:0:0:
192,192,206126,1,8,0:0:0:0:
64,192,206126,1,8,0:0:0:0:
320,192,206297,1,0,0:0:0:0:
192,192,206383,1,0,0:0:0:0:
320,192,206469,1,8,0:0:0:0:
448,192,206469,1,8,0:0:0:0:
64,192,206640,1,0,0:0:0:0:
448,192,206726,1,0,0:0:0:0:
64,192,206812,1,8,0:0:0:0:
320,192,206812,1,8,0:0:0:0:
448,192,206983,1,0,0:0:0:0:
192,192,207069,1,0,0:0:0:0:
64,192,207154,1,8,0:0:0:0:
448,192,207154,1,8,0:0:0:0:
320,192,207240,1,0,0:0:0:0:
64,192,207326,1,0,0:0:0:0:
320,192,207412,1,0,0:0:0:0:
448,192,207497,1,8,0:0:0:0:
192,192,207497,1,8,0:0:0:0:
320,192,207669,1,0,0:0:0:0:
192,192,207754,1,0,0:0:0:0:
320,192,207840,1,8,0:0:0:0:
64,192,207840,1,8,0:0:0:0:
448,192,208012,1,0,0:0:0:0:
320,192,208097,1,0,0:0:0:0:
64,192,208183,1,8,1:0:0:0:
192,192,208226,1,8,1:0:0:0:
320,192,208269,1,8,1:0:0:0:
448,192,208354,1,0,0:0:0:0:
64,192,208440,1,0,0:0:0:0:
320,192,208526,1,8,0:0:0:0:
192,192,208526,1,8,0:0:0:0:
448,192,208612,1,0,0:0:0:0:
64,192,208697,1,8,0:0:0:0:
192,192,208697,1,8,0:0:0:0:
448,192,208783,1,8,0:0:0:0:
320,192,208783,1,8,0:0:0:0:
192,192,208869,1,8,0:0:0:0:
64,192,208869,1,8,0:0:0:0:
320,192,208869,1,4,0:0:0:0:
448,192,209040,1,0,0:0:0:0:
320,192,209126,1,0,0:0:0:0:
192,192,209212,1,8,0:0:0:0:
64,192,209212,1,8,0:0:0:0:
64,192,209383,1,0,0:0:0:0:
192,192,209469,1,0,0:0:0:0:
320,192,209554,1,8,0:0:0:0:
448,192,209554,1,8,0:0:0:0:
64,192,209726,1,0,0:0:0:0:
320,192,209812,1,0,0:0:0:0:
192,192,209897,1,8,0:0:0:0:
448,192,209897,1,8,0:0:0:0:
448,192,210069,1,0,0:0:0:0:
192,192,210154,1,0,0:0:0:0:
64,192,210240,1,8,0:0:0:0:
320,192,210240,1,8,0:0:0:0:
192,192,210412,1,0,0:0:0:0:
320,192,210497,1,0,0:0:0:0:
64,192,210583,1,8,0:0:0:0:
448,192,210583,1,8,0:0:0:0:
192,192,210754,1,0,0:0:0:0:
320,192,210840,1,0,0:0:0:0:
448,192,210926,1,8,0:0:0:0:
64,192,210926,1,8,0:0:0:0:
320,192,211097,1,0,0:0:0:0:
192,192,211183,1,0,0:0:0:0:
320,192,211269,1,8,0:0:0:0:
64,192,211269,1,8,0:0:0:0:
448,192,211440,1,0,0:0:0:0:
64,192,211526,1,0,0:0:0:0:
192,192,211612,1,8,0:0:0:0:
320,192,211612,1,8,0:0:0:0:
64,192,211783,1,0,0:0:0:0:
448,192,211869,1,0,0:0:0:0:
320,192,211954,1,8,0:0:0:0:
192,192,211954,1,8,0:0:0:0:
192,192,212126,1,0,0:0:0:0:
64,192,212212,1,0,0:0:0:0:
448,192,212297,1,8,0:0:0:0:
320,192,212297,1,8,0:0:0:0:
320,192,212469,1,0,0:0:0:0:
448,192,212554,1,0,0:0:0:0:
64,192,212640,1,8,0:0:0:0:
192,192,212640,1,8,0:0:0:0:
320,192,212726,1,0,0:0:0:0:
64,192,212812,1,0,0:0:0:0:
448,192,212897,1,0,0:0:0:0:
320,192,212983,1,8,0:0:0:0:
192,192,212983,1,8,0:0:0:0:
448,192,213154,1,0,0:0:0:0:
64,192,213240,1,0,0:0:0:0:
320,192,213326,1,8,0:0:0:0:
192,192,213326,1,8,0:0:0:0:
320,192,213497,1,0,0:0:0:0:
448,192,213583,1,0,0:0:0:0:
64,192,213669,1,8,0:0:0:0:
192,192,213669,1,8,0:0:0:0:
320,192,213840,1,0,0:0:0:0:
64,192,213926,1,0,0:0:0:0:
448,192,214012,1,8,0:0:0:0:
320,192,214012,1,8,0:0:0:0:
192,192,214183,1,0,0:0:0:0:
448,192,214269,1,0,0:0:0:0:
192,192,214354,1,8,0:0:0:0:
64,192,214354,1,8,0:0:0:0:
448,192,214526,1,0,0:0:0:0:
320,192,214612,1,0,0:0:0:0:
192,192,214697,1,8,0:0:0:0:
64,192,214697,1,8,0:0:0:0:
64,192,214869,1,0,0:0:0:0:
320,192,214954,1,0,0:0:0:0:
192,192,215040,1,8,0:0:0:0:
448,192,215040,1,8,0:0:0:0:
64,192,215212,1,0,0:0:0:0:
192,192,215297,1,0,0:0:0:0:
320,192,215383,1,8,0:0:0:0:
448,192,215383,1,8,0:0:0:0:
448,192,215554,1,0,0:0:0:0:
192,192,215640,1,0,0:0:0:0:
64,192,215726,1,8,0:0:0:0:
320,192,215726,1,8,0:0:0:0:
192,192,215897,1,0,0:0:0:0:
320,192,215983,1,0,0:0:0:0:
64,192,216069,1,8,0:0:0:0:
448,192,216069,1,8,0:0:0:0:
192,192,216240,1,0,0:0:0:0:
320,192,216326,1,0,0:0:0:0:
448,192,216412,1,8,0:0:0:0:
64,192,216412,1,8,0:0:0:0:
320,192,216583,5,0,0:0:0:0:
192,192,216669,1,0,0:0:0:0:
320,192,216754,1,8,0:0:0:0:
64,192,216754,1,8,0:0:0:0:
448,192,216926,5,0,0:0:0:0:
320,192,217012,1,0,0:0:0:0:
64,192,217097,1,4,0:0:0:0:
192,192,217097,1,8,0:0:0:0:
448,192,217097,1,8,0:0:0:0:
320,192,217269,1,0,0:0:0:0:
448,192,217354,1,4,0:0:0:0:
192,192,217354,1,8,0:0:0:0:
64,192,217354,1,8,0:0:0:0:
320,192,217440,1,0,0:0:0:0:
192,192,217526,1,0,0:0:0:0:
448,192,217612,1,8,0:0:0:0:
64,192,217612,1,4,0:0:0:0:
320,192,217612,1,8,0:0:0:0:
192,192,217697,5,0,0:0:0:0:
448,192,217783,1,8,0:0:0:0:
320,192,217783,1,12,0:0:0:0:
64,192,217783,1,4,0:0:0:0:
192,192,217869,1,8,1:0:0:0:
64,192,217912,1,8,1:0:0:0:
448,192,217954,1,8,1:0:0:0:
192,192,218040,1,0,0:0:0:0:
320,192,218126,1,8,1:0:0:0:
192,192,218169,1,8,1:0:0:0:
64,192,218212,1,8,1:0:0:0:
320,192,218297,1,0,0:0:0:0:
192,192,218383,1,8,1:0:0:0:
320,192,218426,1,8,1:0:0:0:
448,192,218469,1,8,1:0:0:0:
64,192,218554,1,0,0:0:0:0:
320,192,218640,1,8,1:0:0:0:
192,192,218683,1,8,1:0:0:0:
64,192,218726,1,8,1:0:0:0:
448,192,218812,1,0,0:0:0:0:
192,192,218897,1,8,1:0:0:0:
320,192,218940,1,8,1:0:0:0:
448,192,218983,1,8,1:0:0:0:
64,192,219069,1,0,0:0:0:0:
192,192,219154,1,8,1:0:0:0:
320,192,219197,1,8,1:0:0:0:
448,192,219240,1,8,1:0:0:0:
64,192,219283,1,8,1:0:0:0:
192,192,219326,1,8,1:0:0:0:
320,192,219412,1,0,0:0:0:0:
192,192,219497,1,8,0:0:0:0:
448,192,219497,1,8,0:0:0:0:
64,192,219497,1,4,0:0:0:0:
320,192,219583,1,0,0:0:0:0:
448,192,219669,1,8,1:0:0:0:
320,192,219712,1,8,1:0:0:0:
192,192,219754,1,8,1:0:0:0:
64,192,219840,1,4,0:0:0:0:
448,192,219840,1,8,0:0:0:0:
320,192,219840,128,2,220012:0:0:0:0:
64,192,220012,1,0,0:0:0:0:
192,192,220097,1,0,0:0:0:0:
320,192,220183,1,8,0:0:0:0:
448,192,220183,1,8,0:0:0:0:
448,192,220354,1,0,0:0:0:0:
320,192,220440,1,0,0:0:0:0:
192,192,220526,1,8,0:0:0:0:
64,192,220526,1,8,0:0:0:0:
448,192,220697,1,0,0:0:0:0:
192,192,220783,1,0,0:0:0:0:
320,192,220869,1,8,0:0:0:0:
64,192,220869,1,8,0:0:0:0:
64,192,221040,1,0,0:0:0:0:
320,192,221126,1,0,0:0:0:0:
192,192,221212,1,2,0:0:0:0:
448,192,221212,128,2,221383:0:0:0:0:
320,192,221383,1,0,0:0:0:0:
192,192,221469,1,0,0:0:0:0:
448,192,221554,1,8,0:0:0:0:
64,192,221554,1,8,0:0:0:0:
320,192,221726,1,0,0:0:0:0:
192,192,221812,1,0,0:0:0:0:
64,192,221897,1,8,0:0:0:0:
448,192,221897,1,8,0:0:0:0:
192,192,222069,1,0,0:0:0:0:
320,192,222154,1,0,0:0:0:0:
192,192,222240,1,8,0:0:0:0:
448,192,222240,1,8,0:0:0:0:
64,192,222412,1,0,0:0:0:0:
448,192,222497,1,0,0:0:0:0:
320,192,222583,1,2,0:0:0:0:
192,192,222583,128,2,222754:0:0:0:0:
448,192,222754,1,0,0:0:0:0:
64,192,222840,1,0,0:0:0:0:
192,192,222926,1,8,0:0:0:0:
320,192,222926,1,8,0:0:0:0:
320,192,223097,1,0,0:0:0:0:
448,192,223183,1,0,0:0:0:0:
64,192,223269,1,8,0:0:0:0:
192,192,223269,1,8,0:0:0:0:
192,192,223440,1,0,0:0:0:0:
64,192,223526,1,0,0:0:0:0:
448,192,223612,1,8,0:0:0:0:
320,192,223612,1,8,0:0:0:0:
192,192,223697,1,0,0:0:0:0:
448,192,223783,1,0,0:0:0:0:
64,192,223869,1,0,0:0:0:0:
192,192,223954,1,8,0:0:0:0:
320,192,223954,1,8,0:0:0:0:
64,192,224126,1,0,0:0:0:0:
448,192,224212,1,0,0:0:0:0:
192,192,224297,1,8,0:0:0:0:
320,192,224297,1,8,0:0:0:0:
192,192,224469,1,0,0:0:0:0:
64,192,224554,1,0,0:0:0:0:
448,192,224640,1,8,0:0:0:0:
320,192,224640,1,8,0:0:0:0:
192,192,224812,1,0,0:0:0:0:
448,192,224897,1,0,0:0:0:0:
64,192,224983,1,2,0:0:0:0:
192,192,224983,128,2,225154:0:0:0:0:
320,192,225154,1,0,0:0:0:0:
64,192,225240,1,0,0:0:0:0:
320,192,225326,1,2,0:0:0:0:
448,192,225326,128,2,225497:0:0:0:0:
64,192,225497,1,0,0:0:0:0:
192,192,225583,1,0,0:0:0:0:
320,192,225669,1,8,0:0:0:0:
448,192,225669,1,8,0:0:0:0:
448,192,225840,1,0,0:0:0:0:
192,192,225926,1,0,0:0:0:0:
320,192,226012,1,8,0:0:0:0:
64,192,226012,1,8,0:0:0:0:
448,192,226183,1,0,0:0:0:0:
320,192,226269,1,0,0:0:0:0:
192,192,226354,1,8,0:0:0:0:
64,192,226354,1,8,0:0:0:0:
64,192,226526,1,0,0:0:0:0:
320,192,226612,1,0,0:0:0:0:
448,192,226697,1,2,0:0:0:0:
192,192,226697,128,2,226869:0:0:0:0:
320,192,226869,1,0,0:0:0:0:
192,192,226954,1,0,0:0:0:0:
448,192,227040,1,8,0:0:0:0:
64,192,227040,1,8,0:0:0:0:
320,192,227212,1,0,0:0:0:0:
192,192,227297,1,0,0:0:0:0:
64,192,227383,1,8,0:0:0:0:
448,192,227383,1,8,0:0:0:0:
192,192,227554,1,0,0:0:0:0:
320,192,227640,1,0,0:0:0:0:
192,192,227726,1,8,0:0:0:0:
448,192,227726,1,8,0:0:0:0:
320,192,227897,1,0,0:0:0:0:
448,192,227983,1,0,0:0:0:0:
192,192,228069,1,2,0:0:0:0:
64,192,228069,128,2,228240:0:0:0:0:
320,192,228240,1,0,0:0:0:0:
192,192,228326,1,0,0:0:0:0:
320,192,228412,1,8,0:0:0:0:
448,192,228412,1,8,0:0:0:0:
64,192,228583,1,0,0:0:0:0:
448,192,228669,1,0,0:0:0:0:
64,192,228754,1,8,0:0:0:0:
320,192,228754,1,8,0:0:0:0:
448,192,228926,1,0,0:0:0:0:
192,192,229012,1,0,0:0:0:0:
64,192,229097,1,8,0:0:0:0:
448,192,229097,1,8,0:0:0:0:
320,192,229183,1,0,0:0:0:0:
64,192,229269,1,0,0:0:0:0:
320,192,229354,1,0,0:0:0:0:
192,192,229440,1,2,0:0:0:0:
448,192,229440,128,2,229612:0:0:0:0:
320,192,229612,1,0,0:0:0:0:
192,192,229697,1,0,0:0:0:0:
320,192,229783,1,8,0:0:0:0:
64,192,229783,1,8,0:0:0:0:
448,192,229954,1,0,0:0:0:0:
64,192,230040,1,0,0:0:0:0:
192,192,230126,1,8,1:0:0:0:
320,192,230169,1,8,1:0:0:0:
448,192,230212,1,8,1:0:0:0:
64,192,230297,1,8,1:0:0:0:
192,192,230340,1,8,1:0:0:0:
320,192,230383,1,8,1:0:0:0:
448,192,230426,1,8,1:0:0:0:
192,192,230469,1,8,1:0:0:0:
64,192,230512,1,8,1:0:0:0:
320,192,230554,1,8,1:0:0:0:
448,192,230597,1,8,1:0:0:0:
192,192,230640,1,8,1:0:0:0:
64,192,230683,1,8,1:0:0:0:
320,192,230726,1,8,1:0:0:0:
448,192,230769,1,8,1:0:0:0:
64,192,230812,1,8,0:0:0:0:
320,192,230812,1,4,0:0:0:0:
192,192,230812,128,2,230983:0:0:0:0:
448,192,230983,1,0,0:0:0:0:
320,192,231069,1,0,0:0:0:0:
192,192,231154,1,8,0:0:0:0:
64,192,231154,1,8,0:0:0:0:
64,192,231326,1,0,0:0:0:0:
192,192,231412,1,0,0:0:0:0:
320,192,231497,1,8,0:0:0:0:
448,192,231497,1,8,0:0:0:0:
64,192,231669,1,0,0:0:0:0:
320,192,231754,1,0,0:0:0:0:
192,192,231840,1,8,0:0:0:0:
448,192,231840,1,8,0:0:0:0:
448,192,232012,1,0,0:0:0:0:
192,192,232097,1,0,0:0:0:0:
320,192,232183,1,2,0:0:0:0:
64,192,232183,128,2,232354:0:0:0:0:
192,192,232354,1,0,0:0:0:0:
320,192,232440,1,0,0:0:0:0:
64,192,232526,1,8,0:0:0:0:
448,192,232526,1,8,0:0:0:0:
192,192,232697,1,0,0:0:0:0:
320,192,232783,1,0,0:0:0:0:
448,192,232869,1,8,0:0:0:0:
64,192,232869,1,8,0:0:0:0:
320,192,233040,1,0,0:0:0:0:
192,192,233126,1,0,0:0:0:0:
320,192,233212,1,8,0:0:0:0:
64,192,233212,1,8,0:0:0:0:
448,192,233383,1,0,0:0:0:0:
64,192,233469,1,0,0:0:0:0:
192,192,233554,1,2,0:0:0:0:
320,192,233554,128,2,233726:0:0:0:0:
64,192,233726,1,0,0:0:0:0:
448,192,233812,1,0,0:0:0:0:
320,192,233897,1,8,0:0:0:0:
192,192,233897,1,8,0:0:0:0:
192,192,234069,1,0,0:0:0:0:
64,192,234154,1,0,0:0:0:0:
448,192,234240,1,8,0:0:0:0:
320,192,234240,1,8,0:0:0:0:
320,192,234412,1,0,0:0:0:0:
448,192,234497,1,0,0:0:0:0:
64,192,234583,1,8,0:0:0:0:
192,192,234583,1,8,0:0:0:0:
320,192,234669,1,0,0:0:0:0:
64,192,234754,1,0,0:0:0:0:
448,192,234840,1,0,0:0:0:0:
320,192,234926,1,8,0:0:0:0:
192,192,234926,1,8,0:0:0:0:
448,192,235097,1,0,0:0:0:0:
64,192,235183,1,0,0:0:0:0:
320,192,235269,1,8,0:0:0:0:
192,192,235269,1,8,0:0:0:0:
320,192,235440,1,0,0:0:0:0:
448,192,235526,1,0,0:0:0:0:
64,192,235612,1,8,0:0:0:0:
192,192,235612,1,8,0:0:0:0:
320,192,235783,1,0,0:0:0:0:
64,192,235869,1,0,0:0:0:0:
448,192,235954,1,2,0:0:0:0:
320,192,235954,128,2,236126:0:0:0:0:
64,192,236126,1,0,0:0:0:0:
192,192,236212,1,0,0:0:0:0:
64,192,236297,1,4,0:0:0:0:
320,192,236297,1,2,0:0:0:0:
448,192,236297,1,8,0:0:0:0:
192,192,236469,1,8,0:0:0:0:
64,192,236469,1,8,0:0:0:0:
320,192,236554,1,0,0:0:0:0:
448,192,236640,1,4,0:0:0:0:
192,192,236640,1,8,0:0:0:0:
64,192,236640,1,8,0:0:0:0:
320,192,236812,1,8,0:0:0:0:
448,192,236812,1,8,0:0:0:0:
64,192,236897,1,0,0:0:0:0:
192,192,236983,1,4,0:0:0:0:
320,192,236983,1,8,0:0:0:0:
448,192,236983,1,8,0:0:0:0:
192,192,237154,1,8,0:0:0:0:
64,192,237154,1,8,0:0:0:0:
448,192,237240,1,0,0:0:0:0:
64,192,237326,1,8,1:0:0:0:
192,192,237369,1,8,1:0:0:0:
448,192,237412,1,8,1:0:0:0:
320,192,237454,1,8,1:0:0:0:
64,192,237497,1,8,1:0:0:0:
192,192,237540,1,8,1:0:0:0:
448,192,237583,1,8,1:0:0:0:
320,192,237626,1,8,1:0:0:0:
64,192,237669,1,2,0:0:0:0:
192,192,237669,1,8,0:0:0:0:
448,192,237669,1,4,0:0:0:0:
320,192,237840,1,8,0:0:0:0:
192,192,237840,1,8,0:0:0:0:
64,192,237926,1,0,0:0:0:0:
448,192,238012,1,8,0:0:0:0:
320,192,238012,1,8,0:0:0:0:
192,192,238183,1,8,0:0:0:0:
64,192,238183,1,8,0:0:0:0:
448,192,238269,1,0,0:0:0:0:
192,192,238354,1,8,0:0:0:0:
64,192,238354,1,8,0:0:0:0:
448,192,238526,1,8,0:0:0:0:
320,192,238526,1,8,0:0:0:0:
192,192,238612,1,0,0:0:0:0:
448,192,238697,1,8,1:0:0:0:
320,192,238740,1,8,1:0:0:0:
64,192,238783,1,8,1:0:0:0:
192,192,238826,1,8,1:0:0:0:
448,192,238869,1,8,1:0:0:0:
320,192,238912,1,8,1:0:0:0:
64,192,238954,1,8,1:0:0:0:
192,192,238997,1,8,1:0:0:0:
64,192,239040,1,4,0:0:0:0:
320,192,239040,1,8,0:0:0:0:
448,192,239040,1,2,0:0:0:0:
192,192,239212,1,8,0:0:0:0:
64,192,239212,1,8,0:0:0:0:
64,192,239297,1,8,0:0:0:0:
192,192,239297,1,8,0:0:0:0:
448,192,239383,1,8,0:0:0:0:
320,192,239383,1,8,0:0:0:0:
448,192,239469,1,8,0:0:0:0:
320,192,239469,1,8,0:0:0:0:
192,192,239554,1,8,0:0:0:0:
64,192,239554,1,8,0:0:0:0:
448,192,239726,1,8,0:0:0:0:
320,192,239726,1,8,0:0:0:0:
320,192,239812,1,8,0:0:0:0:
448,192,239812,1,8,0:0:0:0:
64,192,239897,1,8,0:0:0:0:
192,192,239897,1,8,0:0:0:0:
192,192,239983,1,8,0:0:0:0:
64,192,239983,1,8,0:0:0:0:
448,192,240069,1,8,0:0:0:0:
320,192,240069,1,8,0:0:0:0:
192,192,240240,1,8,0:0:0:0:
64,192,240240,1,8,0:0:0:0:
320,192,240326,1,8,0:0:0:0:
448,192,240326,1,8,0:0:0:0:
192,192,240412,1,8,0:0:0:0:
64,192,240412,1,2,0:0:0:0:
448,192,240412,1,4,0:0:0:0:
320,192,240497,1,0,0:0:0:0:
64,192,240583,1,8,0:0:0:0:
192,192,240583,1,8,0:0:0:0:
448,192,240669,1,8,0:0:0:0:
320,192,240669,1,8,0:0:0:0:
64,192,240754,1,8,0:0:0:0:
192,192,240754,1,8,0:0:0:0:
448,192,240797,1,0,1:0:0:0:
320,192,240840,1,0,1:0:0:0:
64,192,240883,1,8,1:0:0:0:
192,192,240926,1,8,1:0:0:0:
448,192,240969,1,8,1:0:0:0:
320,192,241012,1,8,1:0:0:0:
192,192,241054,1,8,1:0:0:0:
448,192,241097,1,8,0:0:0:0:
64,192,241097,1,8,0:0:0:0:
320,192,241183,1,8,0:0:0:0:
192,192,241183,1,8,0:0:0:0:
64,192,241269,1,0,0:0:0:0:
320,192,241354,1,8,0:0:0:0:
448,192,241354,1,8,0:0:0:0:
64,192,241440,1,8,0:0:0:0:
192,192,241440,1,8,0:0:0:0:
448,192,241483,1,8,1:0:0:0:
320,192,241526,1,8,1:0:0:0:
192,192,241569,1,8,1:0:0:0:
64,192,241612,1,8,0:0:0:0:
448,192,241612,1,8,0:0:0:0:
320,192,241654,1,8,1:0:0:0:
192,192,241697,1,8,1:0:0:0:
64,192,241740,1,8,1:0:0:0:
448,192,241783,1,8,0:0:0:0:
320,192,241783,1,8,0:0:0:0:
192,192,241783,1,4,0:0:0:0:
320,192,242126,1,0,0:0:0:0:
192,192,242297,1,0,0:0:0:0:
320,192,242469,1,8,0:0:0:0:
448,192,242469,1,8,0:0:0:0:
64,192,242469,1,0,0:0:0:0:
448,192,242812,1,0,0:0:0:0:
320,192,242983,1,0,0:0:0:0:
192,192,243154,1,0,0:0:0:0:
64,192,243497,1,0,0:0:0:0:
192,192,243669,1,0,0:0:0:0:
320,192,243754,1,0,0:0:0:0:
64,192,243840,1,8,0:0:0:0:
192,192,243840,1,8,0:0:0:0:
448,192,243840,1,0,0:0:0:0:
64,192,244183,1,0,0:0:0:0:
192,192,244354,1,0,0:0:0:0:
320,192,244526,1,0,0:0:0:0:
448,192,244526,1,0,0:0:0:0:
64,192,244869,1,0,0:0:0:0:
320,192,245040,1,0,0:0:0:0:
64,192,245212,1,8,0:0:0:0:
448,192,245212,1,8,0:0:0:0:
192,192,245212,1,0,0:0:0:0:
448,192,245554,1,0,0:0:0:0:
64,192,245726,1,0,0:0:0:0:
320,192,245897,1,0,0:0:0:0:
448,192,246069,1,8,0:0:0:0:
64,192,246069,1,8,0:0:0:0:
192,192,246069,1,0,0:0:0:0:
448,192,246240,1,0,0:0:0:0:
64,192,246412,1,0,0:0:0:0:
192,192,246497,1,0,0:0:0:0:
64,192,246583,1,8,0:0:0:0:
448,192,246583,1,8,0:0:0:0:
320,192,246583,1,0,0:0:0:0:
448,192,246926,1,0,0:0:0:0:
320,192,247097,1,0,0:0:0:0:
192,192,247269,1,0,0:0:0:0:
64,192,247269,1,0,0:0:0:0:
320,192,247612,1,0,0:0:0:0:
192,192,247783,1,0,0:0:0:0:
320,192,247954,1,8,0:0:0:0:
448,192,247954,1,8,0:0:0:0:
64,192,247954,1,0,0:0:0:0:
448,192,248297,1,0,0:0:0:0:
320,192,248469,1,0,0:0:0:0:
192,192,248640,1,0,0:0:0:0:
64,192,248983,1,0,0:0:0:0:
192,192,249154,1,0,0:0:0:0:
320,192,249240,1,0,0:0:0:0:
64,192,249326,1,8,0:0:0:0:
192,192,249326,1,8,0:0:0:0:
448,192,249326,1,0,0:0:0:0:
64,192,249669,1,0,0:0:0:0:
192,192,249840,1,0,0:0:0:0:
320,192,250012,1,0,0:0:0:0:
448,192,250012,1,0,0:0:0:0:
64,192,250354,1,0,0:0:0:0:
320,192,250526,1,0,0:0:0:0:
64,192,250697,1,8,0:0:0:0:
448,192,250697,1,8,0:0:0:0:
192,192,250697,1,0,0:0:0:0:
448,192,251040,1,0,0:0:0:0:
64,192,251212,1,0,0:0:0:0:
320,192,251383,1,0,0:0:0:0:
448,192,251554,1,8,0:0:0:0:
64,192,251554,1,8,0:0:0:0:
192,192,251554,1,0,0:0:0:0:
448,192,251726,1,0,0:0:0:0:
64,192,251897,1,0,0:0:0:0:
192,192,251983,1,0,0:0:0:0:
64,192,252069,1,8,0:0:0:0:
448,192,252069,1,8,0:0:0:0:
320,192,252069,1,0,0:0:0:0:
448,192,252412,1,0,0:0:0:0:
320,192,252583,1,0,0:0:0:0:
192,192,252754,1,0,0:0:0:0:
448,192,252754,1,0,0:0:0:0:
64,192,252754,1,4,0:0:0:0:
320,192,253097,1,0,0:0:0:0:
192,192,253269,1,0,0:0:0:0:
64,192,253440,1,8,0:0:0:0:
448,192,253440,1,8,0:0:0:0:
320,192,253440,128,0,253783:0:0:0:0:
448,192,253783,128,0,253954:0:0:0:0:
192,192,253954,1,0,0:0:0:0:
320,192,254126,1,0,0:0:0:0:
64,192,254469,1,0,0:0:0:0:
192,192,254640,1,0,0:0:0:0:
320,192,254726,1,0,0:0:0:0:
448,192,254812,1,8,0:0:0:0:
64,192,254812,1,8,0:0:0:0:
192,192,254812,128,0,255154:0:0:0:0:
64,192,255154,128,0,255326:0:0:0:0:
320,192,255326,1,0,0:0:0:0:
448,192,255497,1,0,0:0:0:0:
192,192,255497,1,0,0:0:0:0:
64,192,255840,1,0,0:0:0:0:
320,192,256012,1,0,0:0:0:0:
192,192,256183,1,0,0:0:0:0:
448,192,256183,1,8,0:0:0:0:
64,192,256183,128,8,256526:0:0:0:0:
448,192,256526,128,0,256697:0:0:0:0:
64,192,256697,1,0,0:0:0:0:
320,192,256869,1,0,0:0:0:0:
192,192,257040,1,0,0:0:0:0:
64,192,257040,1,8,0:0:0:0:
448,192,257040,1,8,0:0:0:0:
448,192,257212,1,0,0:0:0:0:
64,192,257383,1,0,0:0:0:0:
192,192,257469,1,0,0:0:0:0:
320,192,257554,1,0,0:0:0:0:
64,192,257554,1,8,0:0:0:0:
448,192,257554,128,8,257897:0:0:0:0:
192,192,257897,128,0,258069:0:0:0:0:
320,192,258069,1,0,0:0:0:0:
64,192,258240,1,0,0:0:0:0:
448,192,258240,1,0,0:0:0:0:
320,192,258583,1,0,0:0:0:0:
192,192,258754,1,0,0:0:0:0:
64,192,258926,1,8,0:0:0:0:
448,192,258926,1,8,0:0:0:0:
320,192,258926,128,0,259269:0:0:0:0:
448,192,259269,128,0,259440:0:0:0:0:
192,192,259440,1,0,0:0:0:0:
320,192,259612,1,0,0:0:0:0:
64,192,259954,1,0,0:0:0:0:
192,192,260126,1,0,0:0:0:0:
320,192,260212,1,0,0:0:0:0:
448,192,260297,1,8,0:0:0:0:
64,192,260297,1,8,0:0:0:0:
192,192,260297,128,0,260640:0:0:0:0:
64,192,260640,128,0,260812:0:0:0:0:
320,192,260812,1,0,0:0:0:0:
448,192,260983,1,0,0:0:0:0:
192,192,260983,1,0,0:0:0:0:
64,192,261326,1,0,0:0:0:0:
320,192,261497,1,0,0:0:0:0:
192,192,261669,1,0,0:0:0:0:
448,192,261669,1,8,0:0:0:0:
64,192,261669,128,8,262012:0:0:0:0:
448,192,262012,128,0,262183:0:0:0:0:
64,192,262183,1,0,0:0:0:0:
320,192,262354,1,0,0:0:0:0:
192,192,262526,1,0,0:0:0:0:
64,192,262526,1,8,0:0:0:0:
448,192,262526,1,8,0:0:0:0:
320,192,262697,1,0,0:0:0:0:
448,192,262697,1,0,0:0:0:0:
192,192,262697,1,0,0:0:0:0:
192,192,262869,1,0,0:0:0:0:
64,192,262869,1,0,0:0:0:0:
320,192,262869,1,0,0:0:0:0:
64,192,263040,1,8,0:0:0:0:
448,192,263040,128,8,263383:0:0:0:0:
320,192,263040,1,0,0:0:0:0:
320,192,263383,1,0,0:0:0:0:
64,192,263383,128,0,263554:0:0:0:0:
192,192,263554,128,0,263726:0:0:0:0:
320,192,263726,1,8,0:0:0:0:
448,192,263726,128,2,263897:0:0:0:0:
64,192,263726,1,4,0:0:0:0:
192,192,263897,1,0,0:0:0:0:
448,192,264069,1,0,0:0:0:0:
64,192,264069,128,2,264240:0:0:0:0:
320,192,264240,128,2,264412:0:0:0:0:
192,192,264412,128,2,264583:0:0:0:0:
448,192,264583,1,0,0:0:0:0:
192,192,264754,128,2,264926:0:0:0:0:
320,192,264926,1,0,0:0:0:0:
64,192,265097,1,0,0:0:0:0:
448,192,265097,128,2,265269:0:0:0:0:
192,192,265269,1,0,0:0:0:0:
448,192,265440,1,0,0:0:0:0:
320,192,265440,128,2,265612:0:0:0:0:
64,192,265612,128,2,265783:0:0:0:0:
192,192,265783,128,2,265954:0:0:0:0:
448,192,265954,1,0,0:0:0:0:
192,192,266126,128,2,266297:0:0:0:0:
320,192,266212,1,0,0:0:0:0:
64,192,266297,1,0,0:0:0:0:
448,192,266383,1,0,0:0:0:0:
192,192,266469,128,2,266640:0:0:0:0:
320,192,266469,1,0,0:0:0:0:
64,192,266640,1,0,0:0:0:0:
448,192,266640,1,0,0:0:0:0:
320,192,266812,128,2,266983:0:0:0:0:
192,192,266983,128,2,267154:0:0:0:0:
64,192,266983,1,0,0:0:0:0:
448,192,267154,128,2,267326:0:0:0:0:
64,192,267326,1,0,0:0:0:0:
448,192,267497,128,2,267669:0:0:0:0:
192,192,267497,1,0,0:0:0:0:
320,192,267669,1,0,0:0:0:0:
192,192,267754,1,0,0:0:0:0:
64,192,267840,128,2,268012:0:0:0:0:
448,192,267840,1,0,0:0:0:0:
320,192,268012,1,0,0:0:0:0:
448,192,268183,128,2,268354:0:0:0:0:
192,192,268183,1,0,0:0:0:0:
64,192,268354,128,2,268526:0:0:0:0:
320,192,268440,1,0,0:0:0:0:
192,192,268526,128,2,268697:0:0:0:0:
448,192,268612,1,0,0:0:0:0:
64,192,268697,1,0,0:0:0:0:
192,192,268783,1,0,0:0:0:0:
320,192,268869,128,2,269040:0:0:0:0:
64,192,268954,1,0,0:0:0:0:
448,192,269040,1,0,0:0:0:0:
320,192,269126,1,0,0:0:0:0:
192,192,269212,1,0,0:0:0:0:
64,192,269212,128,2,269383:0:0:0:0:
320,192,269383,1,0,0:0:0:0:
64,192,269554,1,0,0:0:0:0:
448,192,269554,128,2,269726:0:0:0:0:
192,192,269726,128,2,269897:0:0:0:0:
320,192,269897,128,2,270069:0:0:0:0:
64,192,270069,1,0,0:0:0:0:
320,192,270240,128,2,270412:0:0:0:0:
192,192,270412,1,0,0:0:0:0:
448,192,270583,1,0,0:0:0:0:
64,192,270583,128,2,270754:0:0:0:0:
320,192,270754,1,0,0:0:0:0:
64,192,270926,1,0,0:0:0:0:
192,192,270926,128,2,271097:0:0:0:0:
448,192,271097,128,2,271269:0:0:0:0:
320,192,271269,128,2,271440:0:0:0:0:
64,192,271440,1,0,0:0:0:0:
320,192,271612,128,2,271783:0:0:0:0:
192,192,271697,1,0,0:0:0:0:
448,192,271783,1,0,0:0:0:0:
64,192,271869,1,0,0:0:0:0:
320,192,271954,128,2,272126:0:0:0:0:
192,192,271954,1,0,0:0:0:0:
64,192,272126,1,0,0:0:0:0:
448,192,272126,1,0,0:0:0:0:
192,192,272297,128,2,272469:0:0:0:0:
320,192,272469,128,2,272640:0:0:0:0:
448,192,272469,1,0,0:0:0:0:
64,192,272640,128,2,272812:0:0:0:0:
448,192,272812,1,0,0:0:0:0:
64,192,272983,128,2,273154:0:0:0:0:
320,192,272983,1,0,0:0:0:0:
192,192,273154,1,0,0:0:0:0:
320,192,273240,1,0,0:0:0:0:
448,192,273326,128,2,273497:0:0:0:0:
64,192,273326,1,0,0:0:0:0:
192,192,273497,1,0,0:0:0:0:
320,192,273669,1,0,0:0:0:0:
64,192,273669,128,2,273840:0:0:0:0:
448,192,273840,128,2,274012:0:0:0:0:
192,192,273926,1,0,0:0:0:0:
320,192,274012,128,2,274183:0:0:0:0:
64,192,274097,1,0,0:0:0:0:
448,192,274183,1,0,0:0:0:0:
320,192,274269,1,0,0:0:0:0:
192,192,274354,128,2,274526:0:0:0:0:
448,192,274440,1,0,0:0:0:0:
64,192,274526,1,0,0:0:0:0:
192,192,274612,1,0,0:0:0:0:
448,192,274697,5,0,0:0:0:0:
64,192,274697,1,0,0:0:0:0:
320,192,274869,1,0,0:0:0:0:
192,192,275040,1,0,0:0:0:0:
64,192,275040,1,0,0:0:0:0:
448,192,275212,1,0,0:0:0:0:
64,192,275383,1,0,0:0:0:0:
448,192,275554,1,0,0:0:0:0:
64,192,275726,1,0,0:0:0:0:
320,192,275897,1,0,0:0:0:0:
448,192,276069,1,0,0:0:0:0:
64,192,276069,1,0,0:0:0:0:
192,192,276240,1,0,0:0:0:0:
448,192,276412,1,0,0:0:0:0:
320,192,276412,1,0,0:0:0:0:
64,192,276583,1,0,0:0:0:0:
448,192,276754,1,0,0:0:0:0:
64,192,276926,1,0,0:0:0:0:
320,192,277097,1,0,0:0:0:0:
448,192,277183,1,0,0:0:0:0:
64,192,277269,1,0,0:0:0:0:
192,192,277354,1,0,0:0:0:0:
448,192,277440,1,0,0:0:0:0:
320,192,277440,1,0,0:0:0:0:
64,192,277612,1,0,0:0:0:0:
192,192,277612,1,0,0:0:0:0:
448,192,277783,1,0,0:0:0:0:
320,192,277954,1,0,0:0:0:0:
192,192,277954,1,0,0:0:0:0:
64,192,278126,1,0,0:0:0:0:
448,192,278297,1,0,0:0:0:0:
192,192,278469,1,0,0:0:0:0:
64,192,278469,1,0,0:0:0:0:
320,192,278640,1,0,0:0:0:0:
192,192,278726,1,0,0:0:0:0:
64,192,278812,1,0,0:0:0:0:
448,192,278812,1,0,0:0:0:0:
320,192,278983,1,0,0:0:0:0:
448,192,279154,1,0,0:0:0:0:
192,192,279154,1,0,0:0:0:0:
64,192,279326,1,0,0:0:0:0:
320,192,279412,1,0,0:0:0:0:
192,192,279497,1,0,0:0:0:0:
448,192,279583,1,0,0:0:0:0:
64,192,279669,1,0,0:0:0:0:
192,192,279754,1,0,0:0:0:0:
320,192,279840,1,0,0:0:0:0:
64,192,279926,1,0,0:0:0:0:
448,192,280012,1,0,0:0:0:0:
320,192,280097,1,0,0:0:0:0:
192,192,280183,1,0,0:0:0:0:
64,192,280183,1,0,0:0:0:0:
320,192,280354,1,0,0:0:0:0:
448,192,280526,1,0,0:0:0:0:
64,192,280526,1,0,0:0:0:0:
192,192,280697,1,0,0:0:0:0:
320,192,280869,1,0,0:0:0:0:
64,192,281040,1,0,0:0:0:0:
320,192,281212,1,0,0:0:0:0:
192,192,281383,1,0,0:0:0:0:
448,192,281554,1,0,0:0:0:0:
64,192,281554,1,0,0:0:0:0:
320,192,281726,1,0,0:0:0:0:
64,192,281897,1,0,0:0:0:0:
192,192,281897,1,0,0:0:0:0:
448,192,282069,1,0,0:0:0:0:
192,192,282240,1,0,0:0:0:0:
320,192,282412,1,0,0:0:0:0:
192,192,282583,1,0,0:0:0:0:
64,192,282669,1,0,0:0:0:0:
448,192,282754,1,0,0:0:0:0:
320,192,282840,1,0,0:0:0:0:
64,192,282926,1,0,0:0:0:0:
192,192,282926,1,0,0:0:0:0:
448,192,283097,1,0,0:0:0:0:
320,192,283097,1,0,0:0:0:0:
192,192,283269,1,0,0:0:0:0:
320,192,283440,1,0,0:0:0:0:
448,192,283440,1,0,0:0:0:0:
64,192,283612,1,0,0:0:0:0:
448,192,283783,1,0,0:0:0:0:
192,192,283954,1,0,0:0:0:0:
64,192,283954,1,0,0:0:0:0:
192,192,284126,1,0,0:0:0:0:
64,192,284126,1,0,0:0:0:0:
320,192,284297,1,0,0:0:0:0:
448,192,284297,1,0,0:0:0:0:
192,192,284469,1,0,0:0:0:0:
320,192,284640,1,0,0:0:0:0:
64,192,284640,1,0,0:0:0:0:
448,192,284812,1,0,0:0:0:0:
192,192,284897,1,0,0:0:0:0:
320,192,284983,1,0,0:0:0:0:
64,192,285069,1,0,0:0:0:0:
448,192,285154,1,0,0:0:0:0:
320,192,285240,1,0,0:0:0:0:
192,192,285326,1,0,0:0:0:0:
448,192,285412,1,0,0:0:0:0:
64,192,285497,1,0,0:0:0:0:
192,192,285583,1,0,0:0:0:0:
448,192,285669,5,0,0:0:0:0:
64,192,285669,1,0,0:0:0:0:
320,192,285840,1,0,0:0:0:0:
64,192,286012,1,0,0:0:0:0:
192,192,286012,1,0,0:0:0:0:
448,192,286183,1,0,0:0:0:0:
64,192,286354,1,0,0:0:0:0:
448,192,286526,1,0,0:0:0:0:
64,192,286697,1,0,0:0:0:0:
320,192,286869,1,0,0:0:0:0:
64,192,287040,1,0,0:0:0:0:
448,192,287040,1,0,0:0:0:0:
192,192,287212,1,0,0:0:0:0:
320,192,287383,1,0,0:0:0:0:
448,192,287383,1,0,0:0:0:0:
64,192,287554,1,0,0:0:0:0:
448,192,287726,1,0,0:0:0:0:
64,192,287897,1,0,0:0:0:0:
448,192,288069,1,0,0:0:0:0:
320,192,288154,1,0,0:0:0:0:
64,192,288240,1,0,0:0:0:0:
192,192,288326,1,0,0:0:0:0:
320,192,288412,1,0,0:0:0:0:
448,192,288412,1,0,0:0:0:0:
64,192,288583,1,0,0:0:0:0:
192,192,288583,1,0,0:0:0:0:
448,192,288754,1,0,0:0:0:0:
192,192,288926,1,0,0:0:0:0:
320,192,288926,1,0,0:0:0:0:
64,192,289097,1,0,0:0:0:0:
448,192,289269,1,0,0:0:0:0:
192,192,289440,1,0,0:0:0:0:
64,192,289440,1,0,0:0:0:0:
320,192,289612,1,0,0:0:0:0:
192,192,289697,1,0,0:0:0:0:
448,192,289783,1,0,0:0:0:0:
64,192,289783,1,0,0:0:0:0:
320,192,289954,1,0,0:0:0:0:
448,192,290126,1,0,0:0:0:0:
192,192,290126,1,0,0:0:0:0:
64,192,290297,1,0,0:0:0:0:
320,192,290383,1,0,0:0:0:0:
192,192,290469,1,0,0:0:0:0:
448,192,290554,1,0,0:0:0:0:
64,192,290640,1,0,0:0:0:0:
192,192,290726,1,0,0:0:0:0:
320,192,290812,1,0,0:0:0:0:
64,192,290897,1,0,0:0:0:0:
448,192,290983,1,0,0:0:0:0:
320,192,291069,1,0,0:0:0:0:
64,192,291154,1,0,0:0:0:0:
192,192,291154,1,0,0:0:0:0:
320,192,291326,1,0,0:0:0:0:
64,192,291497,1,0,0:0:0:0:
448,192,291497,1,0,0:0:0:0:
192,192,291669,1,0,0:0:0:0:
320,192,291840,1,0,0:0:0:0:
64,192,292012,1,0,0:0:0:0:
320,192,292183,1,0,0:0:0:0:
192,192,292354,1,0,0:0:0:0:
64,192,292526,1,0,0:0:0:0:
448,192,292526,1,0,0:0:0:0:
320,192,292697,1,0,0:0:0:0:
192,192,292869,1,0,0:0:0:0:
64,192,292869,1,0,0:0:0:0:
448,192,293040,1,0,0:0:0:0:
192,192,293212,1,0,0:0:0:0:
320,192,293383,1,0,0:0:0:0:
64,192,293554,1,0,0:0:0:0:
192,192,293640,1,0,0:0:0:0:
448,192,293726,1,0,0:0:0:0:
320,192,293812,1,0,0:0:0:0:
64,192,293897,1,0,0:0:0:0:
192,192,293897,1,0,0:0:0:0:
448,192,294069,1,0,0:0:0:0:
320,192,294069,1,0,0:0:0:0:
192,192,294240,1,0,0:0:0:0:
448,192,294412,1,0,0:0:0:0:
320,192,294412,1,0,0:0:0:0:
64,192,294583,1,0,0:0:0:0:
448,192,294754,1,0,0:0:0:0:
64,192,294926,1,0,0:0:0:0:
192,192,294926,1,0,0:0:0:0:
64,192,295097,1,0,0:0:0:0:
192,192,295097,1,0,0:0:0:0:
448,192,295269,1,0,0:0:0:0:
320,192,295269,1,0,0:0:0:0:
192,192,295440,1,0,0:0:0:0:
320,192,295612,1,0,0:0:0:0:
64,192,295612,1,0,0:0:0:0:
448,192,295783,1,0,0:0:0:0:
192,192,295869,1,0,0:0:0:0:
320,192,295954,1,0,0:0:0:0:
64,192,296040,1,0,0:0:0:0:
448,192,296126,1,0,0:0:0:0:
320,192,296212,1,0,0:0:0:0:
192,192,296297,1,0,0:0:0:0:
448,192,296383,1,0,0:0:0:0:
64,192,296469,1,0,0:0:0:0:
192,192,296554,1,0,0:0:0:0:
320,192,296640,128,0,300754:0:0:0:0:
